  0
SECTION
  2
HEADER
  9
$ACADVER
  1
AC1014
  9
$ACADMAINTVER
 70
     9
  9
$DWGCODEPAGE
  3
ANSI_932
  9
$INSBASE
 10
0.0
 20
0.0
 30
0.0
  9
$EXTMIN
 10
80.0
 20
80.0
 30
0.0
  9
$EXTMAX
 10
3280.0
 20
2296.0
 30
0.0
  9
$LIMMIN
 10
0.0
 20
0.0
  9
$LIMMAX
 10
420.0
 20
297.0
  9
$ORTHOMODE
 70
     0
  9
$REGENMODE
 70
     1
  9
$FILLMODE
 70
     1
  9
$QTEXTMODE
 70
     0
  9
$MIRRTEXT
 70
     1
  9
$DRAGMODE
 70
     2
  9
$LTSCALE
 40
1.0
  9
$OSMODE
 70
    37
  9
$ATTMODE
 70
     1
  9
$TEXTSIZE
 40
2.5
  9
$TRACEWID
 40
1.0
  9
$TEXTSTYLE
  7
STANDARD
  9
$CLAYER
  8
Ｓ_１_１
  9
$CELTYPE
  6
BYLAYER
  9
$CECOLOR
 62
   256
  9
$CELTSCALE
 40
1.0
  9
$DELOBJ
 70
     1
  9
$DISPSILH
 70
     0
  9
$DIMSCALE
 40
1.0
  9
$DIMASZ
 40
2.5
  9
$DIMEXO
 40
0.625
  9
$DIMDLI
 40
3.75
  9
$DIMRND
 40
0.0
  9
$DIMDLE
 40
0.0
  9
$DIMEXE
 40
1.25
  9
$DIMTP
 40
0.0
  9
$DIMTM
 40
0.0
  9
$DIMTXT
 40
2.5
  9
$DIMCEN
 40
2.5
  9
$DIMTSZ
 40
0.0
  9
$DIMTOL
 70
     0
  9
$DIMLIM
 70
     0
  9
$DIMTIH
 70
     0
  9
$DIMTOH
 70
     0
  9
$DIMSE1
 70
     0
  9
$DIMSE2
 70
     0
  9
$DIMTAD
 70
     1
  9
$DIMZIN
 70
     8
  9
$DIMBLK
  1

  9
$DIMASO
 70
     1
  9
$DIMSHO
 70
     1
  9
$DIMPOST
  1

  9
$DIMAPOST
  1

  9
$DIMALT
 70
     0
  9
$DIMALTD
 70
     3
  9
$DIMALTF
 40
0.03937007874016
  9
$DIMLFAC
 40
1.0
  9
$DIMTOFL
 70
     1
  9
$DIMTVP
 40
0.0
  9
$DIMTIX
 70
     0
  9
$DIMSOXD
 70
     0
  9
$DIMSAH
 70
     0
  9
$DIMBLK1
  1

  9
$DIMBLK2
  1

  9
$DIMSTYLE
  2
ISO-25
  9
$DIMCLRD
 70
     0
  9
$DIMCLRE
 70
     0
  9
$DIMCLRT
 70
     0
  9
$DIMTFAC
 40
1.0
  9
$DIMGAP
 40
0.625
  9
$DIMJUST
 70
     0
  9
$DIMSD1
 70
     0
  9
$DIMSD2
 70
     0
  9
$DIMTOLJ
 70
     0
  9
$DIMTZIN
 70
     8
  9
$DIMALTZ
 70
     0
  9
$DIMALTTZ
 70
     0
  9
$DIMFIT
 70
     3
  9
$DIMUPT
 70
     0
  9
$DIMUNIT
 70
     2
  9
$DIMDEC
 70
     2
  9
$DIMTDEC
 70
     2
  9
$DIMALTU
 70
     2
  9
$DIMALTTD
 70
     3
  9
$DIMTXSTY
  7
STANDARD
  9
$DIMAUNIT
 70
     0
  9
$LUNITS
 70
     2
  9
$LUPREC
 70
     4
  9
$SKETCHINC
 40
1.0
  9
$FILLETRAD
 40
10.0
  9
$AUNITS
 70
     0
  9
$AUPREC
 70
     0
  9
$MENU
  1
.
  9
$ELEVATION
 40
0.0
  9
$PELEVATION
 40
0.0
  9
$THICKNESS
 40
0.0
  9
$LIMCHECK
 70
     0
  9
$CHAMFERA
 40
0.0
  9
$CHAMFERB
 40
0.0
  9
$CHAMFERC
 40
0.0
  9
$CHAMFERD
 40
0.0
  9
$SKPOLY
 70
     0
  9
$TDCREATE
 40
2459585.499941215
  9
$TDUPDATE
 40
2459585.499942129
  9
$TDINDWG
 40
0.0000000116
  9
$TDUSRTIMER
 40
0.0000000116
  9
$USRTIMER
 70
     1
  9
$ANGBASE
 50
0.0
  9
$ANGDIR
 70
     0
  9
$PDMODE
 70
     0
  9
$PDSIZE
 40
0.0
  9
$PLINEWID
 40
0.0
  9
$COORDS
 70
     1
  9
$SPLFRAME
 70
     0
  9
$SPLINETYPE
 70
     6
  9
$SPLINESEGS
 70
     8
  9
$ATTDIA
 70
     0
  9
$ATTREQ
 70
     1
  9
$HANDLING
 70
     1
  9
$HANDSEED
  5
3F3
  9
$SURFTAB1
 70
     6
  9
$SURFTAB2
 70
     6
  9
$SURFTYPE
 70
     6
  9
$SURFU
 70
     6
  9
$SURFV
 70
     6
  9
$UCSNAME
  2

  9
$UCSORG
 10
0.0
 20
0.0
 30
0.0
  9
$UCSXDIR
 10
1.0
 20
0.0
 30
0.0
  9
$UCSYDIR
 10
0.0
 20
1.0
 30
0.0
  9
$PUCSNAME
  2

  9
$PUCSORG
 10
0.0
 20
0.0
 30
0.0
  9
$PUCSXDIR
 10
1.0
 20
0.0
 30
0.0
  9
$PUCSYDIR
 10
0.0
 20
1.0
 30
0.0
  9
$USERI1
 70
     0
  9
$USERI2
 70
     0
  9
$USERI3
 70
     0
  9
$USERI4
 70
     0
  9
$USERI5
 70
     0
  9
$USERR1
 40
0.0
  9
$USERR2
 40
0.0
  9
$USERR3
 40
0.0
  9
$USERR4
 40
0.0
  9
$USERR5
 40
0.0
  9
$WORLDVIEW
 70
     1
  9
$SHADEDGE
 70
     3
  9
$SHADEDIF
 70
    70
  9
$TILEMODE
 70
     1
  9
$MAXACTVP
 70
    64
  9
$PINSBASE
 10
0.0
 20
0.0
 30
0.0
  9
$PLIMCHECK
 70
     0
  9
$PEXTMIN
 10
1.000000000000000E+20
 20
1.000000000000000E+20
 30
1.000000000000000E+20
  9
$PEXTMAX
 10
-1.000000000000000E+20
 20
-1.000000000000000E+20
 30
-1.000000000000000E+20
  9
$PLIMMIN
 10
0.0
 20
0.0
  9
$PLIMMAX
 10
420.0
 20
297.0
  9
$UNITMODE
 70
     0
  9
$VISRETAIN
 70
     1
  9
$PLINEGEN
 70
     0
  9
$PSLTSCALE
 70
     1
  9
$TREEDEPTH
 70
  3020
  9
$PICKSTYLE
 70
     1
  9
$CMLSTYLE
  2
STANDARD
  9
$CMLJUST
 70
     0
  9
$CMLSCALE
 40
20.0
  9
$PROXYGRAPHICS
 70
     1
  9
$MEASUREMENT
 70
     1
  0
ENDSEC
  0
SECTION
  2
CLASSES
  0
CLASS
  1
ACDBDICTIONARYWDFLT
  2
AcDbDictionaryWithDefault
  3
ObjectDBX Classes
 90
        0
280
     0
281
     0
  0
CLASS
  1
VISUALSTYLE
  2
AcDbVisualStyle
  3
ObjectDBX Classes
 90
     4095
280
     0
281
     0
  0
CLASS
  1
MATERIAL
  2
AcDbMaterial
  3
ObjectDBX Classes
 90
     1153
280
     0
281
     0
  0
CLASS
  1
SCALE
  2
AcDbScale
  3
ObjectDBX Classes
 90
     1153
280
     0
281
     0
  0
CLASS
  1
TABLESTYLE
  2
AcDbTableStyle
  3
ObjectDBX Classes
 90
     4095
280
     0
281
     0
  0
CLASS
  1
MLEADERSTYLE
  2
AcDbMLeaderStyle
  3
ACDB_MLEADERSTYLE_CLASS
 90
     4095
280
     0
281
     0
  0
CLASS
  1
SUN
  2
AcDbSun
  3
SCENEOE
 90
     1153
280
     0
281
     0
  0
CLASS
  1
DICTIONARYVAR
  2
AcDbDictionaryVar
  3
ObjectDBX Classes
 90
        0
280
     0
281
     0
  0
CLASS
  1
XRECORD
  2
AcDbXrecord
  3
ObjectDBX Classes
 90
        0
280
     0
281
     0
  0
CLASS
  1
LWPOLYLINE
  2
AcDbPolyline
  3
ObjectDBX Classes
 90
        0
280
     0
281
     1
  0
CLASS
  1
HATCH
  2
AcDbHatch
  3
ObjectDBX Classes
 90
        0
280
     0
281
     1
  0
CLASS
  1
ACDBPLACEHOLDER
  2
AcDbPlaceHolder
  3
ObjectDBX Classes
 90
        0
280
     0
281
     0
  0
CLASS
  1
LAYOUT
  2
AcDbLayout
  3
ObjectDBX Classes
 90
        0
280
     0
281
     0
  0
ENDSEC
  0
SECTION
  2
TABLES
  0
TABLE
  2
VPORT
  5
8
102
{ACAD_XDICTIONARY
360
3E8
102
}
330
0
100
AcDbSymbolTable
 70
     1
  0
VPORT
  5
29
330
8
100
AcDbSymbolTableRecord
100
AcDbViewportTableRecord
  2
*ACTIVE
 70
     0
 10
0.0
 20
0.0
 11
1.0
 21
1.0
 12
1680.0
 22
1188.0
 13
0.0
 23
0.0
 14
10.0
 24
10.0
 15
10.0
 25
10.0
 16
0.0
 26
0.0
 36
1.0
 17
0.0
 27
0.0
 37
0.0
 40
2216.0
 41
1.444043321299639
 42
50.0
 43
0.0
 44
0.0
 50
0.0
 51
0.0
 71
     0
 72
  1000
 73
     1
 74
     3
 75
     0
 76
     0
 77
     0
 78
     0
  0
ENDTAB
  0
TABLE
  2
LTYPE
  5
5
330
0
100
AcDbSymbolTable
 70
     8
  0
LTYPE
  5
14
330
5
100
AcDbSymbolTableRecord
100
AcDbLinetypeTableRecord
  2
BYBLOCK
 70
     0
  3

 72
    65
 73
     0
 40
0.0
  0
LTYPE
  5
15
330
5
100
AcDbSymbolTableRecord
100
AcDbLinetypeTableRecord
  2
BYLAYER
 70
     0
  3

 72
    65
 73
     0
 40
0.0
  0
LTYPE
  5
16
330
5
100
AcDbSymbolTableRecord
100
AcDbLinetypeTableRecord
  2
CONTINUOUS
 70
     0
  3
Solid line
 72
    65
 73
     0
 40
0.0
  0
LTYPE
  5
6E
330
5
100
AcDbSymbolTableRecord
100
AcDbLinetypeTableRecord
  2
EXLTYPE0
 70
     0
  3
破線
 72
    65
 73
     2
 40
4.0
 49
3.0
 74
     0
 49
-1.0
 74
     0
  0
LTYPE
  5
6F
330
5
100
AcDbSymbolTableRecord
100
AcDbLinetypeTableRecord
  2
EXLTYPE1
 70
     0
  3
点線
 72
    65
 73
     2
 40
2.0
 49
1.0
 74
     0
 49
-1.0
 74
     0
  0
LTYPE
  5
70
330
5
100
AcDbSymbolTableRecord
100
AcDbLinetypeTableRecord
  2
EXLTYPE2
 70
     0
  3
一点鎖線
 72
    65
 73
     4
 40
13.0
 49
10.0
 74
     0
 49
-1.0
 74
     0
 49
1.0
 74
     0
 49
-1.0
 74
     0
  0
LTYPE
  5
71
330
5
100
AcDbSymbolTableRecord
100
AcDbLinetypeTableRecord
  2
EXLTYPE3
 70
     0
  3
二点鎖線
 72
    65
 73
     6
 40
15.0
 49
10.0
 74
     0
 49
-1.0
 74
     0
 49
1.0
 74
     0
 49
-1.0
 74
     0
 49
1.0
 74
     0
 49
-1.0
 74
     0
  0
LTYPE
  5
72
330
5
100
AcDbSymbolTableRecord
100
AcDbLinetypeTableRecord
  2
EXLTYPE4
 70
     0
  3
一点鎖線2
 72
    65
 73
     4
 40
3.5
 49
2.0
 74
     0
 49
-0.5
 74
     0
 49
0.5
 74
     0
 49
-0.5
 74
     0
  0
LTYPE
  5
73
330
5
100
AcDbSymbolTableRecord
100
AcDbLinetypeTableRecord
  2
EXLTYPE5
 70
     0
  3
二点鎖線2
 72
    65
 73
     6
 40
4.5
 49
2.0
 74
     0
 49
-0.5
 74
     0
 49
0.5
 74
     0
 49
-0.5
 74
     0
 49
0.5
 74
     0
 49
-0.5
 74
     0
  0
LTYPE
  5
74
330
5
100
AcDbSymbolTableRecord
100
AcDbLinetypeTableRecord
  2
EXLTYPE6
 70
     0
  3
一点鎖線6
 72
    65
 73
     4
 40
13.0
 49
10.0
 74
     0
 49
-1.0
 74
     0
 49
1.0
 74
     0
 49
-1.0
 74
     0
  0
ENDTAB
  0
TABLE
  2
LAYER
  5
2
330
0
100
AcDbSymbolTable
 70
     4
  0
LAYER
  5
10
330
2
100
AcDbSymbolTableRecord
100
AcDbLayerTableRecord
  2
0
 70
     0
 62
     7
  6
CONTINUOUS
  0
LAYER
  5
77
330
2
100
AcDbSymbolTableRecord
100
AcDbLayerTableRecord
  2
図面枠
 70
     4
 62
     7
  6
CONTINUOUS
  0
LAYER
  5
78
330
2
100
AcDbSymbolTableRecord
100
AcDbLayerTableRecord
  2
Ｓ_１_１
 70
     0
 62
     7
  6
CONTINUOUS
  0
LAYER
  5
116
330
2
100
AcDbSymbolTableRecord
100
AcDbLayerTableRecord
  2
DEFPOINTS
 70
     0
 62
     7
  6
CONTINUOUS
  0
ENDTAB
  0
TABLE
  2
STYLE
  5
3
330
0
100
AcDbSymbolTable
 70
     6
  0
STYLE
  5
11
330
3
100
AcDbSymbolTableRecord
100
AcDbTextStyleTableRecord
  2
STANDARD
 70
     0
 40
0.0
 41
1.0
 50
0.0
 71
     0
 42
2.5
  3
monotxt
  4
extfont
  0
STYLE
  5
75
330
3
100
AcDbSymbolTableRecord
100
AcDbTextStyleTableRecord
  2
EXCADSTD
 70
     0
 40
0.0
 41
1.0
 50
0.0
 71
     0
 42
2.5
  3
monotxt
  4
extfont
  0
STYLE
  5
76
330
3
100
AcDbSymbolTableRecord
100
AcDbTextStyleTableRecord
  2
EXCADVERT
 70
     4
 40
0.0
 41
1.0
 50
0.0
 71
     0
 42
2.5
  3
monotxt
  4
extfont
  0
STYLE
  5
D9
330
3
100
AcDbSymbolTableRecord
100
AcDbTextStyleTableRecord
  2
EXCADTTF1
 70
     0
 40
0.0
 41
1.0
 50
0.0
 71
     0
 42
2.5
  3
msgothic.ttc
  4

1001
ACAD
1000
MS Gothic
1071
    32817
  0
STYLE
  5
114
330
3
100
AcDbSymbolTableRecord
100
AcDbTextStyleTableRecord
  2
EXCADDIM1
 70
     0
 40
0.0
 41
1.0
 50
0.0
 71
     0
 42
2.5
  3
msgothic.ttc
  4

1001
ACAD
1000
MS Gothic
1071
    32817
  0
STYLE
  5
369
330
3
100
AcDbSymbolTableRecord
100
AcDbTextStyleTableRecord
  2
EXCADTTF2
 70
     0
 40
0.0
 41
1.0
 50
0.0
 71
     0
 42
2.5
  3
@msgothic.ttc
  4

1001
ACAD
1000
@MS Gothic
1071
    32817
  0
ENDTAB
  0
TABLE
  2
VIEW
  5
6
330
0
100
AcDbSymbolTable
 70
     0
  0
ENDTAB
  0
TABLE
  2
UCS
  5
7
330
0
100
AcDbSymbolTable
 70
     0
  0
ENDTAB
  0
TABLE
  2
APPID
  5
9
330
0
100
AcDbSymbolTable
 70
     2
  0
APPID
  5
12
330
9
100
AcDbSymbolTableRecord
100
AcDbRegAppTableRecord
  2
ACAD
 70
     0
  0
APPID
  5
3F2
330
9
100
AcDbSymbolTableRecord
100
AcDbRegAppTableRecord
  2
ACAD_MLEADERVER
 70
     0
  0
ENDTAB
  0
TABLE
  2
DIMSTYLE
  5
A
330
0
100
AcDbSymbolTable
 70
     1
  0
DIMSTYLE
105
27
102
{ACAD_REACTORS
330
115
330
124
330
130
330
13E
330
14C
330
159
330
166
330
172
330
17E
330
18A
330
196
330
1A3
330
1B2
330
1BF
330
1CE
330
1D8
330
1E6
330
1F4
330
202
330
20F
330
21C
330
34E
102
}
330
A
100
AcDbSymbolTableRecord
100
AcDbDimStyleTableRecord
  2
ISO-25
 70
     0
  3

  4

  5

  6

  7

 40
1.0
 41
2.5
 42
0.625
 43
3.75
 44
1.25
 45
0.0
 46
0.0
 47
0.0
 48
0.0
140
2.5
141
2.5
142
0.0
143
0.03937007874016
144
1.0
145
0.0
146
1.0
147
0.625
 71
     0
 72
     0
 73
     0
 74
     0
 75
     0
 76
     0
 77
     1
 78
     8
170
     0
171
     3
172
     1
173
     0
174
     0
175
     0
176
     0
177
     0
178
     0
270
     2
271
     2
272
     2
273
     2
274
     3
340
11
275
     0
280
     0
281
     0
282
     0
283
     0
284
     8
285
     0
286
     0
287
     5
288
     0
  0
ENDTAB
  0
TABLE
  2
BLOCK_RECORD
  5
1
330
0
100
AcDbSymbolTable
 70
    36
  0
BLOCK_RECORD
  5
1F
330
1
100
AcDbSymbolTableRecord
100
AcDbBlockTableRecord
  2
*MODEL_SPACE
  0
BLOCK_RECORD
  5
1B
330
1
100
AcDbSymbolTableRecord
100
AcDbBlockTableRecord
  2
*PAPER_SPACE
  0
BLOCK_RECORD
  5
79
330
1
100
AcDbSymbolTableRecord
100
AcDbBlockTableRecord
  2
EX_NORM
  0
BLOCK_RECORD
  5
7C
330
1
100
AcDbSymbolTableRecord
100
AcDbBlockTableRecord
  2
EX_BNORM
  0
BLOCK_RECORD
  5
7F
330
1
100
AcDbSymbolTableRecord
100
AcDbBlockTableRecord
  2
EX_BCIR
  0
BLOCK_RECORD
  5
82
330
1
100
AcDbSymbolTableRecord
100
AcDbBlockTableRecord
  2
EX_RCIVIL
  0
BLOCK_RECORD
  5
85
330
1
100
AcDbSymbolTableRecord
100
AcDbBlockTableRecord
  2
EX_SLANT
  0
BLOCK_RECORD
  5
88
330
1
100
AcDbSymbolTableRecord
100
AcDbBlockTableRecord
  2
EX_NONE
  0
BLOCK_RECORD
  5
8B
330
1
100
AcDbSymbolTableRecord
100
AcDbBlockTableRecord
  2
EX_CIVIL
  0
BLOCK_RECORD
  5
8E
330
1
100
AcDbSymbolTableRecord
100
AcDbBlockTableRecord
  2
EX_WCIR
  0
BLOCK_RECORD
  5
91
330
1
100
AcDbSymbolTableRecord
100
AcDbBlockTableRecord
  2
EX_WCIR2
  0
BLOCK_RECORD
  5
94
330
1
100
AcDbSymbolTableRecord
100
AcDbBlockTableRecord
  2
EX_WNORM
  0
BLOCK_RECORD
  5
97
330
1
100
AcDbSymbolTableRecord
100
AcDbBlockTableRecord
  2
EX_NNORM
  0
BLOCK_RECORD
  5
9A
330
1
100
AcDbSymbolTableRecord
100
AcDbBlockTableRecord
  2
EX_BBOX
  0
BLOCK_RECORD
  5
9D
330
1
100
AcDbSymbolTableRecord
100
AcDbBlockTableRecord
  2
EX_WBOX
  0
BLOCK_RECORD
  5
A0
330
1
100
AcDbSymbolTableRecord
100
AcDbBlockTableRecord
  2
EX_INTEGRAL
  0
BLOCK_RECORD
  5
117
330
1
100
AcDbSymbolTableRecord
100
AcDbBlockTableRecord
  2
*D15
  0
BLOCK_RECORD
  5
125
330
1
100
AcDbSymbolTableRecord
100
AcDbBlockTableRecord
  2
*D16
  0
BLOCK_RECORD
  5
131
330
1
100
AcDbSymbolTableRecord
100
AcDbBlockTableRecord
  2
*D17
  0
BLOCK_RECORD
  5
13F
330
1
100
AcDbSymbolTableRecord
100
AcDbBlockTableRecord
  2
*D18
  0
BLOCK_RECORD
  5
14D
330
1
100
AcDbSymbolTableRecord
100
AcDbBlockTableRecord
  2
*D19
  0
BLOCK_RECORD
  5
15A
330
1
100
AcDbSymbolTableRecord
100
AcDbBlockTableRecord
  2
*D20
  0
BLOCK_RECORD
  5
167
330
1
100
AcDbSymbolTableRecord
100
AcDbBlockTableRecord
  2
*D21
  0
BLOCK_RECORD
  5
173
330
1
100
AcDbSymbolTableRecord
100
AcDbBlockTableRecord
  2
*D22
  0
BLOCK_RECORD
  5
17F
330
1
100
AcDbSymbolTableRecord
100
AcDbBlockTableRecord
  2
*D23
  0
BLOCK_RECORD
  5
18B
330
1
100
AcDbSymbolTableRecord
100
AcDbBlockTableRecord
  2
*D24
  0
BLOCK_RECORD
  5
197
330
1
100
AcDbSymbolTableRecord
100
AcDbBlockTableRecord
  2
*D25
  0
BLOCK_RECORD
  5
1A4
330
1
100
AcDbSymbolTableRecord
100
AcDbBlockTableRecord
  2
*D26
  0
BLOCK_RECORD
  5
1B3
330
1
100
AcDbSymbolTableRecord
100
AcDbBlockTableRecord
  2
*D27
  0
BLOCK_RECORD
  5
1C0
330
1
100
AcDbSymbolTableRecord
100
AcDbBlockTableRecord
  2
*D28
  0
BLOCK_RECORD
  5
1CF
330
1
100
AcDbSymbolTableRecord
100
AcDbBlockTableRecord
  2
*D29
  0
BLOCK_RECORD
  5
1D9
330
1
100
AcDbSymbolTableRecord
100
AcDbBlockTableRecord
  2
*D30
  0
BLOCK_RECORD
  5
1E7
330
1
100
AcDbSymbolTableRecord
100
AcDbBlockTableRecord
  2
*D31
  0
BLOCK_RECORD
  5
1F5
330
1
100
AcDbSymbolTableRecord
100
AcDbBlockTableRecord
  2
*D32
  0
BLOCK_RECORD
  5
203
330
1
100
AcDbSymbolTableRecord
100
AcDbBlockTableRecord
  2
*D33
  0
BLOCK_RECORD
  5
210
330
1
100
AcDbSymbolTableRecord
100
AcDbBlockTableRecord
  2
*D34
  0
BLOCK_RECORD
  5
21D
330
1
100
AcDbSymbolTableRecord
100
AcDbBlockTableRecord
  2
*D35
  0
BLOCK_RECORD
  5
34F
330
1
100
AcDbSymbolTableRecord
100
AcDbBlockTableRecord
  2
*D36
  0
ENDTAB
  0
ENDSEC
  0
SECTION
  2
BLOCKS
  0
BLOCK
  5
20
330
1F
100
AcDbEntity
  8
0
100
AcDbBlockBegin
  2
*MODEL_SPACE
 70
     0
 10
0.0
 20
0.0
 30
0.0
  3
*MODEL_SPACE
  1

  0
ENDBLK
  5
21
330
1F
100
AcDbEntity
  8
0
100
AcDbBlockEnd
  0
BLOCK
  5
1C
330
1B
100
AcDbEntity
 67
     1
  8
0
100
AcDbBlockBegin
  2
*PAPER_SPACE
 70
     0
 10
0.0
 20
0.0
 30
0.0
  3
*PAPER_SPACE
  1

  0
ENDBLK
  5
1D
330
1B
100
AcDbEntity
 67
     1
  8
0
100
AcDbBlockEnd
  0
BLOCK
  5
7A
330
79
100
AcDbEntity
  8
0
100
AcDbBlockBegin
  2
EX_NORM
 70
     0
 10
0.0
 20
0.0
 30
0.0
  3
EX_NORM
  1

  0
LINE
  5
A3
330
79
100
AcDbEntity
  8
0
  6
CONTINUOUS
 62
     0
100
AcDbLine
 10
0.0
 20
0.0
 30
0.0
 11
-1.0
 21
0.0
 31
0.0
  0
LINE
  5
A4
330
79
100
AcDbEntity
  8
0
  6
CONTINUOUS
 62
     0
100
AcDbLine
 10
0.0
 20
0.0
 30
0.0
 11
-1.0
 21
0.166666667
 31
0.0
  0
LINE
  5
A5
330
79
100
AcDbEntity
  8
0
  6
CONTINUOUS
 62
     0
100
AcDbLine
 10
0.0
 20
0.0
 30
0.0
 11
-1.0
 21
-0.166666667
 31
0.0
  0
ENDBLK
  5
7B
330
79
100
AcDbEntity
  8
0
100
AcDbBlockEnd
  0
BLOCK
  5
7D
330
7C
100
AcDbEntity
  8
0
100
AcDbBlockBegin
  2
EX_BNORM
 70
     0
 10
0.0
 20
0.0
 30
0.0
  3
EX_BNORM
  1

  0
LINE
  5
A6
330
7C
100
AcDbEntity
  8
0
  6
CONTINUOUS
 62
     0
100
AcDbLine
 10
0.0
 20
0.0
 30
0.0
 11
-1.0
 21
0.0
 31
0.0
  0
LINE
  5
A7
330
7C
100
AcDbEntity
  8
0
  6
CONTINUOUS
 62
     0
100
AcDbLine
 10
0.0
 20
0.0
 30
0.0
 11
-1.0
 21
0.166666667
 31
0.0
  0
LINE
  5
A8
330
7C
100
AcDbEntity
  8
0
  6
CONTINUOUS
 62
     0
100
AcDbLine
 10
0.0
 20
0.0
 30
0.0
 11
-1.0
 21
-0.166666667
 31
0.0
  0
LINE
  5
A9
330
7C
100
AcDbEntity
  8
0
  6
CONTINUOUS
 62
     0
100
AcDbLine
 10
0.0
 20
0.0
 30
0.0
 11
-1.0
 21
0.083333333
 31
0.0
  0
LINE
  5
AA
330
7C
100
AcDbEntity
  8
0
  6
CONTINUOUS
 62
     0
100
AcDbLine
 10
0.0
 20
0.0
 30
0.0
 11
-1.0
 21
-0.083333333
 31
0.0
  0
LINE
  5
AB
330
7C
100
AcDbEntity
  8
0
  6
CONTINUOUS
 62
     0
100
AcDbLine
 10
-1.0
 20
0.166666667
 30
0.0
 11
-1.0
 21
-0.166666667
 31
0.0
  0
ENDBLK
  5
7E
330
7C
100
AcDbEntity
  8
0
100
AcDbBlockEnd
  0
BLOCK
  5
80
330
7F
100
AcDbEntity
  8
0
100
AcDbBlockBegin
  2
EX_BCIR
 70
     0
 10
0.0
 20
0.0
 30
0.0
  3
EX_BCIR
  1

  0
LINE
  5
AC
330
7F
100
AcDbEntity
  8
0
  6
CONTINUOUS
 62
     0
100
AcDbLine
 10
0.0
 20
0.0
 30
0.0
 11
-1.0
 21
0.0
 31
0.0
  0
CIRCLE
  5
AD
330
7F
100
AcDbEntity
  8
0
  6
CONTINUOUS
 62
     0
100
AcDbCircle
 10
0.0
 20
0.0
 30
0.0
 40
0.5
  0
CIRCLE
  5
AE
330
7F
100
AcDbEntity
  8
0
  6
CONTINUOUS
 62
     0
100
AcDbCircle
 10
0.0
 20
0.0
 30
0.0
 40
0.25
  0
ENDBLK
  5
81
330
7F
100
AcDbEntity
  8
0
100
AcDbBlockEnd
  0
BLOCK
  5
83
330
82
100
AcDbEntity
  8
0
100
AcDbBlockBegin
  2
EX_RCIVIL
 70
     0
 10
0.0
 20
0.0
 30
0.0
  3
EX_RCIVIL
  1

  0
LINE
  5
AF
330
82
100
AcDbEntity
  8
0
  6
CONTINUOUS
 62
     0
100
AcDbLine
 10
0.0
 20
0.0
 30
0.0
 11
-1.0
 21
0.0
 31
0.0
  0
LINE
  5
B0
330
82
100
AcDbEntity
  8
0
  6
CONTINUOUS
 62
     0
100
AcDbLine
 10
-1.0
 20
-0.25
 30
0.0
 11
0.0
 21
-0.25
 31
0.0
  0
LINE
  5
B1
330
82
100
AcDbEntity
  8
0
  6
CONTINUOUS
 62
     0
100
AcDbLine
 10
-1.0
 20
-0.125
 30
0.0
 11
0.0
 21
-0.125
 31
0.0
  0
ENDBLK
  5
84
330
82
100
AcDbEntity
  8
0
100
AcDbBlockEnd
  0
BLOCK
  5
86
330
85
100
AcDbEntity
  8
0
100
AcDbBlockBegin
  2
EX_SLANT
 70
     0
 10
0.0
 20
0.0
 30
0.0
  3
EX_SLANT
  1

  0
LINE
  5
B2
330
85
100
AcDbEntity
  8
0
  6
CONTINUOUS
 62
     0
100
AcDbLine
 10
0.0
 20
0.0
 30
0.0
 11
-1.0
 21
0.0
 31
0.0
  0
LINE
  5
B3
330
85
100
AcDbEntity
  8
0
  6
CONTINUOUS
 62
     0
100
AcDbLine
 10
0.707106781
 20
0.707106781
 30
0.0
 11
-0.707106781
 21
-0.707106781
 31
0.0
  0
ENDBLK
  5
87
330
85
100
AcDbEntity
  8
0
100
AcDbBlockEnd
  0
BLOCK
  5
89
330
88
100
AcDbEntity
  8
0
100
AcDbBlockBegin
  2
EX_NONE
 70
     0
 10
0.0
 20
0.0
 30
0.0
  3
EX_NONE
  1

  0
LINE
  5
B4
330
88
100
AcDbEntity
  8
0
  6
CONTINUOUS
 62
     0
100
AcDbLine
 10
0.0
 20
0.0
 30
0.0
 11
-1.0
 21
0.0
 31
0.0
  0
ENDBLK
  5
8A
330
88
100
AcDbEntity
  8
0
100
AcDbBlockEnd
  0
BLOCK
  5
8C
330
8B
100
AcDbEntity
  8
0
100
AcDbBlockBegin
  2
EX_CIVIL
 70
     0
 10
0.0
 20
0.0
 30
0.0
  3
EX_CIVIL
  1

  0
LINE
  5
B5
330
8B
100
AcDbEntity
  8
0
  6
CONTINUOUS
 62
     0
100
AcDbLine
 10
0.0
 20
0.0
 30
0.0
 11
-1.0
 21
0.0
 31
0.0
  0
LINE
  5
B6
330
8B
100
AcDbEntity
  8
0
  6
CONTINUOUS
 62
     0
100
AcDbLine
 10
-1.0
 20
0.25
 30
0.0
 11
0.0
 21
0.25
 31
0.0
  0
LINE
  5
B7
330
8B
100
AcDbEntity
  8
0
  6
CONTINUOUS
 62
     0
100
AcDbLine
 10
-1.0
 20
0.125
 30
0.0
 11
0.0
 21
0.125
 31
0.0
  0
ENDBLK
  5
8D
330
8B
100
AcDbEntity
  8
0
100
AcDbBlockEnd
  0
BLOCK
  5
8F
330
8E
100
AcDbEntity
  8
0
100
AcDbBlockBegin
  2
EX_WCIR
 70
     0
 10
0.0
 20
0.0
 30
0.0
  3
EX_WCIR
  1

  0
LINE
  5
B8
330
8E
100
AcDbEntity
  8
0
  6
CONTINUOUS
 62
     0
100
AcDbLine
 10
0.0
 20
0.0
 30
0.0
 11
-1.0
 21
0.0
 31
0.0
  0
CIRCLE
  5
B9
330
8E
100
AcDbEntity
  8
0
  6
CONTINUOUS
 62
     0
100
AcDbCircle
 10
0.0
 20
0.0
 30
0.0
 40
0.5
  0
ENDBLK
  5
90
330
8E
100
AcDbEntity
  8
0
100
AcDbBlockEnd
  0
BLOCK
  5
92
330
91
100
AcDbEntity
  8
0
100
AcDbBlockBegin
  2
EX_WCIR2
 70
     0
 10
0.0
 20
0.0
 30
0.0
  3
EX_WCIR2
  1

  0
LINE
  5
BA
330
91
100
AcDbEntity
  8
0
  6
CONTINUOUS
 62
     0
100
AcDbLine
 10
-0.5
 20
0.0
 30
0.0
 11
-1.0
 21
0.0
 31
0.0
  0
CIRCLE
  5
BB
330
91
100
AcDbEntity
  8
0
  6
CONTINUOUS
 62
     0
100
AcDbCircle
 10
0.0
 20
0.0
 30
0.0
 40
0.5
  0
ENDBLK
  5
93
330
91
100
AcDbEntity
  8
0
100
AcDbBlockEnd
  0
BLOCK
  5
95
330
94
100
AcDbEntity
  8
0
100
AcDbBlockBegin
  2
EX_WNORM
 70
     0
 10
0.0
 20
0.0
 30
0.0
  3
EX_WNORM
  1

  0
LINE
  5
BC
330
94
100
AcDbEntity
  8
0
  6
CONTINUOUS
 62
     0
100
AcDbLine
 10
-1.0
 20
0.0
 30
0.0
 11
-1.0
 21
0.0
 31
0.0
  0
LINE
  5
BD
330
94
100
AcDbEntity
  8
0
  6
CONTINUOUS
 62
     0
100
AcDbLine
 10
0.0
 20
0.0
 30
0.0
 11
-1.0
 21
0.166666667
 31
0.0
  0
LINE
  5
BE
330
94
100
AcDbEntity
  8
0
  6
CONTINUOUS
 62
     0
100
AcDbLine
 10
0.0
 20
0.0
 30
0.0
 11
-1.0
 21
-0.166666667
 31
0.0
  0
LINE
  5
BF
330
94
100
AcDbEntity
  8
0
  6
CONTINUOUS
 62
     0
100
AcDbLine
 10
-1.0
 20
0.166666667
 30
0.0
 11
-1.0
 21
-0.166666667
 31
0.0
  0
ENDBLK
  5
96
330
94
100
AcDbEntity
  8
0
100
AcDbBlockEnd
  0
BLOCK
  5
98
330
97
100
AcDbEntity
  8
0
100
AcDbBlockBegin
  2
EX_NNORM
 70
     0
 10
0.0
 20
0.0
 30
0.0
  3
EX_NNORM
  1

  0
LINE
  5
C0
330
97
100
AcDbEntity
  8
0
  6
CONTINUOUS
 62
     0
100
AcDbLine
 10
0.0
 20
0.0
 30
0.0
 11
-1.0
 21
0.0
 31
0.0
  0
LINE
  5
C1
330
97
100
AcDbEntity
  8
0
  6
CONTINUOUS
 62
     0
100
AcDbLine
 10
0.0
 20
0.0
 30
0.0
 11
-1.0
 21
0.166666667
 31
0.0
  0
LINE
  5
C2
330
97
100
AcDbEntity
  8
0
  6
CONTINUOUS
 62
     0
100
AcDbLine
 10
0.0
 20
0.0
 30
0.0
 11
-1.0
 21
-0.166666667
 31
0.0
  0
LINE
  5
C3
330
97
100
AcDbEntity
  8
0
  6
CONTINUOUS
 62
     0
100
AcDbLine
 10
-1.0
 20
0.166666667
 30
0.0
 11
-1.0
 21
-0.166666667
 31
0.0
  0
ENDBLK
  5
99
330
97
100
AcDbEntity
  8
0
100
AcDbBlockEnd
  0
BLOCK
  5
9B
330
9A
100
AcDbEntity
  8
0
100
AcDbBlockBegin
  2
EX_BBOX
 70
     0
 10
0.0
 20
0.0
 30
0.0
  3
EX_BBOX
  1

  0
LINE
  5
C4
330
9A
100
AcDbEntity
  8
0
  6
CONTINUOUS
 62
     0
100
AcDbLine
 10
0.0
 20
0.0
 30
0.0
 11
-1.0
 21
0.0
 31
0.0
  0
LINE
  5
C5
330
9A
100
AcDbEntity
  8
0
  6
CONTINUOUS
 62
     0
100
AcDbLine
 10
-0.5
 20
0.5
 30
0.0
 11
0.5
 21
0.5
 31
0.0
  0
LINE
  5
C6
330
9A
100
AcDbEntity
  8
0
  6
CONTINUOUS
 62
     0
100
AcDbLine
 10
0.5
 20
0.5
 30
0.0
 11
0.5
 21
-0.5
 31
0.0
  0
LINE
  5
C7
330
9A
100
AcDbEntity
  8
0
  6
CONTINUOUS
 62
     0
100
AcDbLine
 10
0.5
 20
-0.5
 30
0.0
 11
-0.5
 21
-0.5
 31
0.0
  0
LINE
  5
C8
330
9A
100
AcDbEntity
  8
0
  6
CONTINUOUS
 62
     0
100
AcDbLine
 10
-0.5
 20
-0.5
 30
0.0
 11
-0.5
 21
0.5
 31
0.0
  0
LINE
  5
C9
330
9A
100
AcDbEntity
  8
0
  6
CONTINUOUS
 62
     0
100
AcDbLine
 10
-0.25
 20
0.25
 30
0.0
 11
0.25
 21
0.25
 31
0.0
  0
LINE
  5
CA
330
9A
100
AcDbEntity
  8
0
  6
CONTINUOUS
 62
     0
100
AcDbLine
 10
0.25
 20
0.25
 30
0.0
 11
0.25
 21
-0.25
 31
0.0
  0
LINE
  5
CB
330
9A
100
AcDbEntity
  8
0
  6
CONTINUOUS
 62
     0
100
AcDbLine
 10
0.25
 20
-0.25
 30
0.0
 11
-0.25
 21
-0.25
 31
0.0
  0
LINE
  5
CC
330
9A
100
AcDbEntity
  8
0
  6
CONTINUOUS
 62
     0
100
AcDbLine
 10
-0.25
 20
-0.25
 30
0.0
 11
-0.25
 21
0.25
 31
0.0
  0
ENDBLK
  5
9C
330
9A
100
AcDbEntity
  8
0
100
AcDbBlockEnd
  0
BLOCK
  5
9E
330
9D
100
AcDbEntity
  8
0
100
AcDbBlockBegin
  2
EX_WBOX
 70
     0
 10
0.0
 20
0.0
 30
0.0
  3
EX_WBOX
  1

  0
LINE
  5
CD
330
9D
100
AcDbEntity
  8
0
  6
CONTINUOUS
 62
     0
100
AcDbLine
 10
-0.5
 20
0.0
 30
0.0
 11
-1.0
 21
0.0
 31
0.0
  0
LINE
  5
CE
330
9D
100
AcDbEntity
  8
0
  6
CONTINUOUS
 62
     0
100
AcDbLine
 10
-0.5
 20
0.5
 30
0.0
 11
0.5
 21
0.5
 31
0.0
  0
LINE
  5
CF
330
9D
100
AcDbEntity
  8
0
  6
CONTINUOUS
 62
     0
100
AcDbLine
 10
0.5
 20
0.5
 30
0.0
 11
0.5
 21
-0.5
 31
0.0
  0
LINE
  5
D0
330
9D
100
AcDbEntity
  8
0
  6
CONTINUOUS
 62
     0
100
AcDbLine
 10
0.5
 20
-0.5
 30
0.0
 11
-0.5
 21
-0.5
 31
0.0
  0
LINE
  5
D1
330
9D
100
AcDbEntity
  8
0
  6
CONTINUOUS
 62
     0
100
AcDbLine
 10
-0.5
 20
-0.5
 30
0.0
 11
-0.5
 21
0.5
 31
0.0
  0
ENDBLK
  5
9F
330
9D
100
AcDbEntity
  8
0
100
AcDbBlockEnd
  0
BLOCK
  5
A1
330
A0
100
AcDbEntity
  8
0
100
AcDbBlockBegin
  2
EX_INTEGRAL
 70
     0
 10
0.0
 20
0.0
 30
0.0
  3
EX_INTEGRAL
  1

  0
LINE
  5
D2
330
A0
100
AcDbEntity
  8
0
  6
CONTINUOUS
 62
     0
100
AcDbLine
 10
0.0
 20
0.0
 30
0.0
 11
-1.0
 21
0.0
 31
0.0
  0
ARC
  5
D3
330
A0
100
AcDbEntity
  8
0
  6
CONTINUOUS
 62
     0
100
AcDbCircle
 10
0.542115
 20
0.164992
 30
0.0
 40
0.56667
100
AcDbArc
 50
73.07249033629006
 51
196.9275130221199
  0
ARC
  5
D4
330
A0
100
AcDbEntity
  8
0
  6
CONTINUOUS
 62
     0
100
AcDbCircle
 10
-0.542115
 20
-0.164992
 30
0.0
 40
0.56667
100
AcDbArc
 50
253.0724869220464
 51
16.9275130559125
  0
ENDBLK
  5
A2
330
A0
100
AcDbEntity
  8
0
100
AcDbBlockEnd
  0
BLOCK
  5
118
330
117
100
AcDbEntity
  8
0
100
AcDbBlockBegin
  2
*D15
 70
     1
 10
0.0
 20
0.0
 30
0.0
  3
*D15
  1

  0
LINE
  5
11A
330
117
100
AcDbEntity
  8
Ｓ_１_１
  6
CONTINUOUS
 62
     2
100
AcDbLine
 10
1848.000005
 20
1199.999988
 30
0.0
 11
1697.0
 21
1199.999988
 31
0.0
  0
LINE
  5
11B
330
117
100
AcDbEntity
  8
Ｓ_１_１
  6
CONTINUOUS
 62
     2
100
AcDbLine
 10
1848.000005
 20
1549.999983
 30
0.0
 11
1697.0
 21
1549.999983
 31
0.0
  0
LINE
  5
11C
330
117
100
AcDbEntity
  8
Ｓ_１_１
  6
CONTINUOUS
 62
     2
100
AcDbLine
 10
1705.0
 20
1223.999988
 30
0.0
 11
1705.0
 21
1525.999983
 31
0.0
  0
INSERT
  5
11D
330
117
100
AcDbEntity
  8
Ｓ_１_１
 62
     2
100
AcDbBlockReference
  2
EX_NORM
 10
1705.0
 20
1199.999988
 30
0.0
 41
24.0
 42
24.0
 43
24.0
 50
270.0
  0
INSERT
  5
11E
330
117
100
AcDbEntity
  8
Ｓ_１_１
 62
     2
100
AcDbBlockReference
  2
EX_NORM
 10
1705.0
 20
1549.999983
 30
0.0
 41
24.0
 42
24.0
 43
24.0
 50
90.0
  0
MTEXT
  5
11F
330
117
100
AcDbEntity
  8
Ｓ_１_１
 62
     2
100
AcDbMText
 10
1683.0
 20
1374.9999855
 30
0.0
 40
27.70323325635104
 41
0.0
 71
     5
 72
     1
  1
350
  7
EXCADDIM1
 11
0.0
 21
1.0
 31
0.0
  0
POINT
  5
120
330
117
100
AcDbEntity
  8
DEFPOINTS
 62
     0
100
AcDbPoint
 10
1860.000005
 20
1199.999988
 30
0.0
  0
POINT
  5
121
330
117
100
AcDbEntity
  8
DEFPOINTS
 62
     0
100
AcDbPoint
 10
1860.000005
 20
1549.999983
 30
0.0
  0
POINT
  5
122
330
117
100
AcDbEntity
  8
DEFPOINTS
 62
     0
100
AcDbPoint
 10
1705.0
 20
1549.999983
 30
0.0
  0
ENDBLK
  5
119
330
117
100
AcDbEntity
  8
0
100
AcDbBlockEnd
  0
BLOCK
  5
126
330
125
100
AcDbEntity
  8
0
100
AcDbBlockBegin
  2
*D16
 70
     1
 10
0.0
 20
0.0
 30
0.0
  3
*D16
  1

  0
LINE
  5
128
330
125
100
AcDbEntity
  8
Ｓ_１_１
  6
CONTINUOUS
 62
     2
100
AcDbLine
 10
1760.000000000001
 20
1258.999988
 30
0.0
 11
1760.000000000001
 21
1491.000002
 31
0.0
  0
INSERT
  5
129
330
125
100
AcDbEntity
  8
Ｓ_１_１
 62
     2
100
AcDbBlockReference
  2
EX_NORM
 10
1760.000000000001
 20
1234.999988
 30
0.0
 41
24.0
 42
24.0
 43
24.0
 50
270.0
  0
INSERT
  5
12A
330
125
100
AcDbEntity
  8
Ｓ_１_１
 62
     2
100
AcDbBlockReference
  2
EX_NORM
 10
1760.000000000001
 20
1515.000002
 30
0.0
 41
24.0
 42
24.0
 43
24.0
 50
90.0
  0
MTEXT
  5
12B
330
125
100
AcDbEntity
  8
Ｓ_１_１
 62
     2
100
AcDbMText
 10
1738.000000000001
 20
1374.999995
 30
0.0
 40
27.70323325635104
 41
0.0
 71
     5
 72
     1
  1
280
  7
EXCADDIM1
 11
0.0
 21
1.0
 31
0.0
  0
POINT
  5
12C
330
125
100
AcDbEntity
  8
DEFPOINTS
 62
     0
100
AcDbPoint
 10
1880.000004
 20
1234.999988
 30
0.0
  0
POINT
  5
12D
330
125
100
AcDbEntity
  8
DEFPOINTS
 62
     0
100
AcDbPoint
 10
1880.000004
 20
1515.000002
 30
0.0
  0
POINT
  5
12E
330
125
100
AcDbEntity
  8
DEFPOINTS
 62
     0
100
AcDbPoint
 10
1760.000000000001
 20
1515.000002
 30
0.0
  0
ENDBLK
  5
127
330
125
100
AcDbEntity
  8
0
100
AcDbBlockEnd
  0
BLOCK
  5
132
330
131
100
AcDbEntity
  8
0
100
AcDbBlockBegin
  2
*D17
 70
     1
 10
0.0
 20
0.0
 30
0.0
  3
*D17
  1

  0
LINE
  5
134
330
131
100
AcDbEntity
  8
Ｓ_１_１
  6
CONTINUOUS
 62
     2
100
AcDbLine
 10
1860.000002
 20
1561.999984
 30
0.0
 11
1860.000002
 21
1713.0
 31
0.0
  0
LINE
  5
135
330
131
100
AcDbEntity
  8
Ｓ_１_１
  6
CONTINUOUS
 62
     2
100
AcDbLine
 10
2209.999996999999
 20
1561.999984
 30
0.0
 11
2209.999996999999
 21
1713.0
 31
0.0
  0
LINE
  5
136
330
131
100
AcDbEntity
  8
Ｓ_１_１
  6
CONTINUOUS
 62
     2
100
AcDbLine
 10
1884.000002
 20
1705.0
 30
0.0
 11
2185.999996999999
 21
1705.0
 31
0.0
  0
INSERT
  5
137
330
131
100
AcDbEntity
  8
Ｓ_１_１
 62
     2
100
AcDbBlockReference
  2
EX_NORM
 10
1860.000002
 20
1705.0
 30
0.0
 41
24.0
 42
24.0
 43
24.0
 50
180.0
  0
INSERT
  5
138
330
131
100
AcDbEntity
  8
Ｓ_１_１
 62
     2
100
AcDbBlockReference
  2
EX_NORM
 10
2209.999996999999
 20
1705.0
 30
0.0
 41
24.0
 42
24.0
 43
24.0
  0
MTEXT
  5
139
330
131
100
AcDbEntity
  8
Ｓ_１_１
 62
     2
100
AcDbMText
 10
2034.9999995
 20
1727.0
 30
0.0
 40
27.70323325635104
 41
0.0
 71
     5
 72
     1
  1
350
  7
EXCADDIM1
  0
POINT
  5
13A
330
131
100
AcDbEntity
  8
DEFPOINTS
 62
     0
100
AcDbPoint
 10
1860.000002
 20
1549.999984
 30
0.0
  0
POINT
  5
13B
330
131
100
AcDbEntity
  8
DEFPOINTS
 62
     0
100
AcDbPoint
 10
2209.999996999999
 20
1549.999984
 30
0.0
  0
POINT
  5
13C
330
131
100
AcDbEntity
  8
DEFPOINTS
 62
     0
100
AcDbPoint
 10
2209.999996999999
 20
1705.0
 30
0.0
  0
ENDBLK
  5
133
330
131
100
AcDbEntity
  8
0
100
AcDbBlockEnd
  0
BLOCK
  5
140
330
13F
100
AcDbEntity
  8
0
100
AcDbBlockBegin
  2
*D18
 70
     1
 10
0.0
 20
0.0
 30
0.0
  3
*D18
  1

  0
LINE
  5
142
330
13F
100
AcDbEntity
  8
Ｓ_１_１
  6
CONTINUOUS
 62
     2
100
AcDbLine
 10
1895.000002
 20
1541.999977
 30
0.0
 11
1895.000002
 21
1658.0
 31
0.0
  0
LINE
  5
143
330
13F
100
AcDbEntity
  8
Ｓ_１_１
  6
CONTINUOUS
 62
     2
100
AcDbLine
 10
2174.999998
 20
1541.999977
 30
0.0
 11
2174.999998
 21
1658.0
 31
0.0
  0
LINE
  5
144
330
13F
100
AcDbEntity
  8
Ｓ_１_１
  6
CONTINUOUS
 62
     2
100
AcDbLine
 10
1919.000002
 20
1650.0
 30
0.0
 11
2150.999998
 21
1650.0
 31
0.0
  0
INSERT
  5
145
330
13F
100
AcDbEntity
  8
Ｓ_１_１
 62
     2
100
AcDbBlockReference
  2
EX_NORM
 10
1895.000002
 20
1650.0
 30
0.0
 41
24.0
 42
24.0
 43
24.0
 50
180.0
  0
INSERT
  5
146
330
13F
100
AcDbEntity
  8
Ｓ_１_１
 62
     2
100
AcDbBlockReference
  2
EX_NORM
 10
2174.999998
 20
1650.0
 30
0.0
 41
24.0
 42
24.0
 43
24.0
  0
MTEXT
  5
147
330
13F
100
AcDbEntity
  8
Ｓ_１_１
 62
     2
100
AcDbMText
 10
2035.0
 20
1672.0
 30
0.0
 40
27.70323325635104
 41
0.0
 71
     5
 72
     1
  1
280
  7
EXCADDIM1
  0
POINT
  5
148
330
13F
100
AcDbEntity
  8
DEFPOINTS
 62
     0
100
AcDbPoint
 10
1895.000002
 20
1529.999977
 30
0.0
  0
POINT
  5
149
330
13F
100
AcDbEntity
  8
DEFPOINTS
 62
     0
100
AcDbPoint
 10
2174.999998
 20
1529.999977
 30
0.0
  0
POINT
  5
14A
330
13F
100
AcDbEntity
  8
DEFPOINTS
 62
     0
100
AcDbPoint
 10
2174.999998
 20
1650.0
 30
0.0
  0
ENDBLK
  5
141
330
13F
100
AcDbEntity
  8
0
100
AcDbBlockEnd
  0
BLOCK
  5
14E
330
14D
100
AcDbEntity
  8
0
100
AcDbBlockBegin
  2
*D19
 70
     1
 10
0.0
 20
0.0
 30
0.0
  3
*D19
  1

  0
LINE
  5
150
330
14D
100
AcDbEntity
  8
Ｓ_１_１
  6
CONTINUOUS
 62
     2
100
AcDbLine
 10
1011.000043
 20
1168.999967
 30
0.0
 11
761.9999999999993
 21
1168.999967
 31
0.0
  0
LINE
  5
151
330
14D
100
AcDbEntity
  8
Ｓ_１_１
  6
CONTINUOUS
 62
     2
100
AcDbLine
 10
1008.000013
 20
1368.999969
 30
0.0
 11
761.9999999999993
 21
1368.999969
 31
0.0
  0
LINE
  5
152
330
14D
100
AcDbEntity
  8
Ｓ_１_１
  6
CONTINUOUS
 62
     2
100
AcDbLine
 10
769.9999999999999
 20
1192.999967
 30
0.0
 11
769.9999999999999
 21
1344.999969
 31
0.0
  0
INSERT
  5
153
330
14D
100
AcDbEntity
  8
Ｓ_１_１
 62
     2
100
AcDbBlockReference
  2
EX_NORM
 10
769.9999999999999
 20
1168.999967
 30
0.0
 41
24.0
 42
24.0
 43
24.0
 50
270.0
  0
INSERT
  5
154
330
14D
100
AcDbEntity
  8
Ｓ_１_１
 62
     2
100
AcDbBlockReference
  2
EX_NORM
 10
769.9999999999999
 20
1368.999969
 30
0.0
 41
24.0
 42
24.0
 43
24.0
 50
90.0
  0
MTEXT
  5
155
330
14D
100
AcDbEntity
  8
Ｓ_１_１
 62
     2
100
AcDbMText
 10
748.0
 20
1268.999968
 30
0.0
 40
27.70323325635104
 41
0.0
 71
     5
 72
     1
  1
200
  7
EXCADDIM1
 11
0.0
 21
1.0
 31
0.0
  0
POINT
  5
156
330
14D
100
AcDbEntity
  8
DEFPOINTS
 62
     0
100
AcDbPoint
 10
1023.000043
 20
1168.999967
 30
0.0
  0
POINT
  5
157
330
14D
100
AcDbEntity
  8
DEFPOINTS
 62
     0
100
AcDbPoint
 10
1020.000013
 20
1368.999969
 30
0.0
  0
POINT
  5
158
330
14D
100
AcDbEntity
  8
DEFPOINTS
 62
     0
100
AcDbPoint
 10
769.9999999999999
 20
1368.999969
 30
0.0
  0
ENDBLK
  5
14F
330
14D
100
AcDbEntity
  8
0
100
AcDbBlockEnd
  0
BLOCK
  5
15B
330
15A
100
AcDbEntity
  8
0
100
AcDbBlockBegin
  2
*D20
 70
     1
 10
0.0
 20
0.0
 30
0.0
  3
*D20
  1

  0
LINE
  5
15D
330
15A
100
AcDbEntity
  8
Ｓ_１_１
  6
CONTINUOUS
 62
     2
100
AcDbLine
 10
825.42669
 20
1026.99998
 30
0.0
 11
596.9999999999997
 21
1026.99998
 31
0.0
  0
LINE
  5
15E
330
15A
100
AcDbEntity
  8
Ｓ_１_１
  6
CONTINUOUS
 62
     2
100
AcDbLine
 10
1011.000024
 20
1983.999916
 30
0.0
 11
596.9999999999998
 21
1983.999916
 31
0.0
  0
LINE
  5
15F
330
15A
100
AcDbEntity
  8
Ｓ_１_１
  6
CONTINUOUS
 62
     2
100
AcDbLine
 10
604.9999999999997
 20
1050.99998
 30
0.0
 11
604.9999999999998
 21
1959.999916
 31
0.0
  0
INSERT
  5
160
330
15A
100
AcDbEntity
  8
Ｓ_１_１
 62
     2
100
AcDbBlockReference
  2
EX_NORM
 10
604.9999999999997
 20
1026.99998
 30
0.0
 41
24.0
 42
24.0
 43
24.0
 50
270.0
  0
INSERT
  5
161
330
15A
100
AcDbEntity
  8
Ｓ_１_１
 62
     2
100
AcDbBlockReference
  2
EX_NORM
 10
604.9999999999998
 20
1983.999916
 30
0.0
 41
24.0
 42
24.0
 43
24.0
 50
90.0
  0
MTEXT
  5
162
330
15A
100
AcDbEntity
  8
Ｓ_１_１
 62
     2
100
AcDbMText
 10
583.0
 20
1505.499948
 30
0.0
 40
27.70323325635104
 41
0.0
 71
     5
 72
     1
  1
957
  7
EXCADDIM1
 11
1.187950316870408E-16
 21
1.0
 31
0.0
  0
POINT
  5
163
330
15A
100
AcDbEntity
  8
DEFPOINTS
 62
     0
100
AcDbPoint
 10
837.42669
 20
1026.99998
 30
0.0
  0
POINT
  5
164
330
15A
100
AcDbEntity
  8
DEFPOINTS
 62
     0
100
AcDbPoint
 10
1023.000024
 20
1983.999916
 30
0.0
  0
POINT
  5
165
330
15A
100
AcDbEntity
  8
DEFPOINTS
 62
     0
100
AcDbPoint
 10
604.9999999999998
 20
1983.999916
 30
0.0
  0
ENDBLK
  5
15C
330
15A
100
AcDbEntity
  8
0
100
AcDbBlockEnd
  0
BLOCK
  5
168
330
167
100
AcDbEntity
  8
0
100
AcDbBlockBegin
  2
*D21
 70
     1
 10
0.0
 20
0.0
 30
0.0
  3
*D21
  1

  0
LINE
  5
16A
330
167
100
AcDbEntity
  8
Ｓ_１_１
  6
CONTINUOUS
 62
     2
100
AcDbLine
 10
1011.000045
 20
1983.999916
 30
0.0
 11
651.9999999999976
 21
1983.999916
 31
0.0
  0
LINE
  5
16B
330
167
100
AcDbEntity
  8
Ｓ_１_１
  6
CONTINUOUS
 62
     2
100
AcDbLine
 10
659.9999999999976
 20
1887.999956
 30
0.0
 11
659.9999999999976
 21
1959.999916
 31
0.0
  0
INSERT
  5
16C
330
167
100
AcDbEntity
  8
Ｓ_１_１
 62
     2
100
AcDbBlockReference
  2
EX_NORM
 10
659.9999999999976
 20
1863.999956
 30
0.0
 41
24.0
 42
24.0
 43
24.0
 50
270.0
  0
INSERT
  5
16D
330
167
100
AcDbEntity
  8
Ｓ_１_１
 62
     2
100
AcDbBlockReference
  2
EX_NORM
 10
659.9999999999976
 20
1983.999916
 30
0.0
 41
24.0
 42
24.0
 43
24.0
 50
90.0
  0
MTEXT
  5
16E
330
167
100
AcDbEntity
  8
Ｓ_１_１
 62
     2
100
AcDbMText
 10
637.9999999999977
 20
1923.999936
 30
0.0
 40
27.70323325635104
 41
0.0
 71
     5
 72
     1
  1
120
  7
EXCADDIM1
 11
0.0
 21
1.0
 31
0.0
  0
POINT
  5
16F
330
167
100
AcDbEntity
  8
DEFPOINTS
 62
     0
100
AcDbPoint
 10
1017.886825
 20
1863.999956
 30
0.0
  0
POINT
  5
170
330
167
100
AcDbEntity
  8
DEFPOINTS
 62
     0
100
AcDbPoint
 10
1023.000045
 20
1983.999916
 30
0.0
  0
POINT
  5
171
330
167
100
AcDbEntity
  8
DEFPOINTS
 62
     0
100
AcDbPoint
 10
659.9999999999976
 20
1983.999916
 30
0.0
  0
ENDBLK
  5
169
330
167
100
AcDbEntity
  8
0
100
AcDbBlockEnd
  0
BLOCK
  5
174
330
173
100
AcDbEntity
  8
0
100
AcDbBlockBegin
  2
*D22
 70
     1
 10
0.0
 20
0.0
 30
0.0
  3
*D22
  1

  0
LINE
  5
176
330
173
100
AcDbEntity
  8
Ｓ_１_１
  6
CONTINUOUS
 62
     2
100
AcDbLine
 10
1005.886825
 20
1863.999956
 30
0.0
 11
651.9999999999992
 21
1863.999956
 31
0.0
  0
LINE
  5
177
330
173
100
AcDbEntity
  8
Ｓ_１_１
  6
CONTINUOUS
 62
     2
100
AcDbLine
 10
659.9999999999992
 20
1472.999963
 30
0.0
 11
659.9999999999992
 21
1839.999956
 31
0.0
  0
INSERT
  5
178
330
173
100
AcDbEntity
  8
Ｓ_１_１
 62
     2
100
AcDbBlockReference
  2
EX_NORM
 10
659.9999999999992
 20
1448.999963
 30
0.0
 41
24.0
 42
24.0
 43
24.0
 50
270.0
  0
INSERT
  5
179
330
173
100
AcDbEntity
  8
Ｓ_１_１
 62
     2
100
AcDbBlockReference
  2
EX_NORM
 10
659.9999999999992
 20
1863.999956
 30
0.0
 41
24.0
 42
24.0
 43
24.0
 50
90.0
  0
MTEXT
  5
17A
330
173
100
AcDbEntity
  8
Ｓ_１_１
 62
     2
100
AcDbMText
 10
637.9999999999993
 20
1656.4999595
 30
0.0
 40
27.70323325635104
 41
0.0
 71
     5
 72
     1
  1
415
  7
EXCADDIM1
 11
0.0
 21
1.0
 31
0.0
  0
POINT
  5
17B
330
173
100
AcDbEntity
  8
DEFPOINTS
 62
     0
100
AcDbPoint
 10
953.750045
 20
1448.999963
 30
0.0
  0
POINT
  5
17C
330
173
100
AcDbEntity
  8
DEFPOINTS
 62
     0
100
AcDbPoint
 10
1017.886825
 20
1863.999956
 30
0.0
  0
POINT
  5
17D
330
173
100
AcDbEntity
  8
DEFPOINTS
 62
     0
100
AcDbPoint
 10
659.9999999999992
 20
1863.999956
 30
0.0
  0
ENDBLK
  5
175
330
173
100
AcDbEntity
  8
0
100
AcDbBlockEnd
  0
BLOCK
  5
180
330
17F
100
AcDbEntity
  8
0
100
AcDbBlockBegin
  2
*D23
 70
     1
 10
0.0
 20
0.0
 30
0.0
  3
*D23
  1

  0
LINE
  5
182
330
17F
100
AcDbEntity
  8
Ｓ_１_１
  6
CONTINUOUS
 62
     2
100
AcDbLine
 10
941.750045
 20
1448.999963
 30
0.0
 11
652.0000000000008
 21
1448.999963
 31
0.0
  0
LINE
  5
183
330
17F
100
AcDbEntity
  8
Ｓ_１_１
  6
CONTINUOUS
 62
     2
100
AcDbLine
 10
660.0000000000008
 20
1050.99998
 30
0.0
 11
660.0000000000008
 21
1424.999963
 31
0.0
  0
INSERT
  5
184
330
17F
100
AcDbEntity
  8
Ｓ_１_１
 62
     2
100
AcDbBlockReference
  2
EX_NORM
 10
660.0000000000008
 20
1026.99998
 30
0.0
 41
24.0
 42
24.0
 43
24.0
 50
270.0
  0
INSERT
  5
185
330
17F
100
AcDbEntity
  8
Ｓ_１_１
 62
     2
100
AcDbBlockReference
  2
EX_NORM
 10
660.0000000000008
 20
1448.999963
 30
0.0
 41
24.0
 42
24.0
 43
24.0
 50
90.0
  0
MTEXT
  5
186
330
17F
100
AcDbEntity
  8
Ｓ_１_１
 62
     2
100
AcDbMText
 10
638.0000000000009
 20
1237.9999715
 30
0.0
 40
27.70323325635104
 41
0.0
 71
     5
 72
     1
  1
422
  7
EXCADDIM1
 11
0.0
 21
1.0
 31
0.0
  0
POINT
  5
187
330
17F
100
AcDbEntity
  8
DEFPOINTS
 62
     0
100
AcDbPoint
 10
837.4266809999999
 20
1026.99998
 30
0.0
  0
POINT
  5
188
330
17F
100
AcDbEntity
  8
DEFPOINTS
 62
     0
100
AcDbPoint
 10
953.750045
 20
1448.999963
 30
0.0
  0
POINT
  5
189
330
17F
100
AcDbEntity
  8
DEFPOINTS
 62
     0
100
AcDbPoint
 10
660.0000000000008
 20
1448.999963
 30
0.0
  0
ENDBLK
  5
181
330
17F
100
AcDbEntity
  8
0
100
AcDbBlockEnd
  0
BLOCK
  5
18C
330
18B
100
AcDbEntity
  8
0
100
AcDbBlockBegin
  2
*D24
 70
     1
 10
0.0
 20
0.0
 30
0.0
  3
*D24
  1

  0
LINE
  5
18E
330
18B
100
AcDbEntity
  8
Ｓ_１_１
  6
CONTINUOUS
 62
     2
100
AcDbLine
 10
714.9999999999997
 20
1072.999988
 30
0.0
 11
714.9999999999997
 21
1424.999963
 31
0.0
  0
INSERT
  5
18F
330
18B
100
AcDbEntity
  8
Ｓ_１_１
 62
     2
100
AcDbBlockReference
  2
EX_NORM
 10
714.9999999999997
 20
1048.999988
 30
0.0
 41
24.0
 42
24.0
 43
24.0
 50
270.0
  0
INSERT
  5
190
330
18B
100
AcDbEntity
  8
Ｓ_１_１
 62
     2
100
AcDbBlockReference
  2
EX_NORM
 10
714.9999999999997
 20
1448.999963
 30
0.0
 41
24.0
 42
24.0
 43
24.0
 50
90.0
  0
MTEXT
  5
191
330
18B
100
AcDbEntity
  8
Ｓ_１_１
 62
     2
100
AcDbMText
 10
692.9999999999998
 20
1248.9999755
 30
0.0
 40
27.70323325635104
 41
0.0
 71
     5
 72
     1
  1
400
  7
EXCADDIM1
 11
0.0
 21
1.0
 31
0.0
  0
POINT
  5
192
330
18B
100
AcDbEntity
  8
DEFPOINTS
 62
     0
100
AcDbPoint
 10
925.0000369999998
 20
1048.999988
 30
0.0
  0
POINT
  5
193
330
18B
100
AcDbEntity
  8
DEFPOINTS
 62
     0
100
AcDbPoint
 10
953.7500369999998
 20
1448.999963
 30
0.0
  0
POINT
  5
194
330
18B
100
AcDbEntity
  8
DEFPOINTS
 62
     0
100
AcDbPoint
 10
714.9999999999997
 20
1448.999963
 30
0.0
  0
ENDBLK
  5
18D
330
18B
100
AcDbEntity
  8
0
100
AcDbBlockEnd
  0
BLOCK
  5
198
330
197
100
AcDbEntity
  8
0
100
AcDbBlockBegin
  2
*D25
 70
     1
 10
0.0
 20
0.0
 30
0.0
  3
*D25
  1

  0
LINE
  5
19A
330
197
100
AcDbEntity
  8
Ｓ_１_１
  6
CONTINUOUS
 62
     2
100
AcDbLine
 10
1020.000001
 20
1992.99996199999
 30
0.0
 11
1020.000001
 21
2043.0
 31
0.0
  0
LINE
  5
19B
330
197
100
AcDbEntity
  8
Ｓ_１_１
  6
CONTINUOUS
 62
     2
100
AcDbLine
 10
1179.999999
 20
1992.99995899999
 30
0.0
 11
1179.999999
 21
2043.0
 31
0.0
  0
LINE
  5
19C
330
197
100
AcDbEntity
  8
Ｓ_１_１
  6
CONTINUOUS
 62
     2
100
AcDbLine
 10
1044.000001
 20
2035.0
 30
0.0
 11
1155.999999
 21
2035.0
 31
0.0
  0
INSERT
  5
19D
330
197
100
AcDbEntity
  8
Ｓ_１_１
 62
     2
100
AcDbBlockReference
  2
EX_NORM
 10
1020.000001
 20
2035.0
 30
0.0
 41
24.0
 42
24.0
 43
24.0
 50
180.0
  0
INSERT
  5
19E
330
197
100
AcDbEntity
  8
Ｓ_１_１
 62
     2
100
AcDbBlockReference
  2
EX_NORM
 10
1179.999999
 20
2035.0
 30
0.0
 41
24.0
 42
24.0
 43
24.0
  0
MTEXT
  5
19F
330
197
100
AcDbEntity
  8
Ｓ_１_１
 62
     2
100
AcDbMText
 10
1248.999999
 20
2057.0
 30
0.0
 40
27.70323325635104
 41
0.0
 71
     5
 72
     1
  1
%%c160
  7
EXCADDIM1
  0
POINT
  5
1A0
330
197
100
AcDbEntity
  8
DEFPOINTS
 62
     0
100
AcDbPoint
 10
1020.000001
 20
1980.99996199999
 30
0.0
  0
POINT
  5
1A1
330
197
100
AcDbEntity
  8
DEFPOINTS
 62
     0
100
AcDbPoint
 10
1179.999999
 20
1980.99995899999
 30
0.0
  0
POINT
  5
1A2
330
197
100
AcDbEntity
  8
DEFPOINTS
 62
     0
100
AcDbPoint
 10
1179.999999
 20
2035.0
 30
0.0
  0
ENDBLK
  5
199
330
197
100
AcDbEntity
  8
0
100
AcDbBlockEnd
  0
BLOCK
  5
1A5
330
1A4
100
AcDbEntity
  8
0
100
AcDbBlockBegin
  2
*D26
 70
     1
 10
0.0
 20
0.0
 30
0.0
  3
*D26
  1

  0
LINE
  5
1A7
330
1A4
100
AcDbEntity
  8
Ｓ_１_１
  6
CONTINUOUS
 62
     2
100
AcDbLine
 10
913.0000409999998
 20
1048.99998799999
 30
0.0
 11
706.9999999999986
 21
1048.99998799999
 31
0.0
  0
LINE
  5
1A8
330
1A4
100
AcDbEntity
  8
Ｓ_１_１
  6
CONTINUOUS
 62
     2
100
AcDbLine
 10
825.4266981200999
 20
1026.99997999999
 30
0.0
 11
706.9999999999986
 21
1026.99997999999
 31
0.0
  0
LINE
  5
1A9
330
1A4
100
AcDbEntity
  8
Ｓ_１_１
  6
CONTINUOUS
 62
     2
100
AcDbLine
 10
714.9999999999992
 20
1048.99998799999
 30
0.0
 11
714.9999999999992
 21
1026.99997999999
 31
0.0
  0
LINE
  5
1AA
330
1A4
100
AcDbEntity
  8
Ｓ_１_１
  6
CONTINUOUS
 62
     2
100
AcDbLine
 10
714.9999999999992
 20
1072.99998799999
 30
0.0
 11
714.9999999999992
 21
1096.99998799999
 31
0.0
  0
LINE
  5
1AB
330
1A4
100
AcDbEntity
  8
Ｓ_１_１
  6
CONTINUOUS
 62
     2
100
AcDbLine
 10
714.9999999999992
 20
1002.99997999999
 30
0.0
 11
714.9999999999992
 21
978.9999799999898
 31
0.0
  0
INSERT
  5
1AC
330
1A4
100
AcDbEntity
  8
Ｓ_１_１
 62
     2
100
AcDbBlockReference
  2
EX_NORM
 10
714.9999999999992
 20
1048.99998799999
 30
0.0
 41
24.0
 42
24.0
 43
24.0
 50
270.0
  0
INSERT
  5
1AD
330
1A4
100
AcDbEntity
  8
Ｓ_１_１
 62
     2
100
AcDbBlockReference
  2
EX_NORM
 10
714.9999999999992
 20
1026.99997999999
 30
0.0
 41
24.0
 42
24.0
 43
24.0
 50
90.0
  0
MTEXT
  5
1AE
330
1A4
100
AcDbEntity
  8
Ｓ_１_１
 62
     2
100
AcDbMText
 10
692.9999999999987
 20
984.9999799999898
 30
0.0
 40
27.70323325635104
 41
0.0
 71
     5
 72
     1
  1
22
  7
EXCADDIM1
 11
0.0
 21
1.0
 31
0.0
  0
POINT
  5
1AF
330
1A4
100
AcDbEntity
  8
DEFPOINTS
 62
     0
100
AcDbPoint
 10
925.0000409999998
 20
1048.99998799999
 30
0.0
  0
POINT
  5
1B0
330
1A4
100
AcDbEntity
  8
DEFPOINTS
 62
     0
100
AcDbPoint
 10
837.4266981200999
 20
1026.99997999999
 30
0.0
  0
POINT
  5
1B1
330
1A4
100
AcDbEntity
  8
DEFPOINTS
 62
     0
100
AcDbPoint
 10
714.9999999999992
 20
1026.99997999999
 30
0.0
  0
ENDBLK
  5
1A6
330
1A4
100
AcDbEntity
  8
0
100
AcDbBlockEnd
  0
BLOCK
  5
1B4
330
1B3
100
AcDbEntity
  8
0
100
AcDbBlockBegin
  2
*D27
 70
     1
 10
0.0
 20
0.0
 30
0.0
  3
*D27
  1

  0
LINE
  5
1B6
330
1B3
100
AcDbEntity
  8
Ｓ_１_１
  6
CONTINUOUS
 62
     2
100
AcDbLine
 10
950.750012
 20
1457.99996099999
 30
0.0
 11
950.750012
 21
1603.0
 31
0.0
  0
LINE
  5
1B7
330
1B3
100
AcDbEntity
  8
Ｓ_１_１
  6
CONTINUOUS
 62
     2
100
AcDbLine
 10
1249.250028
 20
1457.99992099999
 30
0.0
 11
1249.250028
 21
1603.0
 31
0.0
  0
LINE
  5
1B8
330
1B3
100
AcDbEntity
  8
Ｓ_１_１
  6
CONTINUOUS
 62
     2
100
AcDbLine
 10
974.750012
 20
1595.0
 30
0.0
 11
1225.250028
 21
1595.0
 31
0.0
  0
INSERT
  5
1B9
330
1B3
100
AcDbEntity
  8
Ｓ_１_１
 62
     2
100
AcDbBlockReference
  2
EX_NORM
 10
950.750012
 20
1595.0
 30
0.0
 41
24.0
 42
24.0
 43
24.0
 50
180.0
  0
INSERT
  5
1BA
330
1B3
100
AcDbEntity
  8
Ｓ_１_１
 62
     2
100
AcDbBlockReference
  2
EX_NORM
 10
1249.250028
 20
1595.0
 30
0.0
 41
24.0
 42
24.0
 43
24.0
  0
MTEXT
  5
1BB
330
1B3
100
AcDbEntity
  8
Ｓ_１_１
 62
     2
100
AcDbMText
 10
1336.250028
 20
1617.0
 30
0.0
 40
27.70323325635104
 41
0.0
 71
     5
 72
     1
  1
%%c298.5
  7
EXCADDIM1
  0
POINT
  5
1BC
330
1B3
100
AcDbEntity
  8
DEFPOINTS
 62
     0
100
AcDbPoint
 10
950.750012
 20
1445.99996099999
 30
0.0
  0
POINT
  5
1BD
330
1B3
100
AcDbEntity
  8
DEFPOINTS
 62
     0
100
AcDbPoint
 10
1249.250028
 20
1445.99992099999
 30
0.0
  0
POINT
  5
1BE
330
1B3
100
AcDbEntity
  8
DEFPOINTS
 62
     0
100
AcDbPoint
 10
1249.250028
 20
1595.0
 30
0.0
  0
ENDBLK
  5
1B5
330
1B3
100
AcDbEntity
  8
0
100
AcDbBlockEnd
  0
BLOCK
  5
1C1
330
1C0
100
AcDbEntity
  8
0
100
AcDbBlockBegin
  2
*D28
 70
     1
 10
0.0
 20
0.0
 30
0.0
  3
*D28
  1

  0
LINE
  5
1C3
330
1C0
100
AcDbEntity
  8
Ｓ_１_１
  6
CONTINUOUS
 62
     2
100
AcDbLine
 10
923.0076320000001
 20
495.0
 30
0.0
 11
871.9999999999999
 21
495.0
 31
0.0
  0
LINE
  5
1C4
330
1C0
100
AcDbEntity
  8
Ｓ_１_１
  6
CONTINUOUS
 62
     2
100
AcDbLine
 10
1068.606919
 20
475.0
 30
0.0
 11
871.9999999999999
 21
475.0
 31
0.0
  0
LINE
  5
1C5
330
1C0
100
AcDbEntity
  8
Ｓ_１_１
  6
CONTINUOUS
 62
     2
100
AcDbLine
 10
880.0
 20
495.0
 30
0.0
 11
880.0
 21
475.0
 31
0.0
  0
LINE
  5
1C6
330
1C0
100
AcDbEntity
  8
Ｓ_１_１
  6
CONTINUOUS
 62
     2
100
AcDbLine
 10
880.0
 20
519.0
 30
0.0
 11
880.0
 21
543.0
 31
0.0
  0
LINE
  5
1C7
330
1C0
100
AcDbEntity
  8
Ｓ_１_１
  6
CONTINUOUS
 62
     2
100
AcDbLine
 10
880.0
 20
451.0
 30
0.0
 11
880.0
 21
427.0
 31
0.0
  0
INSERT
  5
1C8
330
1C0
100
AcDbEntity
  8
Ｓ_１_１
 62
     2
100
AcDbBlockReference
  2
EX_NORM
 10
880.0
 20
495.0
 30
0.0
 41
24.0
 42
24.0
 43
24.0
 50
270.0
  0
INSERT
  5
1C9
330
1C0
100
AcDbEntity
  8
Ｓ_１_１
 62
     2
100
AcDbBlockReference
  2
EX_NORM
 10
880.0
 20
475.0
 30
0.0
 41
24.0
 42
24.0
 43
24.0
 50
90.0
  0
MTEXT
  5
1CA
330
1C0
100
AcDbEntity
  8
Ｓ_１_１
 62
     2
100
AcDbMText
 10
858.0000000000001
 20
432.9999999999998
 30
0.0
 40
27.70323325635104
 41
0.0
 71
     5
 72
     1
  1
20
  7
EXCADDIM1
 11
0.0
 21
1.0
 31
0.0
  0
POINT
  5
1CB
330
1C0
100
AcDbEntity
  8
DEFPOINTS
 62
     0
100
AcDbPoint
 10
935.0076320000001
 20
495.0
 30
0.0
  0
POINT
  5
1CC
330
1C0
100
AcDbEntity
  8
DEFPOINTS
 62
     0
100
AcDbPoint
 10
1080.606919
 20
475.0
 30
0.0
  0
POINT
  5
1CD
330
1C0
100
AcDbEntity
  8
DEFPOINTS
 62
     0
100
AcDbPoint
 10
880.0
 20
475.0
 30
0.0
  0
ENDBLK
  5
1C2
330
1C0
100
AcDbEntity
  8
0
100
AcDbBlockEnd
  0
BLOCK
  5
1D0
330
1CF
100
AcDbEntity
  8
0
100
AcDbBlockBegin
  2
*D29
 70
     1
 10
0.0
 20
0.0
 30
0.0
  3
*D29
  1

  0
LINE
  5
1D2
330
1CF
100
AcDbEntity
  8
Ｓ_１_１
  6
CONTINUOUS
 62
     2
100
AcDbLine
 10
1010.904554055766
 20
385.9045540557864
 30
0.0
 11
1100.0
 21
475.0
 31
0.0
  0
MTEXT
  5
1D3
330
1CF
100
AcDbEntity
  8
Ｓ_１_１
 62
     2
100
AcDbMText
 10
912.4933708737199
 20
318.6060692459579
 30
0.0
 40
27.70323325635104
 41
0.0
 71
     5
 72
     1
  1
R150
  7
EXCADDIM1
 11
0.7071067811866265
 21
0.7071067811864684
 31
0.0
  0
LINE
  5
1D4
330
1CF
100
AcDbEntity
  8
Ｓ_１_１
  6
CONTINUOUS
 62
     2
100
AcDbLine
 10
1100.0
 20
475.0
 30
0.0
 11
993.9339913072874
 21
368.9339913073111
 31
0.0
  0
INSERT
  5
1D5
330
1CF
100
AcDbEntity
  8
Ｓ_１_１
 62
     2
100
AcDbBlockReference
  2
EX_NORM
 10
993.9339913072874
 20
368.9339913073111
 30
0.0
 41
24.0
 42
24.0
 43
24.0
 50
224.9999999999936
  0
POINT
  5
1D6
330
1CF
100
AcDbEntity
  8
DEFPOINTS
 62
     0
100
AcDbPoint
 10
993.9339913072874
 20
368.9339913073111
 30
0.0
  0
POINT
  5
1D7
330
1CF
100
AcDbEntity
  8
DEFPOINTS
 62
     0
100
AcDbPoint
 10
1100.0
 20
475.0
 30
0.0
  0
ENDBLK
  5
1D1
330
1CF
100
AcDbEntity
  8
0
100
AcDbBlockEnd
  0
BLOCK
  5
1DA
330
1D9
100
AcDbEntity
  8
0
100
AcDbBlockBegin
  2
*D30
 70
     1
 10
0.0
 20
0.0
 30
0.0
  3
*D30
  1

  0
LINE
  5
1DC
330
1D9
100
AcDbEntity
  8
Ｓ_１_１
  6
CONTINUOUS
 62
     2
100
AcDbLine
 10
2209.999996999999
 20
1561.99998299999
 30
0.0
 11
2209.999996999999
 21
1658.0
 31
0.0
  0
LINE
  5
1DD
330
1D9
100
AcDbEntity
  8
Ｓ_１_１
  6
CONTINUOUS
 62
     2
100
AcDbLine
 10
2174.999998
 20
1650.0
 30
0.0
 11
2209.999996999999
 21
1650.0
 31
0.0
  0
LINE
  5
1DE
330
1D9
100
AcDbEntity
  8
Ｓ_１_１
  6
CONTINUOUS
 62
     2
100
AcDbLine
 10
2150.999998
 20
1650.0
 30
0.0
 11
2126.999998
 21
1650.0
 31
0.0
  0
LINE
  5
1DF
330
1D9
100
AcDbEntity
  8
Ｓ_１_１
  6
CONTINUOUS
 62
     2
100
AcDbLine
 10
2233.999996999999
 20
1650.0
 30
0.0
 11
2257.999996999999
 21
1650.0
 31
0.0
  0
INSERT
  5
1E0
330
1D9
100
AcDbEntity
  8
Ｓ_１_１
 62
     2
100
AcDbBlockReference
  2
EX_NORM
 10
2174.999998
 20
1650.0
 30
0.0
 41
24.0
 42
24.0
 43
24.0
  0
INSERT
  5
1E1
330
1D9
100
AcDbEntity
  8
Ｓ_１_１
 62
     2
100
AcDbBlockReference
  2
EX_NORM
 10
2209.999996999999
 20
1650.0
 30
0.0
 41
24.0
 42
24.0
 43
24.0
 50
180.0
  0
MTEXT
  5
1E2
330
1D9
100
AcDbEntity
  8
Ｓ_１_１
 62
     2
100
AcDbMText
 10
2251.999996999999
 20
1672.0
 30
0.0
 40
27.70323325635104
 41
0.0
 71
     5
 72
     1
  1
35
  7
EXCADDIM1
  0
POINT
  5
1E3
330
1D9
100
AcDbEntity
  8
DEFPOINTS
 62
     0
100
AcDbPoint
 10
2174.999998
 20
1529.99998299999
 30
0.0
  0
POINT
  5
1E4
330
1D9
100
AcDbEntity
  8
DEFPOINTS
 62
     0
100
AcDbPoint
 10
2209.999996999999
 20
1549.99998299999
 30
0.0
  0
POINT
  5
1E5
330
1D9
100
AcDbEntity
  8
DEFPOINTS
 62
     0
100
AcDbPoint
 10
2209.999996999999
 20
1650.0
 30
0.0
  0
ENDBLK
  5
1DB
330
1D9
100
AcDbEntity
  8
0
100
AcDbBlockEnd
  0
BLOCK
  5
1E8
330
1E7
100
AcDbEntity
  8
0
100
AcDbBlockBegin
  2
*D31
 70
     1
 10
0.0
 20
0.0
 30
0.0
  3
*D31
  1

  0
LINE
  5
1EA
330
1E7
100
AcDbEntity
  8
Ｓ_１_１
  6
CONTINUOUS
 62
     2
100
AcDbLine
 10
1860.000002
 20
1561.99998299999
 30
0.0
 11
1860.000002
 21
1658.0
 31
0.0
  0
LINE
  5
1EB
330
1E7
100
AcDbEntity
  8
Ｓ_１_１
  6
CONTINUOUS
 62
     2
100
AcDbLine
 10
1895.000002
 20
1650.0
 30
0.0
 11
1860.000002
 21
1650.0
 31
0.0
  0
LINE
  5
1EC
330
1E7
100
AcDbEntity
  8
Ｓ_１_１
  6
CONTINUOUS
 62
     2
100
AcDbLine
 10
1919.000002
 20
1650.0
 30
0.0
 11
1943.000002
 21
1650.0
 31
0.0
  0
LINE
  5
1ED
330
1E7
100
AcDbEntity
  8
Ｓ_１_１
  6
CONTINUOUS
 62
     2
100
AcDbLine
 10
1836.000002
 20
1650.0
 30
0.0
 11
1812.000002
 21
1650.0
 31
0.0
  0
INSERT
  5
1EE
330
1E7
100
AcDbEntity
  8
Ｓ_１_１
 62
     2
100
AcDbBlockReference
  2
EX_NORM
 10
1895.000002
 20
1650.0
 30
0.0
 41
24.0
 42
24.0
 43
24.0
 50
180.0
  0
INSERT
  5
1EF
330
1E7
100
AcDbEntity
  8
Ｓ_１_１
 62
     2
100
AcDbBlockReference
  2
EX_NORM
 10
1860.000002
 20
1650.0
 30
0.0
 41
24.0
 42
24.0
 43
24.0
  0
MTEXT
  5
1F0
330
1E7
100
AcDbEntity
  8
Ｓ_１_１
 62
     2
100
AcDbMText
 10
1818.000002
 20
1672.0
 30
0.0
 40
27.70323325635104
 41
0.0
 71
     5
 72
     1
  1
35
  7
EXCADDIM1
  0
POINT
  5
1F1
330
1E7
100
AcDbEntity
  8
DEFPOINTS
 62
     0
100
AcDbPoint
 10
1895.000002
 20
1529.99998299999
 30
0.0
  0
POINT
  5
1F2
330
1E7
100
AcDbEntity
  8
DEFPOINTS
 62
     0
100
AcDbPoint
 10
1860.000002
 20
1549.99998299999
 30
0.0
  0
POINT
  5
1F3
330
1E7
100
AcDbEntity
  8
DEFPOINTS
 62
     0
100
AcDbPoint
 10
1860.000002
 20
1650.0
 30
0.0
  0
ENDBLK
  5
1E9
330
1E7
100
AcDbEntity
  8
0
100
AcDbBlockEnd
  0
BLOCK
  5
1F6
330
1F5
100
AcDbEntity
  8
0
100
AcDbBlockBegin
  2
*D32
 70
     1
 10
0.0
 20
0.0
 30
0.0
  3
*D32
  1

  0
LINE
  5
1F8
330
1F5
100
AcDbEntity
  8
Ｓ_１_１
  6
CONTINUOUS
 62
     2
100
AcDbLine
 10
1870.500002
 20
1515.00000199999
 30
0.0
 11
1752.000000000005
 21
1515.00000199999
 31
0.0
  0
LINE
  5
1F9
330
1F5
100
AcDbEntity
  8
Ｓ_１_１
  6
CONTINUOUS
 62
     2
100
AcDbLine
 10
1760.000000000005
 20
1549.99998299999
 30
0.0
 11
1760.000000000005
 21
1515.00000199999
 31
0.0
  0
LINE
  5
1FA
330
1F5
100
AcDbEntity
  8
Ｓ_１_１
  6
CONTINUOUS
 62
     2
100
AcDbLine
 10
1760.000000000005
 20
1573.99998299999
 30
0.0
 11
1760.000000000005
 21
1597.99998299999
 31
0.0
  0
LINE
  5
1FB
330
1F5
100
AcDbEntity
  8
Ｓ_１_１
  6
CONTINUOUS
 62
     2
100
AcDbLine
 10
1760.000000000005
 20
1491.00000199999
 30
0.0
 11
1760.000000000005
 21
1467.00000199999
 31
0.0
  0
INSERT
  5
1FC
330
1F5
100
AcDbEntity
  8
Ｓ_１_１
 62
     2
100
AcDbBlockReference
  2
EX_NORM
 10
1760.000000000005
 20
1549.99998299999
 30
0.0
 41
24.0
 42
24.0
 43
24.0
 50
270.0
  0
INSERT
  5
1FD
330
1F5
100
AcDbEntity
  8
Ｓ_１_１
 62
     2
100
AcDbBlockReference
  2
EX_NORM
 10
1760.000000000005
 20
1515.00000199999
 30
0.0
 41
24.0
 42
24.0
 43
24.0
 50
90.0
  0
MTEXT
  5
1FE
330
1F5
100
AcDbEntity
  8
Ｓ_１_１
 62
     2
100
AcDbMText
 10
1738.000000000006
 20
1591.999982999989
 30
0.0
 40
27.70323325635104
 41
0.0
 71
     5
 72
     1
  1
35
  7
EXCADDIM1
 11
0.0
 21
1.0
 31
0.0
  0
POINT
  5
1FF
330
1F5
100
AcDbEntity
  8
DEFPOINTS
 62
     0
100
AcDbPoint
 10
1860.000002
 20
1549.99998299999
 30
0.0
  0
POINT
  5
200
330
1F5
100
AcDbEntity
  8
DEFPOINTS
 62
     0
100
AcDbPoint
 10
1882.500002
 20
1515.00000199999
 30
0.0
  0
POINT
  5
201
330
1F5
100
AcDbEntity
  8
DEFPOINTS
 62
     0
100
AcDbPoint
 10
1760.000000000005
 20
1515.00000199999
 30
0.0
  0
ENDBLK
  5
1F7
330
1F5
100
AcDbEntity
  8
0
100
AcDbBlockEnd
  0
BLOCK
  5
204
330
203
100
AcDbEntity
  8
0
100
AcDbBlockBegin
  2
*D33
 70
     1
 10
0.0
 20
0.0
 30
0.0
  3
*D33
  1

  0
LINE
  5
206
330
203
100
AcDbEntity
  8
Ｓ_１_１
  6
CONTINUOUS
 62
     2
100
AcDbLine
 10
1760.000000000001
 20
1234.99998799999
 30
0.0
 11
1760.000000000001
 21
1199.99998799999
 31
0.0
  0
LINE
  5
207
330
203
100
AcDbEntity
  8
Ｓ_１_１
  6
CONTINUOUS
 62
     2
100
AcDbLine
 10
1760.000000000001
 20
1258.99998799999
 30
0.0
 11
1760.000000000001
 21
1282.99998799999
 31
0.0
  0
LINE
  5
208
330
203
100
AcDbEntity
  8
Ｓ_１_１
  6
CONTINUOUS
 62
     2
100
AcDbLine
 10
1760.000000000001
 20
1175.99998799999
 30
0.0
 11
1760.000000000001
 21
1151.99998799999
 31
0.0
  0
INSERT
  5
209
330
203
100
AcDbEntity
  8
Ｓ_１_１
 62
     2
100
AcDbBlockReference
  2
EX_NORM
 10
1760.000000000001
 20
1234.99998799999
 30
0.0
 41
24.0
 42
24.0
 43
24.0
 50
270.0
  0
INSERT
  5
20A
330
203
100
AcDbEntity
  8
Ｓ_１_１
 62
     2
100
AcDbBlockReference
  2
EX_NORM
 10
1760.000000000001
 20
1199.99998799999
 30
0.0
 41
24.0
 42
24.0
 43
24.0
 50
90.0
  0
MTEXT
  5
20B
330
203
100
AcDbEntity
  8
Ｓ_１_１
 62
     2
100
AcDbMText
 10
1738.0
 20
1157.99998799999
 30
0.0
 40
27.70323325635104
 41
0.0
 71
     5
 72
     1
  1
35
  7
EXCADDIM1
 11
0.0
 21
1.0
 31
0.0
  0
POINT
  5
20C
330
203
100
AcDbEntity
  8
DEFPOINTS
 62
     0
100
AcDbPoint
 10
1880.000002
 20
1234.99998799999
 30
0.0
  0
POINT
  5
20D
330
203
100
AcDbEntity
  8
DEFPOINTS
 62
     0
100
AcDbPoint
 10
1860.000002
 20
1199.99998799999
 30
0.0
  0
POINT
  5
20E
330
203
100
AcDbEntity
  8
DEFPOINTS
 62
     0
100
AcDbPoint
 10
1760.000000000001
 20
1199.99998799999
 30
0.0
  0
ENDBLK
  5
205
330
203
100
AcDbEntity
  8
0
100
AcDbBlockEnd
  0
BLOCK
  5
211
330
210
100
AcDbEntity
  8
0
100
AcDbBlockBegin
  2
*D34
 70
     1
 10
0.0
 20
0.0
 30
0.0
  3
*D34
  1

  0
LINE
  5
213
330
210
100
AcDbEntity
  8
Ｓ_１_１
  6
CONTINUOUS
 62
     2
100
AcDbLine
 10
1970.000001
 20
769.000004
 30
0.0
 11
1970.000001
 21
833.0
 31
0.0
  0
LINE
  5
214
330
210
100
AcDbEntity
  8
Ｓ_１_１
  6
CONTINUOUS
 62
     2
100
AcDbLine
 10
2099.999998999999
 20
769.000004
 30
0.0
 11
2099.999998999999
 21
833.0
 31
0.0
  0
LINE
  5
215
330
210
100
AcDbEntity
  8
Ｓ_１_１
  6
CONTINUOUS
 62
     2
100
AcDbLine
 10
1994.000001
 20
825.0
 30
0.0
 11
2075.999998999999
 21
825.0
 31
0.0
  0
INSERT
  5
216
330
210
100
AcDbEntity
  8
Ｓ_１_１
 62
     2
100
AcDbBlockReference
  2
EX_NORM
 10
1970.000001
 20
825.0
 30
0.0
 41
24.0
 42
24.0
 43
24.0
 50
180.0
  0
INSERT
  5
217
330
210
100
AcDbEntity
  8
Ｓ_１_１
 62
     2
100
AcDbBlockReference
  2
EX_NORM
 10
2099.999998999999
 20
825.0
 30
0.0
 41
24.0
 42
24.0
 43
24.0
  0
MTEXT
  5
218
330
210
100
AcDbEntity
  8
Ｓ_１_１
 62
     2
100
AcDbMText
 10
2150.999998999999
 20
847.0
 30
0.0
 40
27.70323325635104
 41
0.0
 71
     5
 72
     1
  1
130
  7
EXCADDIM1
  0
POINT
  5
219
330
210
100
AcDbEntity
  8
DEFPOINTS
 62
     0
100
AcDbPoint
 10
1970.000001
 20
757.000004
 30
0.0
  0
POINT
  5
21A
330
210
100
AcDbEntity
  8
DEFPOINTS
 62
     0
100
AcDbPoint
 10
2099.999998999999
 20
757.000004
 30
0.0
  0
POINT
  5
21B
330
210
100
AcDbEntity
  8
DEFPOINTS
 62
     0
100
AcDbPoint
 10
2099.999998999999
 20
825.0
 30
0.0
  0
ENDBLK
  5
212
330
210
100
AcDbEntity
  8
0
100
AcDbBlockEnd
  0
BLOCK
  5
21E
330
21D
100
AcDbEntity
  8
0
100
AcDbBlockBegin
  2
*D35
 70
     1
 10
0.0
 20
0.0
 30
0.0
  3
*D35
  1

  0
LINE
  5
220
330
21D
100
AcDbEntity
  8
Ｓ_１_１
  6
CONTINUOUS
 62
     2
100
AcDbLine
 10
1249.999998
 20
463.0000030000001
 30
0.0
 11
1249.999998
 21
212.0000000000003
 31
0.0
  0
LINE
  5
221
330
21D
100
AcDbEntity
  8
Ｓ_１_１
  6
CONTINUOUS
 62
     2
100
AcDbLine
 10
950.0000399999999
 20
463.0000030000001
 30
0.0
 11
950.0000399999999
 21
212.0000000000003
 31
0.0
  0
LINE
  5
222
330
21D
100
AcDbEntity
  8
Ｓ_１_１
  6
CONTINUOUS
 62
     2
100
AcDbLine
 10
1225.999998
 20
220.0
 30
0.0
 11
974.0000399999999
 21
220.0
 31
0.0
  0
INSERT
  5
223
330
21D
100
AcDbEntity
  8
Ｓ_１_１
 62
     2
100
AcDbBlockReference
  2
EX_NORM
 10
1249.999998
 20
220.0
 30
0.0
 41
24.0
 42
24.0
 43
24.0
  0
INSERT
  5
224
330
21D
100
AcDbEntity
  8
Ｓ_１_１
 62
     2
100
AcDbBlockReference
  2
EX_NORM
 10
950.0000399999999
 20
220.0
 30
0.0
 41
24.0
 42
24.0
 43
24.0
 50
180.0
  0
MTEXT
  5
225
330
21D
100
AcDbEntity
  8
Ｓ_１_１
 62
     2
100
AcDbMText
 10
1100.000019
 20
242.0
 30
0.0
 40
27.70323325635104
 41
0.0
 71
     5
 72
     1
  1
300
  7
EXCADDIM1
  0
POINT
  5
226
330
21D
100
AcDbEntity
  8
DEFPOINTS
 62
     0
100
AcDbPoint
 10
1249.999998
 20
475.0000030000001
 30
0.0
  0
POINT
  5
227
330
21D
100
AcDbEntity
  8
DEFPOINTS
 62
     0
100
AcDbPoint
 10
950.0000399999999
 20
475.0000030000001
 30
0.0
  0
POINT
  5
228
330
21D
100
AcDbEntity
  8
DEFPOINTS
 62
     0
100
AcDbPoint
 10
950.0000399999999
 20
220.0
 30
0.0
  0
ENDBLK
  5
21F
330
21D
100
AcDbEntity
  8
0
100
AcDbBlockEnd
  0
BLOCK
  5
350
330
34F
100
AcDbEntity
  8
0
100
AcDbBlockBegin
  2
*D36
 70
     1
 10
0.0
 20
0.0
 30
0.0
  3
*D36
  1

  0
LINE
  5
352
330
34F
100
AcDbEntity
  8
Ｓ_１_１
  6
CONTINUOUS
 62
     2
100
AcDbLine
 10
1170.003567094828
 20
424.9964329051725
 30
0.0
 11
1307.634466832657
 21
287.3655331673438
 31
0.0
  0
LINE
  5
353
330
34F
100
AcDbEntity
  8
Ｓ_１_１
  6
CONTINUOUS
 62
     2
100
AcDbLine
 10
1029.996432905172
 20
565.0035670948275
 30
0.0
 11
1013.025870156695
 21
581.9741298433047
 31
0.0
  0
MTEXT
  5
354
330
34F
100
AcDbEntity
  8
Ｓ_１_１
 62
     2
100
AcDbMText
 10
1292.707910139814
 20
327.5454368908307
 30
0.0
 40
27.70323325635104
 41
0.0
 71
     5
 72
     1
  1
%%c150
  7
EXCADDIM1
 11
0.7071067811865483
 21
-0.7071067811865468
 31
0.0
  0
LINE
  5
355
330
34F
100
AcDbEntity
  8
Ｓ_１_１
  6
CONTINUOUS
 62
     2
100
AcDbLine
 10
1046.96699565365
 20
548.0330043463504
 30
0.0
 11
1153.03300434635
 21
441.9669956536496
 31
0.0
  0
INSERT
  5
356
330
34F
100
AcDbEntity
  8
Ｓ_１_１
 62
     2
100
AcDbBlockReference
  2
EX_NORM
 10
1046.96699565365
 20
548.0330043463504
 30
0.0
 41
24.0
 42
24.0
 43
24.0
 50
315.0000000000001
  0
INSERT
  5
357
330
34F
100
AcDbEntity
  8
Ｓ_１_１
 62
     2
100
AcDbBlockReference
  2
EX_NORM
 10
1153.03300434635
 20
441.9669956536496
 30
0.0
 41
24.0
 42
24.0
 43
24.0
 50
135.0000000000001
  0
POINT
  5
358
330
34F
100
AcDbEntity
  8
DEFPOINTS
 62
     0
100
AcDbPoint
 10
1153.03300434635
 20
441.9669956536496
 30
0.0
  0
POINT
  5
359
330
34F
100
AcDbEntity
  8
DEFPOINTS
 62
     0
100
AcDbPoint
 10
1046.96699565365
 20
548.0330043463504
 30
0.0
  0
ENDBLK
  5
351
330
34F
100
AcDbEntity
  8
0
100
AcDbBlockEnd
  0
ENDSEC
  0
SECTION
  2
ENTITIES
  0
LINE
  5
D5
330
1F
100
AcDbEntity
  8
図面枠
  6
CONTINUOUS
 62
     5
100
AcDbLine
 10
80.0
 20
80.0
 30
0.0
 11
3280.0
 21
80.0
 31
0.0
  0
LINE
  5
D6
330
1F
100
AcDbEntity
  8
図面枠
  6
CONTINUOUS
 62
     5
100
AcDbLine
 10
3280.0
 20
80.0
 30
0.0
 11
3280.0
 21
2296.0
 31
0.0
  0
LINE
  5
D7
330
1F
100
AcDbEntity
  8
図面枠
  6
CONTINUOUS
 62
     5
100
AcDbLine
 10
3280.0
 20
2296.0
 30
0.0
 11
80.00000000000041
 21
2296.0
 31
0.0
  0
LINE
  5
D8
330
1F
100
AcDbEntity
  8
図面枠
  6
CONTINUOUS
 62
     5
100
AcDbLine
 10
80.00000000000041
 20
2296.0
 30
0.0
 11
80.0
 21
80.0
 31
0.0
  0
TEXT
  5
DA
330
1F
100
AcDbEntity
  8
図面枠
  6
CONTINUOUS
 62
     4
100
AcDbText
 10
3096.0
 20
2171.0625
 30
0.0
 40
27.70323325635104
  1
kN
 41
0.9992307692307693
  7
EXCADTTF1
 72
     5
 11
3132.0
 21
2171.0625
 31
0.0
100
AcDbText
  0
TEXT
  5
DB
330
1F
100
AcDbEntity
  8
図面枠
  6
CONTINUOUS
 62
     4
100
AcDbText
 10
2616.0
 20
2171.0625
 30
0.0
 40
27.70323325635104
  1
能力
 41
0.9992307692307693
  7
EXCADTTF1
 72
     5
 11
2688.0
 21
2171.0625
 31
0.0
100
AcDbText
  0
LINE
  5
DC
330
1F
100
AcDbEntity
  8
図面枠
  6
CONTINUOUS
 62
     3
100
AcDbLine
 10
2600.0
 20
2256.0
 30
0.0
 11
3240.0
 21
2256.0
 31
0.0
  0
LINE
  5
DD
330
1F
100
AcDbEntity
  8
図面枠
  6
CONTINUOUS
 62
     3
100
AcDbLine
 10
2600.0
 20
2208.0
 30
0.0
 11
3240.0
 21
2208.0
 31
0.0
  0
LINE
  5
DE
330
1F
100
AcDbEntity
  8
図面枠
  6
CONTINUOUS
 62
     3
100
AcDbLine
 10
120.0
 20
2256.0
 30
0.0
 11
120.0
 21
2184.0
 31
0.0
  0
LINE
  5
DF
330
1F
100
AcDbEntity
  8
図面枠
  6
CONTINUOUS
 62
     3
100
AcDbLine
 10
3240.0
 20
192.0
 30
0.0
 11
3240.0
 21
120.0
 31
0.0
  0
LINE
  5
E0
330
1F
100
AcDbEntity
  8
図面枠
  6
CONTINUOUS
 62
     3
100
AcDbLine
 10
3024.0
 20
192.0
 30
0.0
 11
3024.0
 21
120.0
 31
0.0
  0
LINE
  5
E1
330
1F
100
AcDbEntity
  8
図面枠
  6
CONTINUOUS
 62
     3
100
AcDbLine
 10
3024.0
 20
192.0
 30
0.0
 11
3240.0
 21
192.0
 31
0.0
  0
LINE
  5
E2
330
1F
100
AcDbEntity
  8
図面枠
  6
CONTINUOUS
 62
     3
100
AcDbLine
 10
3024.0
 20
120.0
 30
0.0
 11
3240.0
 21
120.0
 31
0.0
  0
TEXT
  5
E3
330
1F
100
AcDbEntity
  8
図面枠
  6
CONTINUOUS
 62
     4
100
AcDbText
 10
3048.0
 20
138.75
 30
0.0
 40
36.93764434180139
  1
OJS-200
 41
0.9992307692307691
  7
EXCADTTF1
 72
     5
 11
3216.0
 21
138.75
 31
0.0
100
AcDbText
  0
TEXT
  5
E4
330
1F
100
AcDbEntity
  8
図面枠
  6
CONTINUOUS
 62
     4
100
AcDbText
 10
2992.0
 20
2171.0625
 30
0.0
 40
27.70323325635104
  1
2000
 41
0.9992307692307693
  7
EXCADTTF1
 72
     5
 11
3064.0
 21
2171.0625
 31
0.0
100
AcDbText
  0
TEXT
  5
E5
330
1F
100
AcDbEntity
  8
図面枠
  6
CONTINUOUS
 62
     4
100
AcDbText
 10
144.0
 20
2202.75
 30
0.0
 40
36.93764434180139
  1
2000kN200ストローク降下装置
 41
0.9992307692307696
  7
EXCADTTF1
 72
     5
 11
792.0
 21
2202.75
 31
0.0
100
AcDbText
  0
LINE
  5
E6
330
1F
100
AcDbEntity
  8
図面枠
  6
CONTINUOUS
 62
     3
100
AcDbLine
 10
816.0000000000006
 20
2256.0
 30
0.0
 11
816.0000000000006
 21
2184.0
 31
0.0
  0
LINE
  5
E7
330
1F
100
AcDbEntity
  8
図面枠
  6
CONTINUOUS
 62
     3
100
AcDbLine
 10
120.0
 20
2256.0
 30
0.0
 11
816.0000000000006
 21
2256.0
 31
0.0
  0
LINE
  5
E8
330
1F
100
AcDbEntity
  8
図面枠
  6
CONTINUOUS
 62
     3
100
AcDbLine
 10
120.0
 20
2184.0
 30
0.0
 11
816.0000000000006
 21
2184.0
 31
0.0
  0
TEXT
  5
E9
330
1F
100
AcDbEntity
  8
図面枠
  6
CONTINUOUS
 62
     4
100
AcDbText
 10
2740.0
 20
2219.0625
 30
0.0
 40
27.70323325635104
  1
CH型油圧ジャッキ仕様
 41
0.9992307692307693
  7
EXCADTTF1
 72
     5
 11
3100.0
 21
2219.0625
 31
0.0
100
AcDbText
  0
TEXT
  5
EA
330
1F
100
AcDbEntity
  8
図面枠
  6
CONTINUOUS
 62
     4
100
AcDbText
 10
3096.0
 20
2123.0625
 30
0.0
 40
27.70323325635104
  1
mm
 41
0.9992307692307693
  7
EXCADTTF1
 72
     5
 11
3132.0
 21
2123.0625
 31
0.0
100
AcDbText
  0
TEXT
  5
EB
330
1F
100
AcDbEntity
  8
図面枠
  6
CONTINUOUS
 62
     4
100
AcDbText
 10
3096.0
 20
2075.0625
 30
0.0
 40
27.70323325635104
  1
mm
 41
0.9992307692307693
  7
EXCADTTF1
 72
     5
 11
3132.0
 21
2075.0625
 31
0.0
100
AcDbText
  0
TEXT
  5
EC
330
1F
100
AcDbEntity
  8
図面枠
  6
CONTINUOUS
 62
     4
100
AcDbText
 10
3096.0
 20
2027.0625
 30
0.0
 40
27.70323325635104
  1
mm
 41
0.9992307692307693
  7
EXCADTTF1
 72
     5
 11
3132.0
 21
2027.0625
 31
0.0
100
AcDbText
  0
TEXT
  5
ED
330
1F
100
AcDbEntity
  8
図面枠
  6
CONTINUOUS
 62
     4
100
AcDbText
 10
3096.0
 20
1979.0625
 30
0.0
 40
27.70323325635104
  1
mm
 41
0.9992307692307693
  7
EXCADTTF1
 72
     5
 11
3132.0
 21
1979.0625
 31
0.0
100
AcDbText
  0
TEXT
  5
EE
330
1F
100
AcDbEntity
  8
図面枠
  6
CONTINUOUS
 62
     4
100
AcDbText
 10
3096.0
 20
1931.0625
 30
0.0
 40
27.70323325635104
  1
mm
 41
0.9992307692307693
  7
EXCADTTF1
 72
     5
 11
3132.0
 21
1931.0625
 31
0.0
100
AcDbText
  0
TEXT
  5
EF
330
1F
100
AcDbEntity
  8
図面枠
  6
CONTINUOUS
 62
     4
100
AcDbText
 10
3096.0
 20
1835.0625
 30
0.0
 40
27.70323325635104
  1
MPa
 41
0.9992307692307694
  7
EXCADTTF1
 72
     5
 11
3150.0
 21
1835.0625
 31
0.0
100
AcDbText
  0
TEXT
  5
F0
330
1F
100
AcDbEntity
  8
図面枠
  6
CONTINUOUS
 62
     4
100
AcDbText
 10
2616.0
 20
2123.0625
 30
0.0
 40
27.70323325635104
  1
ストローク
 41
0.9992307692307693
  7
EXCADTTF1
 72
     5
 11
2796.0
 21
2123.0625
 31
0.0
100
AcDbText
  0
TEXT
  5
F1
330
1F
100
AcDbEntity
  8
図面枠
  6
CONTINUOUS
 62
     4
100
AcDbText
 10
2616.0
 20
2075.0625
 30
0.0
 40
27.70323325635104
  1
最低機械高
 41
0.9992307692307693
  7
EXCADTTF1
 72
     5
 11
2796.0
 21
2075.0625
 31
0.0
100
AcDbText
  0
TEXT
  5
F2
330
1F
100
AcDbEntity
  8
図面枠
  6
CONTINUOUS
 62
     4
100
AcDbText
 10
2616.0
 20
2027.0625
 30
0.0
 40
27.70323325635104
  1
シリンダー外径
 41
0.9992307692307691
  7
EXCADTTF1
 72
     5
 11
2868.0
 21
2027.0625
 31
0.0
100
AcDbText
  0
TEXT
  5
F3
330
1F
100
AcDbEntity
  8
図面枠
  6
CONTINUOUS
 62
     4
100
AcDbText
 10
2616.0
 20
1883.0625
 30
0.0
 40
27.70323325635104
  1
受圧面積
 41
0.9992307692307693
  7
EXCADTTF1
 72
     5
 11
2760.0
 21
1883.0625
 31
0.0
100
AcDbText
  0
TEXT
  5
F4
330
1F
100
AcDbEntity
  8
図面枠
  6
CONTINUOUS
 62
     4
100
AcDbText
 10
2616.0
 20
1835.0625
 30
0.0
 40
27.70323325635104
  1
最高使用圧力
 41
0.9992307692307693
  7
EXCADTTF1
 72
     5
 11
2832.0
 21
1835.0625
 31
0.0
100
AcDbText
  0
LINE
  5
F5
330
1F
100
AcDbEntity
  8
図面枠
  6
CONTINUOUS
 62
     2
100
AcDbLine
 10
2600.0
 20
2160.0
 30
0.0
 11
3240.0
 21
2160.0
 31
0.0
  0
LINE
  5
F6
330
1F
100
AcDbEntity
  8
図面枠
  6
CONTINUOUS
 62
     2
100
AcDbLine
 10
2600.0
 20
2112.0
 30
0.0
 11
3240.0
 21
2112.0
 31
0.0
  0
LINE
  5
F7
330
1F
100
AcDbEntity
  8
図面枠
  6
CONTINUOUS
 62
     2
100
AcDbLine
 10
2600.0
 20
2064.0
 30
0.0
 11
3240.0
 21
2064.0
 31
0.0
  0
LINE
  5
F8
330
1F
100
AcDbEntity
  8
図面枠
  6
CONTINUOUS
 62
     2
100
AcDbLine
 10
2600.0
 20
2016.0
 30
0.0
 11
3240.0
 21
2016.0
 31
0.0
  0
LINE
  5
F9
330
1F
100
AcDbEntity
  8
図面枠
  6
CONTINUOUS
 62
     2
100
AcDbLine
 10
2600.0
 20
1968.0
 30
0.0
 11
3240.0
 21
1968.0
 31
0.0
  0
LINE
  5
FA
330
1F
100
AcDbEntity
  8
図面枠
  6
CONTINUOUS
 62
     2
100
AcDbLine
 10
2600.0
 20
1920.0
 30
0.0
 11
3240.0
 21
1920.0
 31
0.0
  0
LINE
  5
FB
330
1F
100
AcDbEntity
  8
図面枠
  6
CONTINUOUS
 62
     2
100
AcDbLine
 10
2600.0
 20
1872.0
 30
0.0
 11
3240.0
 21
1872.0
 31
0.0
  0
TEXT
  5
FC
330
1F
100
AcDbEntity
  8
図面枠
  6
CONTINUOUS
 62
     4
100
AcDbText
 10
3010.0
 20
2123.0625
 30
0.0
 40
27.70323325635104
  1
200
 41
0.9992307692307694
  7
EXCADTTF1
 72
     5
 11
3064.0
 21
2123.0625
 31
0.0
100
AcDbText
  0
TEXT
  5
FD
330
1F
100
AcDbEntity
  8
図面枠
  6
CONTINUOUS
 62
     4
100
AcDbText
 10
2616.0
 20
1979.0625
 30
0.0
 40
27.70323325635104
  1
ホール径
 41
0.9992307692307693
  7
EXCADTTF1
 72
     5
 11
2760.0
 21
1979.0625
 31
0.0
100
AcDbText
  0
TEXT
  5
FE
330
1F
100
AcDbEntity
  8
図面枠
  6
CONTINUOUS
 62
     4
100
AcDbText
 10
3010.0
 20
2075.0625
 30
0.0
 40
27.70323325635104
  1
415
 41
0.9992307692307694
  7
EXCADTTF1
 72
     5
 11
3064.0
 21
2075.0625
 31
0.0
100
AcDbText
  0
TEXT
  5
FF
330
1F
100
AcDbEntity
  8
図面枠
  6
CONTINUOUS
 62
     4
100
AcDbText
 10
3010.0
 20
2027.0625
 30
0.0
 40
27.70323325635104
  1
285
 41
0.9992307692307694
  7
EXCADTTF1
 72
     5
 11
3064.0
 21
2027.0625
 31
0.0
100
AcDbText
  0
TEXT
  5
100
330
1F
100
AcDbEntity
  8
図面枠
  6
CONTINUOUS
 62
     4
100
AcDbText
 10
3028.0
 20
1979.0625
 30
0.0
 40
27.70323325635104
  1
90
 41
0.9992307692307693
  7
EXCADTTF1
 72
     5
 11
3064.0
 21
1979.0625
 31
0.0
100
AcDbText
  0
TEXT
  5
101
330
1F
100
AcDbEntity
  8
図面枠
  6
CONTINUOUS
 62
     4
100
AcDbText
 10
3010.0
 20
1931.0625
 30
0.0
 40
27.70323325635104
  1
170
 41
0.9992307692307694
  7
EXCADTTF1
 72
     5
 11
3064.0
 21
1931.0625
 31
0.0
100
AcDbText
  0
TEXT
  5
102
330
1F
100
AcDbEntity
  8
図面枠
  6
CONTINUOUS
 62
     4
100
AcDbText
 10
2616.0
 20
1931.0625
 30
0.0
 40
27.70323325635104
  1
ヘッド径
 41
0.9992307692307693
  7
EXCADTTF1
 72
     5
 11
2760.0
 21
1931.0625
 31
0.0
100
AcDbText
  0
TEXT
  5
103
330
1F
100
AcDbEntity
  8
図面枠
  6
CONTINUOUS
 62
     4
100
AcDbText
 10
2992.0
 20
1835.0625
 30
0.0
 40
27.70323325635104
  1
66.1
 41
0.9992307692307693
  7
EXCADTTF1
 72
     5
 11
3064.0
 21
1835.0625
 31
0.0
100
AcDbText
  0
TEXT
  5
104
330
1F
100
AcDbEntity
  8
図面枠
  6
CONTINUOUS
 62
     4
100
AcDbText
 10
3096.0
 20
1739.0625
 30
0.0
 40
27.70323325635104
  1
kg
 41
0.9992307692307693
  7
EXCADTTF1
 72
     5
 11
3132.0
 21
1739.0625
 31
0.0
100
AcDbText
  0
TEXT
  5
105
330
1F
100
AcDbEntity
  8
図面枠
  6
CONTINUOUS
 62
     4
100
AcDbText
 10
2616.0
 20
1787.0625
 30
0.0
 40
27.70323325635104
  1
所要油量
 41
0.9992307692307693
  7
EXCADTTF1
 72
     5
 11
2760.0
 21
1787.0625
 31
0.0
100
AcDbText
  0
TEXT
  5
106
330
1F
100
AcDbEntity
  8
図面枠
  6
CONTINUOUS
 62
     4
100
AcDbText
 10
2616.0
 20
1739.0625
 30
0.0
 40
27.70323325635104
  1
重量
 41
0.9992307692307693
  7
EXCADTTF1
 72
     5
 11
2688.0
 21
1739.0625
 31
0.0
100
AcDbText
  0
LINE
  5
107
330
1F
100
AcDbEntity
  8
図面枠
  6
CONTINUOUS
 62
     2
100
AcDbLine
 10
2600.0
 20
1824.0
 30
0.0
 11
3240.0
 21
1824.0
 31
0.0
  0
LINE
  5
108
330
1F
100
AcDbEntity
  8
図面枠
  6
CONTINUOUS
 62
     2
100
AcDbLine
 10
2600.0
 20
1776.0
 30
0.0
 11
3240.0
 21
1776.0
 31
0.0
  0
LINE
  5
109
330
1F
100
AcDbEntity
  8
図面枠
  6
CONTINUOUS
 62
     3
100
AcDbLine
 10
2600.0
 20
1728.0
 30
0.0
 11
3240.0
 21
1728.0
 31
0.0
  0
TEXT
  5
10A
330
1F
100
AcDbEntity
  8
図面枠
  6
CONTINUOUS
 62
     4
100
AcDbText
 10
2974.0
 20
1739.0625
 30
0.0
 40
27.70323325635104
  1
約153
 41
0.9992307692307693
  7
EXCADTTF1
 72
     5
 11
3064.0
 21
1739.0625
 31
0.0
100
AcDbText
  0
LINE
  5
10B
330
1F
100
AcDbEntity
  8
図面枠
  6
CONTINUOUS
 62
     3
100
AcDbLine
 10
2600.0
 20
2256.0
 30
0.0
 11
2600.0
 21
1728.0
 31
0.0
  0
LINE
  5
10C
330
1F
100
AcDbEntity
  8
図面枠
  6
CONTINUOUS
 62
     2
100
AcDbLine
 10
2920.0
 20
2208.0
 30
0.0
 11
2920.0
 21
1728.0
 31
0.0
  0
LINE
  5
10D
330
1F
100
AcDbEntity
  8
図面枠
  6
CONTINUOUS
 62
     2
100
AcDbLine
 10
3080.0
 20
2208.0
 30
0.0
 11
3080.0
 21
1728.0
 31
0.0
  0
LINE
  5
10E
330
1F
100
AcDbEntity
  8
図面枠
  6
CONTINUOUS
 62
     3
100
AcDbLine
 10
3240.0
 20
2256.0
 30
0.0
 11
3240.0
 21
1728.0
 31
0.0
  0
TEXT
  5
10F
330
1F
100
AcDbEntity
  8
図面枠
  6
CONTINUOUS
 62
     4
100
AcDbText
 10
3096.0
 20
1883.0625
 30
0.0
 40
27.70323325635104
  1
cm
 41
0.9992307692307693
  7
EXCADTTF1
 72
     5
 11
3132.0
 21
1883.0625
 31
0.0
100
AcDbText
  0
TEXT
  5
110
330
1F
100
AcDbEntity
  8
図面枠
  6
CONTINUOUS
 62
     4
100
AcDbText
 10
3121.2
 20
1900.078125268221
 30
0.0
 40
12.4664540846959
  1
2
 41
0.9992308398189645
  7
EXCADTTF1
 72
     5
 11
3129.3
 21
1900.078125268221
 31
0.0
100
AcDbText
  0
TEXT
  5
111
330
1F
100
AcDbEntity
  8
図面枠
  6
CONTINUOUS
 62
     4
100
AcDbText
 10
3096.0
 20
1787.0625
 30
0.0
 40
27.70323325635104
  1
L
 41
0.9992307692307693
  7
EXCADTTF1
 72
     5
 11
3114.0
 21
1787.0625
 31
0.0
100
AcDbText
  0
TEXT
  5
112
330
1F
100
AcDbEntity
  8
図面枠
  6
CONTINUOUS
 62
     4
100
AcDbText
 10
3010.0
 20
1787.0625
 30
0.0
 40
27.70323325635104
  1
6.0
 41
0.9992307692307694
  7
EXCADTTF1
 72
     5
 11
3064.0
 21
1787.0625
 31
0.0
100
AcDbText
  0
TEXT
  5
113
330
1F
100
AcDbEntity
  8
図面枠
  6
CONTINUOUS
 62
     4
100
AcDbText
 10
2974.0
 20
1883.0625
 30
0.0
 40
27.70323325635104
  1
302.4
 41
0.9992307692307693
  7
EXCADTTF1
 72
     5
 11
3064.0
 21
1883.0625
 31
0.0
100
AcDbText
  0
DIMENSION
  5
115
330
1F
100
AcDbEntity
  8
Ｓ_１_１
  6
CONTINUOUS
 62
     2
100
AcDbDimension
  2
*D15
 10
1705.0
 20
1549.999983
 30
0.0
 11
1683.0
 21
1374.9999855
 31
0.0
 70
   160
  3
ISO-25
100
AcDbAlignedDimension
 13
1860.000005
 23
1199.999988
 33
0.0
 14
1860.000005
 24
1549.999983
 34
0.0
 50
90.0
100
AcDbRotatedDimension
1001
ACAD
1000
DSTYLE
1002
{
1070
   270
1070
     2
1070
     6
1000
EX_NORM
1070
     7
1000
EX_NORM
1070
    41
1040
24.0
1070
    42
1040
12.0
1070
    44
1040
8.000000000000227
1070
    73
1070
     0
1070
    74
1070
     0
1070
    75
1070
     0
1070
    76
1070
     0
1070
    77
1070
     1
1070
    78
1070
     8
1070
   140
1040
27.70323325635104
1070
   147
1040
0.0
1070
   173
1070
     1
1070
   176
1070
     2
1070
   177
1070
     2
1070
   178
1070
     2
1070
   271
1070
     2
1070
   277
1070
     2
1070
   279
1070
     2
1070
   280
1070
     0
1070
   287
1070
     5
1070
   340
1005
114
1002
}
  0
LINE
  5
123
330
1F
100
AcDbEntity
  8
Ｓ_１_１
  6
CONTINUOUS
 62
     2
100
AcDbLine
 10
1742.63786
 20
1234.999988
 30
0.0
 11
1875.13786
 21
1234.999988
 31
0.0
  0
DIMENSION
  5
124
330
1F
100
AcDbEntity
  8
Ｓ_１_１
  6
CONTINUOUS
 62
     2
100
AcDbDimension
  2
*D16
 10
1760.000000000001
 20
1515.000002
 30
0.0
 11
1738.000000000001
 21
1374.999995
 31
0.0
 70
   160
  3
ISO-25
100
AcDbAlignedDimension
 13
1880.000004
 23
1234.999988
 33
0.0
 14
1880.000004
 24
1515.000002
 34
0.0
 50
90.0
100
AcDbRotatedDimension
1001
ACAD
1000
DSTYLE
1002
{
1070
   270
1070
     2
1070
     6
1000
EX_NORM
1070
     7
1000
EX_NORM
1070
    41
1040
24.0
1070
    42
1040
0.0
1070
    44
1040
0.0
1070
    73
1070
     0
1070
    74
1070
     0
1070
    75
1070
     1
1070
    76
1070
     1
1070
    77
1070
     1
1070
    78
1070
     8
1070
   140
1040
27.70323325635104
1070
   147
1040
0.0
1070
   173
1070
     1
1070
   176
1070
     2
1070
   177
1070
     2
1070
   178
1070
     2
1070
   271
1070
     2
1070
   277
1070
     2
1070
   279
1070
     2
1070
   280
1070
     0
1070
   287
1070
     5
1070
   340
1005
114
1002
}
  0
LINE
  5
12F
330
1F
100
AcDbEntity
  8
Ｓ_１_１
  6
CONTINUOUS
 62
     2
100
AcDbLine
 10
1865.000004
 20
1515.000002
 30
0.0
 11
1740.601505
 21
1515.000002
 31
0.0
  0
DIMENSION
  5
130
330
1F
100
AcDbEntity
  8
Ｓ_１_１
  6
CONTINUOUS
 62
     2
100
AcDbDimension
  2
*D17
 10
2209.999996999999
 20
1705.0
 30
0.0
 11
2034.9999995
 21
1727.0
 31
0.0
 70
   160
  3
ISO-25
100
AcDbAlignedDimension
 13
1860.000002
 23
1549.999984
 33
0.0
 14
2209.999996999999
 24
1549.999984
 34
0.0
100
AcDbRotatedDimension
1001
ACAD
1000
DSTYLE
1002
{
1070
   270
1070
     2
1070
     6
1000
EX_NORM
1070
     7
1000
EX_NORM
1070
    41
1040
24.0
1070
    42
1040
12.0
1070
    44
1040
8.0
1070
    73
1070
     0
1070
    74
1070
     0
1070
    75
1070
     0
1070
    76
1070
     0
1070
    77
1070
     1
1070
    78
1070
     8
1070
   140
1040
27.70323325635104
1070
   147
1040
0.0
1070
   173
1070
     1
1070
   176
1070
     2
1070
   177
1070
     2
1070
   178
1070
     2
1070
   271
1070
     2
1070
   277
1070
     2
1070
   279
1070
     2
1070
   280
1070
     0
1070
   287
1070
     5
1070
   340
1005
114
1002
}
  0
LINE
  5
13D
330
1F
100
AcDbEntity
  8
Ｓ_１_１
  6
CONTINUOUS
 62
     2
100
AcDbLine
 10
1895.000002
 20
1544.999977
 30
0.0
 11
1895.000002
 21
1674.909325
 31
0.0
  0
DIMENSION
  5
13E
330
1F
100
AcDbEntity
  8
Ｓ_１_１
  6
CONTINUOUS
 62
     2
100
AcDbDimension
  2
*D18
 10
2174.999998
 20
1650.0
 30
0.0
 11
2035.0
 21
1672.0
 31
0.0
 70
   160
  3
ISO-25
100
AcDbAlignedDimension
 13
1895.000002
 23
1529.999977
 33
0.0
 14
2174.999998
 24
1529.999977
 34
0.0
100
AcDbRotatedDimension
1001
ACAD
1000
DSTYLE
1002
{
1070
   270
1070
     2
1070
     6
1000
EX_NORM
1070
     7
1000
EX_NORM
1070
    41
1040
24.0
1070
    42
1040
12.0
1070
    44
1040
8.0
1070
    73
1070
     0
1070
    74
1070
     0
1070
    75
1070
     0
1070
    76
1070
     0
1070
    77
1070
     1
1070
    78
1070
     8
1070
   140
1040
27.70323325635104
1070
   147
1040
0.0
1070
   173
1070
     1
1070
   176
1070
     2
1070
   177
1070
     2
1070
   178
1070
     2
1070
   271
1070
     2
1070
   277
1070
     2
1070
   279
1070
     2
1070
   280
1070
     0
1070
   287
1070
     5
1070
   340
1005
114
1002
}
  0
LINE
  5
14B
330
1F
100
AcDbEntity
  8
Ｓ_１_１
  6
CONTINUOUS
 62
     2
100
AcDbLine
 10
2174.999998
 20
1544.999977
 30
0.0
 11
2174.999998
 21
1674.909325
 31
0.0
  0
DIMENSION
  5
14C
330
1F
100
AcDbEntity
  8
Ｓ_１_１
  6
CONTINUOUS
 62
     2
100
AcDbDimension
  2
*D19
 10
769.9999999999999
 20
1368.999969
 30
0.0
 11
748.0
 21
1268.999968
 31
0.0
 70
   160
  3
ISO-25
100
AcDbAlignedDimension
 13
1023.000043
 23
1168.999967
 33
0.0
 14
1020.000013
 24
1368.999969
 34
0.0
 50
90.0
100
AcDbRotatedDimension
1001
ACAD
1000
DSTYLE
1002
{
1070
   270
1070
     2
1070
     6
1000
EX_NORM
1070
     7
1000
EX_NORM
1070
    41
1040
24.0
1070
    42
1040
12.0
1070
    44
1040
8.000000000000568
1070
    73
1070
     0
1070
    74
1070
     0
1070
    75
1070
     0
1070
    76
1070
     0
1070
    77
1070
     1
1070
    78
1070
     8
1070
   140
1040
27.70323325635104
1070
   147
1040
0.0
1070
   173
1070
     1
1070
   176
1070
     2
1070
   177
1070
     2
1070
   178
1070
     2
1070
   271
1070
     2
1070
   277
1070
     2
1070
   279
1070
     2
1070
   280
1070
     0
1070
   287
1070
     5
1070
   340
1005
114
1002
}
  0
DIMENSION
  5
159
330
1F
100
AcDbEntity
  8
Ｓ_１_１
  6
CONTINUOUS
 62
     2
100
AcDbDimension
  2
*D20
 10
604.9999999999998
 20
1983.999916
 30
0.0
 11
583.0
 21
1505.499948
 31
0.0
 70
   160
  3
ISO-25
100
AcDbAlignedDimension
 13
837.42669
 23
1026.99998
 33
0.0
 14
1023.000024
 24
1983.999916
 34
0.0
 50
90.0
100
AcDbRotatedDimension
1001
ACAD
1000
DSTYLE
1002
{
1070
   270
1070
     2
1070
     6
1000
EX_NORM
1070
     7
1000
EX_NORM
1070
    41
1040
24.0
1070
    42
1040
12.0
1070
    44
1040
8.0
1070
    73
1070
     0
1070
    74
1070
     0
1070
    75
1070
     0
1070
    76
1070
     0
1070
    77
1070
     1
1070
    78
1070
     8
1070
   140
1040
27.70323325635104
1070
   147
1040
0.0
1070
   173
1070
     1
1070
   176
1070
     2
1070
   177
1070
     2
1070
   178
1070
     2
1070
   271
1070
     2
1070
   277
1070
     2
1070
   279
1070
     2
1070
   280
1070
     0
1070
   287
1070
     5
1070
   340
1005
114
1002
}
  0
DIMENSION
  5
166
330
1F
100
AcDbEntity
  8
Ｓ_１_１
  6
CONTINUOUS
 62
     2
100
AcDbDimension
  2
*D21
 10
659.9999999999976
 20
1983.999916
 30
0.0
 11
637.9999999999977
 21
1923.999936
 31
0.0
 70
   160
  3
ISO-25
100
AcDbAlignedDimension
 13
1017.886825
 23
1863.999956
 33
0.0
 14
1023.000045
 24
1983.999916
 34
0.0
 50
90.0
100
AcDbRotatedDimension
1001
ACAD
1000
DSTYLE
1002
{
1070
   270
1070
     2
1070
     6
1000
EX_NORM
1070
     7
1000
EX_NORM
1070
    41
1040
24.0
1070
    42
1040
12.0
1070
    44
1040
8.0
1070
    73
1070
     0
1070
    74
1070
     0
1070
    75
1070
     1
1070
    76
1070
     0
1070
    77
1070
     1
1070
    78
1070
     8
1070
   140
1040
27.70323325635104
1070
   147
1040
0.0
1070
   173
1070
     1
1070
   176
1070
     2
1070
   177
1070
     2
1070
   178
1070
     2
1070
   271
1070
     2
1070
   277
1070
     2
1070
   279
1070
     2
1070
   280
1070
     0
1070
   287
1070
     5
1070
   340
1005
114
1002
}
  0
DIMENSION
  5
172
330
1F
100
AcDbEntity
  8
Ｓ_１_１
  6
CONTINUOUS
 62
     2
100
AcDbDimension
  2
*D22
 10
659.9999999999992
 20
1863.999956
 30
0.0
 11
637.9999999999993
 21
1656.4999595
 31
0.0
 70
   160
  3
ISO-25
100
AcDbAlignedDimension
 13
953.750045
 23
1448.999963
 33
0.0
 14
1017.886825
 24
1863.999956
 34
0.0
 50
90.0
100
AcDbRotatedDimension
1001
ACAD
1000
DSTYLE
1002
{
1070
   270
1070
     2
1070
     6
1000
EX_NORM
1070
     7
1000
EX_NORM
1070
    41
1040
24.0
1070
    42
1040
12.0
1070
    44
1040
8.0
1070
    73
1070
     0
1070
    74
1070
     0
1070
    75
1070
     1
1070
    76
1070
     0
1070
    77
1070
     1
1070
    78
1070
     8
1070
   140
1040
27.70323325635104
1070
   147
1040
0.0
1070
   173
1070
     1
1070
   176
1070
     2
1070
   177
1070
     2
1070
   178
1070
     2
1070
   271
1070
     2
1070
   277
1070
     2
1070
   279
1070
     2
1070
   280
1070
     0
1070
   287
1070
     5
1070
   340
1005
114
1002
}
  0
DIMENSION
  5
17E
330
1F
100
AcDbEntity
  8
Ｓ_１_１
  6
CONTINUOUS
 62
     2
100
AcDbDimension
  2
*D23
 10
660.0000000000008
 20
1448.999963
 30
0.0
 11
638.0000000000009
 21
1237.9999715
 31
0.0
 70
   160
  3
ISO-25
100
AcDbAlignedDimension
 13
837.4266809999999
 23
1026.99998
 33
0.0
 14
953.750045
 24
1448.999963
 34
0.0
 50
90.0
100
AcDbRotatedDimension
1001
ACAD
1000
DSTYLE
1002
{
1070
   270
1070
     2
1070
     6
1000
EX_NORM
1070
     7
1000
EX_NORM
1070
    41
1040
24.0
1070
    42
1040
12.0
1070
    44
1040
8.0
1070
    73
1070
     0
1070
    74
1070
     0
1070
    75
1070
     1
1070
    76
1070
     0
1070
    77
1070
     1
1070
    78
1070
     8
1070
   140
1040
27.70323325635104
1070
   147
1040
0.0
1070
   173
1070
     1
1070
   176
1070
     2
1070
   177
1070
     2
1070
   178
1070
     2
1070
   271
1070
     2
1070
   277
1070
     2
1070
   279
1070
     2
1070
   280
1070
     0
1070
   287
1070
     5
1070
   340
1005
114
1002
}
  0
DIMENSION
  5
18A
330
1F
100
AcDbEntity
  8
Ｓ_１_１
  6
CONTINUOUS
 62
     2
100
AcDbDimension
  2
*D24
 10
714.9999999999997
 20
1448.999963
 30
0.0
 11
692.9999999999998
 21
1248.9999755
 31
0.0
 70
   160
  3
ISO-25
100
AcDbAlignedDimension
 13
925.0000369999998
 23
1048.999988
 33
0.0
 14
953.7500369999998
 24
1448.999963
 34
0.0
 50
90.0
100
AcDbRotatedDimension
1001
ACAD
1000
DSTYLE
1002
{
1070
   270
1070
     2
1070
     6
1000
EX_NORM
1070
     7
1000
EX_NORM
1070
    41
1040
24.0
1070
    42
1040
0.0
1070
    44
1040
0.0
1070
    73
1070
     0
1070
    74
1070
     0
1070
    75
1070
     1
1070
    76
1070
     1
1070
    77
1070
     1
1070
    78
1070
     8
1070
   140
1040
27.70323325635104
1070
   147
1040
0.0
1070
   173
1070
     1
1070
   176
1070
     2
1070
   177
1070
     2
1070
   178
1070
     2
1070
   271
1070
     2
1070
   277
1070
     2
1070
   279
1070
     2
1070
   280
1070
     0
1070
   287
1070
     5
1070
   340
1005
114
1002
}
  0
LINE
  5
195
330
1F
100
AcDbEntity
  8
Ｓ_１_１
  6
CONTINUOUS
 62
     2
100
AcDbLine
 10
910.0000369999998
 20
1048.999988
 30
0.0
 11
680.4510559999999
 21
1048.999988
 31
0.0
  0
DIMENSION
  5
196
330
1F
100
AcDbEntity
  8
Ｓ_１_１
  6
CONTINUOUS
 62
     2
100
AcDbDimension
  2
*D25
 10
1179.999999
 20
2035.0
 30
0.0
 11
1248.999999
 21
2057.0
 31
0.0
 70
   160
  1
%%c160
  3
ISO-25
100
AcDbAlignedDimension
 13
1020.000001
 23
1980.99996199999
 33
0.0
 14
1179.999999
 24
1980.99995899999
 34
0.0
100
AcDbRotatedDimension
1001
ACAD
1000
DSTYLE
1002
{
1070
   270
1070
     2
1070
     6
1000
EX_NORM
1070
     7
1000
EX_NORM
1070
    41
1040
24.0
1070
    42
1040
12.0
1070
    44
1040
8.0
1070
    73
1070
     0
1070
    74
1070
     0
1070
    75
1070
     0
1070
    76
1070
     0
1070
    77
1070
     1
1070
    78
1070
     8
1070
   140
1040
27.70323325635104
1070
   147
1040
0.0
1070
   173
1070
     1
1070
   176
1070
     2
1070
   177
1070
     2
1070
   178
1070
     2
1070
   271
1070
     2
1070
   277
1070
     2
1070
   279
1070
     2
1070
   280
1070
     2
1070
   287
1070
     5
1070
   340
1005
114
1002
}
  0
DIMENSION
  5
1A3
330
1F
100
AcDbEntity
  8
Ｓ_１_１
  6
CONTINUOUS
 62
     2
100
AcDbDimension
  2
*D26
 10
714.9999999999992
 20
1026.99997999999
 30
0.0
 11
692.9999999999987
 21
984.9999799999898
 31
0.0
 70
   160
  3
ISO-25
100
AcDbAlignedDimension
 13
925.0000409999998
 23
1048.99998799999
 33
0.0
 14
837.4266981200999
 24
1026.99997999999
 34
0.0
 50
90.0
100
AcDbRotatedDimension
1001
ACAD
1000
DSTYLE
1002
{
1070
   270
1070
     2
1070
     6
1000
EX_NORM
1070
     7
1000
EX_NORM
1070
    41
1040
24.0
1070
    42
1040
12.0
1070
    44
1040
8.000000000000568
1070
    73
1070
     0
1070
    74
1070
     0
1070
    75
1070
     0
1070
    76
1070
     0
1070
    77
1070
     1
1070
    78
1070
     8
1070
   140
1040
27.70323325635104
1070
   147
1040
0.0
1070
   173
1070
     1
1070
   176
1070
     2
1070
   177
1070
     2
1070
   178
1070
     2
1070
   271
1070
     2
1070
   277
1070
     2
1070
   279
1070
     2
1070
   280
1070
     2
1070
   287
1070
     5
1070
   340
1005
114
1002
}
  0
DIMENSION
  5
1B2
330
1F
100
AcDbEntity
  8
Ｓ_１_１
  6
CONTINUOUS
 62
     2
100
AcDbDimension
  2
*D27
 10
1249.250028
 20
1595.0
 30
0.0
 11
1336.250028
 21
1617.0
 31
0.0
 70
   160
  1
%%c298.5
  3
ISO-25
100
AcDbAlignedDimension
 13
950.750012
 23
1445.99996099999
 33
0.0
 14
1249.250028
 24
1445.99992099999
 34
0.0
100
AcDbRotatedDimension
1001
ACAD
1000
DSTYLE
1002
{
1070
   270
1070
     2
1070
     6
1000
EX_NORM
1070
     7
1000
EX_NORM
1070
    41
1040
24.0
1070
    42
1040
12.0
1070
    44
1040
8.0
1070
    73
1070
     0
1070
    74
1070
     0
1070
    75
1070
     0
1070
    76
1070
     0
1070
    77
1070
     1
1070
    78
1070
     8
1070
   140
1040
27.70323325635104
1070
   147
1040
0.0
1070
   173
1070
     1
1070
   176
1070
     2
1070
   177
1070
     2
1070
   178
1070
     2
1070
   271
1070
     2
1070
   277
1070
     2
1070
   279
1070
     2
1070
   280
1070
     2
1070
   287
1070
     5
1070
   340
1005
114
1002
}
  0
DIMENSION
  5
1BF
330
1F
100
AcDbEntity
  8
Ｓ_１_１
  6
CONTINUOUS
 62
     2
100
AcDbDimension
  2
*D28
 10
880.0
 20
475.0
 30
0.0
 11
858.0000000000001
 21
432.9999999999998
 31
0.0
 70
   160
  3
ISO-25
100
AcDbAlignedDimension
 13
935.0076320000001
 23
495.0
 33
0.0
 14
1080.606919
 24
475.0
 34
0.0
 50
90.0
100
AcDbRotatedDimension
1001
ACAD
1000
DSTYLE
1002
{
1070
   270
1070
     2
1070
     6
1000
EX_NORM
1070
     7
1000
EX_NORM
1070
    41
1040
24.0
1070
    42
1040
12.0
1070
    44
1040
8.000000000000114
1070
    73
1070
     0
1070
    74
1070
     0
1070
    75
1070
     0
1070
    76
1070
     0
1070
    77
1070
     1
1070
    78
1070
     8
1070
   140
1040
27.70323325635104
1070
   147
1040
0.0
1070
   173
1070
     1
1070
   176
1070
     2
1070
   177
1070
     2
1070
   178
1070
     2
1070
   271
1070
     2
1070
   277
1070
     2
1070
   279
1070
     2
1070
   280
1070
     2
1070
   287
1070
     5
1070
   340
1005
114
1002
}
  0
DIMENSION
  5
1CE
330
1F
100
AcDbEntity
  8
Ｓ_１_１
  6
CONTINUOUS
 62
     2
100
AcDbDimension
  2
*D29
 10
1100.0
 20
475.0
 30
0.0
 11
912.4933708737199
 21
318.6060692459579
 31
0.0
 70
   164
  3
ISO-25
100
AcDbRadialDimension
 15
993.9339913072874
 25
368.9339913073111
 35
0.0
 40
0.0
1001
ACAD
1000
DSTYLE
1002
{
1070
   270
1070
     2
1070
     6
1000
EX_NORM
1070
     7
1000
EX_NORM
1070
    41
1040
24.0
1070
    73
1070
     0
1070
    74
1070
     0
1070
    77
1070
     1
1070
    78
1070
     8
1070
   140
1040
27.70323325635104
1070
   147
1040
0.0
1070
   173
1070
     1
1070
   176
1070
     2
1070
   177
1070
     2
1070
   178
1070
     2
1070
   271
1070
     2
1070
   277
1070
     2
1070
   279
1070
     2
1070
   280
1070
     0
1070
   287
1070
     5
1070
   340
1005
114
1002
}
  0
DIMENSION
  5
1D8
330
1F
100
AcDbEntity
  8
Ｓ_１_１
  6
CONTINUOUS
 62
     2
100
AcDbDimension
  2
*D30
 10
2209.999996999999
 20
1650.0
 30
0.0
 11
2251.999996999999
 21
1672.0
 31
0.0
 70
   160
  3
ISO-25
100
AcDbAlignedDimension
 13
2174.999998
 23
1529.99998299999
 33
0.0
 14
2209.999996999999
 24
1549.99998299999
 34
0.0
100
AcDbRotatedDimension
1001
ACAD
1000
DSTYLE
1002
{
1070
   270
1070
     2
1070
     6
1000
EX_NORM
1070
     7
1000
EX_NORM
1070
    41
1040
24.0
1070
    42
1040
12.0
1070
    44
1040
8.0
1070
    73
1070
     0
1070
    74
1070
     0
1070
    75
1070
     1
1070
    76
1070
     0
1070
    77
1070
     1
1070
    78
1070
     8
1070
   140
1040
27.70323325635104
1070
   147
1040
0.0
1070
   173
1070
     1
1070
   176
1070
     2
1070
   177
1070
     2
1070
   178
1070
     2
1070
   271
1070
     2
1070
   277
1070
     2
1070
   279
1070
     2
1070
   280
1070
     2
1070
   287
1070
     5
1070
   340
1005
114
1002
}
  0
DIMENSION
  5
1E6
330
1F
100
AcDbEntity
  8
Ｓ_１_１
  6
CONTINUOUS
 62
     2
100
AcDbDimension
  2
*D31
 10
1860.000002
 20
1650.0
 30
0.0
 11
1818.000002
 21
1672.0
 31
0.0
 70
   160
  3
ISO-25
100
AcDbAlignedDimension
 13
1895.000002
 23
1529.99998299999
 33
0.0
 14
1860.000002
 24
1549.99998299999
 34
0.0
100
AcDbRotatedDimension
1001
ACAD
1000
DSTYLE
1002
{
1070
   270
1070
     2
1070
     6
1000
EX_NORM
1070
     7
1000
EX_NORM
1070
    41
1040
24.0
1070
    42
1040
12.0
1070
    44
1040
8.0
1070
    73
1070
     0
1070
    74
1070
     0
1070
    75
1070
     1
1070
    76
1070
     0
1070
    77
1070
     1
1070
    78
1070
     8
1070
   140
1040
27.70323325635104
1070
   147
1040
0.0
1070
   173
1070
     1
1070
   176
1070
     2
1070
   177
1070
     2
1070
   178
1070
     2
1070
   271
1070
     2
1070
   277
1070
     2
1070
   279
1070
     2
1070
   280
1070
     2
1070
   287
1070
     5
1070
   340
1005
114
1002
}
  0
DIMENSION
  5
1F4
330
1F
100
AcDbEntity
  8
Ｓ_１_１
  6
CONTINUOUS
 62
     2
100
AcDbDimension
  2
*D32
 10
1760.000000000005
 20
1515.00000199999
 30
0.0
 11
1738.000000000006
 21
1591.999982999989
 31
0.0
 70
   160
  3
ISO-25
100
AcDbAlignedDimension
 13
1860.000002
 23
1549.99998299999
 33
0.0
 14
1882.500002
 24
1515.00000199999
 34
0.0
 50
90.0
100
AcDbRotatedDimension
1001
ACAD
1000
DSTYLE
1002
{
1070
   270
1070
     2
1070
     6
1000
EX_NORM
1070
     7
1000
EX_NORM
1070
    41
1040
24.0
1070
    42
1040
12.0
1070
    44
1040
8.0
1070
    73
1070
     0
1070
    74
1070
     0
1070
    75
1070
     1
1070
    76
1070
     0
1070
    77
1070
     1
1070
    78
1070
     8
1070
   140
1040
27.70323325635104
1070
   147
1040
0.0
1070
   173
1070
     1
1070
   176
1070
     2
1070
   177
1070
     2
1070
   178
1070
     2
1070
   271
1070
     2
1070
   277
1070
     2
1070
   279
1070
     2
1070
   280
1070
     1
1070
   287
1070
     5
1070
   340
1005
114
1002
}
  0
DIMENSION
  5
202
330
1F
100
AcDbEntity
  8
Ｓ_１_１
  6
CONTINUOUS
 62
     2
100
AcDbDimension
  2
*D33
 10
1760.000000000001
 20
1199.99998799999
 30
0.0
 11
1738.0
 21
1157.99998799999
 31
0.0
 70
   160
  3
ISO-25
100
AcDbAlignedDimension
 13
1880.000002
 23
1234.99998799999
 33
0.0
 14
1860.000002
 24
1199.99998799999
 34
0.0
 50
90.0
100
AcDbRotatedDimension
1001
ACAD
1000
DSTYLE
1002
{
1070
   270
1070
     2
1070
     6
1000
EX_NORM
1070
     7
1000
EX_NORM
1070
    41
1040
24.0
1070
    42
1040
0.0
1070
    44
1040
0.0
1070
    73
1070
     0
1070
    74
1070
     0
1070
    75
1070
     1
1070
    76
1070
     1
1070
    77
1070
     1
1070
    78
1070
     8
1070
   140
1040
27.70323325635104
1070
   147
1040
0.0
1070
   173
1070
     1
1070
   176
1070
     2
1070
   177
1070
     2
1070
   178
1070
     2
1070
   271
1070
     2
1070
   277
1070
     2
1070
   279
1070
     2
1070
   280
1070
     2
1070
   287
1070
     5
1070
   340
1005
114
1002
}
  0
DIMENSION
  5
20F
330
1F
100
AcDbEntity
  8
Ｓ_１_１
  6
CONTINUOUS
 62
     2
100
AcDbDimension
  2
*D34
 10
2099.999998999999
 20
825.0
 30
0.0
 11
2150.999998999999
 21
847.0
 31
0.0
 70
   160
  3
ISO-25
100
AcDbAlignedDimension
 13
1970.000001
 23
757.000004
 33
0.0
 14
2099.999998999999
 24
757.000004
 34
0.0
100
AcDbRotatedDimension
1001
ACAD
1000
DSTYLE
1002
{
1070
   270
1070
     2
1070
     6
1000
EX_NORM
1070
     7
1000
EX_NORM
1070
    41
1040
24.0
1070
    42
1040
12.0
1070
    44
1040
8.0
1070
    73
1070
     0
1070
    74
1070
     0
1070
    75
1070
     0
1070
    76
1070
     0
1070
    77
1070
     1
1070
    78
1070
     8
1070
   140
1040
27.70323325635104
1070
   147
1040
0.0
1070
   173
1070
     1
1070
   176
1070
     2
1070
   177
1070
     2
1070
   178
1070
     2
1070
   271
1070
     2
1070
   277
1070
     2
1070
   279
1070
     2
1070
   280
1070
     2
1070
   287
1070
     5
1070
   340
1005
114
1002
}
  0
DIMENSION
  5
21C
330
1F
100
AcDbEntity
  8
Ｓ_１_１
  6
CONTINUOUS
 62
     2
100
AcDbDimension
  2
*D35
 10
950.0000399999999
 20
220.0
 30
0.0
 11
1100.000019
 21
242.0
 31
0.0
 70
   160
  3
ISO-25
100
AcDbAlignedDimension
 13
1249.999998
 23
475.0000030000001
 33
0.0
 14
950.0000399999999
 24
475.0000030000001
 34
0.0
100
AcDbRotatedDimension
1001
ACAD
1000
DSTYLE
1002
{
1070
   270
1070
     2
1070
     6
1000
EX_NORM
1070
     7
1000
EX_NORM
1070
    41
1040
24.0
1070
    42
1040
12.0
1070
    44
1040
7.999999999999716
1070
    73
1070
     0
1070
    74
1070
     0
1070
    75
1070
     0
1070
    76
1070
     0
1070
    77
1070
     1
1070
    78
1070
     8
1070
   140
1040
27.70323325635104
1070
   147
1040
0.0
1070
   173
1070
     1
1070
   176
1070
     2
1070
   177
1070
     2
1070
   178
1070
     2
1070
   271
1070
     2
1070
   277
1070
     2
1070
   279
1070
     2
1070
   280
1070
     0
1070
   287
1070
     5
1070
   340
1005
114
1002
}
  0
LINE
  5
229
330
1F
100
AcDbEntity
  8
Ｓ_１_１
  6
EXLTYPE2
 62
     1
100
AcDbLine
 10
1078.576661
 20
1508.999943
 30
0.0
 11
1120.790787
 21
1508.999943
 31
0.0
  0
LINE
  5
22A
330
1F
100
AcDbEntity
  8
Ｓ_１_１
  6
EXLTYPE2
 62
     1
100
AcDbLine
 10
1054.67537
 20
1108.999987
 30
0.0
 11
1016.858446
 21
1108.999987
 31
0.0
  0
LINE
  5
22B
330
1F
100
AcDbEntity
  8
Ｓ_１_１
  6
EXLTYPE2
 62
     1
100
AcDbLine
 10
1043.431474
 20
1118.335047
 30
0.0
 11
1043.431474
 21
1099.455252
 31
0.0
  0
LINE
  5
22C
330
1F
100
AcDbEntity
  8
Ｓ_１_１
  6
EXLTYPE2
 62
     1
100
AcDbLine
 10
1111.12854
 20
1108.999987
 30
0.0
 11
1091.332245
 21
1108.999987
 31
0.0
  0
LINE
  5
22D
330
1F
100
AcDbEntity
  8
Ｓ_１_１
  6
EXLTYPE2
 62
     1
100
AcDbLine
 10
1188.030852
 20
1108.999987
 30
0.0
 11
1154.078979
 21
1108.999987
 31
0.0
  0
LINE
  5
22E
330
1F
100
AcDbEntity
  8
Ｓ_１_１
  6
EXLTYPE2
 62
     1
100
AcDbLine
 10
1085.0
 20
1923.999955
 30
0.0
 11
1107.220993
 21
1923.999955
 31
0.0
  0
LINE
  5
22F
330
1F
100
AcDbEntity
  8
Ｓ_１_１
  6
EXLTYPE2
 62
     1
100
AcDbLine
 10
1152.721023
 20
1923.999955
 30
0.0
 11
1284.155805
 21
1923.999955
 31
0.0
  0
LINE
  5
230
330
1F
100
AcDbEntity
  8
Ｓ_１_１
  6
EXLTYPE2
 62
     1
100
AcDbLine
 10
916.6138489999998
 20
1923.999955
 30
0.0
 11
1020.000001
 21
1923.999955
 31
0.0
  0
LINE
  5
231
330
1F
100
AcDbEntity
  8
Ｓ_１_１
  6
EXLTYPE2
 62
     1
100
AcDbLine
 10
1080.606919
 20
475.0
 30
0.0
 11
1114.37973
 21
475.0
 31
0.0
  0
LINE
  5
232
330
1F
100
AcDbEntity
  8
Ｓ_１_１
  6
EXLTYPE2
 62
     1
100
AcDbLine
 10
935.0076319999998
 20
495.0
 30
0.0
 11
1262.607572
 21
495.0
 31
0.0
  0
LINE
  5
233
330
1F
100
AcDbEntity
  8
Ｓ_１_１
  6
EXLTYPE2
 62
     1
100
AcDbLine
 10
1236.124876
 20
1783.999385
 30
0.0
 11
1287.749936
 21
1783.999385
 31
0.0
  0
LINE
  5
234
330
1F
100
AcDbEntity
  8
Ｓ_１_１
  6
EXLTYPE2
 62
     1
100
AcDbLine
 10
1254.999998
 20
1683.999387
 30
0.0
 11
1279.999997
 21
1683.999387
 31
0.0
  0
LINE
  5
235
330
1F
100
AcDbEntity
  8
Ｓ_１_１
  6
EXLTYPE2
 62
     1
100
AcDbLine
 10
1267.499998
 20
1793.999385
 30
0.0
 11
1267.499998
 21
1673.999387
 31
0.0
  0
LINE
  5
236
330
1F
100
AcDbEntity
  8
Ｓ_１_１
  6
EXLTYPE2
 62
     1
100
AcDbLine
 10
932.5000409999998
 20
1793.999385
 30
0.0
 11
932.5000409999998
 21
1673.999387
 31
0.0
  0
LINE
  5
237
330
1F
100
AcDbEntity
  8
Ｓ_１_１
  6
EXLTYPE2
 62
     1
100
AcDbLine
 10
945.0000409999998
 20
1683.999387
 30
0.0
 11
920.0000409999998
 21
1683.999387
 31
0.0
  0
LINE
  5
238
330
1F
100
AcDbEntity
  8
Ｓ_１_１
  6
EXLTYPE2
 62
     1
100
AcDbLine
 10
963.8751619999998
 20
1783.999385
 30
0.0
 11
912.250102
 21
1783.999385
 31
0.0
  0
LINE
  5
239
330
1F
100
AcDbEntity
  8
Ｓ_１_１
  6
EXLTYPE2
 62
     1
100
AcDbLine
 10
1100.0
 20
2121.812109
 30
0.0
 11
1100.0
 21
307.414553
 31
0.0
  0
LINE
  5
23A
330
1F
100
AcDbEntity
  8
Ｓ_１_１
  6
EXLTYPE0
 62
     2
100
AcDbLine
 10
1179.999999
 20
1368.999969
 30
0.0
 11
1179.999999
 21
1248.99997
 31
0.0
  0
LINE
  5
23B
330
1F
100
AcDbEntity
  8
Ｓ_１_１
  6
EXLTYPE0
 62
     2
100
AcDbLine
 10
1020.000001
 20
1368.999969
 30
0.0
 11
1020.000001
 21
1248.99997
 31
0.0
  0
LINE
  5
23C
330
1F
100
AcDbEntity
  8
Ｓ_１_１
  6
EXLTYPE0
 62
     2
100
AcDbLine
 10
1179.999999
 20
1248.99997
 30
0.0
 11
1020.000001
 21
1248.99997
 31
0.0
  0
LINE
  5
23D
330
1F
100
AcDbEntity
  8
Ｓ_１_１
  6
EXLTYPE0
 62
     2
100
AcDbLine
 10
1179.999999
 20
1368.999969
 30
0.0
 11
1020.000001
 21
1368.999969
 31
0.0
  0
LINE
  5
23E
330
1F
100
AcDbEntity
  8
Ｓ_１_１
  6
EXLTYPE0
 62
     2
100
AcDbLine
 10
1100.0
 20
1423.999963
 30
0.0
 11
947.750018
 21
1423.999963
 31
0.0
  0
LINE
  5
23F
330
1F
100
AcDbEntity
  8
Ｓ_１_１
  6
EXLTYPE0
 62
     2
100
AcDbLine
 10
980.7500479999999
 20
1423.999963
 30
0.0
 11
980.7500479999999
 21
1048.999988
 31
0.0
  0
POLYLINE
  5
240
330
1F
100
AcDbEntity
  8
Ｓ_１_１
  6
CONTINUOUS
 62
     3
100
AcDb2dPolyline
 66
     1
 10
0.0
 20
0.0
 30
0.0
 70
   128
  0
VERTEX
  5
241
330
240
100
AcDbEntity
  8
Ｓ_１_１
  6
CONTINUOUS
 62
     3
100
AcDbVertex
100
AcDb2dVertex
 10
1043.715058
 20
1116.999979
 30
0.0
  0
VERTEX
  5
242
330
240
100
AcDbEntity
  8
Ｓ_１_１
  6
CONTINUOUS
 62
     3
100
AcDbVertex
100
AcDb2dVertex
 10
1043.222031
 20
1116.969537
 30
0.0
  0
VERTEX
  5
243
330
240
100
AcDbEntity
  8
Ｓ_１_１
  6
CONTINUOUS
 62
     3
100
AcDbVertex
100
AcDb2dVertex
 10
1042.732756
 20
1116.878441
 30
0.0
  0
VERTEX
  5
244
330
240
100
AcDbEntity
  8
Ｓ_１_１
  6
CONTINUOUS
 62
     3
100
AcDbVertex
100
AcDb2dVertex
 10
1042.250957
 20
1116.727385
 30
0.0
  0
VERTEX
  5
245
330
240
100
AcDbEntity
  8
Ｓ_１_１
  6
CONTINUOUS
 62
     3
100
AcDbVertex
100
AcDb2dVertex
 10
1041.780301
 20
1116.51752
 30
0.0
  0
VERTEX
  5
246
330
240
100
AcDbEntity
  8
Ｓ_１_１
  6
CONTINUOUS
 62
     3
100
AcDbVertex
100
AcDb2dVertex
 10
1041.324369
 20
1116.250441
 30
0.0
  0
VERTEX
  5
247
330
240
100
AcDbEntity
  8
Ｓ_１_１
  6
CONTINUOUS
 62
     3
100
AcDbVertex
100
AcDb2dVertex
 10
1040.886632
 20
1115.928182
 30
0.0
  0
VERTEX
  5
248
330
240
100
AcDbEntity
  8
Ｓ_１_１
  6
CONTINUOUS
 62
     3
100
AcDbVertex
100
AcDb2dVertex
 10
1040.470421
 20
1115.553195
 30
0.0
  0
VERTEX
  5
249
330
240
100
AcDbEntity
  8
Ｓ_１_１
  6
CONTINUOUS
 62
     3
100
AcDbVertex
100
AcDb2dVertex
 10
1040.078903
 20
1115.128334
 30
0.0
  0
VERTEX
  5
24A
330
240
100
AcDbEntity
  8
Ｓ_１_１
  6
CONTINUOUS
 62
     3
100
AcDbVertex
100
AcDb2dVertex
 10
1039.715059
 20
1114.656833
 30
0.0
  0
VERTEX
  5
24B
330
240
100
AcDbEntity
  8
Ｓ_１_１
  6
CONTINUOUS
 62
     3
100
AcDbVertex
100
AcDb2dVertex
 10
1039.381658
 20
1114.142279
 30
0.0
  0
VERTEX
  5
24C
330
240
100
AcDbEntity
  8
Ｓ_１_１
  6
CONTINUOUS
 62
     3
100
AcDbVertex
100
AcDb2dVertex
 10
1039.081236
 20
1113.58859
 30
0.0
  0
VERTEX
  5
24D
330
240
100
AcDbEntity
  8
Ｓ_１_１
  6
CONTINUOUS
 62
     3
100
AcDbVertex
100
AcDb2dVertex
 10
1038.81608
 20
1112.999978
 30
0.0
  0
VERTEX
  5
24E
330
240
100
AcDbEntity
  8
Ｓ_１_１
  6
CONTINUOUS
 62
     3
100
AcDbVertex
100
AcDb2dVertex
 10
1038.588209
 20
1112.380924
 30
0.0
  0
VERTEX
  5
24F
330
240
100
AcDbEntity
  8
Ｓ_１_１
  6
CONTINUOUS
 62
     3
100
AcDbVertex
100
AcDb2dVertex
 10
1038.399356
 20
1111.736139
 30
0.0
  0
VERTEX
  5
250
330
240
100
AcDbEntity
  8
Ｓ_１_１
  6
CONTINUOUS
 62
     3
100
AcDbVertex
100
AcDb2dVertex
 10
1038.250958
 20
1111.07053
 30
0.0
  0
VERTEX
  5
251
330
240
100
AcDbEntity
  8
Ｓ_１_１
  6
CONTINUOUS
 62
     3
100
AcDbVertex
100
AcDb2dVertex
 10
1038.144146
 20
1110.389163
 30
0.0
  0
VERTEX
  5
252
330
240
100
AcDbEntity
  8
Ｓ_１_１
  6
CONTINUOUS
 62
     3
100
AcDbVertex
100
AcDb2dVertex
 10
1038.079732
 20
1109.697223
 30
0.0
  0
VERTEX
  5
253
330
240
100
AcDbEntity
  8
Ｓ_１_１
  6
CONTINUOUS
 62
     3
100
AcDbVertex
100
AcDb2dVertex
 10
1038.058206
 20
1108.999977
 30
0.0
  0
VERTEX
  5
254
330
240
100
AcDbEntity
  8
Ｓ_１_１
  6
CONTINUOUS
 62
     3
100
AcDbVertex
100
AcDb2dVertex
 10
1038.079732
 20
1108.302731
 30
0.0
  0
VERTEX
  5
255
330
240
100
AcDbEntity
  8
Ｓ_１_１
  6
CONTINUOUS
 62
     3
100
AcDbVertex
100
AcDb2dVertex
 10
1038.144146
 20
1107.610791
 30
0.0
  0
VERTEX
  5
256
330
240
100
AcDbEntity
  8
Ｓ_１_１
  6
CONTINUOUS
 62
     3
100
AcDbVertex
100
AcDb2dVertex
 10
1038.250958
 20
1106.929424
 30
0.0
  0
VERTEX
  5
257
330
240
100
AcDbEntity
  8
Ｓ_１_１
  6
CONTINUOUS
 62
     3
100
AcDbVertex
100
AcDb2dVertex
 10
1038.399356
 20
1106.263815
 30
0.0
  0
VERTEX
  5
258
330
240
100
AcDbEntity
  8
Ｓ_１_１
  6
CONTINUOUS
 62
     3
100
AcDbVertex
100
AcDb2dVertex
 10
1038.588209
 20
1105.61903
 30
0.0
  0
VERTEX
  5
259
330
240
100
AcDbEntity
  8
Ｓ_１_１
  6
CONTINUOUS
 62
     3
100
AcDbVertex
100
AcDb2dVertex
 10
1038.81608
 20
1104.999976
 30
0.0
  0
VERTEX
  5
25A
330
240
100
AcDbEntity
  8
Ｓ_１_１
  6
CONTINUOUS
 62
     3
100
AcDbVertex
100
AcDb2dVertex
 10
1039.081236
 20
1104.411365
 30
0.0
  0
VERTEX
  5
25B
330
240
100
AcDbEntity
  8
Ｓ_１_１
  6
CONTINUOUS
 62
     3
100
AcDbVertex
100
AcDb2dVertex
 10
1039.381658
 20
1103.857675
 30
0.0
  0
VERTEX
  5
25C
330
240
100
AcDbEntity
  8
Ｓ_１_１
  6
CONTINUOUS
 62
     3
100
AcDbVertex
100
AcDb2dVertex
 10
1039.715059
 20
1103.343122
 30
0.0
  0
VERTEX
  5
25D
330
240
100
AcDbEntity
  8
Ｓ_１_１
  6
CONTINUOUS
 62
     3
100
AcDbVertex
100
AcDb2dVertex
 10
1040.078903
 20
1102.87162
 30
0.0
  0
VERTEX
  5
25E
330
240
100
AcDbEntity
  8
Ｓ_１_１
  6
CONTINUOUS
 62
     3
100
AcDbVertex
100
AcDb2dVertex
 10
1040.470421
 20
1102.446759
 30
0.0
  0
VERTEX
  5
25F
330
240
100
AcDbEntity
  8
Ｓ_１_１
  6
CONTINUOUS
 62
     3
100
AcDbVertex
100
AcDb2dVertex
 10
1040.886632
 20
1102.071772
 30
0.0
  0
VERTEX
  5
260
330
240
100
AcDbEntity
  8
Ｓ_１_１
  6
CONTINUOUS
 62
     3
100
AcDbVertex
100
AcDb2dVertex
 10
1041.324369
 20
1101.749513
 30
0.0
  0
VERTEX
  5
261
330
240
100
AcDbEntity
  8
Ｓ_１_１
  6
CONTINUOUS
 62
     3
100
AcDbVertex
100
AcDb2dVertex
 10
1041.780301
 20
1101.482434
 30
0.0
  0
VERTEX
  5
262
330
240
100
AcDbEntity
  8
Ｓ_１_１
  6
CONTINUOUS
 62
     3
100
AcDbVertex
100
AcDb2dVertex
 10
1042.250957
 20
1101.272569
 30
0.0
  0
VERTEX
  5
263
330
240
100
AcDbEntity
  8
Ｓ_１_１
  6
CONTINUOUS
 62
     3
100
AcDbVertex
100
AcDb2dVertex
 10
1042.732756
 20
1101.121513
 30
0.0
  0
VERTEX
  5
264
330
240
100
AcDbEntity
  8
Ｓ_１_１
  6
CONTINUOUS
 62
     3
100
AcDbVertex
100
AcDb2dVertex
 10
1043.222031
 20
1101.030418
 30
0.0
  0
VERTEX
  5
265
330
240
100
AcDbEntity
  8
Ｓ_１_１
  6
CONTINUOUS
 62
     3
100
AcDbVertex
100
AcDb2dVertex
 10
1043.715058
 20
1100.999975
 30
0.0
  0
VERTEX
  5
266
330
240
100
AcDbEntity
  8
Ｓ_１_１
  6
CONTINUOUS
 62
     3
100
AcDbVertex
100
AcDb2dVertex
 10
1044.208085
 20
1101.030418
 30
0.0
  0
VERTEX
  5
267
330
240
100
AcDbEntity
  8
Ｓ_１_１
  6
CONTINUOUS
 62
     3
100
AcDbVertex
100
AcDb2dVertex
 10
1044.69736
 20
1101.121513
 30
0.0
  0
VERTEX
  5
268
330
240
100
AcDbEntity
  8
Ｓ_１_１
  6
CONTINUOUS
 62
     3
100
AcDbVertex
100
AcDb2dVertex
 10
1045.179159
 20
1101.272569
 30
0.0
  0
VERTEX
  5
269
330
240
100
AcDbEntity
  8
Ｓ_１_１
  6
CONTINUOUS
 62
     3
100
AcDbVertex
100
AcDb2dVertex
 10
1045.649816
 20
1101.482434
 30
0.0
  0
VERTEX
  5
26A
330
240
100
AcDbEntity
  8
Ｓ_１_１
  6
CONTINUOUS
 62
     3
100
AcDbVertex
100
AcDb2dVertex
 10
1046.105748
 20
1101.749513
 30
0.0
  0
VERTEX
  5
26B
330
240
100
AcDbEntity
  8
Ｓ_１_１
  6
CONTINUOUS
 62
     3
100
AcDbVertex
100
AcDb2dVertex
 10
1046.543485
 20
1102.071772
 30
0.0
  0
VERTEX
  5
26C
330
240
100
AcDbEntity
  8
Ｓ_１_１
  6
CONTINUOUS
 62
     3
100
AcDbVertex
100
AcDb2dVertex
 10
1046.959696
 20
1102.446759
 30
0.0
  0
VERTEX
  5
26D
330
240
100
AcDbEntity
  8
Ｓ_１_１
  6
CONTINUOUS
 62
     3
100
AcDbVertex
100
AcDb2dVertex
 10
1047.351213
 20
1102.87162
 30
0.0
  0
VERTEX
  5
26E
330
240
100
AcDbEntity
  8
Ｓ_１_１
  6
CONTINUOUS
 62
     3
100
AcDbVertex
100
AcDb2dVertex
 10
1047.715057
 20
1103.343122
 30
0.0
  0
VERTEX
  5
26F
330
240
100
AcDbEntity
  8
Ｓ_１_１
  6
CONTINUOUS
 62
     3
100
AcDbVertex
100
AcDb2dVertex
 10
1048.048459
 20
1103.857675
 30
0.0
  0
VERTEX
  5
270
330
240
100
AcDbEntity
  8
Ｓ_１_１
  6
CONTINUOUS
 62
     3
100
AcDbVertex
100
AcDb2dVertex
 10
1048.348881
 20
1104.411365
 30
0.0
  0
VERTEX
  5
271
330
240
100
AcDbEntity
  8
Ｓ_１_１
  6
CONTINUOUS
 62
     3
100
AcDbVertex
100
AcDb2dVertex
 10
1048.614036
 20
1104.999976
 30
0.0
  0
VERTEX
  5
272
330
240
100
AcDbEntity
  8
Ｓ_１_１
  6
CONTINUOUS
 62
     3
100
AcDbVertex
100
AcDb2dVertex
 10
1048.841908
 20
1105.61903
 30
0.0
  0
VERTEX
  5
273
330
240
100
AcDbEntity
  8
Ｓ_１_１
  6
CONTINUOUS
 62
     3
100
AcDbVertex
100
AcDb2dVertex
 10
1049.030761
 20
1106.263815
 30
0.0
  0
VERTEX
  5
274
330
240
100
AcDbEntity
  8
Ｓ_１_１
  6
CONTINUOUS
 62
     3
100
AcDbVertex
100
AcDb2dVertex
 10
1049.179158
 20
1106.929424
 30
0.0
  0
VERTEX
  5
275
330
240
100
AcDbEntity
  8
Ｓ_１_１
  6
CONTINUOUS
 62
     3
100
AcDbVertex
100
AcDb2dVertex
 10
1049.285971
 20
1107.610791
 30
0.0
  0
VERTEX
  5
276
330
240
100
AcDbEntity
  8
Ｓ_１_１
  6
CONTINUOUS
 62
     3
100
AcDbVertex
100
AcDb2dVertex
 10
1049.350385
 20
1108.302731
 30
0.0
  0
VERTEX
  5
277
330
240
100
AcDbEntity
  8
Ｓ_１_１
  6
CONTINUOUS
 62
     3
100
AcDbVertex
100
AcDb2dVertex
 10
1049.371911
 20
1108.999977
 30
0.0
  0
VERTEX
  5
278
330
240
100
AcDbEntity
  8
Ｓ_１_１
  6
CONTINUOUS
 62
     3
100
AcDbVertex
100
AcDb2dVertex
 10
1049.350385
 20
1109.697223
 30
0.0
  0
VERTEX
  5
279
330
240
100
AcDbEntity
  8
Ｓ_１_１
  6
CONTINUOUS
 62
     3
100
AcDbVertex
100
AcDb2dVertex
 10
1049.285971
 20
1110.389163
 30
0.0
  0
VERTEX
  5
27A
330
240
100
AcDbEntity
  8
Ｓ_１_１
  6
CONTINUOUS
 62
     3
100
AcDbVertex
100
AcDb2dVertex
 10
1049.179158
 20
1111.07053
 30
0.0
  0
VERTEX
  5
27B
330
240
100
AcDbEntity
  8
Ｓ_１_１
  6
CONTINUOUS
 62
     3
100
AcDbVertex
100
AcDb2dVertex
 10
1049.030761
 20
1111.736139
 30
0.0
  0
VERTEX
  5
27C
330
240
100
AcDbEntity
  8
Ｓ_１_１
  6
CONTINUOUS
 62
     3
100
AcDbVertex
100
AcDb2dVertex
 10
1048.841908
 20
1112.380924
 30
0.0
  0
VERTEX
  5
27D
330
240
100
AcDbEntity
  8
Ｓ_１_１
  6
CONTINUOUS
 62
     3
100
AcDbVertex
100
AcDb2dVertex
 10
1048.614036
 20
1112.999978
 30
0.0
  0
VERTEX
  5
27E
330
240
100
AcDbEntity
  8
Ｓ_１_１
  6
CONTINUOUS
 62
     3
100
AcDbVertex
100
AcDb2dVertex
 10
1048.348881
 20
1113.58859
 30
0.0
  0
VERTEX
  5
27F
330
240
100
AcDbEntity
  8
Ｓ_１_１
  6
CONTINUOUS
 62
     3
100
AcDbVertex
100
AcDb2dVertex
 10
1048.048459
 20
1114.142279
 30
0.0
  0
VERTEX
  5
280
330
240
100
AcDbEntity
  8
Ｓ_１_１
  6
CONTINUOUS
 62
     3
100
AcDbVertex
100
AcDb2dVertex
 10
1047.715057
 20
1114.656833
 30
0.0
  0
VERTEX
  5
281
330
240
100
AcDbEntity
  8
Ｓ_１_１
  6
CONTINUOUS
 62
     3
100
AcDbVertex
100
AcDb2dVertex
 10
1047.351213
 20
1115.128334
 30
0.0
  0
VERTEX
  5
282
330
240
100
AcDbEntity
  8
Ｓ_１_１
  6
CONTINUOUS
 62
     3
100
AcDbVertex
100
AcDb2dVertex
 10
1046.959696
 20
1115.553195
 30
0.0
  0
VERTEX
  5
283
330
240
100
AcDbEntity
  8
Ｓ_１_１
  6
CONTINUOUS
 62
     3
100
AcDbVertex
100
AcDb2dVertex
 10
1046.543485
 20
1115.928182
 30
0.0
  0
VERTEX
  5
284
330
240
100
AcDbEntity
  8
Ｓ_１_１
  6
CONTINUOUS
 62
     3
100
AcDbVertex
100
AcDb2dVertex
 10
1046.105748
 20
1116.250441
 30
0.0
  0
VERTEX
  5
285
330
240
100
AcDbEntity
  8
Ｓ_１_１
  6
CONTINUOUS
 62
     3
100
AcDbVertex
100
AcDb2dVertex
 10
1045.649816
 20
1116.51752
 30
0.0
  0
VERTEX
  5
286
330
240
100
AcDbEntity
  8
Ｓ_１_１
  6
CONTINUOUS
 62
     3
100
AcDbVertex
100
AcDb2dVertex
 10
1045.179159
 20
1116.727385
 30
0.0
  0
VERTEX
  5
287
330
240
100
AcDbEntity
  8
Ｓ_１_１
  6
CONTINUOUS
 62
     3
100
AcDbVertex
100
AcDb2dVertex
 10
1044.69736
 20
1116.878441
 30
0.0
  0
VERTEX
  5
288
330
240
100
AcDbEntity
  8
Ｓ_１_１
  6
CONTINUOUS
 62
     3
100
AcDbVertex
100
AcDb2dVertex
 10
1044.208085
 20
1116.969537
 30
0.0
  0
VERTEX
  5
289
330
240
100
AcDbEntity
  8
Ｓ_１_１
  6
CONTINUOUS
 62
     3
100
AcDbVertex
100
AcDb2dVertex
 10
1043.715058
 20
1116.999979
 30
0.0
  0
SEQEND
  5
28A
330
240
100
AcDbEntity
  8
Ｓ_１_１
  6
CONTINUOUS
 62
     3
  0
CIRCLE
  5
28B
330
1F
100
AcDbEntity
  8
Ｓ_１_１
  6
CONTINUOUS
 62
     3
100
AcDbCircle
 10
1100.0
 20
1508.999943
 30
0.0
 40
16.000081
  0
CIRCLE
  5
28C
330
1F
100
AcDbEntity
  8
Ｓ_１_１
  6
CONTINUOUS
 62
     3
100
AcDbCircle
 10
1100.0
 20
1508.999943
 30
0.0
 40
12.99994
  0
CIRCLE
  5
28D
330
1F
100
AcDbEntity
  8
Ｓ_１_１
  6
CONTINUOUS
 62
     3
100
AcDbCircle
 10
1100.0
 20
1508.999943
 30
0.0
 40
12.00001900000001
  0
ARC
  5
28E
330
1F
100
AcDbEntity
  8
Ｓ_１_１
  6
CONTINUOUS
 62
     3
100
AcDbCircle
 10
1100.0
 20
1923.999955
 30
0.0
 40
10.0
100
AcDbArc
 50
90.000003
 51
270.0000010000001
  0
ARC
  5
28F
330
1F
100
AcDbEntity
  8
Ｓ_１_１
  6
CONTINUOUS
 62
     3
100
AcDbCircle
 10
1100.0
 20
1108.999987
 30
0.0
 40
8.0
100
AcDbArc
 50
90.000003
 51
270.0000010000001
  0
ARC
  5
290
330
1F
100
AcDbEntity
  8
Ｓ_１_１
  6
CONTINUOUS
 62
     3
100
AcDbCircle
 10
1100.0
 20
475.0
 30
0.0
 40
149.999988
100
AcDbArc
 50
179.999991
 51
0.0
  0
CIRCLE
  5
291
330
1F
100
AcDbEntity
  8
Ｓ_１_１
  6
CONTINUOUS
 62
     3
100
AcDbCircle
 10
1100.0
 20
495.0
 30
0.0
 40
74.999994
  0
ARC
  5
292
330
1F
100
AcDbEntity
  8
Ｓ_１_１
  6
CONTINUOUS
 62
     3
100
AcDbCircle
 10
961.7500329999998
 20
1423.999963
 30
0.0
 40
14.00000000000001
100
AcDbArc
 50
141.78679
 51
218.213206
  0
ARC
  5
293
330
1F
100
AcDbEntity
  8
Ｓ_１_１
  6
CONTINUOUS
 62
     3
100
AcDbCircle
 10
1238.250044
 20
1423.999963
 30
0.0
 40
14.00000000000001
100
AcDbArc
 50
321.786789
 51
38.21321100000001
  0
ARC
  5
294
330
1F
100
AcDbEntity
  8
Ｓ_１_１
  6
CONTINUOUS
 62
     3
100
AcDbCircle
 10
999.464342
 20
1383.999964
 30
0.0
 40
5.0
100
AcDbArc
 50
89.99999600000004
 51
179.999991
  0
ARC
  5
295
330
1F
100
AcDbEntity
  8
Ｓ_１_１
  6
CONTINUOUS
 62
     3
100
AcDbCircle
 10
1020.677568
 20
1383.999964
 30
0.0
 40
5.0
100
AcDbArc
 50
89.99999600000004
 51
179.999991
  0
ARC
  5
296
330
1F
100
AcDbEntity
  8
Ｓ_１_１
  6
CONTINUOUS
 62
     3
100
AcDbCircle
 10
1179.322509
 20
1383.999964
 30
0.0
 40
5.0
100
AcDbArc
 50
0.0000030000000252
 51
90.000003
  0
ARC
  5
297
330
1F
100
AcDbEntity
  8
Ｓ_１_１
  6
CONTINUOUS
 62
     3
100
AcDbCircle
 10
1179.322509
 20
1093.999987
 30
0.0
 40
5.0
100
AcDbArc
 50
277.7877110000002
 51
0.0000030000000252
  0
ARC
  5
298
330
1F
100
AcDbEntity
  8
Ｓ_１_１
  6
CONTINUOUS
 62
     3
100
AcDbCircle
 10
999.464342
 20
1093.999987
 30
0.0
 40
5.0
100
AcDbArc
 50
179.999991
 51
270.0000010000001
  0
ARC
  5
299
330
1F
100
AcDbEntity
  8
Ｓ_１_１
  6
CONTINUOUS
 62
     3
100
AcDbCircle
 10
1020.677568
 20
1093.999987
 30
0.0
 40
5.0
100
AcDbArc
 50
179.999991
 51
270.0000010000001
  0
ARC
  5
29A
330
1F
100
AcDbEntity
  8
Ｓ_１_１
  6
CONTINUOUS
 62
     3
100
AcDbCircle
 10
1020.677568
 20
1053.999988
 30
0.0
 40
5.0
100
AcDbArc
 50
89.99999600000004
 51
179.999991
  0
ARC
  5
29B
330
1F
100
AcDbEntity
  8
Ｓ_１_１
  6
CONTINUOUS
 62
     3
100
AcDbCircle
 10
1179.322509
 20
1053.999988
 30
0.0
 40
5.0
100
AcDbArc
 50
0.0000030000000252
 51
82.21228900000003
  0
ARC
  5
29C
330
1F
100
AcDbEntity
  8
Ｓ_１_１
  6
CONTINUOUS
 62
     3
100
AcDbCircle
 10
999.464342
 20
1053.999988
 30
0.0
 40
5.0
100
AcDbArc
 50
89.99999600000004
 51
179.999991
  0
ARC
  5
29D
330
1F
100
AcDbEntity
  8
Ｓ_１_１
  6
CONTINUOUS
 62
     3
100
AcDbCircle
 10
1267.499998
 20
1783.999385
 30
0.0
 40
6.000000000000004
100
AcDbArc
 50
359.9999990000001
 51
180.0000190000001
  0
ARC
  5
29E
330
1F
100
AcDbEntity
  8
Ｓ_１_１
  6
CONTINUOUS
 62
     3
100
AcDbCircle
 10
1267.499998
 20
1683.999387
 30
0.0
 40
6.000000000000004
100
AcDbArc
 50
180.000022
 51
359.999982
  0
ARC
  5
29F
330
1F
100
AcDbEntity
  8
Ｓ_１_１
  6
CONTINUOUS
 62
     3
100
AcDbCircle
 10
932.5000409999998
 20
1683.999387
 30
0.0
 40
6.000000000000004
100
AcDbArc
 50
180.000022
 51
359.999982
  0
ARC
  5
2A0
330
1F
100
AcDbEntity
  8
Ｓ_１_１
  6
CONTINUOUS
 62
     3
100
AcDbCircle
 10
932.5000409999998
 20
1783.999385
 30
0.0
 40
6.000000000000004
100
AcDbArc
 50
359.999982
 51
180.000005
  0
LINE
  5
2A1
330
1F
100
AcDbEntity
  8
Ｓ_１_１
  6
CONTINUOUS
 62
     3
100
AcDbLine
 10
920.0000409999998
 20
1913.999956
 30
0.0
 11
1020.000001
 21
1913.999956
 31
0.0
  0
LINE
  5
2A2
330
1F
100
AcDbEntity
  8
Ｓ_１_１
  6
CONTINUOUS
 62
     3
100
AcDbLine
 10
920.0000409999998
 20
1933.999955
 30
0.0
 11
1020.000001
 21
1933.999955
 31
0.0
  0
LINE
  5
2A3
330
1F
100
AcDbEntity
  8
Ｓ_１_１
  6
CONTINUOUS
 62
     3
100
AcDbLine
 10
1179.999999
 20
1913.999956
 30
0.0
 11
1279.999997
 21
1913.999956
 31
0.0
  0
LINE
  5
2A4
330
1F
100
AcDbEntity
  8
Ｓ_１_１
  6
CONTINUOUS
 62
     3
100
AcDbLine
 10
1179.999999
 20
1933.999955
 30
0.0
 11
1279.999997
 21
1933.999955
 31
0.0
  0
LINE
  5
2A5
330
1F
100
AcDbEntity
  8
Ｓ_１_１
  6
CONTINUOUS
 62
     3
100
AcDbLine
 10
1165.000049
 20
1915.999995
 30
0.0
 11
1163.267991
 21
1916.999999
 31
0.0
  0
LINE
  5
2A6
330
1F
100
AcDbEntity
  8
Ｓ_１_１
  6
CONTINUOUS
 62
     3
100
AcDbLine
 10
1165.000013
 20
1931.999961
 30
0.0
 11
1163.267923
 21
1930.999938
 31
0.0
  0
LINE
  5
2A7
330
1F
100
AcDbEntity
  8
Ｓ_１_１
  6
CONTINUOUS
 62
     3
100
AcDbLine
 10
1160.000002
 20
1916.999957
 30
0.0
 11
1155.958559
 21
1923.999941
 31
0.0
  0
LINE
  5
2A8
330
1F
100
AcDbEntity
  8
Ｓ_１_１
  6
CONTINUOUS
 62
     3
100
AcDbLine
 10
1160.000052
 20
1930.999947
 30
0.0
 11
1155.958609
 21
1923.999963
 31
0.0
  0
LINE
  5
2A9
330
1F
100
AcDbEntity
  8
Ｓ_１_１
  6
CONTINUOUS
 62
     3
100
AcDbLine
 10
1159.999999
 20
1930.999925
 30
0.0
 11
1159.999999
 21
1916.999948
 31
0.0
  0
LINE
  5
2AA
330
1F
100
AcDbEntity
  8
Ｓ_１_１
  6
CONTINUOUS
 62
     3
100
AcDbLine
 10
1164.999999
 20
1931.999948
 30
0.0
 11
1164.999999
 21
1915.999925
 31
0.0
  0
LINE
  5
2AB
330
1F
100
AcDbEntity
  8
Ｓ_１_１
  6
CONTINUOUS
 62
     3
100
AcDbLine
 10
1159.999999
 20
1930.999925
 30
0.0
 11
1179.999999
 21
1930.999925
 31
0.0
  0
LINE
  5
2AC
330
1F
100
AcDbEntity
  8
Ｓ_１_１
  6
CONTINUOUS
 62
     3
100
AcDbLine
 10
1159.999999
 20
1916.999948
 30
0.0
 11
1179.999999
 21
1916.999948
 31
0.0
  0
LINE
  5
2AD
330
1F
100
AcDbEntity
  8
Ｓ_１_１
  6
CONTINUOUS
 62
     3
100
AcDbLine
 10
1139.500045
 20
1983.999916
 30
0.0
 11
1177.000045
 21
1983.999916
 31
0.0
  0
LINE
  5
2AE
330
1F
100
AcDbEntity
  8
Ｓ_１_１
  6
CONTINUOUS
 62
     3
100
AcDbLine
 10
1139.500045
 20
756.999965
 30
0.0
 11
1159.999999
 21
756.999965
 31
0.0
  0
LINE
  5
2AF
330
1F
100
AcDbEntity
  8
Ｓ_１_１
  6
CONTINUOUS
 62
     3
100
AcDbLine
 10
1139.500045
 20
2114.413199
 30
0.0
 11
1139.500045
 21
1863.999956
 31
0.0
  0
LINE
  5
2B0
330
1F
100
AcDbEntity
  8
Ｓ_１_１
  6
CONTINUOUS
 62
     3
100
AcDbLine
 10
1060.500031
 20
2085.659613
 30
0.0
 11
1060.500031
 21
1983.999916
 31
0.0
  0
LINE
  5
2B1
330
1F
100
AcDbEntity
  8
Ｓ_１_１
  6
CONTINUOUS
 62
     3
100
AcDbLine
 10
1160.000016
 20
1100.999971
 30
0.0
 11
1155.381219
 21
1108.999963
 31
0.0
  0
LINE
  5
2B2
330
1F
100
AcDbEntity
  8
Ｓ_１_１
  6
CONTINUOUS
 62
     3
100
AcDbLine
 10
1160.000015
 20
1116.999967
 30
0.0
 11
1155.381217
 21
1108.999976
 31
0.0
  0
LINE
  5
2B3
330
1F
100
AcDbEntity
  8
Ｓ_１_１
  6
CONTINUOUS
 62
     3
100
AcDbLine
 10
1180.000006
 20
1165.999996
 30
0.0
 11
1177.000013
 21
1168.999988
 31
0.0
  0
LINE
  5
2B4
330
1F
100
AcDbEntity
  8
Ｓ_１_１
  6
CONTINUOUS
 62
     3
100
AcDbLine
 10
1179.999988
 20
1051.999999
 30
0.0
 11
1176.999996
 21
1049.000007
 31
0.0
  0
LINE
  5
2B5
330
1F
100
AcDbEntity
  8
Ｓ_１_１
  6
CONTINUOUS
 62
     3
100
AcDbLine
 10
1020.000056
 20
1051.999954
 30
0.0
 11
1023.000048
 21
1048.999962
 31
0.0
  0
LINE
  5
2B6
330
1F
100
AcDbEntity
  8
Ｓ_１_１
  6
CONTINUOUS
 62
     3
100
AcDbLine
 10
1020.000012
 20
1165.99996
 30
0.0
 11
1023.000031
 21
1168.999979
 31
0.0
  0
LINE
  5
2B7
330
1F
100
AcDbEntity
  8
Ｓ_１_１
  6
CONTINUOUS
 62
     3
100
AcDbLine
 10
1100.0
 20
1051.99998
 30
0.0
 11
1020.000001
 21
1051.99998
 31
0.0
  0
LINE
  5
2B8
330
1F
100
AcDbEntity
  8
Ｓ_１_１
  6
CONTINUOUS
 62
     3
100
AcDbLine
 10
1100.0
 20
1165.999974
 30
0.0
 11
1020.000001
 21
1165.999974
 31
0.0
  0
LINE
  5
2B9
330
1F
100
AcDbEntity
  8
Ｓ_１_１
  6
CONTINUOUS
 62
     3
100
AcDbLine
 10
1159.999999
 20
1116.999979
 30
0.0
 11
1159.999999
 21
1100.999975
 31
0.0
  0
LINE
  5
2BA
330
1F
100
AcDbEntity
  8
Ｓ_１_１
  6
CONTINUOUS
 62
     3
100
AcDbLine
 10
1179.999999
 20
1116.999979
 30
0.0
 11
1159.999999
 21
1116.999979
 31
0.0
  0
LINE
  5
2BB
330
1F
100
AcDbEntity
  8
Ｓ_１_１
  6
CONTINUOUS
 62
     3
100
AcDbLine
 10
1179.999999
 20
1100.999975
 30
0.0
 11
1159.999999
 21
1100.999975
 31
0.0
  0
LINE
  5
2BC
330
1F
100
AcDbEntity
  8
Ｓ_１_１
  6
CONTINUOUS
 62
     3
100
AcDbLine
 10
1164.999999
 20
1931.999948
 30
0.0
 11
1179.999999
 21
1931.999948
 31
0.0
  0
LINE
  5
2BD
330
1F
100
AcDbEntity
  8
Ｓ_１_１
  6
CONTINUOUS
 62
     3
100
AcDbLine
 10
1164.999999
 20
1915.999925
 30
0.0
 11
1179.999999
 21
1915.999925
 31
0.0
  0
LINE
  5
2BE
330
1F
100
AcDbEntity
  8
Ｓ_１_１
  6
CONTINUOUS
 62
     3
100
AcDbLine
 10
1279.999997
 20
1933.999955
 30
0.0
 11
1279.999997
 21
1913.999956
 31
0.0
  0
LINE
  5
2BF
330
1F
100
AcDbEntity
  8
Ｓ_１_１
  6
CONTINUOUS
 62
     3
100
AcDbLine
 10
920.0000409999998
 20
1933.999955
 30
0.0
 11
920.0000409999998
 21
1913.999956
 31
0.0
  0
LINE
  5
2C0
330
1F
100
AcDbEntity
  8
Ｓ_１_１
  6
CONTINUOUS
 62
     3
100
AcDbLine
 10
1177.000022
 20
1983.999936
 30
0.0
 11
1180.000014
 21
1980.999944
 31
0.0
  0
LINE
  5
2C1
330
1F
100
AcDbEntity
  8
Ｓ_１_１
  6
CONTINUOUS
 62
     3
100
AcDbLine
 10
1020.00005
 20
1980.99996
 30
0.0
 11
1023.000043
 21
1983.999952
 31
0.0
  0
LINE
  5
2C2
330
1F
100
AcDbEntity
  8
Ｓ_１_１
  6
CONTINUOUS
 62
     3
100
AcDbLine
 10
1020.000035
 20
1866.999945
 30
0.0
 11
1023.000028
 21
1863.999953
 31
0.0
  0
LINE
  5
2C3
330
1F
100
AcDbEntity
  8
Ｓ_１_１
  6
CONTINUOUS
 62
     3
100
AcDbLine
 10
1179.999996
 20
1866.999922
 30
0.0
 11
1177.000003
 21
1863.99993
 31
0.0
  0
LINE
  5
2C4
330
1F
100
AcDbEntity
  8
Ｓ_１_１
  6
CONTINUOUS
 62
     3
100
AcDbLine
 10
1020.000001
 20
1866.999949
 30
0.0
 11
1100.0
 21
1866.999949
 31
0.0
  0
LINE
  5
2C5
330
1F
100
AcDbEntity
  8
Ｓ_１_１
  6
CONTINUOUS
 62
     3
100
AcDbLine
 10
1020.000001
 20
1980.999962
 30
0.0
 11
1100.0
 21
1980.999962
 31
0.0
  0
LINE
  5
2C6
330
1F
100
AcDbEntity
  8
Ｓ_１_１
  6
CONTINUOUS
 62
     3
100
AcDbLine
 10
1100.0
 20
826.9999640000001
 30
0.0
 11
783.836865
 21
826.9999640000001
 31
0.0
  0
LINE
  5
2C7
330
1F
100
AcDbEntity
  8
Ｓ_１_１
  6
CONTINUOUS
 62
     3
100
AcDbLine
 10
1035.000077
 20
751.999965
 30
0.0
 11
1100.0
 21
751.999965
 31
0.0
  0
LINE
  5
2C8
330
1F
100
AcDbEntity
  8
Ｓ_１_１
  6
CONTINUOUS
 62
     3
100
AcDbLine
 10
1040.000015
 20
756.9999990000001
 30
0.0
 11
1035.00001
 21
751.9999929999999
 31
0.0
  0
LINE
  5
2C9
330
1F
100
AcDbEntity
  8
Ｓ_１_１
  6
CONTINUOUS
 62
     3
100
AcDbLine
 10
1160.000022
 20
756.9999700000001
 30
0.0
 11
1165.000027
 21
751.9999640000001
 31
0.0
  0
LINE
  5
2CA
330
1F
100
AcDbEntity
  8
Ｓ_１_１
  6
CONTINUOUS
 62
     3
100
AcDbLine
 10
1100.0
 20
636.999967
 30
0.0
 11
1142.499999
 21
636.999967
 31
0.0
  0
LINE
  5
2CB
330
1F
100
AcDbEntity
  8
Ｓ_１_１
  6
CONTINUOUS
 62
     3
100
AcDbLine
 10
950.000045
 20
552.000008
 30
0.0
 11
1035.000023
 21
636.9999869999999
 31
0.0
  0
LINE
  5
2CC
330
1F
100
AcDbEntity
  8
Ｓ_１_１
  6
CONTINUOUS
 62
     3
100
AcDbLine
 10
1165.000037
 20
636.9999700000001
 30
0.0
 11
1250.00002
 21
551.999988
 31
0.0
  0
LINE
  5
2CD
330
1F
100
AcDbEntity
  8
Ｓ_１_１
  6
CONTINUOUS
 62
     3
100
AcDbLine
 10
1249.999998
 20
551.9999680000001
 30
0.0
 11
1249.999998
 21
475.0
 31
0.0
  0
LINE
  5
2CE
330
1F
100
AcDbEntity
  8
Ｓ_１_１
  6
CONTINUOUS
 62
     3
100
AcDbLine
 10
950.0000399999999
 20
551.9999680000001
 30
0.0
 11
950.0000399999999
 21
475.0
 31
0.0
  0
LINE
  5
2CF
330
1F
100
AcDbEntity
  8
Ｓ_１_１
  6
CONTINUOUS
 62
     3
100
AcDbLine
 10
1040.000001
 20
756.999965
 30
0.0
 11
1100.0
 21
756.999965
 31
0.0
  0
LINE
  5
2D0
330
1F
100
AcDbEntity
  8
Ｓ_１_１
  6
CONTINUOUS
 62
     3
100
AcDbLine
 10
1164.999999
 20
751.999965
 30
0.0
 11
1164.999999
 21
636.999967
 31
0.0
  0
LINE
  5
2D1
330
1F
100
AcDbEntity
  8
Ｓ_１_１
  6
CONTINUOUS
 62
     3
100
AcDbLine
 10
1035.000001
 20
751.999965
 30
0.0
 11
1035.000001
 21
636.999967
 31
0.0
  0
LINE
  5
2D2
330
1F
100
AcDbEntity
  8
Ｓ_１_１
  6
CONTINUOUS
 62
     3
100
AcDbLine
 10
1338.578793
 20
826.9999640000001
 30
0.0
 11
1162.454299
 21
826.9999640000001
 31
0.0
  0
LINE
  5
2D3
330
1F
100
AcDbEntity
  8
Ｓ_１_１
  6
CONTINUOUS
 62
     3
100
AcDbLine
 10
1154.999999
 20
1048.999988
 30
0.0
 11
1154.999999
 21
1026.99998
 31
0.0
  0
LINE
  5
2D4
330
1F
100
AcDbEntity
  8
Ｓ_１_１
  6
CONTINUOUS
 62
     3
100
AcDbLine
 10
1174.999999
 20
1448.999963
 30
0.0
 11
1174.999999
 21
1423.999963
 31
0.0
  0
LINE
  5
2D5
330
1F
100
AcDbEntity
  8
Ｓ_１_１
  6
CONTINUOUS
 62
     3
100
AcDbLine
 10
1100.0
 20
1388.999963
 30
0.0
 11
999.464342
 21
1388.999963
 31
0.0
  0
LINE
  5
2D6
330
1F
100
AcDbEntity
  8
Ｓ_１_１
  6
CONTINUOUS
 62
     3
100
AcDbLine
 10
1060.500031
 20
826.9999640000001
 30
0.0
 11
1060.500031
 21
756.999965
 31
0.0
  0
LINE
  5
2D7
330
1F
100
AcDbEntity
  8
Ｓ_１_１
  6
CONTINUOUS
 62
     3
100
AcDbLine
 10
1060.500031
 20
1388.999963
 30
0.0
 11
1060.500031
 21
1168.999967
 31
0.0
  0
LINE
  5
2D8
330
1F
100
AcDbEntity
  8
Ｓ_１_１
  6
CONTINUOUS
 62
     3
100
AcDbLine
 10
1100.0
 20
1168.999967
 30
0.0
 11
1023.000032
 21
1168.999967
 31
0.0
  0
LINE
  5
2D9
330
1F
100
AcDbEntity
  8
Ｓ_１_１
  6
CONTINUOUS
 62
     3
100
AcDbLine
 10
1100.0
 20
1026.99998
 30
0.0
 11
837.426686
 21
1026.99998
 31
0.0
  0
LINE
  5
2DA
330
1F
100
AcDbEntity
  8
Ｓ_１_１
  6
CONTINUOUS
 62
     3
100
AcDbLine
 10
1100.0
 20
1048.999988
 30
0.0
 11
925.0000409999998
 21
1048.999988
 31
0.0
  0
LINE
  5
2DB
330
1F
100
AcDbEntity
  8
Ｓ_１_１
  6
CONTINUOUS
 62
     3
100
AcDbLine
 10
1020.000001
 20
1058.999987
 30
0.0
 11
1020.000001
 21
1051.99998
 31
0.0
  0
LINE
  5
2DC
330
1F
100
AcDbEntity
  8
Ｓ_１_１
  6
CONTINUOUS
 62
     3
100
AcDbLine
 10
1057.500001
 20
826.9999640000001
 30
0.0
 11
1057.500001
 21
756.999965
 31
0.0
  0
LINE
  5
2DD
330
1F
100
AcDbEntity
  8
Ｓ_１_１
  6
CONTINUOUS
 62
     3
100
AcDbLine
 10
1020.000001
 20
1165.999974
 30
0.0
 11
1020.000001
 21
1088.999987
 31
0.0
  0
LINE
  5
2DE
330
1F
100
AcDbEntity
  8
Ｓ_１_１
  6
CONTINUOUS
 62
     3
100
AcDbLine
 10
1179.999999
 20
1165.999974
 30
0.0
 11
1179.999999
 21
1051.99998
 31
0.0
  0
LINE
  5
2DF
330
1F
100
AcDbEntity
  8
Ｓ_１_１
  6
CONTINUOUS
 62
     3
100
AcDbLine
 10
1177.000045
 20
1168.999967
 30
0.0
 11
1142.499999
 21
1168.999967
 31
0.0
  0
LINE
  5
2E0
330
1F
100
AcDbEntity
  8
Ｓ_１_１
  6
CONTINUOUS
 62
     3
100
AcDbLine
 10
1057.500001
 20
1388.999963
 30
0.0
 11
1057.500001
 21
1168.999967
 31
0.0
  0
LINE
  5
2E1
330
1F
100
AcDbEntity
  8
Ｓ_１_１
  6
CONTINUOUS
 62
     3
100
AcDbLine
 10
1142.499999
 20
2115.505118
 30
0.0
 11
1142.499999
 21
1863.999956
 31
0.0
  0
LINE
  5
2E2
330
1F
100
AcDbEntity
  8
Ｓ_１_１
  6
CONTINUOUS
 62
     3
100
AcDbLine
 10
1057.500001
 20
2084.567694
 30
0.0
 11
1057.500001
 21
1983.999916
 31
0.0
  0
LINE
  5
2E3
330
1F
100
AcDbEntity
  8
Ｓ_１_１
  6
CONTINUOUS
 62
     3
100
AcDbLine
 10
1179.999999
 20
1980.999962
 30
0.0
 11
1179.999999
 21
1866.999949
 31
0.0
  0
LINE
  5
2E4
330
1F
100
AcDbEntity
  8
Ｓ_１_１
  6
CONTINUOUS
 62
     3
100
AcDbLine
 10
1020.000001
 20
1980.999962
 30
0.0
 11
1020.000001
 21
1866.999949
 31
0.0
  0
LINE
  5
2E5
330
1F
100
AcDbEntity
  8
Ｓ_１_１
  6
CONTINUOUS
 62
     3
100
AcDbLine
 10
1023.000032
 20
1983.999916
 30
0.0
 11
1100.0
 21
1983.999916
 31
0.0
  0
LINE
  5
2E6
330
1F
100
AcDbEntity
  8
Ｓ_１_１
  6
CONTINUOUS
 62
     3
100
AcDbLine
 10
950.7500479999999
 20
1415.339704
 30
0.0
 11
950.7500479999999
 21
1048.999988
 31
0.0
  0
LINE
  5
2E7
330
1F
100
AcDbEntity
  8
Ｓ_１_１
  6
CONTINUOUS
 62
     3
100
AcDbLine
 10
1100.0
 20
1432.660212
 30
0.0
 11
950.7500479999999
 21
1432.660212
 31
0.0
  0
LINE
  5
2E8
330
1F
100
AcDbEntity
  8
Ｓ_１_１
  6
CONTINUOUS
 62
     3
100
AcDbLine
 10
1249.250028
 20
1415.339704
 30
0.0
 11
1249.250028
 21
1048.999988
 31
0.0
  0
LINE
  5
2E9
330
1F
100
AcDbEntity
  8
Ｓ_１_１
  6
CONTINUOUS
 62
     3
100
AcDbLine
 10
1100.0
 20
1415.339704
 30
0.0
 11
950.7500479999999
 21
1415.339704
 31
0.0
  0
LINE
  5
2EA
330
1F
100
AcDbEntity
  8
Ｓ_１_１
  6
CONTINUOUS
 62
     3
100
AcDbLine
 10
1249.250003
 20
1445.999946
 30
0.0
 11
1246.25001
 21
1448.999939
 31
0.0
  0
LINE
  5
2EB
330
1F
100
AcDbEntity
  8
Ｓ_１_１
  6
CONTINUOUS
 62
     3
100
AcDbLine
 10
950.7500150000001
 20
1445.999964
 30
0.0
 11
953.7500070000001
 21
1448.999956
 31
0.0
  0
LINE
  5
2EC
330
1F
100
AcDbEntity
  8
Ｓ_１_１
  6
CONTINUOUS
 62
     3
100
AcDbLine
 10
1100.0
 20
1445.999961
 30
0.0
 11
950.7500479999999
 21
1445.999961
 31
0.0
  0
LINE
  5
2ED
330
1F
100
AcDbEntity
  8
Ｓ_１_１
  6
CONTINUOUS
 62
     3
100
AcDbLine
 10
1180.927657
 20
1388.999963
 30
0.0
 11
1142.499999
 21
1388.999963
 31
0.0
  0
LINE
  5
2EE
330
1F
100
AcDbEntity
  8
Ｓ_１_１
  6
CONTINUOUS
 62
     3
100
AcDbLine
 10
1184.322509
 20
1053.999988
 30
0.0
 11
1184.322509
 21
1048.999988
 31
0.0
  0
LINE
  5
2EF
330
1F
100
AcDbEntity
  8
Ｓ_１_１
  6
CONTINUOUS
 62
     3
100
AcDbLine
 10
994.464342
 20
1053.999988
 30
0.0
 11
994.464342
 21
1048.999988
 31
0.0
  0
LINE
  5
2F0
330
1F
100
AcDbEntity
  8
Ｓ_１_１
  6
CONTINUOUS
 62
     3
100
AcDbLine
 10
1015.677568
 20
1053.999988
 30
0.0
 11
1015.677568
 21
1048.999988
 31
0.0
  0
LINE
  5
2F1
330
1F
100
AcDbEntity
  8
Ｓ_１_１
  6
CONTINUOUS
 62
     3
100
AcDbLine
 10
1100.0
 20
1088.999987
 30
0.0
 11
999.464342
 21
1088.999987
 31
0.0
  0
LINE
  5
2F2
330
1F
100
AcDbEntity
  8
Ｓ_１_１
  6
CONTINUOUS
 62
     3
100
AcDbLine
 10
1184.322509
 20
1383.999964
 30
0.0
 11
1184.322509
 21
1093.999987
 31
0.0
  0
LINE
  5
2F3
330
1F
100
AcDbEntity
  8
Ｓ_１_１
  6
CONTINUOUS
 62
     3
100
AcDbLine
 10
1015.677568
 20
1383.999964
 30
0.0
 11
1015.677568
 21
1093.999987
 31
0.0
  0
LINE
  5
2F4
330
1F
100
AcDbEntity
  8
Ｓ_１_１
  6
CONTINUOUS
 62
     3
100
AcDbLine
 10
994.464342
 20
1383.999964
 30
0.0
 11
994.464342
 21
1093.999987
 31
0.0
  0
LINE
  5
2F5
330
1F
100
AcDbEntity
  8
Ｓ_１_１
  6
CONTINUOUS
 62
     3
100
AcDbLine
 10
1100.0
 20
1058.999987
 30
0.0
 11
999.464342
 21
1058.999987
 31
0.0
  0
LINE
  5
2F6
330
1F
100
AcDbEntity
  8
Ｓ_１_１
  6
CONTINUOUS
 62
     3
100
AcDbLine
 10
1274.999997
 20
1048.999988
 30
0.0
 11
1274.999997
 21
1026.99998
 31
0.0
  0
LINE
  5
2F7
330
1F
100
AcDbEntity
  8
Ｓ_１_１
  6
CONTINUOUS
 62
     3
100
AcDbLine
 10
925.0000409999998
 20
1048.999988
 30
0.0
 11
925.0000409999998
 21
1026.99998
 31
0.0
  0
LINE
  5
2F8
330
1F
100
AcDbEntity
  8
Ｓ_１_１
  6
CONTINUOUS
 62
     3
100
AcDbLine
 10
1274.999997
 20
1048.999988
 30
0.0
 11
1142.499999
 21
1048.999988
 31
0.0
  0
LINE
  5
2F9
330
1F
100
AcDbEntity
  8
Ｓ_１_１
  6
CONTINUOUS
 62
     3
100
AcDbLine
 10
1252.250059
 20
1423.999963
 30
0.0
 11
1142.499999
 21
1423.999963
 31
0.0
  0
LINE
  5
2FA
330
1F
100
AcDbEntity
  8
Ｓ_１_１
  6
CONTINUOUS
 62
     3
100
AcDbLine
 10
1219.250029
 20
1423.999963
 30
0.0
 11
1219.250029
 21
1048.999988
 31
0.0
  0
LINE
  5
2FB
330
1F
100
AcDbEntity
  8
Ｓ_１_１
  6
CONTINUOUS
 62
     3
100
AcDbLine
 10
1249.250028
 20
1445.999961
 30
0.0
 11
1249.250028
 21
1432.660212
 31
0.0
  0
LINE
  5
2FC
330
1F
100
AcDbEntity
  8
Ｓ_１_１
  6
CONTINUOUS
 62
     3
100
AcDbLine
 10
950.7500479999999
 20
1445.999961
 30
0.0
 11
950.7500479999999
 21
1432.660212
 31
0.0
  0
LINE
  5
2FD
330
1F
100
AcDbEntity
  8
Ｓ_１_１
  6
CONTINUOUS
 62
     3
100
AcDbLine
 10
1392.168651
 20
1026.99998
 30
0.0
 11
1142.499999
 21
1026.99998
 31
0.0
  0
LINE
  5
2FE
330
1F
100
AcDbEntity
  8
Ｓ_１_１
  6
CONTINUOUS
 62
     3
100
AcDbLine
 10
1282.499997
 20
1798.999385
 30
0.0
 11
1282.499997
 21
1768.999386
 31
0.0
  0
LINE
  5
2FF
330
1F
100
AcDbEntity
  8
Ｓ_１_１
  6
CONTINUOUS
 62
     3
100
AcDbLine
 10
1252.499998
 20
1803.999385
 30
0.0
 11
1277.499997
 21
1803.999385
 31
0.0
  0
LINE
  5
300
330
1F
100
AcDbEntity
  8
Ｓ_１_１
  6
CONTINUOUS
 62
     3
100
AcDbLine
 10
1252.499998
 20
1763.999386
 30
0.0
 11
1261.499937
 21
1763.999386
 31
0.0
  0
LINE
  5
301
330
1F
100
AcDbEntity
  8
Ｓ_１_１
  6
CONTINUOUS
 62
     3
100
AcDbLine
 10
1261.499937
 20
1783.999385
 30
0.0
 11
1261.499937
 21
1683.999387
 31
0.0
  0
LINE
  5
302
330
1F
100
AcDbEntity
  8
Ｓ_１_１
  6
CONTINUOUS
 62
     3
100
AcDbLine
 10
1273.500059
 20
1783.999385
 30
0.0
 11
1273.500059
 21
1683.999387
 31
0.0
  0
LINE
  5
303
330
1F
100
AcDbEntity
  8
Ｓ_１_１
  6
CONTINUOUS
 62
     3
100
AcDbLine
 10
1273.500059
 20
1763.999386
 30
0.0
 11
1277.499997
 21
1763.999386
 31
0.0
  0
LINE
  5
304
330
1F
100
AcDbEntity
  8
Ｓ_１_１
  6
CONTINUOUS
 62
     3
100
AcDbLine
 10
1277.499955
 20
1803.999267
 30
0.0
 11
1282.49996
 21
1798.999262
 31
0.0
  0
LINE
  5
305
330
1F
100
AcDbEntity
  8
Ｓ_１_１
  6
CONTINUOUS
 62
     3
100
AcDbLine
 10
1277.500334
 20
1763.99934
 30
0.0
 11
1282.500409
 21
1768.999491
 31
0.0
  0
LINE
  5
306
330
1F
100
AcDbEntity
  8
Ｓ_１_１
  6
CONTINUOUS
 62
     3
100
AcDbLine
 10
1252.499998
 20
1763.999386
 30
0.0
 11
1252.499998
 21
1803.999385
 31
0.0
  0
LINE
  5
307
330
1F
100
AcDbEntity
  8
Ｓ_１_１
  6
CONTINUOUS
 62
     3
100
AcDbLine
 10
1252.500032
 20
1763.999248
 30
0.0
 11
1242.499984
 21
1753.999275
 31
0.0
  0
LINE
  5
308
330
1F
100
AcDbEntity
  8
Ｓ_１_１
  6
CONTINUOUS
 62
     3
100
AcDbLine
 10
1252.500036
 20
1803.999267
 30
0.0
 11
1242.500025
 21
1813.999278
 31
0.0
  0
LINE
  5
309
330
1F
100
AcDbEntity
  8
Ｓ_１_１
  6
CONTINUOUS
 62
     3
100
AcDbLine
 10
947.500008
 20
1803.999294
 30
0.0
 11
957.5000190000001
 21
1813.999305
 31
0.0
  0
LINE
  5
30A
330
1F
100
AcDbEntity
  8
Ｓ_１_１
  6
CONTINUOUS
 62
     3
100
AcDbLine
 10
947.500012
 20
1763.999258
 30
0.0
 11
957.5000599999998
 21
1753.999286
 31
0.0
  0
LINE
  5
30B
330
1F
100
AcDbEntity
  8
Ｓ_１_１
  6
CONTINUOUS
 62
     3
100
AcDbLine
 10
947.5000399999999
 20
1763.999386
 30
0.0
 11
947.5000399999999
 21
1803.999385
 31
0.0
  0
LINE
  5
30C
330
1F
100
AcDbEntity
  8
Ｓ_１_１
  6
CONTINUOUS
 62
     3
100
AcDbLine
 10
922.499683
 20
1763.999282
 30
0.0
 11
917.499605
 21
1768.999437
 31
0.0
  0
LINE
  5
30D
330
1F
100
AcDbEntity
  8
Ｓ_１_１
  6
CONTINUOUS
 62
     3
100
AcDbLine
 10
922.50009
 20
1803.999294
 30
0.0
 11
917.5000839999998
 21
1798.999289
 31
0.0
  0
LINE
  5
30E
330
1F
100
AcDbEntity
  8
Ｓ_１_１
  6
CONTINUOUS
 62
     3
100
AcDbLine
 10
926.49998
 20
1763.999386
 30
0.0
 11
922.5000409999998
 21
1763.999386
 31
0.0
  0
LINE
  5
30F
330
1F
100
AcDbEntity
  8
Ｓ_１_１
  6
CONTINUOUS
 62
     3
100
AcDbLine
 10
926.49998
 20
1783.999385
 30
0.0
 11
926.49998
 21
1683.999387
 31
0.0
  0
LINE
  5
310
330
1F
100
AcDbEntity
  8
Ｓ_１_１
  6
CONTINUOUS
 62
     3
100
AcDbLine
 10
938.500102
 20
1783.999385
 30
0.0
 11
938.500102
 21
1683.999387
 31
0.0
  0
LINE
  5
311
330
1F
100
AcDbEntity
  8
Ｓ_１_１
  6
CONTINUOUS
 62
     3
100
AcDbLine
 10
947.5000399999999
 20
1763.999386
 30
0.0
 11
938.500102
 21
1763.999386
 31
0.0
  0
LINE
  5
312
330
1F
100
AcDbEntity
  8
Ｓ_１_１
  6
CONTINUOUS
 62
     3
100
AcDbLine
 10
947.5000399999999
 20
1803.999385
 30
0.0
 11
922.5000409999998
 21
1803.999385
 31
0.0
  0
LINE
  5
313
330
1F
100
AcDbEntity
  8
Ｓ_１_１
  6
CONTINUOUS
 62
     3
100
AcDbLine
 10
917.5000409999998
 20
1798.999385
 30
0.0
 11
917.5000409999998
 21
1768.999386
 31
0.0
  0
LINE
  5
314
330
1F
100
AcDbEntity
  8
Ｓ_１_１
  6
CONTINUOUS
 62
     3
100
AcDbLine
 10
1017.886812
 20
1863.999956
 30
0.0
 11
1182.113265
 21
1863.999956
 31
0.0
  0
LINE
  5
315
330
1F
100
AcDbEntity
  8
Ｓ_１_１
  6
CONTINUOUS
 62
     3
100
AcDbLine
 10
953.7500399999999
 20
1448.999963
 30
0.0
 11
1246.249998
 21
1448.999963
 31
0.0
  0
LINE
  5
316
330
1F
100
AcDbEntity
  8
Ｓ_１_１
  6
CONTINUOUS
 62
     3
100
AcDbLine
 10
957.5000399999999
 20
1451.999964
 30
0.0
 11
1242.499998
 21
1451.999964
 31
0.0
  0
LINE
  5
317
330
1F
100
AcDbEntity
  8
Ｓ_１_１
  6
CONTINUOUS
 62
     3
100
AcDbLine
 10
1184.999985
 20
1858.999926
 30
0.0
 11
1182.113232
 21
1863.999929
 31
0.0
  0
LINE
  5
318
330
1F
100
AcDbEntity
  8
Ｓ_１_１
  6
CONTINUOUS
 62
     3
100
AcDbLine
 10
1242.50003
 20
1850.999932
 30
0.0
 11
1239.50001
 21
1853.999951
 31
0.0
  0
LINE
  5
319
330
1F
100
AcDbEntity
  8
Ｓ_１_１
  6
CONTINUOUS
 62
     3
100
AcDbLine
 10
1239.500014
 20
1448.999965
 30
0.0
 11
1242.500006
 21
1451.999958
 31
0.0
  0
LINE
  5
31A
330
1F
100
AcDbEntity
  8
Ｓ_１_１
  6
CONTINUOUS
 62
     3
100
AcDbLine
 10
1184.999999
 20
1858.999956
 30
0.0
 11
1184.999999
 21
1853.999957
 31
0.0
  0
LINE
  5
31B
330
1F
100
AcDbEntity
  8
Ｓ_１_１
  6
CONTINUOUS
 62
     3
100
AcDbLine
 10
1242.499998
 20
1850.999964
 30
0.0
 11
1242.499998
 21
1451.999964
 31
0.0
  0
LINE
  5
31C
330
1F
100
AcDbEntity
  8
Ｓ_１_１
  6
CONTINUOUS
 62
     3
100
AcDbLine
 10
1015.000037
 20
1858.999968
 30
0.0
 11
1017.886771
 21
1863.999938
 31
0.0
  0
LINE
  5
31D
330
1F
100
AcDbEntity
  8
Ｓ_１_１
  6
CONTINUOUS
 62
     3
100
AcDbLine
 10
1184.999999
 20
1858.999956
 30
0.0
 11
1015.000001
 21
1858.999956
 31
0.0
  0
LINE
  5
31E
330
1F
100
AcDbEntity
  8
Ｓ_１_１
  6
CONTINUOUS
 62
     3
100
AcDbLine
 10
1239.500044
 20
1853.999957
 30
0.0
 11
960.5000329999998
 21
1853.999957
 31
0.0
  0
LINE
  5
31F
330
1F
100
AcDbEntity
  8
Ｓ_１_１
  6
CONTINUOUS
 62
     3
100
AcDbLine
 10
1242.499998
 20
1850.999964
 30
0.0
 11
957.5000399999999
 21
1850.999964
 31
0.0
  0
LINE
  5
320
330
1F
100
AcDbEntity
  8
Ｓ_１_１
  6
CONTINUOUS
 62
     3
100
AcDbLine
 10
957.500031
 20
1850.999933
 30
0.0
 11
960.5000239999999
 21
1853.999925
 31
0.0
  0
LINE
  5
321
330
1F
100
AcDbEntity
  8
Ｓ_１_１
  6
CONTINUOUS
 62
     3
100
AcDbLine
 10
960.5000299999999
 20
1448.999956
 30
0.0
 11
957.5000110000001
 21
1451.999976
 31
0.0
  0
LINE
  5
322
330
1F
100
AcDbEntity
  8
Ｓ_１_１
  6
CONTINUOUS
 62
     3
100
AcDbLine
 10
1015.000001
 20
1858.999956
 30
0.0
 11
1015.000001
 21
1853.999957
 31
0.0
  0
LINE
  5
323
330
1F
100
AcDbEntity
  8
Ｓ_１_１
  6
CONTINUOUS
 62
     3
100
AcDbLine
 10
957.5000399999999
 20
1850.999964
 30
0.0
 11
957.5000399999999
 21
1451.999964
 31
0.0
  0
LINE
  5
324
330
1F
100
AcDbEntity
  8
Ｓ_１_１
  6
EXLTYPE2
 62
     1
100
AcDbLine
 10
1961.38794
 20
495.0000000000001
 30
0.0
 11
2106.987914
 21
495.0000000000001
 31
0.0
  0
LINE
  5
325
330
1F
100
AcDbEntity
  8
Ｓ_１_１
  6
EXLTYPE2
 62
     1
100
AcDbLine
 10
2035.0
 20
933.669275
 30
0.0
 11
2035.0
 21
313.660357
 31
0.0
  0
LINE
  5
326
330
1F
100
AcDbEntity
  8
Ｓ_１_１
  6
CONTINUOUS
 62
     3
100
AcDbLine
 10
1995.500031
 20
902.0798050000001
 30
0.0
 11
1995.500031
 21
757.000004
 31
0.0
  0
LINE
  5
327
330
1F
100
AcDbEntity
  8
Ｓ_１_１
  6
CONTINUOUS
 62
     3
100
AcDbLine
 10
2074.499969
 20
930.8334669999999
 30
0.0
 11
2074.499969
 21
757.000004
 31
0.0
  0
LINE
  5
328
330
1F
100
AcDbEntity
  8
Ｓ_１_１
  6
CONTINUOUS
 62
     3
100
AcDbLine
 10
2077.499999
 20
931.9253860000001
 30
0.0
 11
2077.499999
 21
757.000004
 31
0.0
  0
LINE
  5
329
330
1F
100
AcDbEntity
  8
Ｓ_１_１
  6
CONTINUOUS
 62
     3
100
AcDbLine
 10
1992.5
 20
900.987924
 30
0.0
 11
1992.5
 21
757.000004
 31
0.0
  0
LINE
  5
32A
330
1F
100
AcDbEntity
  8
Ｓ_１_１
  6
CONTINUOUS
 62
     3
100
AcDbLine
 10
1970.000001
 20
551.999969
 30
0.0
 11
2099.999998999999
 21
551.999969
 31
0.0
  0
LINE
  5
32B
330
1F
100
AcDbEntity
  8
Ｓ_１_１
  6
CONTINUOUS
 62
     3
100
AcDbLine
 10
1970.000001
 20
752.000004
 30
0.0
 11
2099.999998999999
 21
752.000004
 31
0.0
  0
LINE
  5
32C
330
1F
100
AcDbEntity
  8
Ｓ_１_１
  6
CONTINUOUS
 62
     3
100
AcDbLine
 10
1970.000001
 20
636.999967
 30
0.0
 11
2099.999998999999
 21
636.999967
 31
0.0
  0
LINE
  5
32D
330
1F
100
AcDbEntity
  8
Ｓ_１_１
  6
CONTINUOUS
 62
     3
100
AcDbLine
 10
1970.000001
 20
325.000003
 30
0.0
 11
2099.999998999999
 21
325.000003
 31
0.0
  0
LINE
  5
32E
330
1F
100
AcDbEntity
  8
Ｓ_１_１
  6
CONTINUOUS
 62
     3
100
AcDbLine
 10
2099.999998999999
 20
757.000004
 30
0.0
 11
2099.999998999999
 21
325.000003
 31
0.0
  0
LINE
  5
32F
330
1F
100
AcDbEntity
  8
Ｓ_１_１
  6
CONTINUOUS
 62
     3
100
AcDbLine
 10
1970.000001
 20
757.000004
 30
0.0
 11
1970.000001
 21
325.000003
 31
0.0
  0
LINE
  5
330
330
1F
100
AcDbEntity
  8
Ｓ_１_１
  6
CONTINUOUS
 62
     3
100
AcDbLine
 10
1970.000001
 20
757.000004
 30
0.0
 11
2099.999998999999
 21
757.000004
 31
0.0
  0
LINE
  5
331
330
1F
100
AcDbEntity
  8
Ｓ_１_１
  6
EXLTYPE2
 62
     1
100
AcDbLine
 10
2189.999996999999
 20
1515.000002
 30
0.0
 11
2159.999998
 21
1515.000002
 31
0.0
  0
LINE
  5
332
330
1F
100
AcDbEntity
  8
Ｓ_１_１
  6
EXLTYPE2
 62
     1
100
AcDbLine
 10
2174.999998
 20
1529.999983
 30
0.0
 11
2174.999998
 21
1500.000003
 31
0.0
  0
LINE
  5
333
330
1F
100
AcDbEntity
  8
Ｓ_１_１
  6
EXLTYPE2
 62
     1
100
AcDbLine
 10
1910.000002
 20
1515.000002
 30
0.0
 11
1880.000002
 21
1515.000002
 31
0.0
  0
LINE
  5
334
330
1F
100
AcDbEntity
  8
Ｓ_１_１
  6
EXLTYPE2
 62
     1
100
AcDbLine
 10
1895.000002
 20
1529.999983
 30
0.0
 11
1895.000002
 21
1500.000003
 31
0.0
  0
LINE
  5
335
330
1F
100
AcDbEntity
  8
Ｓ_１_１
  6
EXLTYPE2
 62
     1
100
AcDbLine
 10
1910.000002
 20
1234.999988
 30
0.0
 11
1880.000002
 21
1234.999988
 31
0.0
  0
LINE
  5
336
330
1F
100
AcDbEntity
  8
Ｓ_１_１
  6
EXLTYPE2
 62
     1
100
AcDbLine
 10
1895.000002
 20
1249.999987
 30
0.0
 11
1895.000002
 21
1219.999988
 31
0.0
  0
LINE
  5
337
330
1F
100
AcDbEntity
  8
Ｓ_１_１
  6
EXLTYPE2
 62
     1
100
AcDbLine
 10
2189.999996999999
 20
1234.999988
 30
0.0
 11
2159.999998
 21
1234.999988
 31
0.0
  0
LINE
  5
338
330
1F
100
AcDbEntity
  8
Ｓ_１_１
  6
EXLTYPE2
 62
     1
100
AcDbLine
 10
2174.999998
 20
1249.999987
 30
0.0
 11
2174.999998
 21
1219.999988
 31
0.0
  0
LINE
  5
339
330
1F
100
AcDbEntity
  8
Ｓ_１_１
  6
EXLTYPE2
 62
     1
100
AcDbLine
 10
2219.999996999999
 20
1375.0
 30
0.0
 11
1850.000002
 21
1375.0
 31
0.0
  0
LINE
  5
33A
330
1F
100
AcDbEntity
  8
Ｓ_１_１
  6
EXLTYPE2
 62
     1
100
AcDbLine
 10
2035.0
 20
1189.999988
 30
0.0
 11
2035.0
 21
1559.999983
 31
0.0
  0
CIRCLE
  5
33B
330
1F
100
AcDbEntity
  8
Ｓ_１_１
  6
CONTINUOUS
 62
     3
100
AcDbCircle
 10
2035.0
 20
1375.0
 30
0.0
 40
39.5
  0
CIRCLE
  5
33C
330
1F
100
AcDbEntity
  8
Ｓ_１_１
  6
CONTINUOUS
 62
     3
100
AcDbCircle
 10
2035.0
 20
1375.0
 30
0.0
 40
42.499999
  0
CIRCLE
  5
33D
330
1F
100
AcDbEntity
  8
Ｓ_１_１
  6
CONTINUOUS
 62
     3
100
AcDbCircle
 10
2035.0
 20
1375.0
 30
0.0
 40
76.999997
  0
CIRCLE
  5
33E
330
1F
100
AcDbEntity
  8
Ｓ_１_１
  6
CONTINUOUS
 62
     3
100
AcDbCircle
 10
2035.0
 20
1375.0
 30
0.0
 40
79.999999
  0
CIRCLE
  5
33F
330
1F
100
AcDbEntity
  8
Ｓ_１_１
  6
CONTINUOUS
 62
     3
100
AcDbCircle
 10
2035.0
 20
1375.0
 30
0.0
 40
109.999998
  0
CIRCLE
  5
340
330
1F
100
AcDbEntity
  8
Ｓ_１_１
  6
CONTINUOUS
 62
     3
100
AcDbCircle
 10
2174.999998
 20
1515.000002
 30
0.0
 40
12.50000000000001
  0
CIRCLE
  5
341
330
1F
100
AcDbEntity
  8
Ｓ_１_１
  6
CONTINUOUS
 62
     3
100
AcDbCircle
 10
2174.999998
 20
1234.999988
 30
0.0
 40
12.50000000000001
  0
CIRCLE
  5
342
330
1F
100
AcDbEntity
  8
Ｓ_１_１
  6
CONTINUOUS
 62
     3
100
AcDbCircle
 10
1895.000002
 20
1234.999988
 30
0.0
 40
12.50000000000001
  0
CIRCLE
  5
343
330
1F
100
AcDbEntity
  8
Ｓ_１_１
  6
CONTINUOUS
 62
     3
100
AcDbCircle
 10
1895.000002
 20
1515.000002
 30
0.0
 40
12.50000000000001
  0
CIRCLE
  5
344
330
1F
100
AcDbEntity
  8
Ｓ_１_１
  6
CONTINUOUS
 62
     3
100
AcDbCircle
 10
2035.0
 20
1375.0
 30
0.0
 40
119.2500000000001
  0
CIRCLE
  5
345
330
1F
100
AcDbEntity
  8
Ｓ_１_１
  6
CONTINUOUS
 62
     3
100
AcDbCircle
 10
2035.0
 20
1375.0
 30
0.0
 40
149.25
  0
LINE
  5
346
330
1F
100
AcDbEntity
  8
Ｓ_１_１
  6
CONTINUOUS
 62
     3
100
AcDbLine
 10
2119.322463999999
 20
1290.677462
 30
0.0
 11
2140.535667
 21
1269.464259
 31
0.0
  0
LINE
  5
347
330
1F
100
AcDbEntity
  8
Ｓ_１_１
  6
CONTINUOUS
 62
     3
100
AcDbLine
 10
2140.535667
 20
1480.535673
 30
0.0
 11
2119.322463999999
 21
1459.32247
 31
0.0
  0
LINE
  5
348
330
1F
100
AcDbEntity
  8
Ｓ_１_１
  6
CONTINUOUS
 62
     3
100
AcDbLine
 10
1929.464253
 20
1480.535673
 30
0.0
 11
1950.677456
 21
1459.32247
 31
0.0
  0
LINE
  5
349
330
1F
100
AcDbEntity
  8
Ｓ_１_１
  6
CONTINUOUS
 62
     3
100
AcDbLine
 10
2209.999996999999
 20
1549.999983
 30
0.0
 11
2209.999996999999
 21
1199.999988
 31
0.0
  0
LINE
  5
34A
330
1F
100
AcDbEntity
  8
Ｓ_１_１
  6
CONTINUOUS
 62
     3
100
AcDbLine
 10
1860.000002
 20
1549.999983
 30
0.0
 11
1860.000002
 21
1199.999988
 31
0.0
  0
LINE
  5
34B
330
1F
100
AcDbEntity
  8
Ｓ_１_１
  6
CONTINUOUS
 62
     3
100
AcDbLine
 10
2209.999996999999
 20
1549.999983
 30
0.0
 11
1860.000002
 21
1549.999983
 31
0.0
  0
LINE
  5
34C
330
1F
100
AcDbEntity
  8
Ｓ_１_１
  6
CONTINUOUS
 62
     3
100
AcDbLine
 10
2209.999996999999
 20
1199.999988
 30
0.0
 11
1860.000002
 21
1199.999988
 31
0.0
  0
LINE
  5
34D
330
1F
100
AcDbEntity
  8
Ｓ_１_１
  6
CONTINUOUS
 62
     3
100
AcDbLine
 10
1950.67751
 20
1290.677516
 30
0.0
 11
1929.464253
 21
1269.464259
 31
0.0
  0
DIMENSION
  5
34E
330
1F
100
AcDbEntity
  8
Ｓ_１_１
  6
CONTINUOUS
 62
     2
100
AcDbDimension
  2
*D36
 10
1046.96699565365
 20
548.0330043463504
 30
0.0
 11
1280.081236624492
 21
314.9187633755088
 31
0.0
 70
   163
  3
ISO-25
100
AcDbDiametricDimension
 15
1153.03300434635
 25
441.9669956536496
 35
0.0
 40
0.0
1001
ACAD
1000
DSTYLE
1002
{
1070
   270
1070
     2
1070
     6
1000
EX_NORM
1070
     7
1000
EX_NORM
1070
    41
1040
24.0
1070
    73
1070
     0
1070
    74
1070
     0
1070
    77
1070
     1
1070
    78
1070
     8
1070
   140
1040
27.70323325635104
1070
   147
1040
4.0
1070
   173
1070
     1
1070
   176
1070
     2
1070
   177
1070
     2
1070
   178
1070
     2
1070
   271
1070
     2
1070
   277
1070
     2
1070
   279
1070
     0
1070
   280
1070
     0
1070
   287
1070
     3
1070
   340
1005
114
1002
}
  0
TEXT
  5
35A
330
1F
100
AcDbEntity
  8
Ｓ_１_１
  6
CONTINUOUS
 62
     4
100
AcDbText
 10
1380.0
 20
2044.0625
 30
0.0
 40
27.70323325635104
  1
上部ナット
 41
0.9992307692307693
  7
EXCADTTF1
 72
     5
 11
1560.0
 21
2044.0625
 31
0.0
100
AcDbText
  0
LEADER
  5
35B
330
1F
100
AcDbEntity
  8
Ｓ_１_１
  6
CONTINUOUS
 62
     2
100
AcDbLeader
  3
ISO-25
 76
     3
 10
1179.999999
 20
1939.2
 30
0.0
 10
1375.0
 20
2035.0
 30
0.0
 10
1560.0
 20
2035.0
 30
0.0
1001
ACAD
1000
DSTYLE
1002
{
1070
     5
1000
EX_NORM
1070
    41
1040
24.0
1070
   341
1005
79
1002
}
  0
LEADER
  5
35C
330
1F
100
AcDbEntity
  8
Ｓ_１_１
  6
CONTINUOUS
 62
     2
100
AcDbLeader
  3
ISO-25
 76
     3
 10
1242.499998
 20
1823.2
 30
0.0
 10
1375.0
 20
1870.0
 30
0.0
 10
1723.2
 20
1870.0
 30
0.0
1001
ACAD
1000
DSTYLE
1002
{
1070
     5
1000
EX_NORM
1070
    41
1040
24.0
1070
   341
1005
79
1002
}
  0
TEXT
  5
35D
330
1F
100
AcDbEntity
  8
Ｓ_１_１
  6
CONTINUOUS
 62
     4
100
AcDbText
 10
1381.2
 20
1915.0625
 30
0.0
 40
27.70323325635104
  1
2000kN200ストローク
 41
0.9992307692307691
  7
EXCADTTF1
 72
     5
 11
1723.2
 21
1915.0625
 31
0.0
100
AcDbText
  0
TEXT
  5
35E
330
1F
100
AcDbEntity
  8
Ｓ_１_１
  6
CONTINUOUS
 62
     4
100
AcDbText
 10
1381.2
 20
1879.0625
 30
0.0
 40
27.70323325635104
  1
CH型油圧ジャッキ
 41
0.9992307692307693
  7
EXCADTTF1
 72
     5
 11
1669.2
 21
1879.0625
 31
0.0
100
AcDbText
  0
TEXT
  5
35F
330
1F
100
AcDbEntity
  8
Ｓ_１_１
  6
CONTINUOUS
 62
     4
100
AcDbText
 10
1320.0
 20
1439.0625
 30
0.0
 40
27.70323325635104
  1
ラムチェア
 41
0.9992307692307693
  7
EXCADTTF1
 72
     5
 11
1500.0
 21
1439.0625
 31
0.0
100
AcDbText
  0
LEADER
  5
360
330
1F
100
AcDbEntity
  8
Ｓ_１_１
  6
CONTINUOUS
 62
     2
100
AcDbLeader
  3
ISO-25
 76
     3
 10
1249.250028
 20
1377.4957078573
 30
0.0
 10
1320.0
 20
1430.0
 30
0.0
 10
1498.4
 20
1430.0
 30
0.0
1001
ACAD
1000
DSTYLE
1002
{
1070
     5
1000
EX_NORM
1070
    41
1040
24.0
1070
   341
1005
79
1002
}
  0
TEXT
  5
361
330
1F
100
AcDbEntity
  8
Ｓ_１_１
  6
CONTINUOUS
 62
     4
100
AcDbText
 10
1320.0
 20
1274.0625
 30
0.0
 40
27.70323325635104
  1
下部ナット
 41
0.9992307692307693
  7
EXCADTTF1
 72
     5
 11
1500.0
 21
1274.0625
 31
0.0
100
AcDbText
  0
LEADER
  5
362
330
1F
100
AcDbEntity
  8
Ｓ_１_１
  6
CONTINUOUS
 62
     2
100
AcDbLeader
  3
ISO-25
 76
     3
 10
1179.999999
 20
1159.225475183
 30
0.0
 10
1320.0
 20
1265.0
 30
0.0
 10
1498.4
 20
1265.0
 30
0.0
1001
ACAD
1000
DSTYLE
1002
{
1070
     5
1000
EX_NORM
1070
    41
1040
24.0
1070
   341
1005
79
1002
}
  0
TEXT
  5
363
330
1F
100
AcDbEntity
  8
Ｓ_１_１
  6
CONTINUOUS
 62
     4
100
AcDbText
 10
1320.0
 20
705.0625
 30
0.0
 40
27.70323325635104
  1
Tr85×6
 41
0.9992307692307693
  7
EXCADTTF1
 72
     5
 11
1446.0
 21
705.0625
 31
0.0
100
AcDbText
  0
TEXT
  5
364
330
1F
100
AcDbEntity
  8
Ｓ_１_１
  6
CONTINUOUS
 62
     4
100
AcDbText
 10
1320.0
 20
669.0625
 30
0.0
 40
27.70323325635104
  1
テンションロッド
 41
0.9992307692307693
  7
EXCADTTF1
 72
     5
 11
1608.0
 21
669.0625
 31
0.0
100
AcDbText
  0
LEADER
  5
365
330
1F
100
AcDbEntity
  8
Ｓ_１_１
  6
CONTINUOUS
 62
     2
100
AcDbLeader
  3
ISO-25
 76
     3
 10
1142.499999
 20
786.27032591463
 30
0.0
 10
1320.0
 20
660.0
 30
0.0
 10
1607.2
 20
660.0
 30
0.0
1001
ACAD
1000
DSTYLE
1002
{
1070
     5
1000
EX_NORM
1070
    41
1040
24.0
1070
   341
1005
79
1002
}
  0
TEXT
  5
366
330
1F
100
AcDbEntity
  8
Ｓ_１_１
  6
CONTINUOUS
 62
     4
100
AcDbText
 10
2310.0
 20
1384.0625
 30
0.0
 40
27.70323325635104
  1
4-25キリ
 41
0.9992307692307693
  7
EXCADTTF1
 72
     5
 11
2454.0
 21
1384.0625
 31
0.0
100
AcDbText
  0
LEADER
  5
367
330
1F
100
AcDbEntity
  8
Ｓ_１_１
  6
CONTINUOUS
 62
     2
100
AcDbLeader
  3
ISO-25
 76
     3
 10
2183.8388327648
 20
1243.8388227648
 30
0.0
 10
2310.0
 20
1375.0
 30
0.0
 10
2452.0
 20
1375.0
 30
0.0
1001
ACAD
1000
DSTYLE
1002
{
1070
     5
1000
EX_NORM
1070
    41
1040
24.0
1070
   341
1005
79
1002
}
  0
LEADER
  5
368
330
1F
100
AcDbEntity
  8
Ｓ_１_１
  6
CONTINUOUS
 62
     2
100
AcDbLeader
  3
ISO-25
 76
     2
 10
1375.0
 20
1100.0
 30
0.0
 10
1375.0
 20
1165.6
 30
0.0
1001
ACAD
1000
DSTYLE
1002
{
1070
     5
1000
EX_NORM
1070
    41
1040
24.0
1070
   341
1005
79
1002
}
  0
TEXT
  5
36A
330
1F
100
AcDbEntity
  8
Ｓ_１_１
  6
CONTINUOUS
 62
     4
100
AcDbText
 10
1385.72
 20
1136.2625
 30
0.0
 40
27.70323325635104
  1
A
 41
0.9992307692307693
  7
EXCADTTF2
 72
     5
 11
1403.72
 21
1136.2625
 31
0.0
100
AcDbText
  0
TEXT
  5
36B
330
1F
100
AcDbEntity
  8
Ｓ_１_１
  6
CONTINUOUS
 62
     4
100
AcDbText
 10
1324.4
 20
449.0625
 30
0.0
 40
27.70323325635104
  1
200TON用1山クレビス
 41
0.9992307692307691
  7
EXCADTTF1
 72
     5
 11
1666.4
 21
449.0625
 31
0.0
100
AcDbText
  0
LEADER
  5
36C
330
1F
100
AcDbEntity
  8
Ｓ_１_１
  6
CONTINUOUS
 62
     2
100
AcDbLeader
  3
ISO-25
 76
     3
 10
1249.999998
 20
533.6
 30
0.0
 10
1320.0
 20
440.0
 30
0.0
 10
1666.4
 20
440.0
 30
0.0
1001
ACAD
1000
DSTYLE
1002
{
1070
     5
1000
EX_NORM
1070
    41
1040
24.0
1070
   341
1005
79
1002
}
  0
TEXT
  5
36D
330
1F
100
AcDbEntity
  8
Ｓ_１_１
  6
CONTINUOUS
 62
     4
100
AcDbText
 10
1365.2
 20
559.0625
 30
0.0
 40
27.70323325635104
  1
B
 41
0.9992307692307693
  7
EXCADTTF1
 72
     5
 11
1383.2
 21
559.0625
 31
0.0
100
AcDbText
  0
LEADER
  5
36E
330
1F
100
AcDbEntity
  8
Ｓ_１_１
  6
CONTINUOUS
 62
     2
100
AcDbLeader
  3
ISO-25
 76
     2
 10
1320.0
 20
550.0
 30
0.0
 10
1383.2
 20
550.0
 30
0.0
1001
ACAD
1000
DSTYLE
1002
{
1070
     5
1000
EX_NORM
1070
    41
1040
24.0
1070
   341
1005
79
1002
}
  0
TEXT
  5
36F
330
1F
100
AcDbEntity
  8
Ｓ_１_１
  6
CONTINUOUS
 62
     4
100
AcDbText
 10
1980.0
 20
1820.0625
 30
0.0
 40
27.70323325635104
  1
A矢示図
 41
0.9992307692307693
  7
EXCADTTF1
 72
     5
 11
2106.0
 21
1820.0625
 31
0.0
100
AcDbText
  0
LINE
  5
370
330
1F
100
AcDbEntity
  8
Ｓ_１_１
  6
CONTINUOUS
 62
     3
100
AcDbLine
 10
1980.0
 20
1814.99999999999
 30
0.0
 11
2103.291977
 21
1814.99999999999
 31
0.0
  0
TEXT
  5
371
330
1F
100
AcDbEntity
  8
Ｓ_１_１
  6
CONTINUOUS
 62
     4
100
AcDbText
 10
2145.0
 20
280.0625000000002
 30
0.0
 40
27.70323325635104
  1
B矢示図
 41
0.9992307692307693
  7
EXCADTTF1
 72
     5
 11
2271.0
 21
280.0625000000002
 31
0.0
100
AcDbText
  0
LINE
  5
372
330
1F
100
AcDbEntity
  8
Ｓ_１_１
  6
CONTINUOUS
 62
     3
100
AcDbLine
 10
2145.531977
 20
274.9999999999902
 30
0.0
 11
2268.731977
 21
274.9999999999902
 31
0.0
  0
LINE
  5
373
330
1F
100
AcDbEntity
  8
Ｓ_１_１
  6
EXLTYPE2
 62
     1
100
AcDbLine
 10
1980.823348
 20
896.737983
 30
0.0
 11
2088.527382
 21
935.9390470000001
 31
0.0
  0
LINE
  5
374
330
1F
100
AcDbEntity
  8
Ｓ_１_１
  6
EXLTYPE2
 62
     1
100
AcDbLine
 10
1042.523049
 20
2079.116507
 30
0.0
 11
1154.16424
 21
2119.750579
 31
0.0
  0
LINE
  5
375
330
1F
100
AcDbEntity
  8
Ｓ_１_１
  6
EXLTYPE2
 62
     1
100
AcDbLine
 10
776.623208
 20
800.0782680000002
 30
0.0
 11
847.1340799999998
 21
1063.228422
 31
0.0
  0
LINE
  5
376
330
1F
100
AcDbEntity
  8
Ｓ_１_１
  6
EXLTYPE2
 62
     1
100
AcDbLine
 10
1331.365110973287
 20
800.078268
 30
0.0
 11
1401.365772
 21
1061.324289
 31
0.0
  0
LINE
  5
377
330
1F
100
AcDbEntity
  8
Ｓ_１_１
  6
CONTINUOUS
 62
     3
100
AcDbLine
 10
1139.500045
 20
1448.999963
 30
0.0
 11
1139.500045
 21
636.999967
 31
0.0
  0
LINE
  5
378
330
1F
100
AcDbEntity
  8
Ｓ_１_１
  6
CONTINUOUS
 62
     3
100
AcDbLine
 10
1142.499999
 20
1448.999963
 30
0.0
 11
1142.499999
 21
636.999967
 31
0.0
  0
POLYLINE
  5
379
330
1F
100
AcDbEntity
  8
Ｓ_１_１
  6
CONTINUOUS
 62
     3
100
AcDb2dPolyline
 66
     1
 10
0.0
 20
0.0
 30
0.0
 70
   128
  0
VERTEX
  5
37A
330
379
100
AcDbEntity
  8
Ｓ_１_１
  6
CONTINUOUS
 62
     3
100
AcDbVertex
100
AcDb2dVertex
 10
1100.000000000004
 20
1750.143551539458
 30
0.0
  0
VERTEX
  5
37B
330
379
100
AcDbEntity
  8
Ｓ_１_１
  6
CONTINUOUS
 62
     3
100
AcDbVertex
100
AcDb2dVertex
 10
1088.000000000004
 20
1757.071754769735
 30
0.0
  0
VERTEX
  5
37C
330
379
100
AcDbEntity
  8
Ｓ_１_１
  6
CONTINUOUS
 62
     3
100
AcDbVertex
100
AcDb2dVertex
 10
1088.000000000004
 20
1770.928161230285
 30
0.0
  0
VERTEX
  5
37D
330
379
100
AcDbEntity
  8
Ｓ_１_１
  6
CONTINUOUS
 62
     3
100
AcDbVertex
100
AcDb2dVertex
 10
1100.000000000004
 20
1777.856364460562
 30
0.0
  0
VERTEX
  5
37E
330
379
100
AcDbEntity
  8
Ｓ_１_１
  6
CONTINUOUS
 62
     3
100
AcDbVertex
100
AcDb2dVertex
 10
1112.000000000004
 20
1770.928161230285
 30
0.0
  0
VERTEX
  5
37F
330
379
100
AcDbEntity
  8
Ｓ_１_１
  6
CONTINUOUS
 62
     3
100
AcDbVertex
100
AcDb2dVertex
 10
1112.000000000004
 20
1757.071754769735
 30
0.0
  0
VERTEX
  5
380
330
379
100
AcDbEntity
  8
Ｓ_１_１
  6
CONTINUOUS
 62
     3
100
AcDbVertex
100
AcDb2dVertex
 10
1100.000000000004
 20
1750.143551539458
 30
0.0
  0
SEQEND
  5
381
330
379
100
AcDbEntity
  8
Ｓ_１_１
  6
CONTINUOUS
 62
     3
  0
CIRCLE
  5
382
330
1F
100
AcDbEntity
  8
Ｓ_１_１
  6
CONTINUOUS
 62
     3
100
AcDbCircle
 10
1100.000000000004
 20
1763.99995800001
 30
0.0
 40
12.00000000000102
  0
CIRCLE
  5
383
330
1F
100
AcDbEntity
  8
Ｓ_１_１
  6
CONTINUOUS
 62
     3
100
AcDbCircle
 10
1100.000000000004
 20
1763.99995800001
 30
0.0
 40
10.72532284355114
  0
CIRCLE
  5
384
330
1F
100
AcDbEntity
  8
Ｓ_１_１
  6
CONTINUOUS
 62
     3
100
AcDbCircle
 10
1100.000000000004
 20
1763.99995800001
 30
0.0
 40
6.323600530683808
  0
CIRCLE
  5
385
330
1F
100
AcDbEntity
  8
Ｓ_１_１
  6
CONTINUOUS
 62
     3
100
AcDbCircle
 10
1100.000000000004
 20
1763.99995800001
 30
0.0
 40
4.217842489549019
  0
LINE
  5
386
330
1F
100
AcDbEntity
  8
Ｓ_１_１
  6
CONTINUOUS
 62
     3
100
AcDbLine
 10
1051.000000000009
 20
1759.749958000011
 30
0.0
 11
1046.000000000009
 21
1759.749958000011
 31
0.0
  0
LINE
  5
387
330
1F
100
AcDbEntity
  8
Ｓ_１_１
  6
CONTINUOUS
 62
     3
100
AcDbLine
 10
1051.000000000009
 20
1768.249958000011
 30
0.0
 11
1046.000000000009
 21
1768.249958000011
 31
0.0
  0
LINE
  5
388
330
1F
100
AcDbEntity
  8
Ｓ_１_１
  6
CONTINUOUS
 62
     3
100
AcDbLine
 10
1051.000000000009
 20
1768.999958000011
 30
0.0
 11
1046.750000000009
 21
1768.999958000011
 31
0.0
  0
LINE
  5
389
330
1F
100
AcDbEntity
  8
Ｓ_１_１
  6
CONTINUOUS
 62
     3
100
AcDbLine
 10
1051.000000000009
 20
1758.999958000011
 30
0.0
 11
1046.750000000009
 21
1758.999958000011
 31
0.0
  0
LINE
  5
38A
330
1F
100
AcDbEntity
  8
Ｓ_１_１
  6
CONTINUOUS
 62
     3
100
AcDbLine
 10
1046.000000000009
 20
1768.249958000011
 30
0.0
 11
1046.000000000009
 21
1759.749958000011
 31
0.0
  0
LINE
  5
38B
330
1F
100
AcDbEntity
  8
Ｓ_１_１
  6
CONTINUOUS
 62
     3
100
AcDbLine
 10
1046.750000000009
 20
1768.999958000011
 30
0.0
 11
1046.750000000009
 21
1758.999958000011
 31
0.0
  0
LINE
  5
38C
330
1F
100
AcDbEntity
  8
Ｓ_１_１
  6
CONTINUOUS
 62
     3
100
AcDbLine
 10
1046.749997442309
 20
1768.999956875011
 30
0.0
 11
1045.999999343509
 21
1768.249958713011
 31
0.0
  0
LINE
  5
38D
330
1F
100
AcDbEntity
  8
Ｓ_１_１
  6
CONTINUOUS
 62
     3
100
AcDbLine
 10
1045.999998353009
 20
1759.749956074711
 30
0.0
 11
1046.749998538109
 21
1758.999955952911
 31
0.0
  0
LINE
  5
38E
330
1F
100
AcDbEntity
  8
Ｓ_１_１
  6
CONTINUOUS
 62
     3
100
AcDbLine
 10
1058.000000000009
 20
1763.999958000011
 30
0.0
 11
1058.000000000009
 21
1753.999958000011
 31
0.0
  0
LINE
  5
38F
330
1F
100
AcDbEntity
  8
Ｓ_１_１
  6
CONTINUOUS
 62
     3
100
AcDbLine
 10
1058.000000000009
 20
1773.999958000011
 30
0.0
 11
1058.000000000009
 21
1763.999958000011
 31
0.0
  0
LINE
  5
390
330
1F
100
AcDbEntity
  8
Ｓ_１_１
  6
CONTINUOUS
 62
     3
100
AcDbLine
 10
1057.999999449009
 20
1753.999958551011
 30
0.0
 11
1056.999999420009
 21
1754.999958664311
 31
0.0
  0
LINE
  5
391
330
1F
100
AcDbEntity
  8
Ｓ_１_１
  6
CONTINUOUS
 62
     3
100
AcDbLine
 10
1056.999999715109
 20
1772.999957799411
 30
0.0
 11
1057.999999512309
 21
1773.999957512311
 31
0.0
  0
LINE
  5
392
330
1F
100
AcDbEntity
  8
Ｓ_１_１
  6
CONTINUOUS
 62
     3
100
AcDbLine
 10
1057.000000000009
 20
1772.999957799411
 30
0.0
 11
1057.000000000009
 21
1763.999958000011
 31
0.0
  0
LINE
  5
393
330
1F
100
AcDbEntity
  8
Ｓ_１_１
  6
CONTINUOUS
 62
     3
100
AcDbLine
 10
1057.000000000009
 20
1763.999958000011
 30
0.0
 11
1057.000000000009
 21
1754.999958664311
 31
0.0
  0
LINE
  5
394
330
1F
100
AcDbEntity
  8
Ｓ_１_１
  6
CONTINUOUS
 62
     3
100
AcDbLine
 10
1087.50000000001
 20
1753.999958000011
 30
0.0
 11
1058.000000000009
 21
1753.999958000011
 31
0.0
  0
LINE
  5
395
330
1F
100
AcDbEntity
  8
Ｓ_１_１
  6
CONTINUOUS
 62
     3
100
AcDbLine
 10
1051.000001834409
 20
1756.507545336811
 30
0.0
 11
1052.000002027609
 21
1754.499958747111
 31
0.0
  0
LINE
  5
396
330
1F
100
AcDbEntity
  8
Ｓ_１_１
  6
CONTINUOUS
 62
     3
100
AcDbLine
 10
1051.000000485509
 20
1771.492371756011
 30
0.0
 11
1052.000000678709
 21
1773.499958345711
 31
0.0
  0
LINE
  5
397
330
1F
100
AcDbEntity
  8
Ｓ_１_１
  6
CONTINUOUS
 62
     3
100
AcDbLine
 10
1057.000000023409
 20
1756.507544693811
 30
0.0
 11
1055.999999830209
 21
1754.499958104111
 31
0.0
  0
LINE
  5
398
330
1F
100
AcDbEntity
  8
Ｓ_１_１
  6
CONTINUOUS
 62
     3
100
AcDbLine
 10
1057.000001514109
 20
1771.492372114311
 30
0.0
 11
1056.000001462509
 21
1773.499958419511
 31
0.0
  0
LINE
  5
399
330
1F
100
AcDbEntity
  8
Ｓ_１_１
  6
CONTINUOUS
 62
     3
100
AcDbLine
 10
1056.000000000009
 20
1773.499958000011
 30
0.0
 11
1052.000000000009
 21
1773.499958000011
 31
0.0
  0
LINE
  5
39A
330
1F
100
AcDbEntity
  8
Ｓ_１_１
  6
CONTINUOUS
 62
     3
100
AcDbLine
 10
1056.000000000009
 20
1754.499958000011
 30
0.0
 11
1052.000000000009
 21
1754.499958000011
 31
0.0
  0
LINE
  5
39B
330
1F
100
AcDbEntity
  8
Ｓ_１_１
  6
CONTINUOUS
 62
     3
100
AcDbLine
 10
1051.000000000009
 20
1763.999958000011
 30
0.0
 11
1051.000000000009
 21
1756.507544161311
 31
0.0
  0
LINE
  5
39C
330
1F
100
AcDbEntity
  8
Ｓ_１_１
  6
CONTINUOUS
 62
     3
100
AcDbLine
 10
1051.000000000009
 20
1771.492371838711
 30
0.0
 11
1051.000000000009
 21
1763.999958000011
 31
0.0
  0
ARC
  5
39D
330
1F
100
AcDbEntity
  8
Ｓ_１_１
  6
CONTINUOUS
 62
     3
100
AcDbCircle
 10
1041.458333333309
 20
1763.999958000011
 30
0.0
 40
15.5416666667
100
AcDbArc
 50
339.3345163543002
 51
339.3345238904478
  0
ARC
  5
39E
330
1F
100
AcDbEntity
  8
Ｓ_１_１
  6
CONTINUOUS
 62
     3
100
AcDbCircle
 10
1066.541666666709
 20
1763.999958000011
 30
0.0
 40
15.5416666667
100
AcDbArc
 50
200.6654761095529
 51
200.6654784093996
  0
ARC
  5
39F
330
1F
100
AcDbEntity
  8
Ｓ_１_１
  6
CONTINUOUS
 62
     3
100
AcDbCircle
 10
1041.458333333309
 20
1763.999958000011
 30
0.0
 40
15.5416666667
100
AcDbArc
 50
342.8126324028146
 51
17.18736809517867
  0
ARC
  5
3A0
330
1F
100
AcDbEntity
  8
Ｓ_１_１
  6
CONTINUOUS
 62
     3
100
AcDbCircle
 10
1041.458333333309
 20
1763.999958000011
 30
0.0
 40
15.5416666667
100
AcDbArc
 50
20.66547865603566
 51
20.66548000330019
  0
ARC
  5
3A1
330
1F
100
AcDbEntity
  8
Ｓ_１_１
  6
CONTINUOUS
 62
     3
100
AcDbCircle
 10
1066.541666666709
 20
1763.999958000011
 30
0.0
 40
15.5416666667
100
AcDbArc
 50
162.8126319048212
 51
197.1873675971855
  0
LINE
  5
3A2
330
1F
100
AcDbEntity
  8
Ｓ_１_１
  6
CONTINUOUS
 62
     3
100
AcDbLine
 10
1051.694035882147
 20
1759.407435505331
 30
0.0
 11
1056.305964117871
 21
1759.407435505331
 31
0.0
  0
LINE
  5
3A3
330
1F
100
AcDbEntity
  8
Ｓ_１_１
  6
CONTINUOUS
 62
     3
100
AcDbLine
 10
1051.694035922063
 20
1768.592480623741
 30
0.0
 11
1056.305964077955
 21
1768.592480623741
 31
0.0
  0
ARC
  5
3A4
330
1F
100
AcDbEntity
  8
Ｓ_１_１
  6
CONTINUOUS
 62
     3
100
AcDbCircle
 10
1057.000000000009
 20
1771.492375154001
 30
0.0
 40
6.000000000001596
100
AcDbArc
 50
180.0000417559226
 51
208.9021840779137
  0
ARC
  5
3A5
330
1F
100
AcDbEntity
  8
Ｓ_１_１
  6
CONTINUOUS
 62
     3
100
AcDbCircle
 10
1051.000000000009
 20
1771.492370781331
 30
0.0
 40
6.000000000001596
100
AcDbArc
 50
331.0978636188124
 51
0.0000417558857257
  0
ARC
  5
3A6
330
1F
100
AcDbEntity
  8
Ｓ_１_１
  6
CONTINUOUS
 62
     3
100
AcDbCircle
 10
1051.000000000009
 20
1756.507544646831
 30
0.0
 40
6.000000000000006
100
AcDbArc
 50
359.9999920172611
 51
28.90214402666208
  0
ARC
  5
3A7
330
1F
100
AcDbEntity
  8
Ｓ_１_１
  6
CONTINUOUS
 62
     3
100
AcDbCircle
 10
1057.000000000009
 20
1756.507544646831
 30
0.0
 40
6.000000000001596
100
AcDbArc
 50
151.0978559733464
 51
180.0
  0
LINE
  5
3A8
330
1F
100
AcDbEntity
  8
Ｓ_１_１
  6
CONTINUOUS
 62
     3
100
AcDbLine
 10
1087.50000000001
 20
1773.999958000011
 30
0.0
 11
1058.000000000009
 21
1773.999958000011
 31
0.0
  0
LINE
  5
3A9
330
1F
100
AcDbEntity
  8
Ｓ_１_１
  6
CONTINUOUS
 62
     3
100
AcDbLine
 10
1112.50000000001
 20
1751.49995800001
 30
0.0
 11
1112.50000000001
 21
1776.49995800001
 31
0.0
  0
LINE
  5
3AA
330
1F
100
AcDbEntity
  8
Ｓ_１_１
  6
CONTINUOUS
 62
     3
100
AcDbLine
 10
1087.50000000001
 20
1751.49995800001
 30
0.0
 11
1087.50000000001
 21
1776.49995800001
 31
0.0
  0
ARC
  5
3AB
330
1F
100
AcDbEntity
  8
Ｓ_１_１
  6
CONTINUOUS
 62
     3
100
AcDbCircle
 10
1100.000000000004
 20
1763.99995800001
 30
0.0
 40
15.0
100
AcDbArc
 50
236.4426902380795
 51
303.5573097619207
  0
ARC
  5
3AC
330
1F
100
AcDbEntity
  8
Ｓ_１_１
  6
CONTINUOUS
 62
     3
100
AcDbCircle
 10
1100.000000000004
 20
1763.99995800001
 30
0.0
 40
15.0
100
AcDbArc
 50
326.4426902381223
 51
33.5573097618778
  0
ARC
  5
3AD
330
1F
100
AcDbEntity
  8
Ｓ_１_１
  6
CONTINUOUS
 62
     3
100
AcDbCircle
 10
1100.000000000004
 20
1763.99995800001
 30
0.0
 40
15.0
100
AcDbArc
 50
56.44269023807925
 51
123.5573097619207
  0
ARC
  5
3AE
330
1F
100
AcDbEntity
  8
Ｓ_１_１
  6
CONTINUOUS
 62
     3
100
AcDbCircle
 10
1100.000000000004
 20
1763.99995800001
 30
0.0
 40
15.0
100
AcDbArc
 50
146.442690238036
 51
213.5573097619641
  0
LINE
  5
3AF
330
1F
100
AcDbEntity
  8
Ｓ_１_１
  6
CONTINUOUS
 62
     3
100
AcDbLine
 10
1112.50000000001
 20
1776.49995800001
 30
0.0
 11
1102.349364905393
 21
1776.49995800001
 31
0.0
  0
LINE
  5
3B0
330
1F
100
AcDbEntity
  8
Ｓ_１_１
  6
CONTINUOUS
 62
     3
100
AcDbLine
 10
1097.650635094614
 20
1776.49995800001
 30
0.0
 11
1087.50000000001
 21
1776.49995800001
 31
0.0
  0
LINE
  5
3B1
330
1F
100
AcDbEntity
  8
Ｓ_１_１
  6
CONTINUOUS
 62
     3
100
AcDbLine
 10
1111.50000000001
 20
1775.49995800001
 30
0.0
 11
1104.081415712962
 21
1775.49995800001
 31
0.0
  0
LINE
  5
3B2
330
1F
100
AcDbEntity
  8
Ｓ_１_１
  6
CONTINUOUS
 62
     3
100
AcDbLine
 10
1095.918584287045
 20
1775.49995800001
 30
0.0
 11
1088.50000000001
 21
1775.49995800001
 31
0.0
  0
LINE
  5
3B3
330
1F
100
AcDbEntity
  8
Ｓ_１_１
  6
CONTINUOUS
 62
     3
100
AcDbLine
 10
1111.50000000001
 20
1771.216836364877
 30
0.0
 11
1111.50000000001
 21
1775.49995800001
 31
0.0
  0
LINE
  5
3B4
330
1F
100
AcDbEntity
  8
Ｓ_１_１
  6
CONTINUOUS
 62
     3
100
AcDbLine
 10
1111.50000000001
 20
1752.49995800001
 30
0.0
 11
1111.50000000001
 21
1756.783079635143
 31
0.0
  0
LINE
  5
3B5
330
1F
100
AcDbEntity
  8
Ｓ_１_１
  6
CONTINUOUS
 62
     3
100
AcDbLine
 10
1088.50000000001
 20
1752.49995800001
 30
0.0
 11
1088.50000000001
 21
1756.783079635137
 31
0.0
  0
LINE
  5
3B6
330
1F
100
AcDbEntity
  8
Ｓ_１_１
  6
CONTINUOUS
 62
     3
100
AcDbLine
 10
1088.50000000001
 20
1771.216836364884
 30
0.0
 11
1088.50000000001
 21
1775.49995800001
 31
0.0
  0
LINE
  5
3B7
330
1F
100
AcDbEntity
  8
Ｓ_１_１
  6
CONTINUOUS
 62
     3
100
AcDbLine
 10
1111.50000000001
 20
1752.49995800001
 30
0.0
 11
1104.081415712962
 21
1752.49995800001
 31
0.0
  0
LINE
  5
3B8
330
1F
100
AcDbEntity
  8
Ｓ_１_１
  6
CONTINUOUS
 62
     3
100
AcDbLine
 10
1112.50000000001
 20
1751.49995800001
 30
0.0
 11
1102.349364905393
 21
1751.49995800001
 31
0.0
  0
LINE
  5
3B9
330
1F
100
AcDbEntity
  8
Ｓ_１_１
  6
CONTINUOUS
 62
     3
100
AcDbLine
 10
1097.650635094614
 20
1751.49995800001
 30
0.0
 11
1087.50000000001
 21
1751.49995800001
 31
0.0
  0
LINE
  5
3BA
330
1F
100
AcDbEntity
  8
Ｓ_１_１
  6
CONTINUOUS
 62
     3
100
AcDbLine
 10
1095.918584287045
 20
1752.49995800001
 30
0.0
 11
1088.50000000001
 21
1752.49995800001
 31
0.0
  0
LINE
  5
3BB
330
1F
100
AcDbEntity
  8
Ｓ_１_１
  6
EXLTYPE2
 62
     1
100
AcDbLine
 10
1119.466893196115
 20
1763.999958000015
 30
0.0
 11
1042.52000000001
 21
1763.999958000015
 31
0.0
  0
ENDSEC
  0
SECTION
  2
OBJECTS
  0
DICTIONARY
  5
C
330
0
100
AcDbDictionary
  3
ACAD_GROUP
350
D
  3
ACAD_LAYOUT
350
1A
  3
ACAD_MATERIAL
350
43
  3
ACAD_MLEADERSTYLE
350
6B
  3
ACAD_MLINESTYLE
350
17
  3
ACAD_PLOTSETTINGS
350
19
  3
ACAD_SCALELIST
350
47
  3
ACAD_VISUALSTYLE
350
2A
  3
ACDBHEADERROUNDTRIPXREC
350
3BC
  3
ACDBVARIABLEDICTIONARY
350
3DD
  0
DICTIONARY
  5
3E8
330
8
100
AcDbDictionary
280
     1
  3
ACAD_XREC_ROUNDTRIP
360
3E9
  0
DICTIONARY
  5
D
102
{ACAD_REACTORS
330
C
102
}
330
C
100
AcDbDictionary
  0
DICTIONARY
  5
1A
102
{ACAD_REACTORS
330
C
102
}
330
C
100
AcDbDictionary
  0
DICTIONARY
  5
43
102
{ACAD_REACTORS
330
C
102
}
330
C
100
AcDbDictionary
  3
BYBLOCK
350
45
  3
BYLAYER
350
44
  3
GLOBAL
350
46
  0
DICTIONARY
  5
6B
102
{ACAD_REACTORS
330
C
102
}
330
C
100
AcDbDictionary
  3
STANDARD
350
6C
  0
DICTIONARY
  5
17
102
{ACAD_REACTORS
330
C
102
}
330
C
100
AcDbDictionary
  3
STANDARD
350
18
  0
DICTIONARY
  5
19
102
{ACAD_REACTORS
330
C
102
}
330
C
100
AcDbDictionary
  0
DICTIONARY
  5
47
102
{ACAD_REACTORS
330
C
102
}
330
C
100
AcDbDictionary
  3
A0
350
48
  3
A1
350
49
  3
A2
350
4A
  3
A3
350
4B
  3
A4
350
4C
  3
A5
350
4D
  3
A6
350
4E
  3
A7
350
4F
  3
A8
350
50
  3
A9
350
51
  3
B0
350
52
  3
B1
350
53
  3
B2
350
54
  3
B3
350
55
  3
B4
350
56
  3
B5
350
57
  3
B6
350
58
  3
B7
350
59
  3
B8
350
5A
  3
B9
350
5B
  3
C0
350
5C
  3
C1
350
5D
  3
C2
350
5E
  3
C3
350
5F
  3
C4
350
60
  3
C5
350
61
  3
C6
350
62
  3
C7
350
63
  3
C8
350
64
  3
C9
350
65
  3
D0
350
66
  3
D1
350
67
  3
D2
350
68
  0
DICTIONARY
  5
2A
102
{ACAD_REACTORS
330
C
102
}
330
C
100
AcDbDictionary
  3
2DWIREFRAME
350
2F
  3
BASIC
350
32
  3
BRIGHTEN
350
36
  3
COLORCHANGE
350
3A
  3
CONCEPTUAL
350
34
  3
DIM
350
35
  3
EDGECOLOROFF
350
3D
  3
FACEPATTERN
350
39
  3
FLAT
350
2B
  3
FLATWITHEDGES
350
2C
  3
GOURAUD
350
2D
  3
GOURAUDWITHEDGES
350
2E
  3
HIDDEN
350
31
  3
JITTEROFF
350
3B
  3
LINEPATTERN
350
38
  3
OVERHANGOFF
350
3C
  3
REALISTIC
350
33
  3
SHADED
350
42
  3
SHADED_WITH_EDGES
350
41
  3
SHADES_OF_GRAY
350
3E
  3
SKETCHY
350
3F
  3
THICKEN
350
37
  3
WIREFRAME
350
30
  3
X-RAY
350
40
  0
DICTIONARY
  5
3BC
102
{ACAD_REACTORS
330
C
102
}
330
C
100
AcDbDictionary
  3
CEPSNID
350
3C6
  3
CEPSNTYPE
350
3C5
  3
DIMSTYLEDATA
350
3DC
  3
FINGERPRINTGUID
350
3C7
  3
HYPERLINKBASE
350
3BF
  3
INSUNITS
350
3C4
  3
LAYOUTDICT
350
3C1
  3
LWETCUNION
350
3C3
  3
PLOTSETDICT
350
3C2
  3
PSVPSCALE
350
3C9
  3
PUCSBASE
350
3CC
  3
PUCSORGBACK
350
3D2
  3
PUCSORGBOTTOM
350
3CE
  3
PUCSORGFRONT
350
3D1
  3
PUCSORGLEFT
350
3CF
  3
PUCSORGRIGHT
350
3D0
  3
PUCSORGTOP
350
3CD
  3
PUCSORTHOREF
350
3CA
  3
PUCSORTHOVIEW
350
3CB
  3
STYLESHEET
350
3C0
  3
TSTACKALIGN
350
3BD
  3
TSTACKSIZE
350
3BE
  3
UCSBASE
350
3D5
  3
UCSORGBACK
350
3DB
  3
UCSORGBOTTOM
350
3D7
  3
UCSORGFRONT
350
3DA
  3
UCSORGLEFT
350
3D8
  3
UCSORGRIGHT
350
3D9
  3
UCSORGTOP
350
3D6
  3
UCSORTHOREF
350
3D3
  3
UCSORTHOVIEW
350
3D4
  3
VERSIONGUID
350
3C8
  0
DICTIONARY
  5
3DD
102
{ACAD_REACTORS
330
C
102
}
330
C
100
AcDbDictionary
  3
CANNOSCALE
350
3EA
  3
CENTEREXE
350
3E4
  3
CENTERLTYPEFILE
350
3E5
  3
CMLEADERSTYLE
350
3DF
  3
CTABLESTYLE
350
3DE
  3
DIMASSOC
350
3E6
  3
HIDETEXT
350
3E7
  3
MSLTSCALE
350
3EB
  3
PSOLHEIGHT
350
3E1
  3
PSOLWIDTH
350
3E0
  0
XRECORD
  5
3E9
102
{ACAD_REACTORS
330
3E8
102
}
330
3E8
100
AcDbXrecord
102
VTR_0.000_0.000_1.000_1.000_VISUALSTYLE
340
2F
102
VTR_0.000_0.000_1.000_1.000_GRIDDISPLAY
 70
     3
102
VTR_0.000_0.000_1.000_1.000_GRIDMAJOR
 70
     5
102
VTR_0.000_0.000_1.000_1.000_DEFAULTLIGHTING
280
     1
102
VTR_0.000_0.000_1.000_1.000_DEFAULTLIGHTINGTYPE
 70
     1
102
VTR_0.000_0.000_1.000_1.000_BRIGHTNESS
141
0.0
102
VTR_0.000_0.000_1.000_1.000_CONTRAST
142
0.0
  0
MATERIAL
  5
45
102
{ACAD_REACTORS
330
43
102
}
102
{ACAD_XDICTIONARY
360
3EE
102
}
330
43
100
AcDbMaterial
  1
BYBLOCK
  0
MATERIAL
  5
44
102
{ACAD_REACTORS
330
43
102
}
102
{ACAD_XDICTIONARY
360
3EC
102
}
330
43
100
AcDbMaterial
  1
BYLAYER
  0
MATERIAL
  5
46
102
{ACAD_REACTORS
330
43
102
}
102
{ACAD_XDICTIONARY
360
3F0
102
}
330
43
100
AcDbMaterial
  1
GLOBAL
  0
ACAD_PROXY_OBJECT
  5
6C
102
{ACAD_REACTORS
330
6B
102
}
330
6B
100
AcDbProxyObject
 90
      499
 91
      505
 93
      610
310
40901902A4063FBFFFFFE0000000000000020400000000000020404214DD185B99185C990000000000000104090141901A00000000000004100000000000000041025764000000000000039000
340
14
340
0
340
11
340
0
 94
        0
1001
ACAD_MLEADERVER
1070
     2
  0
MLINESTYLE
  5
18
102
{ACAD_REACTORS
330
17
102
}
330
17
100
AcDbMlineStyle
  2
Standard
 70
     0
  3

 62
   256
 51
90.0
 52
90.0
 71
     2
 49
0.5
 62
   256
  6
BYLAYER
 49
-0.5
 62
   256
  6
BYLAYER
  0
ACAD_PROXY_OBJECT
  5
48
102
{ACAD_REACTORS
330
47
102
}
330
47
100
AcDbProxyObject
 90
      499
 91
      503
 93
       41
310
903313A31580
  0
ACAD_PROXY_OBJECT
  5
49
102
{ACAD_REACTORS
330
47
102
}
330
47
100
AcDbProxyObject
 90
      499
 91
      503
 93
      105
310
903313A324000000000000004000
  0
ACAD_PROXY_OBJECT
  5
4A
102
{ACAD_REACTORS
330
47
102
}
330
47
100
AcDbProxyObject
 90
      499
 91
      503
 93
      105
310
903313A344000000000000104000
  0
ACAD_PROXY_OBJECT
  5
4B
102
{ACAD_REACTORS
330
47
102
}
330
47
100
AcDbProxyObject
 90
      499
 91
      503
 93
      105
310
903313A354000000000000144000
  0
ACAD_PROXY_OBJECT
  5
4C
102
{ACAD_REACTORS
330
47
102
}
330
47
100
AcDbProxyObject
 90
      499
 91
      503
 93
      105
310
903313A384000000000000204000
  0
ACAD_PROXY_OBJECT
  5
4D
102
{ACAD_REACTORS
330
47
102
}
330
47
100
AcDbProxyObject
 90
      499
 91
      503
 93
      113
310
904313A31304000000000000244000
  0
ACAD_PROXY_OBJECT
  5
4E
102
{ACAD_REACTORS
330
47
102
}
330
47
100
AcDbProxyObject
 90
      499
 91
      503
 93
      113
310
904313A31364000000000000304000
  0
ACAD_PROXY_OBJECT
  5
4F
102
{ACAD_REACTORS
330
47
102
}
330
47
100
AcDbProxyObject
 90
      499
 91
      503
 93
      113
310
904313A32304000000000000344000
  0
ACAD_PROXY_OBJECT
  5
50
102
{ACAD_REACTORS
330
47
102
}
330
47
100
AcDbProxyObject
 90
      499
 91
      503
 93
      113
310
904313A333040000000000003E4000
  0
ACAD_PROXY_OBJECT
  5
51
102
{ACAD_REACTORS
330
47
102
}
330
47
100
AcDbProxyObject
 90
      499
 91
      503
 93
      113
310
904313A34304000000000000444000
  0
ACAD_PROXY_OBJECT
  5
52
102
{ACAD_REACTORS
330
47
102
}
330
47
100
AcDbProxyObject
 90
      499
 91
      503
 93
      113
310
904313A35304000000000000494000
  0
ACAD_PROXY_OBJECT
  5
53
102
{ACAD_REACTORS
330
47
102
}
330
47
100
AcDbProxyObject
 90
      499
 91
      503
 93
      121
310
905313A3130304000000000000594000
  0
ACAD_PROXY_OBJECT
  5
54
102
{ACAD_REACTORS
330
47
102
}
330
47
100
AcDbProxyObject
 90
      499
 91
      503
 93
      105
310
903323A310000000000000010100
  0
ACAD_PROXY_OBJECT
  5
55
102
{ACAD_REACTORS
330
47
102
}
330
47
100
AcDbProxyObject
 90
      499
 91
      503
 93
      105
310
903343A310000000000000410100
  0
ACAD_PROXY_OBJECT
  5
56
102
{ACAD_REACTORS
330
47
102
}
330
47
100
AcDbProxyObject
 90
      499
 91
      503
 93
      105
310
903383A310000000000000810100
  0
ACAD_PROXY_OBJECT
  5
57
102
{ACAD_REACTORS
330
47
102
}
330
47
100
AcDbProxyObject
 90
      499
 91
      503
 93
      113
310
90431303A310000000000000910100
  0
ACAD_PROXY_OBJECT
  5
58
102
{ACAD_REACTORS
330
47
102
}
330
47
100
AcDbProxyObject
 90
      499
 91
      503
 93
      121
310
9053130303A310000000000001650100
  0
ACAD_PROXY_OBJECT
  5
59
102
{ACAD_REACTORS
330
47
102
}
330
47
100
AcDbProxyObject
 90
      499
 91
      503
 93
      257
310
90E312F31323822203D2031272D3022000000000000200FC000000000000284000
  0
ACAD_PROXY_OBJECT
  5
5A
102
{ACAD_REACTORS
330
47
102
}
330
47
100
AcDbProxyObject
 90
      499
 91
      503
 93
      249
310
90D312F363422203D2031272D3022000000000000240FC000000000000284000
  0
ACAD_PROXY_OBJECT
  5
5B
102
{ACAD_REACTORS
330
47
102
}
330
47
100
AcDbProxyObject
 90
      499
 91
      503
 93
      249
310
90D312F333222203D2031272D3022000000000000280FC000000000000284000
  0
ACAD_PROXY_OBJECT
  5
5C
102
{ACAD_REACTORS
330
47
102
}
330
47
100
AcDbProxyObject
 90
      499
 91
      503
 93
      249
310
90D312F313622203D2031272D30220000000000002C0FC000000000000284000
  0
ACAD_PROXY_OBJECT
  5
5D
102
{ACAD_REACTORS
330
47
102
}
330
47
100
AcDbProxyObject
 90
      499
 91
      503
 93
      249
310
90D332F333222203D2031272D30220000000000002E0FC000000000000284000
  0
ACAD_PROXY_OBJECT
  5
5E
102
{ACAD_REACTORS
330
47
102
}
330
47
100
AcDbProxyObject
 90
      499
 91
      503
 93
      241
310
90C312F3822203D2031272D3022000000000000300FC000000000000284000
  0
ACAD_PROXY_OBJECT
  5
5F
102
{ACAD_REACTORS
330
47
102
}
330
47
100
AcDbProxyObject
 90
      499
 91
      503
 93
      249
310
90D332F313622203D2031272D3022000000000000320FC000000000000284000
  0
ACAD_PROXY_OBJECT
  5
60
102
{ACAD_REACTORS
330
47
102
}
330
47
100
AcDbProxyObject
 90
      499
 91
      503
 93
      241
310
90C312F3422203D2031272D3022000000000000340FC000000000000284000
  0
ACAD_PROXY_OBJECT
  5
61
102
{ACAD_REACTORS
330
47
102
}
330
47
100
AcDbProxyObject
 90
      499
 91
      503
 93
      241
310
90C332F3822203D2031272D3022000000000000360FC000000000000284000
  0
ACAD_PROXY_OBJECT
  5
62
102
{ACAD_REACTORS
330
47
102
}
330
47
100
AcDbProxyObject
 90
      499
 91
      503
 93
      241
310
90C312F3222203D2031272D3022000000000000380FC000000000000284000
  0
ACAD_PROXY_OBJECT
  5
63
102
{ACAD_REACTORS
330
47
102
}
330
47
100
AcDbProxyObject
 90
      499
 91
      503
 93
      241
310
90C332F3422203D2031272D30220000000000003A0FC000000000000284000
  0
ACAD_PROXY_OBJECT
  5
64
102
{ACAD_REACTORS
330
47
102
}
330
47
100
AcDbProxyObject
 90
      499
 91
      503
 93
      161
310
90A3122203D2031272D30224000000000000284000
  0
ACAD_PROXY_OBJECT
  5
65
102
{ACAD_REACTORS
330
47
102
}
330
47
100
AcDbProxyObject
 90
      499
 91
      503
 93
      257
310
90E312D312F3222203D2031272D30220000000000003E0FC000000000000284000
  0
ACAD_PROXY_OBJECT
  5
66
102
{ACAD_REACTORS
330
47
102
}
330
47
100
AcDbProxyObject
 90
      499
 91
      503
 93
      225
310
90A3322203D2031272D302200000000000002100000000000000284000
  0
ACAD_PROXY_OBJECT
  5
67
102
{ACAD_REACTORS
330
47
102
}
330
47
100
AcDbProxyObject
 90
      499
 91
      503
 93
      225
310
90A3622203D2031272D302200000000000006100000000000000284000
  0
ACAD_PROXY_OBJECT
  5
68
102
{ACAD_REACTORS
330
47
102
}
330
47
100
AcDbProxyObject
 90
      499
 91
      503
 93
      249
310
90D31272D3022203D2031272D30220000000000000A100000000000000284000
  0
ACAD_PROXY_OBJECT
  5
2F
102
{ACAD_REACTORS
330
2A
102
}
330
2A
100
AcDbProxyObject
 90
      499
 91
      501
 93
      436
310
42CC9915DA5C99599C985B595049028333333333333E33F0000000000000F90107901411070040501600405405064090741402480A0340
1001
ACAD
1000
AcDbSavedByObjectVersion
1070
     0
  0
ACAD_PROXY_OBJECT
  5
32
102
{ACAD_REACTORS
330
2A
102
}
330
2A
100
AcDbProxyObject
 90
      499
 91
      501
 93
      388
310
4150985CDA58D07406404333333333333E33F0000000000000F90107A41107004050150841D405064090741402480A0350
1001
ACAD
1000
AcDbSavedByObjectVersion
1070
     0
  0
ACAD_PROXY_OBJECT
  5
36
102
{ACAD_REACTORS
330
2A
102
}
330
2A
100
AcDbProxyObject
 90
      499
 91
      501
 93
      428
310
42109C9A59DA1D195B90C409028333333333333E33F0000000000000F9010790141107004050150841D405064090741402480A029950
1001
ACAD
1000
AcDbSavedByObjectVersion
1070
     0
  0
ACAD_PROXY_OBJECT
  5
3A
102
{ACAD_REACTORS
330
2A
102
}
330
2A
100
AcDbProxyObject
 90
      499
 91
      501
 93
      452
310
42D0DBDB1BDC90DA185B99D95104090240C333333333333E33F0000000000000F90108901411070040501508421405064090741402480A0350
1001
ACAD
1000
AcDbSavedByObjectVersion
1070
     0
  0
ACAD_PROXY_OBJECT
  5
34
102
{ACAD_REACTORS
330
2A
102
}
330
2A
100
AcDbProxyObject
 90
      499
 91
      501
 93
      500
310
4290DBDB98D95C1D1D585B10940D028333333333333E33F0000000000000F90107902409070040501000000000018199010841D405064090740C02480A0340
1001
ACAD
1000
AcDbSavedByObjectVersion
1070
     0
  0
ACAD_PROXY_OBJECT
  5
35
102
{ACAD_REACTORS
330
2A
102
}
330
2A
100
AcDbProxyObject
 90
      499
 91
      501
 93
      412
310
40D11A5B50B409028333333333333E33F0000000000000F9010790141107004050150841D405064090741402480A02677FFFFFD0
1001
ACAD
1000
AcDbSavedByObjectVersion
1070
     0
  0
ACAD_PROXY_OBJECT
  5
3D
102
{ACAD_REACTORS
330
2A
102
}
330
2A
100
AcDbProxyObject
 90
      499
 91
      501
 93
      452
310
43115919D950DBDB1BDC93D999916409028333333333333E33F0000000000000F9010790141107004050150841D405064090741402480A0350
1001
ACAD
1000
AcDbSavedByObjectVersion
1070
     0
  0
ACAD_PROXY_OBJECT
  5
39
102
{ACAD_REACTORS
330
2A
102
}
330
2A
100
AcDbProxyObject
 90
      499
 91
      501
 93
      444
310
42D19858D95C185D1D195C9B90F409028333333333333E33F0000000000000F9010790141107004050150841D405064090741402480A0350
1001
ACAD
1000
AcDbSavedByObjectVersion
1070
     0
  0
ACAD_PROXY_OBJECT
  5
2B
102
{ACAD_REACTORS
330
2A
102
}
330
2A
100
AcDbProxyObject
 90
      499
 91
      501
 93
      380
310
41119B185D240901404333333333333E33F0000000000000F9010740A907004050150841D405064090741402480A1B50
1001
ACAD
1000
AcDbSavedByObjectVersion
1070
     0
  0
ACAD_PROXY_OBJECT
  5
2C
102
{ACAD_REACTORS
330
2A
102
}
330
2A
100
AcDbProxyObject
 90
      499
 91
      501
 93
      468
310
43519B185D15DA5D1A115919D95CD0140901404333333333333E33F0000000000000F90107409019070040501600405405064090741402480A1B50
1001
ACAD
1000
AcDbSavedByObjectVersion
1070
     0
  0
ACAD_PROXY_OBJECT
  5
2D
102
{ACAD_REACTORS
330
2A
102
}
330
2A
100
AcDbProxyObject
 90
      499
 91
      501
 93
      404
310
41D1DBDD5C985D5910240902404333333333333E33F0000000000000F9010740A9070040501641D405064090741402480A1B50
1001
ACAD
1000
AcDbSavedByObjectVersion
1070
     0
  0
ACAD_PROXY_OBJECT
  5
2E
102
{ACAD_REACTORS
330
2A
102
}
330
2A
100
AcDbProxyObject
 90
      499
 91
      501
 93
      492
310
4411DBDD5C985D5915DA5D1A115919D95CD0340902404333333333333E33F0000000000000F90107409019070040501600405405064090741402480A1B50
1001
ACAD
1000
AcDbSavedByObjectVersion
1070
     0
  0
ACAD_PROXY_OBJECT
  5
31
102
{ACAD_REACTORS
330
2A
102
}
330
2A
100
AcDbProxyObject
 90
      499
 91
      501
 93
      476
310
41921A5919195B90640502408333333333333E33F0000000000000F901079024090700405020000000000001110200405405064090740C02480A0340
1001
ACAD
1000
AcDbSavedByObjectVersion
1070
     0
  0
ACAD_PROXY_OBJECT
  5
3B
102
{ACAD_REACTORS
330
2A
102
}
330
2A
100
AcDbProxyObject
 90
      499
 91
      501
 93
      428
310
42529A5D1D195C93D999914409028333333333333E33F0000000000000F9010790141107004050150A41D405064090741402480A0350
1001
ACAD
1000
AcDbSavedByObjectVersion
1070
     0
  0
ACAD_PROXY_OBJECT
  5
38
102
{ACAD_REACTORS
330
2A
102
}
330
2A
100
AcDbProxyObject
 90
      499
 91
      501
 93
      444
310
42D31A5B995C185D1D195C9B90E409028333333333333E33F0000000000000F9010790141107004050750841D405064090741402483A0350
1001
ACAD
1000
AcDbSavedByObjectVersion
1070
     0
  0
ACAD_PROXY_OBJECT
  5
3C
102
{ACAD_REACTORS
330
2A
102
}
330
2A
100
AcDbProxyObject
 90
      499
 91
      501
 93
      444
310
42D3DD995C9A185B99D3D999915409028333333333333E33F0000000000000F9010790141107004050150941D405064090741402480A0350
1001
ACAD
1000
AcDbSavedByObjectVersion
1070
     0
  0
ACAD_PROXY_OBJECT
  5
33
102
{ACAD_REACTORS
330
2A
102
}
330
2A
100
AcDbProxyObject
 90
      499
 91
      501
 93
      428
310
425499585B1A5CDD1A58D08409038333333333333E33F0000000000000F9010740A907004050150800405405064090740C02480A1B40
1001
ACAD
1000
AcDbSavedByObjectVersion
1070
     0
  0
ACAD_PROXY_OBJECT
  5
42
102
{ACAD_REACTORS
330
2A
102
}
330
2A
100
AcDbProxyObject
 90
      499
 91
      501
 93
      420
310
4194DA1859195911B40902404333333333333E33F0000000000000F9010740A41107004050150800405405064090840C02480A0B40
1001
ACAD
1000
AcDbSavedByObjectVersion
1070
     0
  0
ACAD_PROXY_OBJECT
  5
41
102
{ACAD_REACTORS
330
2A
102
}
330
2A
100
AcDbProxyObject
 90
      499
 91
      501
 93
      516
310
4454DA18591959081DDA5D1A08195919D95CD1A40902404333333333333E33F0000000000000F901074090142907004050250800405405064090740C02480A0B40
1001
ACAD
1000
AcDbSavedByObjectVersion
1070
     0
  0
ACAD_PROXY_OBJECT
  5
3E
102
{ACAD_REACTORS
330
2A
102
}
330
2A
100
AcDbProxyObject
 90
      499
 91
      501
 93
      532
310
4394DA1859195CC81BD98811DC985E5174090240C333333333333E33F0000000000000F901079024090741D01000000000000111010841D405064090740C02480A0340
1001
ACAD
1000
AcDbSavedByObjectVersion
1070
     0
  0
ACAD_PROXY_OBJECT
  5
3F
102
{ACAD_REACTORS
330
2A
102
}
330
2A
100
AcDbProxyObject
 90
      499
 91
      501
 93
      476
310
41D4DAD95D18DA1E51840502408333333333333E33F0000000000000F901079024090741D01000000000000111010B41D405064090741802480A0340
1001
ACAD
1000
AcDbSavedByObjectVersion
1070
     0
  0
ACAD_PROXY_OBJECT
  5
37
102
{ACAD_REACTORS
330
2A
102
}
330
2A
100
AcDbProxyObject
 90
      499
 91
      501
 93
      412
310
41D51A1A58DAD95B90D409028333333333333E33F0000000000000F9010790141107004050150C41D405064090741402480A0350
1001
ACAD
1000
AcDbSavedByObjectVersion
1070
     0
  0
ACAD_PROXY_OBJECT
  5
30
102
{ACAD_REACTORS
330
2A
102
}
330
2A
100
AcDbProxyObject
 90
      499
 91
      501
 93
      420
310
4255DA5C99599C985B595059028333333333333E33F0000000000000F90107901411070040501600405405064090740C02480A0340
1001
ACAD
1000
AcDbSavedByObjectVersion
1070
     0
  0
ACAD_PROXY_OBJECT
  5
40
102
{ACAD_REACTORS
330
2A
102
}
330
2A
100
AcDbProxyObject
 90
      499
 91
      501
 93
      404
310
41560B54985E51940902404000000000000E03F0000000000000F9010740501907004050150841D405064090740C02480A1B40
1001
ACAD
1000
AcDbSavedByObjectVersion
1070
     0
  0
XRECORD
  5
3C6
102
{ACAD_REACTORS
330
3BC
102
}
330
3BC
100
AcDbXrecord
340
0
  0
XRECORD
  5
3C5
102
{ACAD_REACTORS
330
3BC
102
}
330
3BC
100
AcDbXrecord
 90
        0
  0
XRECORD
  5
3DC
102
{ACAD_REACTORS
330
3BC
102
}
330
3BC
100
AcDbXrecord
1000
DSTYLE
1002
{
1070
   340
340
11
1002
}
  0
XRECORD
  5
3C7
102
{ACAD_REACTORS
330
3BC
102
}
330
3BC
100
AcDbXrecord
  1
{97db9a44-3df6-4d87-9dc5-08c4569d1076}
  0
XRECORD
  5
3BF
102
{ACAD_REACTORS
330
3BC
102
}
330
3BC
100
AcDbXrecord
  1

  0
XRECORD
  5
3C4
102
{ACAD_REACTORS
330
3BC
102
}
330
3BC
100
AcDbXrecord
 90
        4
  0
XRECORD
  5
3C1
102
{ACAD_REACTORS
330
3BC
102
}
330
3BC
100
AcDbXrecord
340
1A
  0
XRECORD
  5
3C3
102
{ACAD_REACTORS
330
3BC
102
}
330
3BC
100
AcDbXrecord
 90
    10781
  0
XRECORD
  5
3C2
102
{ACAD_REACTORS
330
3BC
102
}
330
3BC
100
AcDbXrecord
340
19
  0
XRECORD
  5
3C9
102
{ACAD_REACTORS
330
3BC
102
}
330
3BC
100
AcDbXrecord
 40
0.0
  0
XRECORD
  5
3CC
102
{ACAD_REACTORS
330
3BC
102
}
330
3BC
100
AcDbXrecord
340
0
  0
XRECORD
  5
3D2
102
{ACAD_REACTORS
330
3BC
102
}
330
3BC
100
AcDbXrecord
 10
0.0
 20
0.0
 30
0.0
  0
XRECORD
  5
3CE
102
{ACAD_REACTORS
330
3BC
102
}
330
3BC
100
AcDbXrecord
 10
0.0
 20
0.0
 30
0.0
  0
XRECORD
  5
3D1
102
{ACAD_REACTORS
330
3BC
102
}
330
3BC
100
AcDbXrecord
 10
0.0
 20
0.0
 30
0.0
  0
XRECORD
  5
3CF
102
{ACAD_REACTORS
330
3BC
102
}
330
3BC
100
AcDbXrecord
 10
0.0
 20
0.0
 30
0.0
  0
XRECORD
  5
3D0
102
{ACAD_REACTORS
330
3BC
102
}
330
3BC
100
AcDbXrecord
 10
0.0
 20
0.0
 30
0.0
  0
XRECORD
  5
3CD
102
{ACAD_REACTORS
330
3BC
102
}
330
3BC
100
AcDbXrecord
 10
0.0
 20
0.0
 30
0.0
  0
XRECORD
  5
3CA
102
{ACAD_REACTORS
330
3BC
102
}
330
3BC
100
AcDbXrecord
340
0
  0
XRECORD
  5
3CB
102
{ACAD_REACTORS
330
3BC
102
}
330
3BC
100
AcDbXrecord
 70
     0
  0
XRECORD
  5
3C0
102
{ACAD_REACTORS
330
3BC
102
}
330
3BC
100
AcDbXrecord
  1

  0
XRECORD
  5
3BD
102
{ACAD_REACTORS
330
3BC
102
}
330
3BC
100
AcDbXrecord
 90
        1
  0
XRECORD
  5
3BE
102
{ACAD_REACTORS
330
3BC
102
}
330
3BC
100
AcDbXrecord
 90
       70
  0
XRECORD
  5
3D5
102
{ACAD_REACTORS
330
3BC
102
}
330
3BC
100
AcDbXrecord
340
0
  0
XRECORD
  5
3DB
102
{ACAD_REACTORS
330
3BC
102
}
330
3BC
100
AcDbXrecord
 10
0.0
 20
0.0
 30
0.0
  0
XRECORD
  5
3D7
102
{ACAD_REACTORS
330
3BC
102
}
330
3BC
100
AcDbXrecord
 10
0.0
 20
0.0
 30
0.0
  0
XRECORD
  5
3DA
102
{ACAD_REACTORS
330
3BC
102
}
330
3BC
100
AcDbXrecord
 10
0.0
 20
0.0
 30
0.0
  0
XRECORD
  5
3D8
102
{ACAD_REACTORS
330
3BC
102
}
330
3BC
100
AcDbXrecord
 10
0.0
 20
0.0
 30
0.0
  0
XRECORD
  5
3D9
102
{ACAD_REACTORS
330
3BC
102
}
330
3BC
100
AcDbXrecord
 10
0.0
 20
0.0
 30
0.0
  0
XRECORD
  5
3D6
102
{ACAD_REACTORS
330
3BC
102
}
330
3BC
100
AcDbXrecord
 10
0.0
 20
0.0
 30
0.0
  0
XRECORD
  5
3D3
102
{ACAD_REACTORS
330
3BC
102
}
330
3BC
100
AcDbXrecord
340
0
  0
XRECORD
  5
3D4
102
{ACAD_REACTORS
330
3BC
102
}
330
3BC
100
AcDbXrecord
 70
     0
  0
XRECORD
  5
3C8
102
{ACAD_REACTORS
330
3BC
102
}
330
3BC
100
AcDbXrecord
  1
{FAEB1C32-E019-11D5-929B-00C0DF256EC4}
  0
DICTIONARYVAR
  5
3EA
102
{ACAD_REACTORS
330
3DD
102
}
330
3DD
100
DictionaryVariables
280
     0
  1
1:1
  0
DICTIONARYVAR
  5
3E4
102
{ACAD_REACTORS
330
3DD
102
}
330
3DD
100
DictionaryVariables
280
     0
  1
3.500000
  0
DICTIONARYVAR
  5
3E5
102
{ACAD_REACTORS
330
3DD
102
}
330
3DD
100
DictionaryVariables
280
     0
  1
acadiso.lin
  0
DICTIONARYVAR
  5
3DF
102
{ACAD_REACTORS
330
3DD
102
}
330
3DD
100
DictionaryVariables
280
     0
  1
Standard
  0
DICTIONARYVAR
  5
3DE
102
{ACAD_REACTORS
330
3DD
102
}
330
3DD
100
DictionaryVariables
280
     0
  1
Standard
  0
DICTIONARYVAR
  5
3E6
102
{ACAD_REACTORS
330
3DD
102
}
330
3DD
100
DictionaryVariables
280
     0
  1
2
  0
DICTIONARYVAR
  5
3E7
102
{ACAD_REACTORS
330
3DD
102
}
330
3DD
100
DictionaryVariables
280
     0
  1
1
  0
DICTIONARYVAR
  5
3EB
102
{ACAD_REACTORS
330
3DD
102
}
330
3DD
100
DictionaryVariables
280
     0
  1
1
  0
DICTIONARYVAR
  5
3E1
102
{ACAD_REACTORS
330
3DD
102
}
330
3DD
100
DictionaryVariables
280
     0
  1
80.000000
  0
DICTIONARYVAR
  5
3E0
102
{ACAD_REACTORS
330
3DD
102
}
330
3DD
100
DictionaryVariables
280
     0
  1
5.000000
  0
DICTIONARY
  5
3EE
330
45
100
AcDbDictionary
280
     1
  3
ACAD_XREC_ROUNDTRIP
360
3EF
  0
DICTIONARY
  5
3EC
330
44
100
AcDbDictionary
280
     1
  3
ACAD_XREC_ROUNDTRIP
360
3ED
  0
DICTIONARY
  5
3F0
330
46
100
AcDbDictionary
280
     1
  3
ACAD_XREC_ROUNDTRIP
360
3F1
  0
XRECORD
  5
3EF
102
{ACAD_REACTORS
330
3EE
102
}
330
3EE
100
AcDbXrecord
102
MATERIAL
148
0.0
149
0.0
149
0.0
 93
        0
 94
      127
282
     0
 72
     1
 77
     1
171
     1
175
     1
179
     1
273
     0
  0
XRECORD
  5
3ED
102
{ACAD_REACTORS
330
3EC
102
}
330
3EC
100
AcDbXrecord
102
MATERIAL
148
0.0
149
0.0
149
0.0
 93
        0
 94
      127
282
     0
 72
     1
 77
     1
171
     1
175
     1
179
     1
273
     0
  0
XRECORD
  5
3F1
102
{ACAD_REACTORS
330
3F0
102
}
330
3F0
100
AcDbXrecord
102
MATERIAL
148
0.0
149
0.0
149
0.0
 93
        0
 94
      127
282
     0
 72
     1
 77
     1
171
     1
175
     1
179
     1
273
     0
  0
ENDSEC
  0
EOF
