  0
SECTION
  2
HEADER
  9
$ACADVER
  1
AC1014
  9
$ACADMAINTVER
 70
     9
  9
$DWGCODEPAGE
  3
ANSI_932
  9
$INSBASE
 10
0.0
 20
0.0
 30
0.0
  9
$EXTMIN
 10
60.0
 20
60.0
 30
0.0
  9
$EXTMAX
 10
2460.0
 20
1722.0
 30
0.0
  9
$LIMMIN
 10
0.0
 20
0.0
  9
$LIMMAX
 10
420.0
 20
297.0
  9
$ORTHOMODE
 70
     0
  9
$REGENMODE
 70
     1
  9
$FILLMODE
 70
     1
  9
$QTEXTMODE
 70
     0
  9
$MIRRTEXT
 70
     1
  9
$DRAGMODE
 70
     2
  9
$LTSCALE
 40
1.0
  9
$OSMODE
 70
    37
  9
$ATTMODE
 70
     1
  9
$TEXTSIZE
 40
2.5
  9
$TRACEWID
 40
1.0
  9
$TEXTSTYLE
  7
STANDARD
  9
$CLAYER
  8
Ｓ_１_１
  9
$CELTYPE
  6
BYLAYER
  9
$CECOLOR
 62
   256
  9
$CELTSCALE
 40
1.0
  9
$DELOBJ
 70
     1
  9
$DISPSILH
 70
     0
  9
$DIMSCALE
 40
1.0
  9
$DIMASZ
 40
2.5
  9
$DIMEXO
 40
0.625
  9
$DIMDLI
 40
3.75
  9
$DIMRND
 40
0.0
  9
$DIMDLE
 40
0.0
  9
$DIMEXE
 40
1.25
  9
$DIMTP
 40
0.0
  9
$DIMTM
 40
0.0
  9
$DIMTXT
 40
2.5
  9
$DIMCEN
 40
2.5
  9
$DIMTSZ
 40
0.0
  9
$DIMTOL
 70
     0
  9
$DIMLIM
 70
     0
  9
$DIMTIH
 70
     0
  9
$DIMTOH
 70
     0
  9
$DIMSE1
 70
     0
  9
$DIMSE2
 70
     0
  9
$DIMTAD
 70
     1
  9
$DIMZIN
 70
     8
  9
$DIMBLK
  1

  9
$DIMASO
 70
     1
  9
$DIMSHO
 70
     1
  9
$DIMPOST
  1

  9
$DIMAPOST
  1

  9
$DIMALT
 70
     0
  9
$DIMALTD
 70
     3
  9
$DIMALTF
 40
0.03937007874016
  9
$DIMLFAC
 40
1.0
  9
$DIMTOFL
 70
     1
  9
$DIMTVP
 40
0.0
  9
$DIMTIX
 70
     0
  9
$DIMSOXD
 70
     0
  9
$DIMSAH
 70
     0
  9
$DIMBLK1
  1

  9
$DIMBLK2
  1

  9
$DIMSTYLE
  2
ISO-25
  9
$DIMCLRD
 70
     0
  9
$DIMCLRE
 70
     0
  9
$DIMCLRT
 70
     0
  9
$DIMTFAC
 40
1.0
  9
$DIMGAP
 40
0.625
  9
$DIMJUST
 70
     0
  9
$DIMSD1
 70
     0
  9
$DIMSD2
 70
     0
  9
$DIMTOLJ
 70
     0
  9
$DIMTZIN
 70
     8
  9
$DIMALTZ
 70
     0
  9
$DIMALTTZ
 70
     0
  9
$DIMFIT
 70
     3
  9
$DIMUPT
 70
     0
  9
$DIMUNIT
 70
     2
  9
$DIMDEC
 70
     2
  9
$DIMTDEC
 70
     2
  9
$DIMALTU
 70
     2
  9
$DIMALTTD
 70
     3
  9
$DIMTXSTY
  7
STANDARD
  9
$DIMAUNIT
 70
     0
  9
$LUNITS
 70
     2
  9
$LUPREC
 70
     4
  9
$SKETCHINC
 40
1.0
  9
$FILLETRAD
 40
10.0
  9
$AUNITS
 70
     0
  9
$AUPREC
 70
     0
  9
$MENU
  1
.
  9
$ELEVATION
 40
0.0
  9
$PELEVATION
 40
0.0
  9
$THICKNESS
 40
0.0
  9
$LIMCHECK
 70
     0
  9
$CHAMFERA
 40
0.0
  9
$CHAMFERB
 40
0.0
  9
$CHAMFERC
 40
0.0
  9
$CHAMFERD
 40
0.0
  9
$SKPOLY
 70
     0
  9
$TDCREATE
 40
2459585.543918611
  9
$TDUPDATE
 40
2459585.543920347
  9
$TDINDWG
 40
0.0000000116
  9
$TDUSRTIMER
 40
0.0000000116
  9
$USRTIMER
 70
     1
  9
$ANGBASE
 50
0.0
  9
$ANGDIR
 70
     0
  9
$PDMODE
 70
     0
  9
$PDSIZE
 40
0.0
  9
$PLINEWID
 40
0.0
  9
$COORDS
 70
     1
  9
$SPLFRAME
 70
     0
  9
$SPLINETYPE
 70
     6
  9
$SPLINESEGS
 70
     8
  9
$ATTDIA
 70
     0
  9
$ATTREQ
 70
     1
  9
$HANDLING
 70
     1
  9
$HANDSEED
  5
647
  9
$SURFTAB1
 70
     6
  9
$SURFTAB2
 70
     6
  9
$SURFTYPE
 70
     6
  9
$SURFU
 70
     6
  9
$SURFV
 70
     6
  9
$UCSNAME
  2

  9
$UCSORG
 10
0.0
 20
0.0
 30
0.0
  9
$UCSXDIR
 10
1.0
 20
0.0
 30
0.0
  9
$UCSYDIR
 10
0.0
 20
1.0
 30
0.0
  9
$PUCSNAME
  2

  9
$PUCSORG
 10
0.0
 20
0.0
 30
0.0
  9
$PUCSXDIR
 10
1.0
 20
0.0
 30
0.0
  9
$PUCSYDIR
 10
0.0
 20
1.0
 30
0.0
  9
$USERI1
 70
     0
  9
$USERI2
 70
     0
  9
$USERI3
 70
     0
  9
$USERI4
 70
     0
  9
$USERI5
 70
     0
  9
$USERR1
 40
0.0
  9
$USERR2
 40
0.0
  9
$USERR3
 40
0.0
  9
$USERR4
 40
0.0
  9
$USERR5
 40
0.0
  9
$WORLDVIEW
 70
     1
  9
$SHADEDGE
 70
     3
  9
$SHADEDIF
 70
    70
  9
$TILEMODE
 70
     1
  9
$MAXACTVP
 70
    64
  9
$PINSBASE
 10
0.0
 20
0.0
 30
0.0
  9
$PLIMCHECK
 70
     0
  9
$PEXTMIN
 10
1.000000000000000E+20
 20
1.000000000000000E+20
 30
1.000000000000000E+20
  9
$PEXTMAX
 10
-1.000000000000000E+20
 20
-1.000000000000000E+20
 30
-1.000000000000000E+20
  9
$PLIMMIN
 10
0.0
 20
0.0
  9
$PLIMMAX
 10
420.0
 20
297.0
  9
$UNITMODE
 70
     0
  9
$VISRETAIN
 70
     1
  9
$PLINEGEN
 70
     0
  9
$PSLTSCALE
 70
     1
  9
$TREEDEPTH
 70
  3020
  9
$PICKSTYLE
 70
     1
  9
$CMLSTYLE
  2
STANDARD
  9
$CMLJUST
 70
     0
  9
$CMLSCALE
 40
20.0
  9
$PROXYGRAPHICS
 70
     1
  9
$MEASUREMENT
 70
     1
  0
ENDSEC
  0
SECTION
  2
CLASSES
  0
CLASS
  1
ACDBDICTIONARYWDFLT
  2
AcDbDictionaryWithDefault
  3
ObjectDBX Classes
 90
        0
280
     0
281
     0
  0
CLASS
  1
VISUALSTYLE
  2
AcDbVisualStyle
  3
ObjectDBX Classes
 90
     4095
280
     0
281
     0
  0
CLASS
  1
MATERIAL
  2
AcDbMaterial
  3
ObjectDBX Classes
 90
     1153
280
     0
281
     0
  0
CLASS
  1
SCALE
  2
AcDbScale
  3
ObjectDBX Classes
 90
     1153
280
     0
281
     0
  0
CLASS
  1
TABLESTYLE
  2
AcDbTableStyle
  3
ObjectDBX Classes
 90
     4095
280
     0
281
     0
  0
CLASS
  1
MLEADERSTYLE
  2
AcDbMLeaderStyle
  3
ACDB_MLEADERSTYLE_CLASS
 90
     4095
280
     0
281
     0
  0
CLASS
  1
SUN
  2
AcDbSun
  3
SCENEOE
 90
     1153
280
     0
281
     0
  0
CLASS
  1
DICTIONARYVAR
  2
AcDbDictionaryVar
  3
ObjectDBX Classes
 90
        0
280
     0
281
     0
  0
CLASS
  1
XRECORD
  2
AcDbXrecord
  3
ObjectDBX Classes
 90
        0
280
     0
281
     0
  0
CLASS
  1
LWPOLYLINE
  2
AcDbPolyline
  3
ObjectDBX Classes
 90
        0
280
     0
281
     1
  0
CLASS
  1
HATCH
  2
AcDbHatch
  3
ObjectDBX Classes
 90
        0
280
     0
281
     1
  0
CLASS
  1
ACDBPLACEHOLDER
  2
AcDbPlaceHolder
  3
ObjectDBX Classes
 90
        0
280
     0
281
     0
  0
CLASS
  1
LAYOUT
  2
AcDbLayout
  3
ObjectDBX Classes
 90
        0
280
     0
281
     0
  0
ENDSEC
  0
SECTION
  2
TABLES
  0
TABLE
  2
VPORT
  5
8
102
{ACAD_XDICTIONARY
360
63C
102
}
330
0
100
AcDbSymbolTable
 70
     1
  0
VPORT
  5
29
330
8
100
AcDbSymbolTableRecord
100
AcDbViewportTableRecord
  2
*ACTIVE
 70
     0
 10
0.0
 20
0.0
 11
1.0
 21
1.0
 12
1260.0
 22
891.0
 13
0.0
 23
0.0
 14
10.0
 24
10.0
 15
10.0
 25
10.0
 16
0.0
 26
0.0
 36
1.0
 17
0.0
 27
0.0
 37
0.0
 40
1662.0
 41
1.444043321299639
 42
50.0
 43
0.0
 44
0.0
 50
0.0
 51
0.0
 71
     0
 72
  1000
 73
     1
 74
     3
 75
     0
 76
     0
 77
     0
 78
     0
  0
ENDTAB
  0
TABLE
  2
LTYPE
  5
5
330
0
100
AcDbSymbolTable
 70
    10
  0
LTYPE
  5
14
330
5
100
AcDbSymbolTableRecord
100
AcDbLinetypeTableRecord
  2
BYBLOCK
 70
     0
  3

 72
    65
 73
     0
 40
0.0
  0
LTYPE
  5
15
330
5
100
AcDbSymbolTableRecord
100
AcDbLinetypeTableRecord
  2
BYLAYER
 70
     0
  3

 72
    65
 73
     0
 40
0.0
  0
LTYPE
  5
16
330
5
100
AcDbSymbolTableRecord
100
AcDbLinetypeTableRecord
  2
CONTINUOUS
 70
     0
  3
Solid line
 72
    65
 73
     0
 40
0.0
  0
LTYPE
  5
6E
330
5
100
AcDbSymbolTableRecord
100
AcDbLinetypeTableRecord
  2
EXLTYPE0
 70
     0
  3
破線
 72
    65
 73
     2
 40
4.0
 49
3.0
 74
     0
 49
-1.0
 74
     0
  0
LTYPE
  5
6F
330
5
100
AcDbSymbolTableRecord
100
AcDbLinetypeTableRecord
  2
EXLTYPE1
 70
     0
  3
点線
 72
    65
 73
     2
 40
2.0
 49
1.0
 74
     0
 49
-1.0
 74
     0
  0
LTYPE
  5
70
330
5
100
AcDbSymbolTableRecord
100
AcDbLinetypeTableRecord
  2
EXLTYPE2
 70
     0
  3
一点鎖線
 72
    65
 73
     4
 40
13.0
 49
10.0
 74
     0
 49
-1.0
 74
     0
 49
1.0
 74
     0
 49
-1.0
 74
     0
  0
LTYPE
  5
71
330
5
100
AcDbSymbolTableRecord
100
AcDbLinetypeTableRecord
  2
EXLTYPE3
 70
     0
  3
二点鎖線
 72
    65
 73
     6
 40
15.0
 49
10.0
 74
     0
 49
-1.0
 74
     0
 49
1.0
 74
     0
 49
-1.0
 74
     0
 49
1.0
 74
     0
 49
-1.0
 74
     0
  0
LTYPE
  5
72
330
5
100
AcDbSymbolTableRecord
100
AcDbLinetypeTableRecord
  2
EXLTYPE4
 70
     0
  3
一点鎖線2
 72
    65
 73
     4
 40
3.5
 49
2.0
 74
     0
 49
-0.5
 74
     0
 49
0.5
 74
     0
 49
-0.5
 74
     0
  0
LTYPE
  5
73
330
5
100
AcDbSymbolTableRecord
100
AcDbLinetypeTableRecord
  2
EXLTYPE5
 70
     0
  3
二点鎖線2
 72
    65
 73
     6
 40
4.5
 49
2.0
 74
     0
 49
-0.5
 74
     0
 49
0.5
 74
     0
 49
-0.5
 74
     0
 49
0.5
 74
     0
 49
-0.5
 74
     0
  0
LTYPE
  5
74
330
5
100
AcDbSymbolTableRecord
100
AcDbLinetypeTableRecord
  2
EXLTYPE6
 70
     0
  3
一点鎖線4
 72
    65
 73
     4
 40
13.0
 49
10.0
 74
     0
 49
-1.0
 74
     0
 49
1.0
 74
     0
 49
-1.0
 74
     0
  0
LTYPE
  5
75
330
5
100
AcDbSymbolTableRecord
100
AcDbLinetypeTableRecord
  2
EXLTYPE7
 70
     0
  3
一点鎖線5
 72
    65
 73
     4
 40
13.0
 49
10.0
 74
     0
 49
-1.0
 74
     0
 49
1.0
 74
     0
 49
-1.0
 74
     0
  0
LTYPE
  5
76
330
5
100
AcDbSymbolTableRecord
100
AcDbLinetypeTableRecord
  2
EXLTYPE8
 70
     0
  3
破線4
 72
    65
 73
     2
 40
2.0
 49
1.0
 74
     0
 49
-1.0
 74
     0
  0
ENDTAB
  0
TABLE
  2
LAYER
  5
2
330
0
100
AcDbSymbolTable
 70
     4
  0
LAYER
  5
10
330
2
100
AcDbSymbolTableRecord
100
AcDbLayerTableRecord
  2
0
 70
     0
 62
     7
  6
CONTINUOUS
  0
LAYER
  5
79
330
2
100
AcDbSymbolTableRecord
100
AcDbLayerTableRecord
  2
図面枠
 70
     4
 62
     7
  6
CONTINUOUS
  0
LAYER
  5
7A
330
2
100
AcDbSymbolTableRecord
100
AcDbLayerTableRecord
  2
Ｓ_１_１
 70
     0
 62
     7
  6
CONTINUOUS
  0
LAYER
  5
110
330
2
100
AcDbSymbolTableRecord
100
AcDbLayerTableRecord
  2
DEFPOINTS
 70
     0
 62
     7
  6
CONTINUOUS
  0
ENDTAB
  0
TABLE
  2
STYLE
  5
3
330
0
100
AcDbSymbolTable
 70
     5
  0
STYLE
  5
11
330
3
100
AcDbSymbolTableRecord
100
AcDbTextStyleTableRecord
  2
STANDARD
 70
     0
 40
0.0
 41
1.0
 50
0.0
 71
     0
 42
2.5
  3
monotxt
  4
extfont
  0
STYLE
  5
77
330
3
100
AcDbSymbolTableRecord
100
AcDbTextStyleTableRecord
  2
EXCADSTD
 70
     0
 40
0.0
 41
1.0
 50
0.0
 71
     0
 42
2.5
  3
monotxt
  4
extfont
  0
STYLE
  5
78
330
3
100
AcDbSymbolTableRecord
100
AcDbTextStyleTableRecord
  2
EXCADVERT
 70
     4
 40
0.0
 41
1.0
 50
0.0
 71
     0
 42
2.5
  3
monotxt
  4
extfont
  0
STYLE
  5
DB
330
3
100
AcDbSymbolTableRecord
100
AcDbTextStyleTableRecord
  2
EXCADTTF1
 70
     0
 40
0.0
 41
1.0
 50
0.0
 71
     0
 42
2.5
  3
msgothic.ttc
  4

1001
ACAD
1000
MS Gothic
1071
    32817
  0
STYLE
  5
10E
330
3
100
AcDbSymbolTableRecord
100
AcDbTextStyleTableRecord
  2
EXCADDIM1
 70
     0
 40
0.0
 41
1.0
 50
0.0
 71
     0
 42
2.5
  3
msgothic.ttc
  4

1001
ACAD
1000
MS Gothic
1071
    32817
  0
ENDTAB
  0
TABLE
  2
VIEW
  5
6
330
0
100
AcDbSymbolTable
 70
     0
  0
ENDTAB
  0
TABLE
  2
UCS
  5
7
330
0
100
AcDbSymbolTable
 70
     0
  0
ENDTAB
  0
TABLE
  2
APPID
  5
9
330
0
100
AcDbSymbolTable
 70
     2
  0
APPID
  5
12
330
9
100
AcDbSymbolTableRecord
100
AcDbRegAppTableRecord
  2
ACAD
 70
     0
  0
APPID
  5
646
330
9
100
AcDbSymbolTableRecord
100
AcDbRegAppTableRecord
  2
ACAD_MLEADERVER
 70
     0
  0
ENDTAB
  0
TABLE
  2
DIMSTYLE
  5
A
330
0
100
AcDbSymbolTable
 70
     1
  0
DIMSTYLE
105
27
102
{ACAD_REACTORS
330
10F
330
11D
330
12A
330
137
330
144
330
151
330
15E
330
16B
330
178
330
185
330
192
330
19F
330
1AC
330
1B9
330
1C6
330
1D3
330
1E0
330
1ED
330
1FA
330
207
330
214
330
221
330
22E
330
23B
330
248
330
255
330
262
330
26F
330
27C
330
289
330
471
330
47E
330
48B
330
498
102
}
330
A
100
AcDbSymbolTableRecord
100
AcDbDimStyleTableRecord
  2
ISO-25
 70
     0
  3

  4

  5

  6

  7

 40
1.0
 41
2.5
 42
0.625
 43
3.75
 44
1.25
 45
0.0
 46
0.0
 47
0.0
 48
0.0
140
2.5
141
2.5
142
0.0
143
0.03937007874016
144
1.0
145
0.0
146
1.0
147
0.625
 71
     0
 72
     0
 73
     0
 74
     0
 75
     0
 76
     0
 77
     1
 78
     8
170
     0
171
     3
172
     1
173
     0
174
     0
175
     0
176
     0
177
     0
178
     0
270
     2
271
     2
272
     2
273
     2
274
     3
340
11
275
     0
280
     0
281
     0
282
     0
283
     0
284
     8
285
     0
286
     0
287
     5
288
     0
  0
ENDTAB
  0
TABLE
  2
BLOCK_RECORD
  5
1
330
0
100
AcDbSymbolTable
 70
    48
  0
BLOCK_RECORD
  5
1F
330
1
100
AcDbSymbolTableRecord
100
AcDbBlockTableRecord
  2
*MODEL_SPACE
  0
BLOCK_RECORD
  5
1B
330
1
100
AcDbSymbolTableRecord
100
AcDbBlockTableRecord
  2
*PAPER_SPACE
  0
BLOCK_RECORD
  5
7B
330
1
100
AcDbSymbolTableRecord
100
AcDbBlockTableRecord
  2
EX_NORM
  0
BLOCK_RECORD
  5
7E
330
1
100
AcDbSymbolTableRecord
100
AcDbBlockTableRecord
  2
EX_BNORM
  0
BLOCK_RECORD
  5
81
330
1
100
AcDbSymbolTableRecord
100
AcDbBlockTableRecord
  2
EX_BCIR
  0
BLOCK_RECORD
  5
84
330
1
100
AcDbSymbolTableRecord
100
AcDbBlockTableRecord
  2
EX_RCIVIL
  0
BLOCK_RECORD
  5
87
330
1
100
AcDbSymbolTableRecord
100
AcDbBlockTableRecord
  2
EX_SLANT
  0
BLOCK_RECORD
  5
8A
330
1
100
AcDbSymbolTableRecord
100
AcDbBlockTableRecord
  2
EX_NONE
  0
BLOCK_RECORD
  5
8D
330
1
100
AcDbSymbolTableRecord
100
AcDbBlockTableRecord
  2
EX_CIVIL
  0
BLOCK_RECORD
  5
90
330
1
100
AcDbSymbolTableRecord
100
AcDbBlockTableRecord
  2
EX_WCIR
  0
BLOCK_RECORD
  5
93
330
1
100
AcDbSymbolTableRecord
100
AcDbBlockTableRecord
  2
EX_WCIR2
  0
BLOCK_RECORD
  5
96
330
1
100
AcDbSymbolTableRecord
100
AcDbBlockTableRecord
  2
EX_WNORM
  0
BLOCK_RECORD
  5
99
330
1
100
AcDbSymbolTableRecord
100
AcDbBlockTableRecord
  2
EX_NNORM
  0
BLOCK_RECORD
  5
9C
330
1
100
AcDbSymbolTableRecord
100
AcDbBlockTableRecord
  2
EX_BBOX
  0
BLOCK_RECORD
  5
9F
330
1
100
AcDbSymbolTableRecord
100
AcDbBlockTableRecord
  2
EX_WBOX
  0
BLOCK_RECORD
  5
A2
330
1
100
AcDbSymbolTableRecord
100
AcDbBlockTableRecord
  2
EX_INTEGRAL
  0
BLOCK_RECORD
  5
111
330
1
100
AcDbSymbolTableRecord
100
AcDbBlockTableRecord
  2
*D15
  0
BLOCK_RECORD
  5
11E
330
1
100
AcDbSymbolTableRecord
100
AcDbBlockTableRecord
  2
*D16
  0
BLOCK_RECORD
  5
12B
330
1
100
AcDbSymbolTableRecord
100
AcDbBlockTableRecord
  2
*D17
  0
BLOCK_RECORD
  5
138
330
1
100
AcDbSymbolTableRecord
100
AcDbBlockTableRecord
  2
*D18
  0
BLOCK_RECORD
  5
145
330
1
100
AcDbSymbolTableRecord
100
AcDbBlockTableRecord
  2
*D19
  0
BLOCK_RECORD
  5
152
330
1
100
AcDbSymbolTableRecord
100
AcDbBlockTableRecord
  2
*D20
  0
BLOCK_RECORD
  5
15F
330
1
100
AcDbSymbolTableRecord
100
AcDbBlockTableRecord
  2
*D21
  0
BLOCK_RECORD
  5
16C
330
1
100
AcDbSymbolTableRecord
100
AcDbBlockTableRecord
  2
*D22
  0
BLOCK_RECORD
  5
179
330
1
100
AcDbSymbolTableRecord
100
AcDbBlockTableRecord
  2
*D23
  0
BLOCK_RECORD
  5
186
330
1
100
AcDbSymbolTableRecord
100
AcDbBlockTableRecord
  2
*D24
  0
BLOCK_RECORD
  5
193
330
1
100
AcDbSymbolTableRecord
100
AcDbBlockTableRecord
  2
*D25
  0
BLOCK_RECORD
  5
1A0
330
1
100
AcDbSymbolTableRecord
100
AcDbBlockTableRecord
  2
*D26
  0
BLOCK_RECORD
  5
1AD
330
1
100
AcDbSymbolTableRecord
100
AcDbBlockTableRecord
  2
*D27
  0
BLOCK_RECORD
  5
1BA
330
1
100
AcDbSymbolTableRecord
100
AcDbBlockTableRecord
  2
*D28
  0
BLOCK_RECORD
  5
1C7
330
1
100
AcDbSymbolTableRecord
100
AcDbBlockTableRecord
  2
*D29
  0
BLOCK_RECORD
  5
1D4
330
1
100
AcDbSymbolTableRecord
100
AcDbBlockTableRecord
  2
*D30
  0
BLOCK_RECORD
  5
1E1
330
1
100
AcDbSymbolTableRecord
100
AcDbBlockTableRecord
  2
*D31
  0
BLOCK_RECORD
  5
1EE
330
1
100
AcDbSymbolTableRecord
100
AcDbBlockTableRecord
  2
*D32
  0
BLOCK_RECORD
  5
1FB
330
1
100
AcDbSymbolTableRecord
100
AcDbBlockTableRecord
  2
*D33
  0
BLOCK_RECORD
  5
208
330
1
100
AcDbSymbolTableRecord
100
AcDbBlockTableRecord
  2
*D34
  0
BLOCK_RECORD
  5
215
330
1
100
AcDbSymbolTableRecord
100
AcDbBlockTableRecord
  2
*D35
  0
BLOCK_RECORD
  5
222
330
1
100
AcDbSymbolTableRecord
100
AcDbBlockTableRecord
  2
*D36
  0
BLOCK_RECORD
  5
22F
330
1
100
AcDbSymbolTableRecord
100
AcDbBlockTableRecord
  2
*D37
  0
BLOCK_RECORD
  5
23C
330
1
100
AcDbSymbolTableRecord
100
AcDbBlockTableRecord
  2
*D38
  0
BLOCK_RECORD
  5
249
330
1
100
AcDbSymbolTableRecord
100
AcDbBlockTableRecord
  2
*D39
  0
BLOCK_RECORD
  5
256
330
1
100
AcDbSymbolTableRecord
100
AcDbBlockTableRecord
  2
*D40
  0
BLOCK_RECORD
  5
263
330
1
100
AcDbSymbolTableRecord
100
AcDbBlockTableRecord
  2
*D41
  0
BLOCK_RECORD
  5
270
330
1
100
AcDbSymbolTableRecord
100
AcDbBlockTableRecord
  2
*D42
  0
BLOCK_RECORD
  5
27D
330
1
100
AcDbSymbolTableRecord
100
AcDbBlockTableRecord
  2
*D43
  0
BLOCK_RECORD
  5
28A
330
1
100
AcDbSymbolTableRecord
100
AcDbBlockTableRecord
  2
*D44
  0
BLOCK_RECORD
  5
472
330
1
100
AcDbSymbolTableRecord
100
AcDbBlockTableRecord
  2
*D45
  0
BLOCK_RECORD
  5
47F
330
1
100
AcDbSymbolTableRecord
100
AcDbBlockTableRecord
  2
*D46
  0
BLOCK_RECORD
  5
48C
330
1
100
AcDbSymbolTableRecord
100
AcDbBlockTableRecord
  2
*D47
  0
BLOCK_RECORD
  5
499
330
1
100
AcDbSymbolTableRecord
100
AcDbBlockTableRecord
  2
*D48
  0
ENDTAB
  0
ENDSEC
  0
SECTION
  2
BLOCKS
  0
BLOCK
  5
20
330
1F
100
AcDbEntity
  8
0
100
AcDbBlockBegin
  2
*MODEL_SPACE
 70
     0
 10
0.0
 20
0.0
 30
0.0
  3
*MODEL_SPACE
  1

  0
ENDBLK
  5
21
330
1F
100
AcDbEntity
  8
0
100
AcDbBlockEnd
  0
BLOCK
  5
1C
330
1B
100
AcDbEntity
 67
     1
  8
0
100
AcDbBlockBegin
  2
*PAPER_SPACE
 70
     0
 10
0.0
 20
0.0
 30
0.0
  3
*PAPER_SPACE
  1

  0
ENDBLK
  5
1D
330
1B
100
AcDbEntity
 67
     1
  8
0
100
AcDbBlockEnd
  0
BLOCK
  5
7C
330
7B
100
AcDbEntity
  8
0
100
AcDbBlockBegin
  2
EX_NORM
 70
     0
 10
0.0
 20
0.0
 30
0.0
  3
EX_NORM
  1

  0
LINE
  5
A5
330
7B
100
AcDbEntity
  8
0
  6
CONTINUOUS
 62
     0
100
AcDbLine
 10
0.0
 20
0.0
 30
0.0
 11
-1.0
 21
0.0
 31
0.0
  0
LINE
  5
A6
330
7B
100
AcDbEntity
  8
0
  6
CONTINUOUS
 62
     0
100
AcDbLine
 10
0.0
 20
0.0
 30
0.0
 11
-1.0
 21
0.166666667
 31
0.0
  0
LINE
  5
A7
330
7B
100
AcDbEntity
  8
0
  6
CONTINUOUS
 62
     0
100
AcDbLine
 10
0.0
 20
0.0
 30
0.0
 11
-1.0
 21
-0.166666667
 31
0.0
  0
ENDBLK
  5
7D
330
7B
100
AcDbEntity
  8
0
100
AcDbBlockEnd
  0
BLOCK
  5
7F
330
7E
100
AcDbEntity
  8
0
100
AcDbBlockBegin
  2
EX_BNORM
 70
     0
 10
0.0
 20
0.0
 30
0.0
  3
EX_BNORM
  1

  0
LINE
  5
A8
330
7E
100
AcDbEntity
  8
0
  6
CONTINUOUS
 62
     0
100
AcDbLine
 10
0.0
 20
0.0
 30
0.0
 11
-1.0
 21
0.0
 31
0.0
  0
LINE
  5
A9
330
7E
100
AcDbEntity
  8
0
  6
CONTINUOUS
 62
     0
100
AcDbLine
 10
0.0
 20
0.0
 30
0.0
 11
-1.0
 21
0.166666667
 31
0.0
  0
LINE
  5
AA
330
7E
100
AcDbEntity
  8
0
  6
CONTINUOUS
 62
     0
100
AcDbLine
 10
0.0
 20
0.0
 30
0.0
 11
-1.0
 21
-0.166666667
 31
0.0
  0
LINE
  5
AB
330
7E
100
AcDbEntity
  8
0
  6
CONTINUOUS
 62
     0
100
AcDbLine
 10
0.0
 20
0.0
 30
0.0
 11
-1.0
 21
0.083333333
 31
0.0
  0
LINE
  5
AC
330
7E
100
AcDbEntity
  8
0
  6
CONTINUOUS
 62
     0
100
AcDbLine
 10
0.0
 20
0.0
 30
0.0
 11
-1.0
 21
-0.083333333
 31
0.0
  0
LINE
  5
AD
330
7E
100
AcDbEntity
  8
0
  6
CONTINUOUS
 62
     0
100
AcDbLine
 10
-1.0
 20
0.166666667
 30
0.0
 11
-1.0
 21
-0.166666667
 31
0.0
  0
ENDBLK
  5
80
330
7E
100
AcDbEntity
  8
0
100
AcDbBlockEnd
  0
BLOCK
  5
82
330
81
100
AcDbEntity
  8
0
100
AcDbBlockBegin
  2
EX_BCIR
 70
     0
 10
0.0
 20
0.0
 30
0.0
  3
EX_BCIR
  1

  0
LINE
  5
AE
330
81
100
AcDbEntity
  8
0
  6
CONTINUOUS
 62
     0
100
AcDbLine
 10
0.0
 20
0.0
 30
0.0
 11
-1.0
 21
0.0
 31
0.0
  0
CIRCLE
  5
AF
330
81
100
AcDbEntity
  8
0
  6
CONTINUOUS
 62
     0
100
AcDbCircle
 10
0.0
 20
0.0
 30
0.0
 40
0.5
  0
CIRCLE
  5
B0
330
81
100
AcDbEntity
  8
0
  6
CONTINUOUS
 62
     0
100
AcDbCircle
 10
0.0
 20
0.0
 30
0.0
 40
0.25
  0
ENDBLK
  5
83
330
81
100
AcDbEntity
  8
0
100
AcDbBlockEnd
  0
BLOCK
  5
85
330
84
100
AcDbEntity
  8
0
100
AcDbBlockBegin
  2
EX_RCIVIL
 70
     0
 10
0.0
 20
0.0
 30
0.0
  3
EX_RCIVIL
  1

  0
LINE
  5
B1
330
84
100
AcDbEntity
  8
0
  6
CONTINUOUS
 62
     0
100
AcDbLine
 10
0.0
 20
0.0
 30
0.0
 11
-1.0
 21
0.0
 31
0.0
  0
LINE
  5
B2
330
84
100
AcDbEntity
  8
0
  6
CONTINUOUS
 62
     0
100
AcDbLine
 10
-1.0
 20
-0.25
 30
0.0
 11
0.0
 21
-0.25
 31
0.0
  0
LINE
  5
B3
330
84
100
AcDbEntity
  8
0
  6
CONTINUOUS
 62
     0
100
AcDbLine
 10
-1.0
 20
-0.125
 30
0.0
 11
0.0
 21
-0.125
 31
0.0
  0
ENDBLK
  5
86
330
84
100
AcDbEntity
  8
0
100
AcDbBlockEnd
  0
BLOCK
  5
88
330
87
100
AcDbEntity
  8
0
100
AcDbBlockBegin
  2
EX_SLANT
 70
     0
 10
0.0
 20
0.0
 30
0.0
  3
EX_SLANT
  1

  0
LINE
  5
B4
330
87
100
AcDbEntity
  8
0
  6
CONTINUOUS
 62
     0
100
AcDbLine
 10
0.0
 20
0.0
 30
0.0
 11
-1.0
 21
0.0
 31
0.0
  0
LINE
  5
B5
330
87
100
AcDbEntity
  8
0
  6
CONTINUOUS
 62
     0
100
AcDbLine
 10
0.707106781
 20
0.707106781
 30
0.0
 11
-0.707106781
 21
-0.707106781
 31
0.0
  0
ENDBLK
  5
89
330
87
100
AcDbEntity
  8
0
100
AcDbBlockEnd
  0
BLOCK
  5
8B
330
8A
100
AcDbEntity
  8
0
100
AcDbBlockBegin
  2
EX_NONE
 70
     0
 10
0.0
 20
0.0
 30
0.0
  3
EX_NONE
  1

  0
LINE
  5
B6
330
8A
100
AcDbEntity
  8
0
  6
CONTINUOUS
 62
     0
100
AcDbLine
 10
0.0
 20
0.0
 30
0.0
 11
-1.0
 21
0.0
 31
0.0
  0
ENDBLK
  5
8C
330
8A
100
AcDbEntity
  8
0
100
AcDbBlockEnd
  0
BLOCK
  5
8E
330
8D
100
AcDbEntity
  8
0
100
AcDbBlockBegin
  2
EX_CIVIL
 70
     0
 10
0.0
 20
0.0
 30
0.0
  3
EX_CIVIL
  1

  0
LINE
  5
B7
330
8D
100
AcDbEntity
  8
0
  6
CONTINUOUS
 62
     0
100
AcDbLine
 10
0.0
 20
0.0
 30
0.0
 11
-1.0
 21
0.0
 31
0.0
  0
LINE
  5
B8
330
8D
100
AcDbEntity
  8
0
  6
CONTINUOUS
 62
     0
100
AcDbLine
 10
-1.0
 20
0.25
 30
0.0
 11
0.0
 21
0.25
 31
0.0
  0
LINE
  5
B9
330
8D
100
AcDbEntity
  8
0
  6
CONTINUOUS
 62
     0
100
AcDbLine
 10
-1.0
 20
0.125
 30
0.0
 11
0.0
 21
0.125
 31
0.0
  0
ENDBLK
  5
8F
330
8D
100
AcDbEntity
  8
0
100
AcDbBlockEnd
  0
BLOCK
  5
91
330
90
100
AcDbEntity
  8
0
100
AcDbBlockBegin
  2
EX_WCIR
 70
     0
 10
0.0
 20
0.0
 30
0.0
  3
EX_WCIR
  1

  0
LINE
  5
BA
330
90
100
AcDbEntity
  8
0
  6
CONTINUOUS
 62
     0
100
AcDbLine
 10
0.0
 20
0.0
 30
0.0
 11
-1.0
 21
0.0
 31
0.0
  0
CIRCLE
  5
BB
330
90
100
AcDbEntity
  8
0
  6
CONTINUOUS
 62
     0
100
AcDbCircle
 10
0.0
 20
0.0
 30
0.0
 40
0.5
  0
ENDBLK
  5
92
330
90
100
AcDbEntity
  8
0
100
AcDbBlockEnd
  0
BLOCK
  5
94
330
93
100
AcDbEntity
  8
0
100
AcDbBlockBegin
  2
EX_WCIR2
 70
     0
 10
0.0
 20
0.0
 30
0.0
  3
EX_WCIR2
  1

  0
LINE
  5
BC
330
93
100
AcDbEntity
  8
0
  6
CONTINUOUS
 62
     0
100
AcDbLine
 10
-0.5
 20
0.0
 30
0.0
 11
-1.0
 21
0.0
 31
0.0
  0
CIRCLE
  5
BD
330
93
100
AcDbEntity
  8
0
  6
CONTINUOUS
 62
     0
100
AcDbCircle
 10
0.0
 20
0.0
 30
0.0
 40
0.5
  0
ENDBLK
  5
95
330
93
100
AcDbEntity
  8
0
100
AcDbBlockEnd
  0
BLOCK
  5
97
330
96
100
AcDbEntity
  8
0
100
AcDbBlockBegin
  2
EX_WNORM
 70
     0
 10
0.0
 20
0.0
 30
0.0
  3
EX_WNORM
  1

  0
LINE
  5
BE
330
96
100
AcDbEntity
  8
0
  6
CONTINUOUS
 62
     0
100
AcDbLine
 10
-1.0
 20
0.0
 30
0.0
 11
-1.0
 21
0.0
 31
0.0
  0
LINE
  5
BF
330
96
100
AcDbEntity
  8
0
  6
CONTINUOUS
 62
     0
100
AcDbLine
 10
0.0
 20
0.0
 30
0.0
 11
-1.0
 21
0.166666667
 31
0.0
  0
LINE
  5
C0
330
96
100
AcDbEntity
  8
0
  6
CONTINUOUS
 62
     0
100
AcDbLine
 10
0.0
 20
0.0
 30
0.0
 11
-1.0
 21
-0.166666667
 31
0.0
  0
LINE
  5
C1
330
96
100
AcDbEntity
  8
0
  6
CONTINUOUS
 62
     0
100
AcDbLine
 10
-1.0
 20
0.166666667
 30
0.0
 11
-1.0
 21
-0.166666667
 31
0.0
  0
ENDBLK
  5
98
330
96
100
AcDbEntity
  8
0
100
AcDbBlockEnd
  0
BLOCK
  5
9A
330
99
100
AcDbEntity
  8
0
100
AcDbBlockBegin
  2
EX_NNORM
 70
     0
 10
0.0
 20
0.0
 30
0.0
  3
EX_NNORM
  1

  0
LINE
  5
C2
330
99
100
AcDbEntity
  8
0
  6
CONTINUOUS
 62
     0
100
AcDbLine
 10
0.0
 20
0.0
 30
0.0
 11
-1.0
 21
0.0
 31
0.0
  0
LINE
  5
C3
330
99
100
AcDbEntity
  8
0
  6
CONTINUOUS
 62
     0
100
AcDbLine
 10
0.0
 20
0.0
 30
0.0
 11
-1.0
 21
0.166666667
 31
0.0
  0
LINE
  5
C4
330
99
100
AcDbEntity
  8
0
  6
CONTINUOUS
 62
     0
100
AcDbLine
 10
0.0
 20
0.0
 30
0.0
 11
-1.0
 21
-0.166666667
 31
0.0
  0
LINE
  5
C5
330
99
100
AcDbEntity
  8
0
  6
CONTINUOUS
 62
     0
100
AcDbLine
 10
-1.0
 20
0.166666667
 30
0.0
 11
-1.0
 21
-0.166666667
 31
0.0
  0
ENDBLK
  5
9B
330
99
100
AcDbEntity
  8
0
100
AcDbBlockEnd
  0
BLOCK
  5
9D
330
9C
100
AcDbEntity
  8
0
100
AcDbBlockBegin
  2
EX_BBOX
 70
     0
 10
0.0
 20
0.0
 30
0.0
  3
EX_BBOX
  1

  0
LINE
  5
C6
330
9C
100
AcDbEntity
  8
0
  6
CONTINUOUS
 62
     0
100
AcDbLine
 10
0.0
 20
0.0
 30
0.0
 11
-1.0
 21
0.0
 31
0.0
  0
LINE
  5
C7
330
9C
100
AcDbEntity
  8
0
  6
CONTINUOUS
 62
     0
100
AcDbLine
 10
-0.5
 20
0.5
 30
0.0
 11
0.5
 21
0.5
 31
0.0
  0
LINE
  5
C8
330
9C
100
AcDbEntity
  8
0
  6
CONTINUOUS
 62
     0
100
AcDbLine
 10
0.5
 20
0.5
 30
0.0
 11
0.5
 21
-0.5
 31
0.0
  0
LINE
  5
C9
330
9C
100
AcDbEntity
  8
0
  6
CONTINUOUS
 62
     0
100
AcDbLine
 10
0.5
 20
-0.5
 30
0.0
 11
-0.5
 21
-0.5
 31
0.0
  0
LINE
  5
CA
330
9C
100
AcDbEntity
  8
0
  6
CONTINUOUS
 62
     0
100
AcDbLine
 10
-0.5
 20
-0.5
 30
0.0
 11
-0.5
 21
0.5
 31
0.0
  0
LINE
  5
CB
330
9C
100
AcDbEntity
  8
0
  6
CONTINUOUS
 62
     0
100
AcDbLine
 10
-0.25
 20
0.25
 30
0.0
 11
0.25
 21
0.25
 31
0.0
  0
LINE
  5
CC
330
9C
100
AcDbEntity
  8
0
  6
CONTINUOUS
 62
     0
100
AcDbLine
 10
0.25
 20
0.25
 30
0.0
 11
0.25
 21
-0.25
 31
0.0
  0
LINE
  5
CD
330
9C
100
AcDbEntity
  8
0
  6
CONTINUOUS
 62
     0
100
AcDbLine
 10
0.25
 20
-0.25
 30
0.0
 11
-0.25
 21
-0.25
 31
0.0
  0
LINE
  5
CE
330
9C
100
AcDbEntity
  8
0
  6
CONTINUOUS
 62
     0
100
AcDbLine
 10
-0.25
 20
-0.25
 30
0.0
 11
-0.25
 21
0.25
 31
0.0
  0
ENDBLK
  5
9E
330
9C
100
AcDbEntity
  8
0
100
AcDbBlockEnd
  0
BLOCK
  5
A0
330
9F
100
AcDbEntity
  8
0
100
AcDbBlockBegin
  2
EX_WBOX
 70
     0
 10
0.0
 20
0.0
 30
0.0
  3
EX_WBOX
  1

  0
LINE
  5
CF
330
9F
100
AcDbEntity
  8
0
  6
CONTINUOUS
 62
     0
100
AcDbLine
 10
-0.5
 20
0.0
 30
0.0
 11
-1.0
 21
0.0
 31
0.0
  0
LINE
  5
D0
330
9F
100
AcDbEntity
  8
0
  6
CONTINUOUS
 62
     0
100
AcDbLine
 10
-0.5
 20
0.5
 30
0.0
 11
0.5
 21
0.5
 31
0.0
  0
LINE
  5
D1
330
9F
100
AcDbEntity
  8
0
  6
CONTINUOUS
 62
     0
100
AcDbLine
 10
0.5
 20
0.5
 30
0.0
 11
0.5
 21
-0.5
 31
0.0
  0
LINE
  5
D2
330
9F
100
AcDbEntity
  8
0
  6
CONTINUOUS
 62
     0
100
AcDbLine
 10
0.5
 20
-0.5
 30
0.0
 11
-0.5
 21
-0.5
 31
0.0
  0
LINE
  5
D3
330
9F
100
AcDbEntity
  8
0
  6
CONTINUOUS
 62
     0
100
AcDbLine
 10
-0.5
 20
-0.5
 30
0.0
 11
-0.5
 21
0.5
 31
0.0
  0
ENDBLK
  5
A1
330
9F
100
AcDbEntity
  8
0
100
AcDbBlockEnd
  0
BLOCK
  5
A3
330
A2
100
AcDbEntity
  8
0
100
AcDbBlockBegin
  2
EX_INTEGRAL
 70
     0
 10
0.0
 20
0.0
 30
0.0
  3
EX_INTEGRAL
  1

  0
LINE
  5
D4
330
A2
100
AcDbEntity
  8
0
  6
CONTINUOUS
 62
     0
100
AcDbLine
 10
0.0
 20
0.0
 30
0.0
 11
-1.0
 21
0.0
 31
0.0
  0
ARC
  5
D5
330
A2
100
AcDbEntity
  8
0
  6
CONTINUOUS
 62
     0
100
AcDbCircle
 10
0.542115
 20
0.164992
 30
0.0
 40
0.56667
100
AcDbArc
 50
73.07249033629006
 51
196.9275130221199
  0
ARC
  5
D6
330
A2
100
AcDbEntity
  8
0
  6
CONTINUOUS
 62
     0
100
AcDbCircle
 10
-0.542115
 20
-0.164992
 30
0.0
 40
0.56667
100
AcDbArc
 50
253.0724869220464
 51
16.9275130559125
  0
ENDBLK
  5
A4
330
A2
100
AcDbEntity
  8
0
100
AcDbBlockEnd
  0
BLOCK
  5
112
330
111
100
AcDbEntity
  8
0
100
AcDbBlockBegin
  2
*D15
 70
     1
 10
0.0
 20
0.0
 30
0.0
  3
*D15
  1

  0
LINE
  5
114
330
111
100
AcDbEntity
  8
Ｓ_１_１
  6
CONTINUOUS
 62
     2
100
AcDbLine
 10
544.3124831942
 20
1055.0000009686
 30
0.0
 11
474.0
 21
1055.0000009686
 31
0.0
  0
LINE
  5
115
330
111
100
AcDbEntity
  8
Ｓ_１_１
  6
CONTINUOUS
 62
     2
100
AcDbLine
 10
545.3124831942
 20
1184.9999990314
 30
0.0
 11
474.0
 21
1184.9999990314
 31
0.0
  0
LINE
  5
116
330
111
100
AcDbEntity
  8
Ｓ_１_１
  6
CONTINUOUS
 62
     2
100
AcDbLine
 10
480.0
 20
1073.0000009686
 30
0.0
 11
480.0
 21
1166.9999990314
 31
0.0
  0
INSERT
  5
117
330
111
100
AcDbEntity
  8
Ｓ_１_１
 62
     2
100
AcDbBlockReference
  2
EX_NORM
 10
480.0
 20
1055.0000009686
 30
0.0
 41
18.0
 42
18.0
 43
18.0
 50
270.0
  0
INSERT
  5
118
330
111
100
AcDbEntity
  8
Ｓ_１_１
 62
     2
100
AcDbBlockReference
  2
EX_NORM
 10
480.0
 20
1184.9999990314
 30
0.0
 41
18.0
 42
18.0
 43
18.0
 50
90.0
  0
MTEXT
  5
119
330
111
100
AcDbEntity
  8
Ｓ_１_１
 62
     2
100
AcDbMText
 10
463.5000000000001
 20
1120.0
 30
0.0
 40
20.77742494226328
 41
0.0
 71
     5
 72
     1
  1
130
  7
EXCADDIM1
 11
0.0
 21
1.0
 31
0.0
  0
POINT
  5
11A
330
111
100
AcDbEntity
  8
DEFPOINTS
 62
     0
100
AcDbPoint
 10
553.3124831942
 20
1055.0000009686
 30
0.0
  0
POINT
  5
11B
330
111
100
AcDbEntity
  8
DEFPOINTS
 62
     0
100
AcDbPoint
 10
554.3124831942
 20
1184.9999990314
 30
0.0
  0
POINT
  5
11C
330
111
100
AcDbEntity
  8
DEFPOINTS
 62
     0
100
AcDbPoint
 10
480.0
 20
1184.9999990314
 30
0.0
  0
ENDBLK
  5
113
330
111
100
AcDbEntity
  8
0
100
AcDbBlockEnd
  0
BLOCK
  5
11F
330
11E
100
AcDbEntity
  8
0
100
AcDbBlockBegin
  2
*D16
 70
     1
 10
0.0
 20
0.0
 30
0.0
  3
*D16
  1

  0
LINE
  5
121
330
11E
100
AcDbEntity
  8
Ｓ_１_１
  6
CONTINUOUS
 62
     2
100
AcDbLine
 10
545.3124831942
 20
1184.9999990314
 30
0.0
 11
474.0
 21
1184.9999990314
 31
0.0
  0
LINE
  5
122
330
11E
100
AcDbEntity
  8
Ｓ_１_１
  6
CONTINUOUS
 62
     2
100
AcDbLine
 10
856.00000678
 20
1259.9999979138
 30
0.0
 11
474.0
 21
1259.9999979138
 31
0.0
  0
LINE
  5
123
330
11E
100
AcDbEntity
  8
Ｓ_１_１
  6
CONTINUOUS
 62
     2
100
AcDbLine
 10
480.0
 20
1202.9999990314
 30
0.0
 11
480.0
 21
1241.9999979138
 31
0.0
  0
INSERT
  5
124
330
11E
100
AcDbEntity
  8
Ｓ_１_１
 62
     2
100
AcDbBlockReference
  2
EX_NORM
 10
480.0
 20
1184.9999990314
 30
0.0
 41
18.0
 42
18.0
 43
18.0
 50
270.0
  0
INSERT
  5
125
330
11E
100
AcDbEntity
  8
Ｓ_１_１
 62
     2
100
AcDbBlockReference
  2
EX_NORM
 10
480.0
 20
1259.9999979138
 30
0.0
 41
18.0
 42
18.0
 43
18.0
 50
90.0
  0
MTEXT
  5
126
330
11E
100
AcDbEntity
  8
Ｓ_１_１
 62
     2
100
AcDbMText
 10
463.5000000000001
 20
1222.4999984726
 30
0.0
 40
20.77742494226328
 41
0.0
 71
     5
 72
     1
  1
75
  7
EXCADDIM1
 11
0.0
 21
1.0
 31
0.0
  0
POINT
  5
127
330
11E
100
AcDbEntity
  8
DEFPOINTS
 62
     0
100
AcDbPoint
 10
554.3124831942
 20
1184.9999990314
 30
0.0
  0
POINT
  5
128
330
11E
100
AcDbEntity
  8
DEFPOINTS
 62
     0
100
AcDbPoint
 10
865.00000678
 20
1259.9999979138
 30
0.0
  0
POINT
  5
129
330
11E
100
AcDbEntity
  8
DEFPOINTS
 62
     0
100
AcDbPoint
 10
480.0
 20
1259.9999979138
 30
0.0
  0
ENDBLK
  5
120
330
11E
100
AcDbEntity
  8
0
100
AcDbBlockEnd
  0
BLOCK
  5
12C
330
12B
100
AcDbEntity
  8
0
100
AcDbBlockBegin
  2
*D17
 70
     1
 10
0.0
 20
0.0
 30
0.0
  3
*D17
  1

  0
LINE
  5
12E
330
12B
100
AcDbEntity
  8
Ｓ_１_１
  6
CONTINUOUS
 62
     2
100
AcDbLine
 10
544.3124831942
 20
1055.0000009686
 30
0.0
 11
474.0
 21
1055.0000009686
 31
0.0
  0
LINE
  5
12F
330
12B
100
AcDbEntity
  8
Ｓ_１_１
  6
CONTINUOUS
 62
     2
100
AcDbLine
 10
856.00000678
 20
980.0000020861299
 30
0.0
 11
474.0
 21
980.0000020861299
 31
0.0
  0
LINE
  5
130
330
12B
100
AcDbEntity
  8
Ｓ_１_１
  6
CONTINUOUS
 62
     2
100
AcDbLine
 10
480.0
 20
1037.0000009686
 30
0.0
 11
480.0
 21
998.0000020861299
 31
0.0
  0
INSERT
  5
131
330
12B
100
AcDbEntity
  8
Ｓ_１_１
 62
     2
100
AcDbBlockReference
  2
EX_NORM
 10
480.0
 20
1055.0000009686
 30
0.0
 41
18.0
 42
18.0
 43
18.0
 50
90.0
  0
INSERT
  5
132
330
12B
100
AcDbEntity
  8
Ｓ_１_１
 62
     2
100
AcDbBlockReference
  2
EX_NORM
 10
480.0
 20
980.0000020861299
 30
0.0
 41
18.0
 42
18.0
 43
18.0
 50
270.0
  0
MTEXT
  5
133
330
12B
100
AcDbEntity
  8
Ｓ_１_１
 62
     2
100
AcDbMText
 10
463.5000000000001
 20
1017.500001527365
 30
0.0
 40
20.77742494226328
 41
0.0
 71
     5
 72
     1
  1
75
  7
EXCADDIM1
 11
0.0
 21
1.0
 31
0.0
  0
POINT
  5
134
330
12B
100
AcDbEntity
  8
DEFPOINTS
 62
     0
100
AcDbPoint
 10
553.3124831942
 20
1055.0000009686
 30
0.0
  0
POINT
  5
135
330
12B
100
AcDbEntity
  8
DEFPOINTS
 62
     0
100
AcDbPoint
 10
865.00000678
 20
980.0000020861299
 30
0.0
  0
POINT
  5
136
330
12B
100
AcDbEntity
  8
DEFPOINTS
 62
     0
100
AcDbPoint
 10
480.0
 20
980.0000020861299
 30
0.0
  0
ENDBLK
  5
12D
330
12B
100
AcDbEntity
  8
0
100
AcDbBlockEnd
  0
BLOCK
  5
139
330
138
100
AcDbEntity
  8
0
100
AcDbBlockBegin
  2
*D18
 70
     1
 10
0.0
 20
0.0
 30
0.0
  3
*D18
  1

  0
LINE
  5
13B
330
138
100
AcDbEntity
  8
Ｓ_１_１
  6
CONTINUOUS
 62
     2
100
AcDbLine
 10
856.00000678
 20
1259.99999791383
 30
0.0
 11
434.0
 21
1259.99999791383
 31
0.0
  0
LINE
  5
13C
330
138
100
AcDbEntity
  8
Ｓ_１_１
  6
CONTINUOUS
 62
     2
100
AcDbLine
 10
856.00000678
 20
980.0000020861299
 30
0.0
 11
434.0
 21
980.0000020861299
 31
0.0
  0
LINE
  5
13D
330
138
100
AcDbEntity
  8
Ｓ_１_１
  6
CONTINUOUS
 62
     2
100
AcDbLine
 10
440.0
 20
1241.99999791383
 30
0.0
 11
440.0
 21
998.0000020861299
 31
0.0
  0
INSERT
  5
13E
330
138
100
AcDbEntity
  8
Ｓ_１_１
 62
     2
100
AcDbBlockReference
  2
EX_NORM
 10
440.0
 20
1259.99999791383
 30
0.0
 41
18.0
 42
18.0
 43
18.0
 50
90.0
  0
INSERT
  5
13F
330
138
100
AcDbEntity
  8
Ｓ_１_１
 62
     2
100
AcDbBlockReference
  2
EX_NORM
 10
440.0
 20
980.0000020861299
 30
0.0
 41
18.0
 42
18.0
 43
18.0
 50
270.0
  0
MTEXT
  5
140
330
138
100
AcDbEntity
  8
Ｓ_１_１
 62
     2
100
AcDbMText
 10
423.5000000000001
 20
1119.99999999998
 30
0.0
 40
20.77742494226328
 41
0.0
 71
     5
 72
     1
  1
280
  7
EXCADDIM1
 11
0.0
 21
1.0
 31
0.0
  0
POINT
  5
141
330
138
100
AcDbEntity
  8
DEFPOINTS
 62
     0
100
AcDbPoint
 10
865.00000678
 20
1259.99999791383
 30
0.0
  0
POINT
  5
142
330
138
100
AcDbEntity
  8
DEFPOINTS
 62
     0
100
AcDbPoint
 10
865.00000678
 20
980.0000020861299
 30
0.0
  0
POINT
  5
143
330
138
100
AcDbEntity
  8
DEFPOINTS
 62
     0
100
AcDbPoint
 10
440.0
 20
980.0000020861299
 30
0.0
  0
ENDBLK
  5
13A
330
138
100
AcDbEntity
  8
0
100
AcDbBlockEnd
  0
BLOCK
  5
146
330
145
100
AcDbEntity
  8
0
100
AcDbBlockBegin
  2
*D19
 70
     1
 10
0.0
 20
0.0
 30
0.0
  3
*D19
  1

  0
LINE
  5
148
330
145
100
AcDbEntity
  8
Ｓ_１_１
  6
CONTINUOUS
 62
     2
100
AcDbLine
 10
865.00000678
 20
1268.99999791383
 30
0.0
 11
865.00000678
 21
1406.0
 31
0.0
  0
LINE
  5
149
330
145
100
AcDbEntity
  8
Ｓ_１_１
  6
CONTINUOUS
 62
     2
100
AcDbLine
 10
1235.0000012666
 20
1268.99999791383
 30
0.0
 11
1235.0000012666
 21
1406.0
 31
0.0
  0
LINE
  5
14A
330
145
100
AcDbEntity
  8
Ｓ_１_１
  6
CONTINUOUS
 62
     2
100
AcDbLine
 10
883.00000678
 20
1400.0
 30
0.0
 11
1217.0000012666
 21
1400.0
 31
0.0
  0
INSERT
  5
14B
330
145
100
AcDbEntity
  8
Ｓ_１_１
 62
     2
100
AcDbBlockReference
  2
EX_NORM
 10
865.00000678
 20
1400.0
 30
0.0
 41
18.0
 42
18.0
 43
18.0
 50
180.0
  0
INSERT
  5
14C
330
145
100
AcDbEntity
  8
Ｓ_１_１
 62
     2
100
AcDbBlockReference
  2
EX_NORM
 10
1235.0000012666
 20
1400.0
 30
0.0
 41
18.0
 42
18.0
 43
18.0
  0
MTEXT
  5
14D
330
145
100
AcDbEntity
  8
Ｓ_１_１
 62
     2
100
AcDbMText
 10
1050.000004023301
 20
1416.5
 30
0.0
 40
20.77742494226328
 41
0.0
 71
     5
 72
     1
  1
370
  7
EXCADDIM1
  0
POINT
  5
14E
330
145
100
AcDbEntity
  8
DEFPOINTS
 62
     0
100
AcDbPoint
 10
865.00000678
 20
1259.99999791383
 30
0.0
  0
POINT
  5
14F
330
145
100
AcDbEntity
  8
DEFPOINTS
 62
     0
100
AcDbPoint
 10
1235.0000012666
 20
1259.99999791383
 30
0.0
  0
POINT
  5
150
330
145
100
AcDbEntity
  8
DEFPOINTS
 62
     0
100
AcDbPoint
 10
1235.0000012666
 20
1400.0
 30
0.0
  0
ENDBLK
  5
147
330
145
100
AcDbEntity
  8
0
100
AcDbBlockEnd
  0
BLOCK
  5
153
330
152
100
AcDbEntity
  8
0
100
AcDbBlockBegin
  2
*D20
 70
     1
 10
0.0
 20
0.0
 30
0.0
  3
*D20
  1

  0
LINE
  5
155
330
152
100
AcDbEntity
  8
Ｓ_１_１
  6
CONTINUOUS
 62
     2
100
AcDbLine
 10
543.5684471045001
 20
415.00000096865
 30
0.0
 11
474.0
 21
415.0000009686501
 31
0.0
  0
LINE
  5
156
330
152
100
AcDbEntity
  8
Ｓ_１_１
  6
CONTINUOUS
 62
     2
100
AcDbLine
 10
544.4434242032999
 20
544.99999903145
 30
0.0
 11
474.0
 21
544.99999903145
 31
0.0
  0
LINE
  5
157
330
152
100
AcDbEntity
  8
Ｓ_１_１
  6
CONTINUOUS
 62
     2
100
AcDbLine
 10
480.0
 20
433.0000009686501
 30
0.0
 11
480.0
 21
526.99999903145
 31
0.0
  0
INSERT
  5
158
330
152
100
AcDbEntity
  8
Ｓ_１_１
 62
     2
100
AcDbBlockReference
  2
EX_NORM
 10
480.0
 20
415.0000009686501
 30
0.0
 41
18.0
 42
18.0
 43
18.0
 50
270.0
  0
INSERT
  5
159
330
152
100
AcDbEntity
  8
Ｓ_１_１
 62
     2
100
AcDbBlockReference
  2
EX_NORM
 10
480.0
 20
544.99999903145
 30
0.0
 41
18.0
 42
18.0
 43
18.0
 50
90.0
  0
MTEXT
  5
15A
330
152
100
AcDbEntity
  8
Ｓ_１_１
 62
     2
100
AcDbMText
 10
463.5
 20
480.00000000005
 30
0.0
 40
20.77742494226328
 41
0.0
 71
     5
 72
     1
  1
130
  7
EXCADDIM1
 11
0.0
 21
1.0
 31
0.0
  0
POINT
  5
15B
330
152
100
AcDbEntity
  8
DEFPOINTS
 62
     0
100
AcDbPoint
 10
552.5684471045001
 20
415.00000096865
 30
0.0
  0
POINT
  5
15C
330
152
100
AcDbEntity
  8
DEFPOINTS
 62
     0
100
AcDbPoint
 10
553.4434242032999
 20
544.99999903145
 30
0.0
  0
POINT
  5
15D
330
152
100
AcDbEntity
  8
DEFPOINTS
 62
     0
100
AcDbPoint
 10
480.0
 20
544.99999903145
 30
0.0
  0
ENDBLK
  5
154
330
152
100
AcDbEntity
  8
0
100
AcDbBlockEnd
  0
BLOCK
  5
160
330
15F
100
AcDbEntity
  8
0
100
AcDbBlockBegin
  2
*D21
 70
     1
 10
0.0
 20
0.0
 30
0.0
  3
*D21
  1

  0
LINE
  5
162
330
15F
100
AcDbEntity
  8
Ｓ_１_１
  6
CONTINUOUS
 62
     2
100
AcDbLine
 10
550.5000571087
 20
544.99999903145
 30
0.0
 11
474.0
 21
544.99999903145
 31
0.0
  0
LINE
  5
163
330
15F
100
AcDbEntity
  8
Ｓ_１_１
  6
CONTINUOUS
 62
     2
100
AcDbLine
 10
835.4999765678999
 20
619.99999791385
 30
0.0
 11
474.0
 21
619.99999791385
 31
0.0
  0
LINE
  5
164
330
15F
100
AcDbEntity
  8
Ｓ_１_１
  6
CONTINUOUS
 62
     2
100
AcDbLine
 10
480.0
 20
562.99999903145
 30
0.0
 11
480.0
 21
601.99999791385
 31
0.0
  0
INSERT
  5
165
330
15F
100
AcDbEntity
  8
Ｓ_１_１
 62
     2
100
AcDbBlockReference
  2
EX_NORM
 10
480.0
 20
544.99999903145
 30
0.0
 41
18.0
 42
18.0
 43
18.0
 50
270.0
  0
INSERT
  5
166
330
15F
100
AcDbEntity
  8
Ｓ_１_１
 62
     2
100
AcDbBlockReference
  2
EX_NORM
 10
480.0
 20
619.99999791385
 30
0.0
 41
18.0
 42
18.0
 43
18.0
 50
90.0
  0
MTEXT
  5
167
330
15F
100
AcDbEntity
  8
Ｓ_１_１
 62
     2
100
AcDbMText
 10
463.5
 20
582.4999984726501
 30
0.0
 40
20.77742494226328
 41
0.0
 71
     5
 72
     1
  1
75
  7
EXCADDIM1
 11
0.0
 21
1.0
 31
0.0
  0
POINT
  5
168
330
15F
100
AcDbEntity
  8
DEFPOINTS
 62
     0
100
AcDbPoint
 10
559.5000571087
 20
544.99999903145
 30
0.0
  0
POINT
  5
169
330
15F
100
AcDbEntity
  8
DEFPOINTS
 62
     0
100
AcDbPoint
 10
844.4999765678999
 20
619.99999791385
 30
0.0
  0
POINT
  5
16A
330
15F
100
AcDbEntity
  8
DEFPOINTS
 62
     0
100
AcDbPoint
 10
480.0
 20
619.99999791385
 30
0.0
  0
ENDBLK
  5
161
330
15F
100
AcDbEntity
  8
0
100
AcDbBlockEnd
  0
BLOCK
  5
16D
330
16C
100
AcDbEntity
  8
0
100
AcDbBlockBegin
  2
*D22
 70
     1
 10
0.0
 20
0.0
 30
0.0
  3
*D22
  1

  0
LINE
  5
16F
330
16C
100
AcDbEntity
  8
Ｓ_１_１
  6
CONTINUOUS
 62
     2
100
AcDbLine
 10
534.5684471045001
 20
415.00000096865
 30
0.0
 11
474.0
 21
415.00000096865
 31
0.0
  0
LINE
  5
170
330
16C
100
AcDbEntity
  8
Ｓ_１_１
  6
CONTINUOUS
 62
     2
100
AcDbLine
 10
856.00000678
 20
340.00000208615
 30
0.0
 11
474.0
 21
340.00000208615
 31
0.0
  0
LINE
  5
171
330
16C
100
AcDbEntity
  8
Ｓ_１_１
  6
CONTINUOUS
 62
     2
100
AcDbLine
 10
480.0
 20
397.00000096865
 30
0.0
 11
480.0
 21
358.00000208615
 31
0.0
  0
INSERT
  5
172
330
16C
100
AcDbEntity
  8
Ｓ_１_１
 62
     2
100
AcDbBlockReference
  2
EX_NORM
 10
480.0
 20
415.00000096865
 30
0.0
 41
18.0
 42
18.0
 43
18.0
 50
90.0
  0
INSERT
  5
173
330
16C
100
AcDbEntity
  8
Ｓ_１_１
 62
     2
100
AcDbBlockReference
  2
EX_NORM
 10
480.0
 20
340.00000208615
 30
0.0
 41
18.0
 42
18.0
 43
18.0
 50
270.0
  0
MTEXT
  5
174
330
16C
100
AcDbEntity
  8
Ｓ_１_１
 62
     2
100
AcDbMText
 10
463.5
 20
377.5000015274
 30
0.0
 40
20.77742494226328
 41
0.0
 71
     5
 72
     1
  1
75
  7
EXCADDIM1
 11
0.0
 21
1.0
 31
0.0
  0
POINT
  5
175
330
16C
100
AcDbEntity
  8
DEFPOINTS
 62
     0
100
AcDbPoint
 10
543.5684471045001
 20
415.00000096865
 30
0.0
  0
POINT
  5
176
330
16C
100
AcDbEntity
  8
DEFPOINTS
 62
     0
100
AcDbPoint
 10
865.00000678
 20
340.00000208615
 30
0.0
  0
POINT
  5
177
330
16C
100
AcDbEntity
  8
DEFPOINTS
 62
     0
100
AcDbPoint
 10
480.0
 20
340.00000208615
 30
0.0
  0
ENDBLK
  5
16E
330
16C
100
AcDbEntity
  8
0
100
AcDbBlockEnd
  0
BLOCK
  5
17A
330
179
100
AcDbEntity
  8
0
100
AcDbBlockBegin
  2
*D23
 70
     1
 10
0.0
 20
0.0
 30
0.0
  3
*D23
  1

  0
LINE
  5
17C
330
179
100
AcDbEntity
  8
Ｓ_１_１
  6
CONTINUOUS
 62
     2
100
AcDbLine
 10
856.00000678
 20
340.00000208615
 30
0.0
 11
434.0
 21
340.0000020861501
 31
0.0
  0
LINE
  5
17D
330
179
100
AcDbEntity
  8
Ｓ_１_１
  6
CONTINUOUS
 62
     2
100
AcDbLine
 10
835.4999765678999
 20
619.99999791385
 30
0.0
 11
434.0
 21
619.99999791385
 31
0.0
  0
LINE
  5
17E
330
179
100
AcDbEntity
  8
Ｓ_１_１
  6
CONTINUOUS
 62
     2
100
AcDbLine
 10
440.0
 20
358.0000020861501
 30
0.0
 11
440.0
 21
601.99999791385
 31
0.0
  0
INSERT
  5
17F
330
179
100
AcDbEntity
  8
Ｓ_１_１
 62
     2
100
AcDbBlockReference
  2
EX_NORM
 10
440.0
 20
340.0000020861501
 30
0.0
 41
18.0
 42
18.0
 43
18.0
 50
270.0
  0
INSERT
  5
180
330
179
100
AcDbEntity
  8
Ｓ_１_１
 62
     2
100
AcDbBlockReference
  2
EX_NORM
 10
440.0
 20
619.99999791385
 30
0.0
 41
18.0
 42
18.0
 43
18.0
 50
90.0
  0
MTEXT
  5
181
330
179
100
AcDbEntity
  8
Ｓ_１_１
 62
     2
100
AcDbMText
 10
423.5
 20
480.0
 30
0.0
 40
20.77742494226328
 41
0.0
 71
     5
 72
     1
  1
280
  7
EXCADDIM1
 11
0.0
 21
1.0
 31
0.0
  0
POINT
  5
182
330
179
100
AcDbEntity
  8
DEFPOINTS
 62
     0
100
AcDbPoint
 10
865.00000678
 20
340.00000208615
 30
0.0
  0
POINT
  5
183
330
179
100
AcDbEntity
  8
DEFPOINTS
 62
     0
100
AcDbPoint
 10
844.4999765678999
 20
619.99999791385
 30
0.0
  0
POINT
  5
184
330
179
100
AcDbEntity
  8
DEFPOINTS
 62
     0
100
AcDbPoint
 10
440.0
 20
619.99999791385
 30
0.0
  0
ENDBLK
  5
17B
330
179
100
AcDbEntity
  8
0
100
AcDbBlockEnd
  0
BLOCK
  5
187
330
186
100
AcDbEntity
  8
0
100
AcDbBlockBegin
  2
*D24
 70
     1
 10
0.0
 20
0.0
 30
0.0
  3
*D24
  1

  0
LINE
  5
189
330
186
100
AcDbEntity
  8
Ｓ_１_１
  6
CONTINUOUS
 62
     2
100
AcDbLine
 10
865.00000678
 20
645.00000149015
 30
0.0
 11
865.00000678
 21
766.0
 31
0.0
  0
LINE
  5
18A
330
186
100
AcDbEntity
  8
Ｓ_１_１
  6
CONTINUOUS
 62
     2
100
AcDbLine
 10
1235.0000012666
 20
645.00000149015
 30
0.0
 11
1235.0000012666
 21
766.0
 31
0.0
  0
LINE
  5
18B
330
186
100
AcDbEntity
  8
Ｓ_１_１
  6
CONTINUOUS
 62
     2
100
AcDbLine
 10
883.00000678
 20
760.0
 30
0.0
 11
1217.0000012666
 21
760.0
 31
0.0
  0
INSERT
  5
18C
330
186
100
AcDbEntity
  8
Ｓ_１_１
 62
     2
100
AcDbBlockReference
  2
EX_NORM
 10
865.00000678
 20
760.0
 30
0.0
 41
18.0
 42
18.0
 43
18.0
 50
180.0
  0
INSERT
  5
18D
330
186
100
AcDbEntity
  8
Ｓ_１_１
 62
     2
100
AcDbBlockReference
  2
EX_NORM
 10
1235.0000012666
 20
760.0
 30
0.0
 41
18.0
 42
18.0
 43
18.0
  0
MTEXT
  5
18E
330
186
100
AcDbEntity
  8
Ｓ_１_１
 62
     2
100
AcDbMText
 10
1050.0000040233
 20
776.5
 30
0.0
 40
20.77742494226328
 41
0.0
 71
     5
 72
     1
  1
370
  7
EXCADDIM1
  0
POINT
  5
18F
330
186
100
AcDbEntity
  8
DEFPOINTS
 62
     0
100
AcDbPoint
 10
865.00000678
 20
636.00000149015
 30
0.0
  0
POINT
  5
190
330
186
100
AcDbEntity
  8
DEFPOINTS
 62
     0
100
AcDbPoint
 10
1235.0000012666
 20
636.00000149015
 30
0.0
  0
POINT
  5
191
330
186
100
AcDbEntity
  8
DEFPOINTS
 62
     0
100
AcDbPoint
 10
1235.0000012666
 20
760.0
 30
0.0
  0
ENDBLK
  5
188
330
186
100
AcDbEntity
  8
0
100
AcDbBlockEnd
  0
BLOCK
  5
194
330
193
100
AcDbEntity
  8
0
100
AcDbBlockBegin
  2
*D25
 70
     1
 10
0.0
 20
0.0
 30
0.0
  3
*D25
  1

  0
LINE
  5
196
330
193
100
AcDbEntity
  8
Ｓ_１_１
  6
CONTINUOUS
 62
     2
100
AcDbLine
 10
865.00000678
 20
1268.9999979138
 30
0.0
 11
865.00000678
 21
1366.0
 31
0.0
  0
LINE
  5
197
330
193
100
AcDbEntity
  8
Ｓ_１_１
  6
CONTINUOUS
 62
     2
100
AcDbLine
 10
942.9999598413
 20
1211.4999990314
 30
0.0
 11
942.9999598413
 21
1366.0
 31
0.0
  0
LINE
  5
198
330
193
100
AcDbEntity
  8
Ｓ_１_１
  6
CONTINUOUS
 62
     2
100
AcDbLine
 10
883.00000678
 20
1360.0
 30
0.0
 11
924.9999598413
 21
1360.0
 31
0.0
  0
INSERT
  5
199
330
193
100
AcDbEntity
  8
Ｓ_１_１
 62
     2
100
AcDbBlockReference
  2
EX_NORM
 10
865.00000678
 20
1360.0
 30
0.0
 41
18.0
 42
18.0
 43
18.0
 50
180.0
  0
INSERT
  5
19A
330
193
100
AcDbEntity
  8
Ｓ_１_１
 62
     2
100
AcDbBlockReference
  2
EX_NORM
 10
942.9999598413
 20
1360.0
 30
0.0
 41
18.0
 42
18.0
 43
18.0
  0
MTEXT
  5
19B
330
193
100
AcDbEntity
  8
Ｓ_１_１
 62
     2
100
AcDbMText
 10
903.99998331065
 20
1376.5
 30
0.0
 40
20.77742494226328
 41
0.0
 71
     5
 72
     1
  1
78
  7
EXCADDIM1
  0
POINT
  5
19C
330
193
100
AcDbEntity
  8
DEFPOINTS
 62
     0
100
AcDbPoint
 10
865.00000678
 20
1259.9999979138
 30
0.0
  0
POINT
  5
19D
330
193
100
AcDbEntity
  8
DEFPOINTS
 62
     0
100
AcDbPoint
 10
942.9999598413
 20
1202.4999990314
 30
0.0
  0
POINT
  5
19E
330
193
100
AcDbEntity
  8
DEFPOINTS
 62
     0
100
AcDbPoint
 10
942.9999598413
 20
1360.0
 30
0.0
  0
ENDBLK
  5
195
330
193
100
AcDbEntity
  8
0
100
AcDbBlockEnd
  0
BLOCK
  5
1A1
330
1A0
100
AcDbEntity
  8
0
100
AcDbBlockBegin
  2
*D26
 70
     1
 10
0.0
 20
0.0
 30
0.0
  3
*D26
  1

  0
LINE
  5
1A3
330
1A0
100
AcDbEntity
  8
Ｓ_１_１
  6
CONTINUOUS
 62
     2
100
AcDbLine
 10
942.9999598413
 20
1211.4999990314
 30
0.0
 11
942.9999598413
 21
1366.0
 31
0.0
  0
LINE
  5
1A4
330
1A0
100
AcDbEntity
  8
Ｓ_１_１
  6
CONTINUOUS
 62
     2
100
AcDbLine
 10
1156.9999719113
 20
1211.4999990314
 30
0.0
 11
1156.9999719113
 21
1366.0
 31
0.0
  0
LINE
  5
1A5
330
1A0
100
AcDbEntity
  8
Ｓ_１_１
  6
CONTINUOUS
 62
     2
100
AcDbLine
 10
960.9999598413
 20
1360.0
 30
0.0
 11
1138.9999719113
 21
1360.0
 31
0.0
  0
INSERT
  5
1A6
330
1A0
100
AcDbEntity
  8
Ｓ_１_１
 62
     2
100
AcDbBlockReference
  2
EX_NORM
 10
942.9999598413
 20
1360.0
 30
0.0
 41
18.0
 42
18.0
 43
18.0
 50
180.0
  0
INSERT
  5
1A7
330
1A0
100
AcDbEntity
  8
Ｓ_１_１
 62
     2
100
AcDbBlockReference
  2
EX_NORM
 10
1156.9999719113
 20
1360.0
 30
0.0
 41
18.0
 42
18.0
 43
18.0
  0
MTEXT
  5
1A8
330
1A0
100
AcDbEntity
  8
Ｓ_１_１
 62
     2
100
AcDbMText
 10
1049.9999658763
 20
1376.5
 30
0.0
 40
20.77742494226328
 41
0.0
 71
     5
 72
     1
  1
214
  7
EXCADDIM1
  0
POINT
  5
1A9
330
1A0
100
AcDbEntity
  8
DEFPOINTS
 62
     0
100
AcDbPoint
 10
942.9999598413
 20
1202.4999990314
 30
0.0
  0
POINT
  5
1AA
330
1A0
100
AcDbEntity
  8
DEFPOINTS
 62
     0
100
AcDbPoint
 10
1156.9999719113
 20
1202.4999990314
 30
0.0
  0
POINT
  5
1AB
330
1A0
100
AcDbEntity
  8
DEFPOINTS
 62
     0
100
AcDbPoint
 10
1156.9999719113
 20
1360.0
 30
0.0
  0
ENDBLK
  5
1A2
330
1A0
100
AcDbEntity
  8
0
100
AcDbBlockEnd
  0
BLOCK
  5
1AE
330
1AD
100
AcDbEntity
  8
0
100
AcDbBlockBegin
  2
*D27
 70
     1
 10
0.0
 20
0.0
 30
0.0
  3
*D27
  1

  0
LINE
  5
1B0
330
1AD
100
AcDbEntity
  8
Ｓ_１_１
  6
CONTINUOUS
 62
     2
100
AcDbLine
 10
1156.9999719113
 20
1211.4999990314
 30
0.0
 11
1156.9999719113
 21
1366.0
 31
0.0
  0
LINE
  5
1B1
330
1AD
100
AcDbEntity
  8
Ｓ_１_１
  6
CONTINUOUS
 62
     2
100
AcDbLine
 10
1235.0000012666
 20
1268.9999979138
 30
0.0
 11
1235.0000012666
 21
1366.0
 31
0.0
  0
LINE
  5
1B2
330
1AD
100
AcDbEntity
  8
Ｓ_１_１
  6
CONTINUOUS
 62
     2
100
AcDbLine
 10
1174.9999719113
 20
1360.0
 30
0.0
 11
1217.0000012666
 21
1360.0
 31
0.0
  0
INSERT
  5
1B3
330
1AD
100
AcDbEntity
  8
Ｓ_１_１
 62
     2
100
AcDbBlockReference
  2
EX_NORM
 10
1156.9999719113
 20
1360.0
 30
0.0
 41
18.0
 42
18.0
 43
18.0
 50
180.0
  0
INSERT
  5
1B4
330
1AD
100
AcDbEntity
  8
Ｓ_１_１
 62
     2
100
AcDbBlockReference
  2
EX_NORM
 10
1235.0000012666
 20
1360.0
 30
0.0
 41
18.0
 42
18.0
 43
18.0
  0
MTEXT
  5
1B5
330
1AD
100
AcDbEntity
  8
Ｓ_１_１
 62
     2
100
AcDbMText
 10
1195.99998658895
 20
1376.5
 30
0.0
 40
20.77742494226328
 41
0.0
 71
     5
 72
     1
  1
78
  7
EXCADDIM1
  0
POINT
  5
1B6
330
1AD
100
AcDbEntity
  8
DEFPOINTS
 62
     0
100
AcDbPoint
 10
1156.9999719113
 20
1202.4999990314
 30
0.0
  0
POINT
  5
1B7
330
1AD
100
AcDbEntity
  8
DEFPOINTS
 62
     0
100
AcDbPoint
 10
1235.0000012666
 20
1259.9999979138
 30
0.0
  0
POINT
  5
1B8
330
1AD
100
AcDbEntity
  8
DEFPOINTS
 62
     0
100
AcDbPoint
 10
1235.0000012666
 20
1360.0
 30
0.0
  0
ENDBLK
  5
1AF
330
1AD
100
AcDbEntity
  8
0
100
AcDbBlockEnd
  0
BLOCK
  5
1BB
330
1BA
100
AcDbEntity
  8
0
100
AcDbBlockBegin
  2
*D28
 70
     1
 10
0.0
 20
0.0
 30
0.0
  3
*D28
  1

  0
LINE
  5
1BD
330
1BA
100
AcDbEntity
  8
Ｓ_１_１
  6
CONTINUOUS
 62
     2
100
AcDbLine
 10
865.00000678
 20
645.00000149015
 30
0.0
 11
865.00000678
 21
725.9999999999999
 31
0.0
  0
LINE
  5
1BE
330
1BA
100
AcDbEntity
  8
Ｓ_１_１
  6
CONTINUOUS
 62
     2
100
AcDbLine
 10
930.0000058114
 20
601.49999850995
 30
0.0
 11
930.0000058114
 21
725.9999999999999
 31
0.0
  0
LINE
  5
1BF
330
1BA
100
AcDbEntity
  8
Ｓ_１_１
  6
CONTINUOUS
 62
     2
100
AcDbLine
 10
883.00000678
 20
719.9999999999999
 30
0.0
 11
912.0000058114
 21
719.9999999999999
 31
0.0
  0
INSERT
  5
1C0
330
1BA
100
AcDbEntity
  8
Ｓ_１_１
 62
     2
100
AcDbBlockReference
  2
EX_NORM
 10
865.00000678
 20
719.9999999999999
 30
0.0
 41
18.0
 42
18.0
 43
18.0
 50
180.0
  0
INSERT
  5
1C1
330
1BA
100
AcDbEntity
  8
Ｓ_１_１
 62
     2
100
AcDbBlockReference
  2
EX_NORM
 10
930.0000058114
 20
719.9999999999999
 30
0.0
 41
18.0
 42
18.0
 43
18.0
  0
MTEXT
  5
1C2
330
1BA
100
AcDbEntity
  8
Ｓ_１_１
 62
     2
100
AcDbMText
 10
897.5000062957
 20
736.4999999999999
 30
0.0
 40
20.77742494226328
 41
0.0
 71
     5
 72
     1
  1
65
  7
EXCADDIM1
  0
POINT
  5
1C3
330
1BA
100
AcDbEntity
  8
DEFPOINTS
 62
     0
100
AcDbPoint
 10
865.00000678
 20
636.00000149015
 30
0.0
  0
POINT
  5
1C4
330
1BA
100
AcDbEntity
  8
DEFPOINTS
 62
     0
100
AcDbPoint
 10
930.0000058114
 20
592.49999850995
 30
0.0
  0
POINT
  5
1C5
330
1BA
100
AcDbEntity
  8
DEFPOINTS
 62
     0
100
AcDbPoint
 10
930.0000058114
 20
719.9999999999999
 30
0.0
  0
ENDBLK
  5
1BC
330
1BA
100
AcDbEntity
  8
0
100
AcDbBlockEnd
  0
BLOCK
  5
1C8
330
1C7
100
AcDbEntity
  8
0
100
AcDbBlockBegin
  2
*D29
 70
     1
 10
0.0
 20
0.0
 30
0.0
  3
*D29
  1

  0
LINE
  5
1CA
330
1C7
100
AcDbEntity
  8
Ｓ_１_１
  6
CONTINUOUS
 62
     2
100
AcDbLine
 10
1170.0000022351
 20
601.49999850995
 30
0.0
 11
1170.0000022351
 21
725.9999999999999
 31
0.0
  0
LINE
  5
1CB
330
1C7
100
AcDbEntity
  8
Ｓ_１_１
  6
CONTINUOUS
 62
     2
100
AcDbLine
 10
1235.0000012666
 20
645.00000149015
 30
0.0
 11
1235.0000012666
 21
725.9999999999999
 31
0.0
  0
LINE
  5
1CC
330
1C7
100
AcDbEntity
  8
Ｓ_１_１
  6
CONTINUOUS
 62
     2
100
AcDbLine
 10
1188.0000022351
 20
719.9999999999999
 30
0.0
 11
1217.0000012666
 21
719.9999999999999
 31
0.0
  0
INSERT
  5
1CD
330
1C7
100
AcDbEntity
  8
Ｓ_１_１
 62
     2
100
AcDbBlockReference
  2
EX_NORM
 10
1170.0000022351
 20
719.9999999999999
 30
0.0
 41
18.0
 42
18.0
 43
18.0
 50
180.0
  0
INSERT
  5
1CE
330
1C7
100
AcDbEntity
  8
Ｓ_１_１
 62
     2
100
AcDbBlockReference
  2
EX_NORM
 10
1235.0000012666
 20
719.9999999999999
 30
0.0
 41
18.0
 42
18.0
 43
18.0
  0
MTEXT
  5
1CF
330
1C7
100
AcDbEntity
  8
Ｓ_１_１
 62
     2
100
AcDbMText
 10
1202.50000175085
 20
736.4999999999999
 30
0.0
 40
20.77742494226328
 41
0.0
 71
     5
 72
     1
  1
65
  7
EXCADDIM1
  0
POINT
  5
1D0
330
1C7
100
AcDbEntity
  8
DEFPOINTS
 62
     0
100
AcDbPoint
 10
1170.0000022351
 20
592.49999850995
 30
0.0
  0
POINT
  5
1D1
330
1C7
100
AcDbEntity
  8
DEFPOINTS
 62
     0
100
AcDbPoint
 10
1235.0000012666
 20
636.00000149015
 30
0.0
  0
POINT
  5
1D2
330
1C7
100
AcDbEntity
  8
DEFPOINTS
 62
     0
100
AcDbPoint
 10
1235.0000012666
 20
719.9999999999999
 30
0.0
  0
ENDBLK
  5
1C9
330
1C7
100
AcDbEntity
  8
0
100
AcDbBlockEnd
  0
BLOCK
  5
1D5
330
1D4
100
AcDbEntity
  8
0
100
AcDbBlockBegin
  2
*D30
 70
     1
 10
0.0
 20
0.0
 30
0.0
  3
*D30
  1

  0
LINE
  5
1D7
330
1D4
100
AcDbEntity
  8
Ｓ_１_１
  6
CONTINUOUS
 62
     2
100
AcDbLine
 10
930.0000058114
 20
601.49999850995
 30
0.0
 11
930.0000058114
 21
725.9999999999999
 31
0.0
  0
LINE
  5
1D8
330
1D4
100
AcDbEntity
  8
Ｓ_１_１
  6
CONTINUOUS
 62
     2
100
AcDbLine
 10
1050.0000040233
 20
601.49999850995
 30
0.0
 11
1050.0000040233
 21
725.9999999999999
 31
0.0
  0
LINE
  5
1D9
330
1D4
100
AcDbEntity
  8
Ｓ_１_１
  6
CONTINUOUS
 62
     2
100
AcDbLine
 10
948.0000058114
 20
719.9999999999999
 30
0.0
 11
1032.0000040233
 21
719.9999999999999
 31
0.0
  0
INSERT
  5
1DA
330
1D4
100
AcDbEntity
  8
Ｓ_１_１
 62
     2
100
AcDbBlockReference
  2
EX_NORM
 10
930.0000058114
 20
719.9999999999999
 30
0.0
 41
18.0
 42
18.0
 43
18.0
 50
180.0
  0
INSERT
  5
1DB
330
1D4
100
AcDbEntity
  8
Ｓ_１_１
 62
     2
100
AcDbBlockReference
  2
EX_NORM
 10
1050.0000040233
 20
719.9999999999999
 30
0.0
 41
18.0
 42
18.0
 43
18.0
  0
MTEXT
  5
1DC
330
1D4
100
AcDbEntity
  8
Ｓ_１_１
 62
     2
100
AcDbMText
 10
990.0000049173501
 20
736.4999999999999
 30
0.0
 40
20.77742494226328
 41
0.0
 71
     5
 72
     1
  1
120
  7
EXCADDIM1
  0
POINT
  5
1DD
330
1D4
100
AcDbEntity
  8
DEFPOINTS
 62
     0
100
AcDbPoint
 10
930.0000058114
 20
592.49999850995
 30
0.0
  0
POINT
  5
1DE
330
1D4
100
AcDbEntity
  8
DEFPOINTS
 62
     0
100
AcDbPoint
 10
1050.0000040233
 20
592.49999850995
 30
0.0
  0
POINT
  5
1DF
330
1D4
100
AcDbEntity
  8
DEFPOINTS
 62
     0
100
AcDbPoint
 10
1050.0000040233
 20
719.9999999999999
 30
0.0
  0
ENDBLK
  5
1D6
330
1D4
100
AcDbEntity
  8
0
100
AcDbBlockEnd
  0
BLOCK
  5
1E2
330
1E1
100
AcDbEntity
  8
0
100
AcDbBlockBegin
  2
*D31
 70
     1
 10
0.0
 20
0.0
 30
0.0
  3
*D31
  1

  0
LINE
  5
1E4
330
1E1
100
AcDbEntity
  8
Ｓ_１_１
  6
CONTINUOUS
 62
     2
100
AcDbLine
 10
1050.0000040233
 20
601.49999850995
 30
0.0
 11
1050.0000040233
 21
725.9999999999999
 31
0.0
  0
LINE
  5
1E5
330
1E1
100
AcDbEntity
  8
Ｓ_１_１
  6
CONTINUOUS
 62
     2
100
AcDbLine
 10
1170.0000022351
 20
601.49999850995
 30
0.0
 11
1170.0000022351
 21
725.9999999999999
 31
0.0
  0
LINE
  5
1E6
330
1E1
100
AcDbEntity
  8
Ｓ_１_１
  6
CONTINUOUS
 62
     2
100
AcDbLine
 10
1068.0000040233
 20
719.9999999999999
 30
0.0
 11
1152.0000022351
 21
719.9999999999999
 31
0.0
  0
INSERT
  5
1E7
330
1E1
100
AcDbEntity
  8
Ｓ_１_１
 62
     2
100
AcDbBlockReference
  2
EX_NORM
 10
1050.0000040233
 20
719.9999999999999
 30
0.0
 41
18.0
 42
18.0
 43
18.0
 50
180.0
  0
INSERT
  5
1E8
330
1E1
100
AcDbEntity
  8
Ｓ_１_１
 62
     2
100
AcDbBlockReference
  2
EX_NORM
 10
1170.0000022351
 20
719.9999999999999
 30
0.0
 41
18.0
 42
18.0
 43
18.0
  0
MTEXT
  5
1E9
330
1E1
100
AcDbEntity
  8
Ｓ_１_１
 62
     2
100
AcDbMText
 10
1110.0000031292
 20
736.4999999999999
 30
0.0
 40
20.77742494226328
 41
0.0
 71
     5
 72
     1
  1
120
  7
EXCADDIM1
  0
POINT
  5
1EA
330
1E1
100
AcDbEntity
  8
DEFPOINTS
 62
     0
100
AcDbPoint
 10
1050.0000040233
 20
592.49999850995
 30
0.0
  0
POINT
  5
1EB
330
1E1
100
AcDbEntity
  8
DEFPOINTS
 62
     0
100
AcDbPoint
 10
1170.0000022351
 20
592.49999850995
 30
0.0
  0
POINT
  5
1EC
330
1E1
100
AcDbEntity
  8
DEFPOINTS
 62
     0
100
AcDbPoint
 10
1170.0000022351
 20
719.9999999999999
 30
0.0
  0
ENDBLK
  5
1E3
330
1E1
100
AcDbEntity
  8
0
100
AcDbBlockEnd
  0
BLOCK
  5
1EF
330
1EE
100
AcDbEntity
  8
0
100
AcDbBlockBegin
  2
*D32
 70
     1
 10
0.0
 20
0.0
 30
0.0
  3
*D32
  1

  0
LINE
  5
1F1
330
1EE
100
AcDbEntity
  8
Ｓ_１_１
  6
CONTINUOUS
 62
     2
100
AcDbLine
 10
865.00000678
 20
645.00000149015
 30
0.0
 11
865.00000678
 21
766.0
 31
0.0
  0
LINE
  5
1F2
330
1EE
100
AcDbEntity
  8
Ｓ_１_１
  6
CONTINUOUS
 62
     2
100
AcDbLine
 10
690.0000093877
 20
603.99999828635
 30
0.0
 11
690.0000093877
 21
766.0
 31
0.0
  0
LINE
  5
1F3
330
1EE
100
AcDbEntity
  8
Ｓ_１_１
  6
CONTINUOUS
 62
     2
100
AcDbLine
 10
847.00000678
 20
760.0
 30
0.0
 11
708.0000093877
 21
760.0
 31
0.0
  0
INSERT
  5
1F4
330
1EE
100
AcDbEntity
  8
Ｓ_１_１
 62
     2
100
AcDbBlockReference
  2
EX_NORM
 10
865.00000678
 20
760.0
 30
0.0
 41
18.0
 42
18.0
 43
18.0
  0
INSERT
  5
1F5
330
1EE
100
AcDbEntity
  8
Ｓ_１_１
 62
     2
100
AcDbBlockReference
  2
EX_NORM
 10
690.0000093877
 20
760.0
 30
0.0
 41
18.0
 42
18.0
 43
18.0
 50
180.0
  0
MTEXT
  5
1F6
330
1EE
100
AcDbEntity
  8
Ｓ_１_１
 62
     2
100
AcDbMText
 10
777.5000080838499
 20
776.5
 30
0.0
 40
20.77742494226328
 41
0.0
 71
     5
 72
     1
  1
175
  7
EXCADDIM1
  0
POINT
  5
1F7
330
1EE
100
AcDbEntity
  8
DEFPOINTS
 62
     0
100
AcDbPoint
 10
865.00000678
 20
636.00000149015
 30
0.0
  0
POINT
  5
1F8
330
1EE
100
AcDbEntity
  8
DEFPOINTS
 62
     0
100
AcDbPoint
 10
690.0000093877
 20
594.99999828635
 30
0.0
  0
POINT
  5
1F9
330
1EE
100
AcDbEntity
  8
DEFPOINTS
 62
     0
100
AcDbPoint
 10
690.0000093877
 20
760.0
 30
0.0
  0
ENDBLK
  5
1F0
330
1EE
100
AcDbEntity
  8
0
100
AcDbBlockEnd
  0
BLOCK
  5
1FC
330
1FB
100
AcDbEntity
  8
0
100
AcDbBlockBegin
  2
*D33
 70
     1
 10
0.0
 20
0.0
 30
0.0
  3
*D33
  1

  0
LINE
  5
1FE
330
1FB
100
AcDbEntity
  8
Ｓ_１_１
  6
CONTINUOUS
 62
     2
100
AcDbLine
 10
630.0000102818
 20
603.99999828635
 30
0.0
 11
630.0000102818
 21
766.0
 31
0.0
  0
LINE
  5
1FF
330
1FB
100
AcDbEntity
  8
Ｓ_１_１
  6
CONTINUOUS
 62
     2
100
AcDbLine
 10
559.5000571087
 20
566.99993574252
 30
0.0
 11
559.5000571087
 21
766.0
 31
0.0
  0
LINE
  5
200
330
1FB
100
AcDbEntity
  8
Ｓ_１_１
  6
CONTINUOUS
 62
     2
100
AcDbLine
 10
624.0000102818
 20
760.0
 30
0.0
 11
565.5000571087
 21
760.0
 31
0.0
  0
INSERT
  5
201
330
1FB
100
AcDbEntity
  8
Ｓ_１_１
 62
     2
100
AcDbBlockReference
  2
EX_BCIR
 10
630.0000102818
 20
760.0
 30
0.0
 41
6.0
 42
6.0
 43
6.0
  0
INSERT
  5
202
330
1FB
100
AcDbEntity
  8
Ｓ_１_１
 62
     2
100
AcDbBlockReference
  2
EX_NORM
 10
559.5000571087
 20
760.0
 30
0.0
 41
6.0
 42
6.0
 43
6.0
 50
180.0
  0
MTEXT
  5
203
330
1FB
100
AcDbEntity
  8
Ｓ_１_１
 62
     2
100
AcDbMText
 10
594.7500336952502
 20
776.5
 30
0.0
 40
20.77742494226328
 41
0.0
 71
     5
 72
     1
  1
70.5
  7
EXCADDIM1
  0
POINT
  5
204
330
1FB
100
AcDbEntity
  8
DEFPOINTS
 62
     0
100
AcDbPoint
 10
630.0000102818
 20
594.99999828635
 30
0.0
  0
POINT
  5
205
330
1FB
100
AcDbEntity
  8
DEFPOINTS
 62
     0
100
AcDbPoint
 10
559.5000571087
 20
557.99993574252
 30
0.0
  0
POINT
  5
206
330
1FB
100
AcDbEntity
  8
DEFPOINTS
 62
     0
100
AcDbPoint
 10
559.5000571087
 20
760.0
 30
0.0
  0
ENDBLK
  5
1FD
330
1FB
100
AcDbEntity
  8
0
100
AcDbBlockEnd
  0
BLOCK
  5
209
330
208
100
AcDbEntity
  8
0
100
AcDbBlockBegin
  2
*D34
 70
     1
 10
0.0
 20
0.0
 30
0.0
  3
*D34
  1

  0
LINE
  5
20B
330
208
100
AcDbEntity
  8
Ｓ_１_１
  6
CONTINUOUS
 62
     2
100
AcDbLine
 10
630.0000102818
 20
603.99999828635
 30
0.0
 11
630.0000102818
 21
766.0
 31
0.0
  0
LINE
  5
20C
330
208
100
AcDbEntity
  8
Ｓ_１_１
  6
CONTINUOUS
 62
     2
100
AcDbLine
 10
690.0000093877
 20
603.99999828635
 30
0.0
 11
690.0000093877
 21
766.0
 31
0.0
  0
LINE
  5
20D
330
208
100
AcDbEntity
  8
Ｓ_１_１
  6
CONTINUOUS
 62
     2
100
AcDbLine
 10
636.0000102818
 20
760.0
 30
0.0
 11
684.0000093877
 21
760.0
 31
0.0
  0
INSERT
  5
20E
330
208
100
AcDbEntity
  8
Ｓ_１_１
 62
     2
100
AcDbBlockReference
  2
EX_BCIR
 10
630.0000102818
 20
760.0
 30
0.0
 41
6.0
 42
6.0
 43
6.0
 50
180.0
  0
INSERT
  5
20F
330
208
100
AcDbEntity
  8
Ｓ_１_１
 62
     2
100
AcDbBlockReference
  2
EX_NORM
 10
690.0000093877
 20
760.0
 30
0.0
 41
6.0
 42
6.0
 43
6.0
  0
MTEXT
  5
210
330
208
100
AcDbEntity
  8
Ｓ_１_１
 62
     2
100
AcDbMText
 10
660.0000098347501
 20
776.5
 30
0.0
 40
20.77742494226328
 41
0.0
 71
     5
 72
     1
  1
60
  7
EXCADDIM1
  0
POINT
  5
211
330
208
100
AcDbEntity
  8
DEFPOINTS
 62
     0
100
AcDbPoint
 10
630.0000102818
 20
594.99999828635
 30
0.0
  0
POINT
  5
212
330
208
100
AcDbEntity
  8
DEFPOINTS
 62
     0
100
AcDbPoint
 10
690.0000093877
 20
594.99999828635
 30
0.0
  0
POINT
  5
213
330
208
100
AcDbEntity
  8
DEFPOINTS
 62
     0
100
AcDbPoint
 10
690.0000093877
 20
760.0
 30
0.0
  0
ENDBLK
  5
20A
330
208
100
AcDbEntity
  8
0
100
AcDbBlockEnd
  0
BLOCK
  5
216
330
215
100
AcDbEntity
  8
0
100
AcDbBlockBegin
  2
*D35
 70
     1
 10
0.0
 20
0.0
 30
0.0
  3
*D35
  1

  0
LINE
  5
218
330
215
100
AcDbEntity
  8
Ｓ_１_１
  6
CONTINUOUS
 62
     2
100
AcDbLine
 10
559.5000571087
 20
566.99993574252
 30
0.0
 11
559.5000571087
 21
805.9999999999999
 31
0.0
  0
LINE
  5
219
330
215
100
AcDbEntity
  8
Ｓ_１_１
  6
CONTINUOUS
 62
     2
100
AcDbLine
 10
1390.500029467
 20
566.99968400393
 30
0.0
 11
1390.500029467
 21
805.9999999999999
 31
0.0
  0
LINE
  5
21A
330
215
100
AcDbEntity
  8
Ｓ_１_１
  6
CONTINUOUS
 62
     2
100
AcDbLine
 10
577.5000571087
 20
799.9999999999999
 30
0.0
 11
1372.500029467
 21
799.9999999999999
 31
0.0
  0
INSERT
  5
21B
330
215
100
AcDbEntity
  8
Ｓ_１_１
 62
     2
100
AcDbBlockReference
  2
EX_NORM
 10
559.5000571087
 20
799.9999999999999
 30
0.0
 41
18.0
 42
18.0
 43
18.0
 50
180.0
  0
INSERT
  5
21C
330
215
100
AcDbEntity
  8
Ｓ_１_１
 62
     2
100
AcDbBlockReference
  2
EX_NORM
 10
1390.500029467
 20
799.9999999999999
 30
0.0
 41
18.0
 42
18.0
 43
18.0
  0
MTEXT
  5
21D
330
215
100
AcDbEntity
  8
Ｓ_１_１
 62
     2
100
AcDbMText
 10
975.0000432878501
 20
816.4999999999999
 30
0.0
 40
20.77742494226328
 41
0.0
 71
     5
 72
     1
  1
831
  7
EXCADDIM1
  0
POINT
  5
21E
330
215
100
AcDbEntity
  8
DEFPOINTS
 62
     0
100
AcDbPoint
 10
559.5000571087
 20
557.99993574252
 30
0.0
  0
POINT
  5
21F
330
215
100
AcDbEntity
  8
DEFPOINTS
 62
     0
100
AcDbPoint
 10
1390.500029467
 20
557.99968400393
 30
0.0
  0
POINT
  5
220
330
215
100
AcDbEntity
  8
DEFPOINTS
 62
     0
100
AcDbPoint
 10
1390.500029467
 20
799.9999999999999
 30
0.0
  0
ENDBLK
  5
217
330
215
100
AcDbEntity
  8
0
100
AcDbBlockEnd
  0
BLOCK
  5
223
330
222
100
AcDbEntity
  8
0
100
AcDbBlockBegin
  2
*D36
 70
     1
 10
0.0
 20
0.0
 30
0.0
  3
*D36
  1

  0
LINE
  5
225
330
222
100
AcDbEntity
  8
Ｓ_１_１
  6
CONTINUOUS
 62
     2
100
AcDbLine
 10
1260.000000894
 20
603.99999828635
 30
0.0
 11
1260.000000894
 21
766.0
 31
0.0
  0
LINE
  5
226
330
222
100
AcDbEntity
  8
Ｓ_１_１
  6
CONTINUOUS
 62
     2
100
AcDbLine
 10
1235.0000012666
 20
645.00000149015
 30
0.0
 11
1235.0000012666
 21
766.0
 31
0.0
  0
LINE
  5
227
330
222
100
AcDbEntity
  8
Ｓ_１_１
  6
CONTINUOUS
 62
     2
100
AcDbLine
 10
1254.000000894
 20
760.0
 30
0.0
 11
1241.0000012666
 21
760.0
 31
0.0
  0
INSERT
  5
228
330
222
100
AcDbEntity
  8
Ｓ_１_１
 62
     2
100
AcDbBlockReference
  2
EX_BCIR
 10
1260.000000894
 20
760.0
 30
0.0
 41
6.0
 42
6.0
 43
6.0
  0
INSERT
  5
229
330
222
100
AcDbEntity
  8
Ｓ_１_１
 62
     2
100
AcDbBlockReference
  2
EX_NORM
 10
1235.0000012666
 20
760.0
 30
0.0
 41
6.0
 42
6.0
 43
6.0
 50
180.0
  0
MTEXT
  5
22A
330
222
100
AcDbEntity
  8
Ｓ_１_１
 62
     2
100
AcDbMText
 10
1247.5000010803
 20
776.5
 30
0.0
 40
20.77742494226328
 41
0.0
 71
     5
 72
     1
  1
25
  7
EXCADDIM1
  0
POINT
  5
22B
330
222
100
AcDbEntity
  8
DEFPOINTS
 62
     0
100
AcDbPoint
 10
1260.000000894
 20
594.99999828635
 30
0.0
  0
POINT
  5
22C
330
222
100
AcDbEntity
  8
DEFPOINTS
 62
     0
100
AcDbPoint
 10
1235.0000012666
 20
636.00000149015
 30
0.0
  0
POINT
  5
22D
330
222
100
AcDbEntity
  8
DEFPOINTS
 62
     0
100
AcDbPoint
 10
1235.0000012666
 20
760.0
 30
0.0
  0
ENDBLK
  5
224
330
222
100
AcDbEntity
  8
0
100
AcDbBlockEnd
  0
BLOCK
  5
230
330
22F
100
AcDbEntity
  8
0
100
AcDbBlockBegin
  2
*D37
 70
     1
 10
0.0
 20
0.0
 30
0.0
  3
*D37
  1

  0
LINE
  5
232
330
22F
100
AcDbEntity
  8
Ｓ_１_１
  6
CONTINUOUS
 62
     2
100
AcDbLine
 10
1260.000000894
 20
603.99999828635
 30
0.0
 11
1260.000000894
 21
766.0
 31
0.0
  0
LINE
  5
233
330
22F
100
AcDbEntity
  8
Ｓ_１_１
  6
CONTINUOUS
 62
     2
100
AcDbLine
 10
1320.0
 20
603.99999828635
 30
0.0
 11
1320.0
 21
766.0
 31
0.0
  0
LINE
  5
234
330
22F
100
AcDbEntity
  8
Ｓ_１_１
  6
CONTINUOUS
 62
     2
100
AcDbLine
 10
1266.000000894
 20
760.0
 30
0.0
 11
1314.0
 21
760.0
 31
0.0
  0
INSERT
  5
235
330
22F
100
AcDbEntity
  8
Ｓ_１_１
 62
     2
100
AcDbBlockReference
  2
EX_BCIR
 10
1260.000000894
 20
760.0
 30
0.0
 41
6.0
 42
6.0
 43
6.0
 50
180.0
  0
INSERT
  5
236
330
22F
100
AcDbEntity
  8
Ｓ_１_１
 62
     2
100
AcDbBlockReference
  2
EX_BCIR
 10
1320.0
 20
760.0
 30
0.0
 41
6.0
 42
6.0
 43
6.0
  0
MTEXT
  5
237
330
22F
100
AcDbEntity
  8
Ｓ_１_１
 62
     2
100
AcDbMText
 10
1290.000000447
 20
776.5
 30
0.0
 40
20.77742494226328
 41
0.0
 71
     5
 72
     1
  1
60
  7
EXCADDIM1
  0
POINT
  5
238
330
22F
100
AcDbEntity
  8
DEFPOINTS
 62
     0
100
AcDbPoint
 10
1260.000000894
 20
594.99999828635
 30
0.0
  0
POINT
  5
239
330
22F
100
AcDbEntity
  8
DEFPOINTS
 62
     0
100
AcDbPoint
 10
1320.0
 20
594.99999828635
 30
0.0
  0
POINT
  5
23A
330
22F
100
AcDbEntity
  8
DEFPOINTS
 62
     0
100
AcDbPoint
 10
1320.0
 20
760.0
 30
0.0
  0
ENDBLK
  5
231
330
22F
100
AcDbEntity
  8
0
100
AcDbBlockEnd
  0
BLOCK
  5
23D
330
23C
100
AcDbEntity
  8
0
100
AcDbBlockBegin
  2
*D38
 70
     1
 10
0.0
 20
0.0
 30
0.0
  3
*D38
  1

  0
LINE
  5
23F
330
23C
100
AcDbEntity
  8
Ｓ_１_１
  6
CONTINUOUS
 62
     2
100
AcDbLine
 10
1320.0
 20
603.99999828635
 30
0.0
 11
1320.0
 21
766.0
 31
0.0
  0
LINE
  5
240
330
23C
100
AcDbEntity
  8
Ｓ_１_１
  6
CONTINUOUS
 62
     2
100
AcDbLine
 10
1390.500029467
 20
566.99968400393
 30
0.0
 11
1390.500029467
 21
766.0
 31
0.0
  0
LINE
  5
241
330
23C
100
AcDbEntity
  8
Ｓ_１_１
  6
CONTINUOUS
 62
     2
100
AcDbLine
 10
1326.0
 20
760.0
 30
0.0
 11
1384.500029467
 21
760.0
 31
0.0
  0
INSERT
  5
242
330
23C
100
AcDbEntity
  8
Ｓ_１_１
 62
     2
100
AcDbBlockReference
  2
EX_BCIR
 10
1320.0
 20
760.0
 30
0.0
 41
6.0
 42
6.0
 43
6.0
 50
180.0
  0
INSERT
  5
243
330
23C
100
AcDbEntity
  8
Ｓ_１_１
 62
     2
100
AcDbBlockReference
  2
EX_NORM
 10
1390.500029467
 20
760.0
 30
0.0
 41
6.0
 42
6.0
 43
6.0
  0
MTEXT
  5
244
330
23C
100
AcDbEntity
  8
Ｓ_１_１
 62
     2
100
AcDbMText
 10
1355.2500147335
 20
776.5
 30
0.0
 40
20.77742494226328
 41
0.0
 71
     5
 72
     1
  1
70.5
  7
EXCADDIM1
  0
POINT
  5
245
330
23C
100
AcDbEntity
  8
DEFPOINTS
 62
     0
100
AcDbPoint
 10
1320.0
 20
594.99999828635
 30
0.0
  0
POINT
  5
246
330
23C
100
AcDbEntity
  8
DEFPOINTS
 62
     0
100
AcDbPoint
 10
1390.500029467
 20
557.99968400393
 30
0.0
  0
POINT
  5
247
330
23C
100
AcDbEntity
  8
DEFPOINTS
 62
     0
100
AcDbPoint
 10
1390.500029467
 20
760.0
 30
0.0
  0
ENDBLK
  5
23E
330
23C
100
AcDbEntity
  8
0
100
AcDbBlockEnd
  0
BLOCK
  5
24A
330
249
100
AcDbEntity
  8
0
100
AcDbBlockBegin
  2
*D39
 70
     1
 10
0.0
 20
0.0
 30
0.0
  3
*D39
  1

  0
LINE
  5
24C
330
249
100
AcDbEntity
  8
Ｓ_１_１
  6
CONTINUOUS
 62
     2
100
AcDbLine
 10
1685.9279806773
 20
1055.0000009685
 30
0.0
 11
1594.0
 21
1055.0000009685
 31
0.0
  0
LINE
  5
24D
330
249
100
AcDbEntity
  8
Ｓ_１_１
  6
CONTINUOUS
 62
     2
100
AcDbLine
 10
1685.2717001695
 20
1184.9999990314
 30
0.0
 11
1594.0
 21
1184.9999990314
 31
0.0
  0
LINE
  5
24E
330
249
100
AcDbEntity
  8
Ｓ_１_１
  6
CONTINUOUS
 62
     2
100
AcDbLine
 10
1600.0
 20
1073.0000009685
 30
0.0
 11
1600.0
 21
1166.9999990314
 31
0.0
  0
INSERT
  5
24F
330
249
100
AcDbEntity
  8
Ｓ_１_１
 62
     2
100
AcDbBlockReference
  2
EX_NORM
 10
1600.0
 20
1055.0000009685
 30
0.0
 41
18.0
 42
18.0
 43
18.0
 50
270.0
  0
INSERT
  5
250
330
249
100
AcDbEntity
  8
Ｓ_１_１
 62
     2
100
AcDbBlockReference
  2
EX_NORM
 10
1600.0
 20
1184.9999990314
 30
0.0
 41
18.0
 42
18.0
 43
18.0
 50
90.0
  0
MTEXT
  5
251
330
249
100
AcDbEntity
  8
Ｓ_１_１
 62
     2
100
AcDbMText
 10
1583.5
 20
1119.99999999995
 30
0.0
 40
20.77742494226328
 41
0.0
 71
     5
 72
     1
  1
130
  7
EXCADDIM1
 11
0.0
 21
1.0
 31
0.0
  0
POINT
  5
252
330
249
100
AcDbEntity
  8
DEFPOINTS
 62
     0
100
AcDbPoint
 10
1694.9279806773
 20
1055.0000009685
 30
0.0
  0
POINT
  5
253
330
249
100
AcDbEntity
  8
DEFPOINTS
 62
     0
100
AcDbPoint
 10
1694.2717001695
 20
1184.9999990314
 30
0.0
  0
POINT
  5
254
330
249
100
AcDbEntity
  8
DEFPOINTS
 62
     0
100
AcDbPoint
 10
1600.0
 20
1184.9999990314
 30
0.0
  0
ENDBLK
  5
24B
330
249
100
AcDbEntity
  8
0
100
AcDbBlockEnd
  0
BLOCK
  5
257
330
256
100
AcDbEntity
  8
0
100
AcDbBlockBegin
  2
*D40
 70
     1
 10
0.0
 20
0.0
 30
0.0
  3
*D40
  1

  0
LINE
  5
259
330
256
100
AcDbEntity
  8
Ｓ_１_１
  6
CONTINUOUS
 62
     2
100
AcDbLine
 10
1745.9999779605
 20
1234.9999982863
 30
0.0
 11
1554.0
 21
1234.9999982863
 31
0.0
  0
LINE
  5
25A
330
256
100
AcDbEntity
  8
Ｓ_１_１
  6
CONTINUOUS
 62
     2
100
AcDbLine
 10
1746.0002369412
 20
1005.00000171363
 30
0.0
 11
1554.0
 21
1005.00000171363
 31
0.0
  0
LINE
  5
25B
330
256
100
AcDbEntity
  8
Ｓ_１_１
  6
CONTINUOUS
 62
     2
100
AcDbLine
 10
1560.0
 20
1216.9999982863
 30
0.0
 11
1560.0
 21
1023.00000171363
 31
0.0
  0
INSERT
  5
25C
330
256
100
AcDbEntity
  8
Ｓ_１_１
 62
     2
100
AcDbBlockReference
  2
EX_NORM
 10
1560.0
 20
1234.9999982863
 30
0.0
 41
18.0
 42
18.0
 43
18.0
 50
90.0
  0
INSERT
  5
25D
330
256
100
AcDbEntity
  8
Ｓ_１_１
 62
     2
100
AcDbBlockReference
  2
EX_NORM
 10
1560.0
 20
1005.00000171363
 30
0.0
 41
18.0
 42
18.0
 43
18.0
 50
270.0
  0
MTEXT
  5
25E
330
256
100
AcDbEntity
  8
Ｓ_１_１
 62
     2
100
AcDbMText
 10
1543.5
 20
1119.999999999965
 30
0.0
 40
20.77742494226328
 41
0.0
 71
     5
 72
     1
  1
230
  7
EXCADDIM1
 11
0.0
 21
1.0
 31
0.0
  0
POINT
  5
25F
330
256
100
AcDbEntity
  8
DEFPOINTS
 62
     0
100
AcDbPoint
 10
1754.9999779605
 20
1234.9999982863
 30
0.0
  0
POINT
  5
260
330
256
100
AcDbEntity
  8
DEFPOINTS
 62
     0
100
AcDbPoint
 10
1755.0002369412
 20
1005.00000171363
 30
0.0
  0
POINT
  5
261
330
256
100
AcDbEntity
  8
DEFPOINTS
 62
     0
100
AcDbPoint
 10
1560.0
 20
1005.00000171363
 30
0.0
  0
ENDBLK
  5
258
330
256
100
AcDbEntity
  8
0
100
AcDbBlockEnd
  0
BLOCK
  5
264
330
263
100
AcDbEntity
  8
0
100
AcDbBlockBegin
  2
*D41
 70
     1
 10
0.0
 20
0.0
 30
0.0
  3
*D41
  1

  0
LINE
  5
266
330
263
100
AcDbEntity
  8
Ｓ_１_１
  6
CONTINUOUS
 62
     2
100
AcDbLine
 10
1710.9999957086
 20
1259.9999979138
 30
0.0
 11
1514.0
 21
1259.9999979138
 31
0.0
  0
LINE
  5
267
330
263
100
AcDbEntity
  8
Ｓ_１_１
  6
CONTINUOUS
 62
     2
100
AcDbLine
 10
1710.9999925408
 20
980.0000020861299
 30
0.0
 11
1514.0
 21
980.0000020861299
 31
0.0
  0
LINE
  5
268
330
263
100
AcDbEntity
  8
Ｓ_１_１
  6
CONTINUOUS
 62
     2
100
AcDbLine
 10
1520.0
 20
1241.9999979138
 30
0.0
 11
1520.0
 21
998.0000020861299
 31
0.0
  0
INSERT
  5
269
330
263
100
AcDbEntity
  8
Ｓ_１_１
 62
     2
100
AcDbBlockReference
  2
EX_NORM
 10
1520.0
 20
1259.9999979138
 30
0.0
 41
18.0
 42
18.0
 43
18.0
 50
90.0
  0
INSERT
  5
26A
330
263
100
AcDbEntity
  8
Ｓ_１_１
 62
     2
100
AcDbBlockReference
  2
EX_NORM
 10
1520.0
 20
980.0000020861299
 30
0.0
 41
18.0
 42
18.0
 43
18.0
 50
270.0
  0
MTEXT
  5
26B
330
263
100
AcDbEntity
  8
Ｓ_１_１
 62
     2
100
AcDbMText
 10
1503.5
 20
1119.999999999965
 30
0.0
 40
20.77742494226328
 41
0.0
 71
     5
 72
     1
  1
280
  7
EXCADDIM1
 11
0.0
 21
1.0
 31
0.0
  0
POINT
  5
26C
330
263
100
AcDbEntity
  8
DEFPOINTS
 62
     0
100
AcDbPoint
 10
1719.9999957086
 20
1259.9999979138
 30
0.0
  0
POINT
  5
26D
330
263
100
AcDbEntity
  8
DEFPOINTS
 62
     0
100
AcDbPoint
 10
1719.9999925408
 20
980.0000020861299
 30
0.0
  0
POINT
  5
26E
330
263
100
AcDbEntity
  8
DEFPOINTS
 62
     0
100
AcDbPoint
 10
1520.0
 20
980.0000020861299
 30
0.0
  0
ENDBLK
  5
265
330
263
100
AcDbEntity
  8
0
100
AcDbBlockEnd
  0
BLOCK
  5
271
330
270
100
AcDbEntity
  8
0
100
AcDbBlockBegin
  2
*D42
 70
     1
 10
0.0
 20
0.0
 30
0.0
  3
*D42
  1

  0
LINE
  5
273
330
270
100
AcDbEntity
  8
Ｓ_１_１
  6
CONTINUOUS
 62
     2
100
AcDbLine
 10
1775.0000009685
 20
965.06246402763
 30
0.0
 11
1775.0000009685
 21
874.0
 31
0.0
  0
LINE
  5
274
330
270
100
AcDbEntity
  8
Ｓ_１_１
  6
CONTINUOUS
 62
     2
100
AcDbLine
 10
1904.9999990314
 20
965.71870638853
 30
0.0
 11
1904.9999990314
 21
874.0
 31
0.0
  0
LINE
  5
275
330
270
100
AcDbEntity
  8
Ｓ_１_１
  6
CONTINUOUS
 62
     2
100
AcDbLine
 10
1793.0000009685
 20
880.0
 30
0.0
 11
1886.9999990314
 21
880.0
 31
0.0
  0
INSERT
  5
276
330
270
100
AcDbEntity
  8
Ｓ_１_１
 62
     2
100
AcDbBlockReference
  2
EX_NORM
 10
1775.0000009685
 20
880.0
 30
0.0
 41
18.0
 42
18.0
 43
18.0
 50
180.0
  0
INSERT
  5
277
330
270
100
AcDbEntity
  8
Ｓ_１_１
 62
     2
100
AcDbBlockReference
  2
EX_NORM
 10
1904.9999990314
 20
880.0
 30
0.0
 41
18.0
 42
18.0
 43
18.0
  0
MTEXT
  5
278
330
270
100
AcDbEntity
  8
Ｓ_１_１
 62
     2
100
AcDbMText
 10
1839.99999999995
 20
896.5
 30
0.0
 40
20.77742494226328
 41
0.0
 71
     5
 72
     1
  1
130
  7
EXCADDIM1
  0
POINT
  5
279
330
270
100
AcDbEntity
  8
DEFPOINTS
 62
     0
100
AcDbPoint
 10
1775.0000009685
 20
974.06246402763
 30
0.0
  0
POINT
  5
27A
330
270
100
AcDbEntity
  8
DEFPOINTS
 62
     0
100
AcDbPoint
 10
1904.9999990314
 20
974.71870638853
 30
0.0
  0
POINT
  5
27B
330
270
100
AcDbEntity
  8
DEFPOINTS
 62
     0
100
AcDbPoint
 10
1904.9999990314
 20
880.0
 30
0.0
  0
ENDBLK
  5
272
330
270
100
AcDbEntity
  8
0
100
AcDbBlockEnd
  0
BLOCK
  5
27E
330
27D
100
AcDbEntity
  8
0
100
AcDbBlockBegin
  2
*D43
 70
     1
 10
0.0
 20
0.0
 30
0.0
  3
*D43
  1

  0
LINE
  5
280
330
27D
100
AcDbEntity
  8
Ｓ_１_１
  6
CONTINUOUS
 62
     2
100
AcDbLine
 10
1725.0000017136
 20
1026.00023694133
 30
0.0
 11
1725.0000017136
 21
833.9999999999999
 31
0.0
  0
LINE
  5
281
330
27D
100
AcDbEntity
  8
Ｓ_１_１
  6
CONTINUOUS
 62
     2
100
AcDbLine
 10
1954.9999982863
 20
1025.99973480673
 30
0.0
 11
1954.9999982863
 21
833.9999999999999
 31
0.0
  0
LINE
  5
282
330
27D
100
AcDbEntity
  8
Ｓ_１_１
  6
CONTINUOUS
 62
     2
100
AcDbLine
 10
1743.0000017136
 20
839.9999999999999
 30
0.0
 11
1936.9999982863
 21
839.9999999999999
 31
0.0
  0
INSERT
  5
283
330
27D
100
AcDbEntity
  8
Ｓ_１_１
 62
     2
100
AcDbBlockReference
  2
EX_NORM
 10
1725.0000017136
 20
839.9999999999999
 30
0.0
 41
18.0
 42
18.0
 43
18.0
 50
180.0
  0
INSERT
  5
284
330
27D
100
AcDbEntity
  8
Ｓ_１_１
 62
     2
100
AcDbBlockReference
  2
EX_NORM
 10
1954.9999982863
 20
839.9999999999999
 30
0.0
 41
18.0
 42
18.0
 43
18.0
  0
MTEXT
  5
285
330
27D
100
AcDbEntity
  8
Ｓ_１_１
 62
     2
100
AcDbMText
 10
1839.99999999995
 20
856.4999999999999
 30
0.0
 40
20.77742494226328
 41
0.0
 71
     5
 72
     1
  1
230
  7
EXCADDIM1
  0
POINT
  5
286
330
27D
100
AcDbEntity
  8
DEFPOINTS
 62
     0
100
AcDbPoint
 10
1725.0000017136
 20
1035.00023694133
 30
0.0
  0
POINT
  5
287
330
27D
100
AcDbEntity
  8
DEFPOINTS
 62
     0
100
AcDbPoint
 10
1954.9999982863
 20
1034.99973480673
 30
0.0
  0
POINT
  5
288
330
27D
100
AcDbEntity
  8
DEFPOINTS
 62
     0
100
AcDbPoint
 10
1954.9999982863
 20
839.9999999999999
 30
0.0
  0
ENDBLK
  5
27F
330
27D
100
AcDbEntity
  8
0
100
AcDbBlockEnd
  0
BLOCK
  5
28B
330
28A
100
AcDbEntity
  8
0
100
AcDbBlockBegin
  2
*D44
 70
     1
 10
0.0
 20
0.0
 30
0.0
  3
*D44
  1

  0
LINE
  5
28D
330
28A
100
AcDbEntity
  8
Ｓ_１_１
  6
CONTINUOUS
 62
     2
100
AcDbLine
 10
1700.0000020861
 20
990.99991499084
 30
0.0
 11
1700.0000020861
 21
793.9999999999999
 31
0.0
  0
LINE
  5
28E
330
28A
100
AcDbEntity
  8
Ｓ_１_１
  6
CONTINUOUS
 62
     2
100
AcDbLine
 10
1979.9999979138
 20
991.0000593830599
 30
0.0
 11
1979.9999979138
 21
793.9999999999999
 31
0.0
  0
LINE
  5
28F
330
28A
100
AcDbEntity
  8
Ｓ_１_１
  6
CONTINUOUS
 62
     2
100
AcDbLine
 10
1718.0000020861
 20
799.9999999999999
 30
0.0
 11
1961.9999979138
 21
799.9999999999999
 31
0.0
  0
INSERT
  5
290
330
28A
100
AcDbEntity
  8
Ｓ_１_１
 62
     2
100
AcDbBlockReference
  2
EX_NORM
 10
1700.0000020861
 20
799.9999999999999
 30
0.0
 41
18.0
 42
18.0
 43
18.0
 50
180.0
  0
INSERT
  5
291
330
28A
100
AcDbEntity
  8
Ｓ_１_１
 62
     2
100
AcDbBlockReference
  2
EX_NORM
 10
1979.9999979138
 20
799.9999999999999
 30
0.0
 41
18.0
 42
18.0
 43
18.0
  0
MTEXT
  5
292
330
28A
100
AcDbEntity
  8
Ｓ_１_１
 62
     2
100
AcDbMText
 10
1839.99999999995
 20
816.4999999999999
 30
0.0
 40
20.77742494226328
 41
0.0
 71
     5
 72
     1
  1
280
  7
EXCADDIM1
  0
POINT
  5
293
330
28A
100
AcDbEntity
  8
DEFPOINTS
 62
     0
100
AcDbPoint
 10
1700.0000020861
 20
999.99991499084
 30
0.0
  0
POINT
  5
294
330
28A
100
AcDbEntity
  8
DEFPOINTS
 62
     0
100
AcDbPoint
 10
1979.9999979138
 20
1000.00005938306
 30
0.0
  0
POINT
  5
295
330
28A
100
AcDbEntity
  8
DEFPOINTS
 62
     0
100
AcDbPoint
 10
1979.9999979138
 20
799.9999999999999
 30
0.0
  0
ENDBLK
  5
28C
330
28A
100
AcDbEntity
  8
0
100
AcDbBlockEnd
  0
BLOCK
  5
473
330
472
100
AcDbEntity
  8
0
100
AcDbBlockBegin
  2
*D45
 70
     1
 10
0.0
 20
0.0
 30
0.0
  3
*D45
  1

  0
LINE
  5
475
330
472
100
AcDbEntity
  8
Ｓ_１_１
  6
CONTINUOUS
 62
     2
100
AcDbLine
 10
1191.5000022351
 20
579.99999850995
 30
0.0
 11
1486.0
 21
579.99999850995
 31
0.0
  0
LINE
  5
476
330
472
100
AcDbEntity
  8
Ｓ_１_１
  6
CONTINUOUS
 62
     2
100
AcDbLine
 10
1191.5000022351
 20
480.00000000005
 30
0.0
 11
1486.0
 21
480.0000000000499
 31
0.0
  0
LINE
  5
477
330
472
100
AcDbEntity
  8
Ｓ_１_１
  6
CONTINUOUS
 62
     2
100
AcDbLine
 10
1480.0
 20
561.99999850995
 30
0.0
 11
1480.0
 21
498.0000000000499
 31
0.0
  0
INSERT
  5
478
330
472
100
AcDbEntity
  8
Ｓ_１_１
 62
     2
100
AcDbBlockReference
  2
EX_NORM
 10
1480.0
 20
579.99999850995
 30
0.0
 41
18.0
 42
18.0
 43
18.0
 50
90.0
  0
INSERT
  5
479
330
472
100
AcDbEntity
  8
Ｓ_１_１
 62
     2
100
AcDbBlockReference
  2
EX_NORM
 10
1480.0
 20
480.0000000000499
 30
0.0
 41
18.0
 42
18.0
 43
18.0
 50
270.0
  0
MTEXT
  5
47A
330
472
100
AcDbEntity
  8
Ｓ_１_１
 62
     2
100
AcDbMText
 10
1463.5
 20
529.999999255
 30
0.0
 40
20.77742494226328
 41
0.0
 71
     5
 72
     1
  1
100
  7
EXCADDIM1
 11
0.0
 21
1.0
 31
0.0
  0
POINT
  5
47B
330
472
100
AcDbEntity
  8
DEFPOINTS
 62
     0
100
AcDbPoint
 10
1182.5000022351
 20
579.99999850995
 30
0.0
  0
POINT
  5
47C
330
472
100
AcDbEntity
  8
DEFPOINTS
 62
     0
100
AcDbPoint
 10
1182.5000022351
 20
480.00000000005
 30
0.0
  0
POINT
  5
47D
330
472
100
AcDbEntity
  8
DEFPOINTS
 62
     0
100
AcDbPoint
 10
1480.0
 20
480.0000000000499
 30
0.0
  0
ENDBLK
  5
474
330
472
100
AcDbEntity
  8
0
100
AcDbBlockEnd
  0
BLOCK
  5
480
330
47F
100
AcDbEntity
  8
0
100
AcDbBlockBegin
  2
*D46
 70
     1
 10
0.0
 20
0.0
 30
0.0
  3
*D46
  1

  0
LINE
  5
482
330
47F
100
AcDbEntity
  8
Ｓ_１_１
  6
CONTINUOUS
 62
     2
100
AcDbLine
 10
1191.5000022351
 20
480.00000000005
 30
0.0
 11
1486.0
 21
480.0000000000499
 31
0.0
  0
LINE
  5
483
330
47F
100
AcDbEntity
  8
Ｓ_１_１
  6
CONTINUOUS
 62
     2
100
AcDbLine
 10
1191.5000022351
 20
380.00000149015
 30
0.0
 11
1486.0
 21
380.0000014901499
 31
0.0
  0
LINE
  5
484
330
47F
100
AcDbEntity
  8
Ｓ_１_１
  6
CONTINUOUS
 62
     2
100
AcDbLine
 10
1480.0
 20
462.0000000000499
 30
0.0
 11
1480.0
 21
398.0000014901499
 31
0.0
  0
INSERT
  5
485
330
47F
100
AcDbEntity
  8
Ｓ_１_１
 62
     2
100
AcDbBlockReference
  2
EX_NORM
 10
1480.0
 20
480.0000000000499
 30
0.0
 41
18.0
 42
18.0
 43
18.0
 50
90.0
  0
INSERT
  5
486
330
47F
100
AcDbEntity
  8
Ｓ_１_１
 62
     2
100
AcDbBlockReference
  2
EX_NORM
 10
1480.0
 20
380.0000014901499
 30
0.0
 41
18.0
 42
18.0
 43
18.0
 50
270.0
  0
MTEXT
  5
487
330
47F
100
AcDbEntity
  8
Ｓ_１_１
 62
     2
100
AcDbMText
 10
1463.5
 20
430.0000007451
 30
0.0
 40
20.77742494226328
 41
0.0
 71
     5
 72
     1
  1
100
  7
EXCADDIM1
 11
0.0
 21
1.0
 31
0.0
  0
POINT
  5
488
330
47F
100
AcDbEntity
  8
DEFPOINTS
 62
     0
100
AcDbPoint
 10
1182.5000022351
 20
480.00000000005
 30
0.0
  0
POINT
  5
489
330
47F
100
AcDbEntity
  8
DEFPOINTS
 62
     0
100
AcDbPoint
 10
1182.5000022351
 20
380.00000149015
 30
0.0
  0
POINT
  5
48A
330
47F
100
AcDbEntity
  8
DEFPOINTS
 62
     0
100
AcDbPoint
 10
1480.0
 20
380.0000014901499
 30
0.0
  0
ENDBLK
  5
481
330
47F
100
AcDbEntity
  8
0
100
AcDbBlockEnd
  0
BLOCK
  5
48D
330
48C
100
AcDbEntity
  8
0
100
AcDbBlockBegin
  2
*D47
 70
     1
 10
0.0
 20
0.0
 30
0.0
  3
*D47
  1

  0
LINE
  5
48F
330
48C
100
AcDbEntity
  8
Ｓ_１_１
  6
CONTINUOUS
 62
     2
100
AcDbLine
 10
1191.5000022351
 20
579.99999850995
 30
0.0
 11
1486.0
 21
579.99999850995
 31
0.0
  0
LINE
  5
490
330
48C
100
AcDbEntity
  8
Ｓ_１_１
  6
CONTINUOUS
 62
     2
100
AcDbLine
 10
1264.5000314787
 20
619.99999791385
 30
0.0
 11
1486.0
 21
619.99999791385
 31
0.0
  0
LINE
  5
491
330
48C
100
AcDbEntity
  8
Ｓ_１_１
  6
CONTINUOUS
 62
     2
100
AcDbLine
 10
1480.0
 20
597.99999850995
 30
0.0
 11
1480.0
 21
601.99999791385
 31
0.0
  0
INSERT
  5
492
330
48C
100
AcDbEntity
  8
Ｓ_１_１
 62
     2
100
AcDbBlockReference
  2
EX_NORM
 10
1480.0
 20
579.99999850995
 30
0.0
 41
18.0
 42
18.0
 43
18.0
 50
270.0
  0
INSERT
  5
493
330
48C
100
AcDbEntity
  8
Ｓ_１_１
 62
     2
100
AcDbBlockReference
  2
EX_NORM
 10
1480.0
 20
619.99999791385
 30
0.0
 41
18.0
 42
18.0
 43
18.0
 50
90.0
  0
MTEXT
  5
494
330
48C
100
AcDbEntity
  8
Ｓ_１_１
 62
     2
100
AcDbMText
 10
1463.5
 20
599.9999982119001
 30
0.0
 40
20.77742494226328
 41
0.0
 71
     5
 72
     1
  1
40
  7
EXCADDIM1
 11
0.0
 21
1.0
 31
0.0
  0
POINT
  5
495
330
48C
100
AcDbEntity
  8
DEFPOINTS
 62
     0
100
AcDbPoint
 10
1182.5000022351
 20
579.99999850995
 30
0.0
  0
POINT
  5
496
330
48C
100
AcDbEntity
  8
DEFPOINTS
 62
     0
100
AcDbPoint
 10
1255.5000314787
 20
619.99999791385
 30
0.0
  0
POINT
  5
497
330
48C
100
AcDbEntity
  8
DEFPOINTS
 62
     0
100
AcDbPoint
 10
1480.0
 20
619.99999791385
 30
0.0
  0
ENDBLK
  5
48E
330
48C
100
AcDbEntity
  8
0
100
AcDbBlockEnd
  0
BLOCK
  5
49A
330
499
100
AcDbEntity
  8
0
100
AcDbBlockBegin
  2
*D48
 70
     1
 10
0.0
 20
0.0
 30
0.0
  3
*D48
  1

  0
LINE
  5
49C
330
499
100
AcDbEntity
  8
Ｓ_１_１
  6
CONTINUOUS
 62
     2
100
AcDbLine
 10
1191.5000022351
 20
380.00000149015
 30
0.0
 11
1486.0
 21
380.0000014901499
 31
0.0
  0
LINE
  5
49D
330
499
100
AcDbEntity
  8
Ｓ_１_１
  6
CONTINUOUS
 62
     2
100
AcDbLine
 10
1244.0000012666
 20
340.00000208615
 30
0.0
 11
1486.0
 21
340.0000020861499
 31
0.0
  0
LINE
  5
49E
330
499
100
AcDbEntity
  8
Ｓ_１_１
  6
CONTINUOUS
 62
     2
100
AcDbLine
 10
1480.0
 20
362.0000014901499
 30
0.0
 11
1480.0
 21
358.0000020861499
 31
0.0
  0
INSERT
  5
49F
330
499
100
AcDbEntity
  8
Ｓ_１_１
 62
     2
100
AcDbBlockReference
  2
EX_NORM
 10
1480.0
 20
380.0000014901499
 30
0.0
 41
18.0
 42
18.0
 43
18.0
 50
90.0
  0
INSERT
  5
4A0
330
499
100
AcDbEntity
  8
Ｓ_１_１
 62
     2
100
AcDbBlockReference
  2
EX_NORM
 10
1480.0
 20
340.0000020861499
 30
0.0
 41
18.0
 42
18.0
 43
18.0
 50
270.0
  0
MTEXT
  5
4A1
330
499
100
AcDbEntity
  8
Ｓ_１_１
 62
     2
100
AcDbMText
 10
1463.5
 20
360.00000178815
 30
0.0
 40
20.77742494226328
 41
0.0
 71
     5
 72
     1
  1
40
  7
EXCADDIM1
 11
0.0
 21
1.0
 31
0.0
  0
POINT
  5
4A2
330
499
100
AcDbEntity
  8
DEFPOINTS
 62
     0
100
AcDbPoint
 10
1182.5000022351
 20
380.00000149015
 30
0.0
  0
POINT
  5
4A3
330
499
100
AcDbEntity
  8
DEFPOINTS
 62
     0
100
AcDbPoint
 10
1235.0000012666
 20
340.00000208615
 30
0.0
  0
POINT
  5
4A4
330
499
100
AcDbEntity
  8
DEFPOINTS
 62
     0
100
AcDbPoint
 10
1480.0
 20
340.0000020861499
 30
0.0
  0
ENDBLK
  5
49B
330
499
100
AcDbEntity
  8
0
100
AcDbBlockEnd
  0
ENDSEC
  0
SECTION
  2
ENTITIES
  0
LINE
  5
D7
330
1F
100
AcDbEntity
  8
図面枠
  6
CONTINUOUS
 62
     5
100
AcDbLine
 10
60.0
 20
60.0
 30
0.0
 11
2460.0
 21
60.0
 31
0.0
  0
LINE
  5
D8
330
1F
100
AcDbEntity
  8
図面枠
  6
CONTINUOUS
 62
     5
100
AcDbLine
 10
2460.0
 20
60.0
 30
0.0
 11
2460.0
 21
1722.0
 31
0.0
  0
LINE
  5
D9
330
1F
100
AcDbEntity
  8
図面枠
  6
CONTINUOUS
 62
     5
100
AcDbLine
 10
2460.0
 20
1722.0
 30
0.0
 11
60.00000000000031
 21
1722.0
 31
0.0
  0
LINE
  5
DA
330
1F
100
AcDbEntity
  8
図面枠
  6
CONTINUOUS
 62
     5
100
AcDbLine
 10
60.00000000000031
 20
1722.0
 30
0.0
 11
60.0
 21
60.0
 31
0.0
  0
TEXT
  5
DC
330
1F
100
AcDbEntity
  8
図面枠
  6
CONTINUOUS
 62
     4
100
AcDbText
 10
2122.5
 20
1664.296875
 30
0.0
 40
20.77742494226328
  1
仕　　　様
 41
0.9992307692307689
  7
EXCADTTF1
 72
     5
 11
2257.5
 21
1664.296875
 31
0.0
100
AcDbText
  0
LINE
  5
DD
330
1F
100
AcDbEntity
  8
図面枠
  6
CONTINUOUS
 62
     3
100
AcDbLine
 10
1950.0
 20
1692.0
 30
0.0
 11
2430.0
 21
1692.0
 31
0.0
  0
LINE
  5
DE
330
1F
100
AcDbEntity
  8
図面枠
  6
CONTINUOUS
 62
     3
100
AcDbLine
 10
1950.0
 20
1656.0
 30
0.0
 11
2430.0
 21
1656.0
 31
0.0
  0
LINE
  5
DF
330
1F
100
AcDbEntity
  8
図面枠
  6
CONTINUOUS
 62
     3
100
AcDbLine
 10
90.0
 20
1692.0
 30
0.0
 11
90.0
 21
1638.0
 31
0.0
  0
LINE
  5
E0
330
1F
100
AcDbEntity
  8
図面枠
  6
CONTINUOUS
 62
     3
100
AcDbLine
 10
2430.0
 20
144.0
 30
0.0
 11
2430.0
 21
90.0
 31
0.0
  0
TEXT
  5
E1
330
1F
100
AcDbEntity
  8
図面枠
  6
CONTINUOUS
 62
     4
100
AcDbText
 10
2271.0
 20
1628.296875
 30
0.0
 40
20.77742494226328
  1
70
 41
0.999230769230769
  7
EXCADTTF1
 72
     5
 11
2298.0
 21
1628.296875
 31
0.0
100
AcDbText
  0
TEXT
  5
E2
330
1F
100
AcDbEntity
  8
図面枠
  6
CONTINUOUS
 62
     4
100
AcDbText
 10
1962.0
 20
1628.296875
 30
0.0
 40
20.77742494226328
  1
最高使用圧力
 41
0.9992307692307689
  7
EXCADTTF1
 72
     5
 11
2124.0
 21
1628.296875
 31
0.0
100
AcDbText
  0
TEXT
  5
E3
330
1F
100
AcDbEntity
  8
図面枠
  6
CONTINUOUS
 62
     4
100
AcDbText
 10
2322.0
 20
1628.296875
 30
0.0
 40
20.77742494226328
  1
MPa
 41
0.999230769230769
  7
EXCADTTF1
 72
     5
 11
2362.5
 21
1628.296875
 31
0.0
100
AcDbText
  0
TEXT
  5
E4
330
1F
100
AcDbEntity
  8
図面枠
  6
CONTINUOUS
 62
     4
100
AcDbText
 10
2322.0
 20
1484.296875
 30
0.0
 40
20.77742494226328
  1
cm
 41
0.999230769230769
  7
EXCADTTF1
 72
     5
 11
2349.0
 21
1484.296875
 31
0.0
100
AcDbText
  0
TEXT
  5
E5
330
1F
100
AcDbEntity
  8
図面枠
  6
CONTINUOUS
 62
     4
100
AcDbText
 10
2340.900000000001
 20
1497.05859388411
 30
0.0
 40
9.349840196579397
  1
2
 41
0.9992308790346205
  7
EXCADTTF1
 72
     5
 11
2346.975
 21
1497.05859388411
 31
0.0
100
AcDbText
  0
TEXT
  5
E6
330
1F
100
AcDbEntity
  8
図面枠
  6
CONTINUOUS
 62
     4
100
AcDbText
 10
2322.0
 20
1592.296875
 30
0.0
 40
20.77742494226328
  1
mm
 41
0.999230769230769
  7
EXCADTTF1
 72
     5
 11
2349.0
 21
1592.296875
 31
0.0
100
AcDbText
  0
TEXT
  5
E7
330
1F
100
AcDbEntity
  8
図面枠
  6
CONTINUOUS
 62
     4
100
AcDbText
 10
2322.0
 20
1556.296875
 30
0.0
 40
20.77742494226328
  1
mm
 41
0.999230769230769
  7
EXCADTTF1
 72
     5
 11
2349.0
 21
1556.296875
 31
0.0
100
AcDbText
  0
TEXT
  5
E8
330
1F
100
AcDbEntity
  8
図面枠
  6
CONTINUOUS
 62
     4
100
AcDbText
 10
2322.0
 20
1520.296875
 30
0.0
 40
20.77742494226328
  1
mm
 41
0.999230769230769
  7
EXCADTTF1
 72
     5
 11
2349.0
 21
1520.296875
 31
0.0
100
AcDbText
  0
TEXT
  5
E9
330
1F
100
AcDbEntity
  8
図面枠
  6
CONTINUOUS
 62
     4
100
AcDbText
 10
1962.0
 20
1592.296875
 30
0.0
 40
20.77742494226328
  1
ストローク
 41
0.9992307692307689
  7
EXCADTTF1
 72
     5
 11
2097.0
 21
1592.296875
 31
0.0
100
AcDbText
  0
LINE
  5
EA
330
1F
100
AcDbEntity
  8
図面枠
  6
CONTINUOUS
 62
     2
100
AcDbLine
 10
1950.0
 20
1620.0
 30
0.0
 11
2430.0
 21
1620.0
 31
0.0
  0
LINE
  5
EB
330
1F
100
AcDbEntity
  8
図面枠
  6
CONTINUOUS
 62
     2
100
AcDbLine
 10
1950.0
 20
1584.0
 30
0.0
 11
2430.0
 21
1584.0
 31
0.0
  0
LINE
  5
EC
330
1F
100
AcDbEntity
  8
図面枠
  6
CONTINUOUS
 62
     2
100
AcDbLine
 10
1950.0
 20
1548.0
 30
0.0
 11
2430.0
 21
1548.0
 31
0.0
  0
LINE
  5
ED
330
1F
100
AcDbEntity
  8
図面枠
  6
CONTINUOUS
 62
     2
100
AcDbLine
 10
1950.0
 20
1512.0
 30
0.0
 11
2430.0
 21
1512.0
 31
0.0
  0
LINE
  5
EE
330
1F
100
AcDbEntity
  8
図面枠
  6
CONTINUOUS
 62
     2
100
AcDbLine
 10
1950.0
 20
1476.0
 30
0.0
 11
2430.0
 21
1476.0
 31
0.0
  0
LINE
  5
EF
330
1F
100
AcDbEntity
  8
図面枠
  6
CONTINUOUS
 62
     2
100
AcDbLine
 10
1950.0
 20
1440.0
 30
0.0
 11
2430.0
 21
1440.0
 31
0.0
  0
LINE
  5
F0
330
1F
100
AcDbEntity
  8
図面枠
  6
CONTINUOUS
 62
     2
100
AcDbLine
 10
1950.0
 20
1404.0
 30
0.0
 11
2430.0
 21
1404.0
 31
0.0
  0
TEXT
  5
F1
330
1F
100
AcDbEntity
  8
図面枠
  6
CONTINUOUS
 62
     4
100
AcDbText
 10
2257.5
 20
1592.296875
 30
0.0
 40
20.77742494226328
  1
150
 41
0.999230769230769
  7
EXCADTTF1
 72
     5
 11
2298.0
 21
1592.296875
 31
0.0
100
AcDbText
  0
TEXT
  5
F2
330
1F
100
AcDbEntity
  8
図面枠
  6
CONTINUOUS
 62
     4
100
AcDbText
 10
2257.5
 20
1556.296875
 30
0.0
 40
20.77742494226328
  1
100
 41
0.999230769230769
  7
EXCADTTF1
 72
     5
 11
2298.0
 21
1556.296875
 31
0.0
100
AcDbText
  0
TEXT
  5
F3
330
1F
100
AcDbEntity
  8
図面枠
  6
CONTINUOUS
 62
     4
100
AcDbText
 10
2271.0
 20
1520.296875
 30
0.0
 40
20.77742494226328
  1
40
 41
0.999230769230769
  7
EXCADTTF1
 72
     5
 11
2298.0
 21
1520.296875
 31
0.0
100
AcDbText
  0
LINE
  5
F4
330
1F
100
AcDbEntity
  8
図面枠
  6
CONTINUOUS
 62
     3
100
AcDbLine
 10
1950.0
 20
1368.0
 30
0.0
 11
2430.0
 21
1368.0
 31
0.0
  0
TEXT
  5
F5
330
1F
100
AcDbEntity
  8
図面枠
  6
CONTINUOUS
 62
     4
100
AcDbText
 10
1962.0
 20
1556.296875
 30
0.0
 40
20.77742494226328
  1
ピストン径
 41
0.9992307692307689
  7
EXCADTTF1
 72
     5
 11
2097.0
 21
1556.296875
 31
0.0
100
AcDbText
  0
TEXT
  5
F6
330
1F
100
AcDbEntity
  8
図面枠
  6
CONTINUOUS
 62
     4
100
AcDbText
 10
1962.0
 20
1520.296875
 30
0.0
 40
20.77742494226328
  1
ロッド径
 41
0.999230769230769
  7
EXCADTTF1
 72
     5
 11
2070.0
 21
1520.296875
 31
0.0
100
AcDbText
  0
TEXT
  5
F7
330
1F
100
AcDbEntity
  8
図面枠
  6
CONTINUOUS
 62
     4
100
AcDbText
 10
1962.0
 20
1484.296875
 30
0.0
 40
20.77742494226328
  1
受圧面積
 41
0.999230769230769
  7
EXCADTTF1
 72
     5
 11
2070.0
 21
1484.296875
 31
0.0
100
AcDbText
  0
TEXT
  5
F8
330
1F
100
AcDbEntity
  8
図面枠
  6
CONTINUOUS
 62
     4
100
AcDbText
 10
1962.0
 20
1448.296875
 30
0.0
 40
20.77742494226328
  1
所要油量
 41
0.999230769230769
  7
EXCADTTF1
 72
     5
 11
2070.0
 21
1448.296875
 31
0.0
100
AcDbText
  0
TEXT
  5
F9
330
1F
100
AcDbEntity
  8
図面枠
  6
CONTINUOUS
 62
     4
100
AcDbText
 10
1962.0
 20
1412.296875
 30
0.0
 40
20.77742494226328
  1
シリンダー連数
 41
0.9992307692307688
  7
EXCADTTF1
 72
     5
 11
2151.0
 21
1412.296875
 31
0.0
100
AcDbText
  0
TEXT
  5
FA
330
1F
100
AcDbEntity
  8
図面枠
  6
CONTINUOUS
 62
     4
100
AcDbText
 10
1962.0
 20
1376.296875
 30
0.0
 40
20.77742494226328
  1
重量
 41
0.999230769230769
  7
EXCADTTF1
 72
     5
 11
2016.0
 21
1376.296875
 31
0.0
100
AcDbText
  0
TEXT
  5
FB
330
1F
100
AcDbEntity
  8
図面枠
  6
CONTINUOUS
 62
     4
100
AcDbText
 10
2322.0
 20
1376.296875
 30
0.0
 40
20.77742494226328
  1
kg
 41
0.999230769230769
  7
EXCADTTF1
 72
     5
 11
2349.0
 21
1376.296875
 31
0.0
100
AcDbText
  0
LINE
  5
FC
330
1F
100
AcDbEntity
  8
図面枠
  6
CONTINUOUS
 62
     3
100
AcDbLine
 10
1950.0
 20
1692.0
 30
0.0
 11
1950.0
 21
1368.0
 31
0.0
  0
LINE
  5
FD
330
1F
100
AcDbEntity
  8
図面枠
  6
CONTINUOUS
 62
     2
100
AcDbLine
 10
2190.0
 20
1656.0
 30
0.0
 11
2190.0
 21
1368.0
 31
0.0
  0
LINE
  5
FE
330
1F
100
AcDbEntity
  8
図面枠
  6
CONTINUOUS
 62
     2
100
AcDbLine
 10
2310.0
 20
1656.0
 30
0.0
 11
2310.0
 21
1440.0
 31
0.0
  0
LINE
  5
FF
330
1F
100
AcDbEntity
  8
図面枠
  6
CONTINUOUS
 62
     3
100
AcDbLine
 10
2430.0
 20
1692.0
 30
0.0
 11
2430.0
 21
1368.0
 31
0.0
  0
LINE
  5
100
330
1F
100
AcDbEntity
  8
図面枠
  6
CONTINUOUS
 62
     2
100
AcDbLine
 10
2310.0
 20
1404.0
 30
0.0
 11
2310.0
 21
1368.0
 31
0.0
  0
TEXT
  5
101
330
1F
100
AcDbEntity
  8
図面枠
  6
CONTINUOUS
 62
     4
100
AcDbText
 10
2322.0
 20
1448.296875
 30
0.0
 40
20.77742494226328
  1
L/台
 41
0.999230769230769
  7
EXCADTTF1
 72
     5
 11
2376.0
 21
1448.296875
 31
0.0
100
AcDbText
  0
TEXT
  5
102
330
1F
100
AcDbEntity
  8
図面枠
  6
CONTINUOUS
 62
     4
100
AcDbText
 10
2244.0
 20
1484.296875
 30
0.0
 40
20.77742494226328
  1
66.0
 41
0.999230769230769
  7
EXCADTTF1
 72
     5
 11
2298.0
 21
1484.296875
 31
0.0
100
AcDbText
  0
TEXT
  5
103
330
1F
100
AcDbEntity
  8
図面枠
  6
CONTINUOUS
 62
     4
100
AcDbText
 10
2244.0
 20
1448.296875
 30
0.0
 40
20.77742494226328
  1
0.99
 41
0.999230769230769
  7
EXCADTTF1
 72
     5
 11
2298.0
 21
1448.296875
 31
0.0
100
AcDbText
  0
TEXT
  5
104
330
1F
100
AcDbEntity
  8
図面枠
  6
CONTINUOUS
 62
     4
100
AcDbText
 10
108.0
 20
1652.0625
 30
0.0
 40
27.70323325635104
  1
4連イコライザー装置
 41
0.9992307692307691
  7
EXCADTTF1
 72
     5
 11
450.0
 21
1652.0625
 31
0.0
100
AcDbText
  0
LINE
  5
105
330
1F
100
AcDbEntity
  8
図面枠
  6
CONTINUOUS
 62
     3
100
AcDbLine
 10
468.0000000000002
 20
1692.0
 30
0.0
 11
468.0000000000002
 21
1638.0
 31
0.0
  0
LINE
  5
106
330
1F
100
AcDbEntity
  8
図面枠
  6
CONTINUOUS
 62
     3
100
AcDbLine
 10
90.0
 20
1638.0
 30
0.0
 11
468.0000000000002
 21
1638.0
 31
0.0
  0
LINE
  5
107
330
1F
100
AcDbEntity
  8
図面枠
  6
CONTINUOUS
 62
     3
100
AcDbLine
 10
90.0
 20
1692.0
 30
0.0
 11
468.0000000000002
 21
1692.0
 31
0.0
  0
LINE
  5
108
330
1F
100
AcDbEntity
  8
図面枠
  6
CONTINUOUS
 62
     3
100
AcDbLine
 10
2304.0
 20
144.0
 30
0.0
 11
2304.0
 21
90.0
 31
0.0
  0
TEXT
  5
109
330
1F
100
AcDbEntity
  8
図面枠
  6
CONTINUOUS
 62
     4
100
AcDbText
 10
2322.0
 20
104.0625
 30
0.0
 40
27.70323325635104
  1
OTE-4
 41
0.9992307692307693
  7
EXCADTTF1
 72
     5
 11
2412.0
 21
104.0625
 31
0.0
100
AcDbText
  0
LINE
  5
10A
330
1F
100
AcDbEntity
  8
図面枠
  6
CONTINUOUS
 62
     3
100
AcDbLine
 10
2304.0
 20
144.0
 30
0.0
 11
2430.0
 21
144.0
 31
0.0
  0
LINE
  5
10B
330
1F
100
AcDbEntity
  8
図面枠
  6
CONTINUOUS
 62
     3
100
AcDbLine
 10
2304.0
 20
90.0
 30
0.0
 11
2430.0
 21
90.0
 31
0.0
  0
TEXT
  5
10C
330
1F
100
AcDbEntity
  8
図面枠
  6
CONTINUOUS
 62
     4
100
AcDbText
 10
2311.5
 20
1412.296875
 30
0.0
 40
20.77742494226328
  1
4連
 41
0.999230769230769
  7
EXCADTTF1
 72
     5
 11
2352.0
 21
1412.296875
 31
0.0
100
AcDbText
  0
TEXT
  5
10D
330
1F
100
AcDbEntity
  8
図面枠
  6
CONTINUOUS
 62
     4
100
AcDbText
 10
2230.5
 20
1376.296875
 30
0.0
 40
20.77742494226328
  1
約350
 41
0.9992307692307689
  7
EXCADTTF1
 72
     5
 11
2298.0
 21
1376.296875
 31
0.0
100
AcDbText
  0
DIMENSION
  5
10F
330
1F
100
AcDbEntity
  8
Ｓ_１_１
  6
CONTINUOUS
 62
     2
100
AcDbDimension
  2
*D15
 10
480.0
 20
1184.9999990314
 30
0.0
 11
463.5000000000001
 21
1120.0
 31
0.0
 70
   160
  3
ISO-25
100
AcDbAlignedDimension
 13
553.3124831942
 23
1055.0000009686
 33
0.0
 14
554.3124831942
 24
1184.9999990314
 34
0.0
 50
90.0
100
AcDbRotatedDimension
1001
ACAD
1000
DSTYLE
1002
{
1070
   270
1070
     2
1070
     6
1000
EX_NORM
1070
     7
1000
EX_NORM
1070
    41
1040
18.0
1070
    42
1040
9.0
1070
    44
1040
6.0
1070
    73
1070
     0
1070
    74
1070
     0
1070
    75
1070
     0
1070
    76
1070
     0
1070
    77
1070
     1
1070
    78
1070
     8
1070
   140
1040
20.77742494226328
1070
   147
1040
0.0
1070
   173
1070
     1
1070
   176
1070
     2
1070
   177
1070
     2
1070
   178
1070
     2
1070
   271
1070
     2
1070
   277
1070
     2
1070
   279
1070
     2
1070
   280
1070
     0
1070
   287
1070
     5
1070
   340
1005
10E
1002
}
  0
DIMENSION
  5
11D
330
1F
100
AcDbEntity
  8
Ｓ_１_１
  6
CONTINUOUS
 62
     2
100
AcDbDimension
  2
*D16
 10
480.0
 20
1259.9999979138
 30
0.0
 11
463.5000000000001
 21
1222.4999984726
 31
0.0
 70
   160
  3
ISO-25
100
AcDbAlignedDimension
 13
554.3124831942
 23
1184.9999990314
 33
0.0
 14
865.00000678
 24
1259.9999979138
 34
0.0
 50
90.0
100
AcDbRotatedDimension
1001
ACAD
1000
DSTYLE
1002
{
1070
   270
1070
     2
1070
     6
1000
EX_NORM
1070
     7
1000
EX_NORM
1070
    41
1040
18.0
1070
    42
1040
9.0
1070
    44
1040
6.0
1070
    73
1070
     0
1070
    74
1070
     0
1070
    75
1070
     0
1070
    76
1070
     0
1070
    77
1070
     1
1070
    78
1070
     8
1070
   140
1040
20.77742494226328
1070
   147
1040
0.0
1070
   173
1070
     1
1070
   176
1070
     2
1070
   177
1070
     2
1070
   178
1070
     2
1070
   271
1070
     2
1070
   277
1070
     2
1070
   279
1070
     2
1070
   280
1070
     0
1070
   287
1070
     5
1070
   340
1005
10E
1002
}
  0
DIMENSION
  5
12A
330
1F
100
AcDbEntity
  8
Ｓ_１_１
  6
CONTINUOUS
 62
     2
100
AcDbDimension
  2
*D17
 10
480.0
 20
980.0000020861299
 30
0.0
 11
463.5000000000001
 21
1017.500001527365
 31
0.0
 70
   160
  3
ISO-25
100
AcDbAlignedDimension
 13
553.3124831942
 23
1055.0000009686
 33
0.0
 14
865.00000678
 24
980.0000020861299
 34
0.0
 50
90.0
100
AcDbRotatedDimension
1001
ACAD
1000
DSTYLE
1002
{
1070
   270
1070
     2
1070
     6
1000
EX_NORM
1070
     7
1000
EX_NORM
1070
    41
1040
18.0
1070
    42
1040
9.0
1070
    44
1040
6.0
1070
    73
1070
     0
1070
    74
1070
     0
1070
    75
1070
     0
1070
    76
1070
     0
1070
    77
1070
     1
1070
    78
1070
     8
1070
   140
1040
20.77742494226328
1070
   147
1040
0.0
1070
   173
1070
     1
1070
   176
1070
     2
1070
   177
1070
     2
1070
   178
1070
     2
1070
   271
1070
     2
1070
   277
1070
     2
1070
   279
1070
     2
1070
   280
1070
     0
1070
   287
1070
     5
1070
   340
1005
10E
1002
}
  0
DIMENSION
  5
137
330
1F
100
AcDbEntity
  8
Ｓ_１_１
  6
CONTINUOUS
 62
     2
100
AcDbDimension
  2
*D18
 10
440.0
 20
980.0000020861299
 30
0.0
 11
423.5000000000001
 21
1119.99999999998
 31
0.0
 70
   160
  3
ISO-25
100
AcDbAlignedDimension
 13
865.00000678
 23
1259.99999791383
 33
0.0
 14
865.00000678
 24
980.0000020861299
 34
0.0
 50
90.0
100
AcDbRotatedDimension
1001
ACAD
1000
DSTYLE
1002
{
1070
   270
1070
     2
1070
     6
1000
EX_NORM
1070
     7
1000
EX_NORM
1070
    41
1040
18.0
1070
    42
1040
9.0
1070
    44
1040
6.0
1070
    73
1070
     0
1070
    74
1070
     0
1070
    75
1070
     0
1070
    76
1070
     0
1070
    77
1070
     1
1070
    78
1070
     8
1070
   140
1040
20.77742494226328
1070
   147
1040
0.0
1070
   173
1070
     1
1070
   176
1070
     2
1070
   177
1070
     2
1070
   178
1070
     2
1070
   271
1070
     2
1070
   277
1070
     2
1070
   279
1070
     2
1070
   280
1070
     0
1070
   287
1070
     5
1070
   340
1005
10E
1002
}
  0
DIMENSION
  5
144
330
1F
100
AcDbEntity
  8
Ｓ_１_１
  6
CONTINUOUS
 62
     2
100
AcDbDimension
  2
*D19
 10
1235.0000012666
 20
1400.0
 30
0.0
 11
1050.000004023301
 21
1416.5
 31
0.0
 70
   160
  3
ISO-25
100
AcDbAlignedDimension
 13
865.00000678
 23
1259.99999791383
 33
0.0
 14
1235.0000012666
 24
1259.99999791383
 34
0.0
100
AcDbRotatedDimension
1001
ACAD
1000
DSTYLE
1002
{
1070
   270
1070
     2
1070
     6
1000
EX_NORM
1070
     7
1000
EX_NORM
1070
    41
1040
18.0
1070
    42
1040
9.0
1070
    44
1040
6.0
1070
    73
1070
     0
1070
    74
1070
     0
1070
    75
1070
     0
1070
    76
1070
     0
1070
    77
1070
     1
1070
    78
1070
     8
1070
   140
1040
20.77742494226328
1070
   147
1040
0.0
1070
   173
1070
     1
1070
   176
1070
     2
1070
   177
1070
     2
1070
   178
1070
     2
1070
   271
1070
     2
1070
   277
1070
     2
1070
   279
1070
     2
1070
   280
1070
     0
1070
   287
1070
     5
1070
   340
1005
10E
1002
}
  0
DIMENSION
  5
151
330
1F
100
AcDbEntity
  8
Ｓ_１_１
  6
CONTINUOUS
 62
     2
100
AcDbDimension
  2
*D20
 10
480.0
 20
544.99999903145
 30
0.0
 11
463.5
 21
480.00000000005
 31
0.0
 70
   160
  3
ISO-25
100
AcDbAlignedDimension
 13
552.5684471045001
 23
415.00000096865
 33
0.0
 14
553.4434242032999
 24
544.99999903145
 34
0.0
 50
90.0
100
AcDbRotatedDimension
1001
ACAD
1000
DSTYLE
1002
{
1070
   270
1070
     2
1070
     6
1000
EX_NORM
1070
     7
1000
EX_NORM
1070
    41
1040
18.0
1070
    42
1040
9.0
1070
    44
1040
6.0
1070
    73
1070
     0
1070
    74
1070
     0
1070
    75
1070
     0
1070
    76
1070
     0
1070
    77
1070
     1
1070
    78
1070
     8
1070
   140
1040
20.77742494226328
1070
   147
1040
0.0
1070
   173
1070
     1
1070
   176
1070
     2
1070
   177
1070
     2
1070
   178
1070
     2
1070
   271
1070
     2
1070
   277
1070
     2
1070
   279
1070
     2
1070
   280
1070
     0
1070
   287
1070
     5
1070
   340
1005
10E
1002
}
  0
DIMENSION
  5
15E
330
1F
100
AcDbEntity
  8
Ｓ_１_１
  6
CONTINUOUS
 62
     2
100
AcDbDimension
  2
*D21
 10
480.0
 20
619.99999791385
 30
0.0
 11
463.5
 21
582.4999984726501
 31
0.0
 70
   160
  3
ISO-25
100
AcDbAlignedDimension
 13
559.5000571087
 23
544.99999903145
 33
0.0
 14
844.4999765678999
 24
619.99999791385
 34
0.0
 50
90.0
100
AcDbRotatedDimension
1001
ACAD
1000
DSTYLE
1002
{
1070
   270
1070
     2
1070
     6
1000
EX_NORM
1070
     7
1000
EX_NORM
1070
    41
1040
18.0
1070
    42
1040
9.0
1070
    44
1040
6.0
1070
    73
1070
     0
1070
    74
1070
     0
1070
    75
1070
     0
1070
    76
1070
     0
1070
    77
1070
     1
1070
    78
1070
     8
1070
   140
1040
20.77742494226328
1070
   147
1040
0.0
1070
   173
1070
     1
1070
   176
1070
     2
1070
   177
1070
     2
1070
   178
1070
     2
1070
   271
1070
     2
1070
   277
1070
     2
1070
   279
1070
     2
1070
   280
1070
     0
1070
   287
1070
     5
1070
   340
1005
10E
1002
}
  0
DIMENSION
  5
16B
330
1F
100
AcDbEntity
  8
Ｓ_１_１
  6
CONTINUOUS
 62
     2
100
AcDbDimension
  2
*D22
 10
480.0
 20
340.00000208615
 30
0.0
 11
463.5
 21
377.5000015274
 31
0.0
 70
   160
  3
ISO-25
100
AcDbAlignedDimension
 13
543.5684471045001
 23
415.00000096865
 33
0.0
 14
865.00000678
 24
340.00000208615
 34
0.0
 50
90.0
100
AcDbRotatedDimension
1001
ACAD
1000
DSTYLE
1002
{
1070
   270
1070
     2
1070
     6
1000
EX_NORM
1070
     7
1000
EX_NORM
1070
    41
1040
18.0
1070
    42
1040
9.0
1070
    44
1040
6.0
1070
    73
1070
     0
1070
    74
1070
     0
1070
    75
1070
     0
1070
    76
1070
     0
1070
    77
1070
     1
1070
    78
1070
     8
1070
   140
1040
20.77742494226328
1070
   147
1040
0.0
1070
   173
1070
     1
1070
   176
1070
     2
1070
   177
1070
     2
1070
   178
1070
     2
1070
   271
1070
     2
1070
   277
1070
     2
1070
   279
1070
     2
1070
   280
1070
     0
1070
   287
1070
     5
1070
   340
1005
10E
1002
}
  0
DIMENSION
  5
178
330
1F
100
AcDbEntity
  8
Ｓ_１_１
  6
CONTINUOUS
 62
     2
100
AcDbDimension
  2
*D23
 10
440.0
 20
619.99999791385
 30
0.0
 11
423.5
 21
480.0
 31
0.0
 70
   160
  3
ISO-25
100
AcDbAlignedDimension
 13
865.00000678
 23
340.00000208615
 33
0.0
 14
844.4999765678999
 24
619.99999791385
 34
0.0
 50
90.0
100
AcDbRotatedDimension
1001
ACAD
1000
DSTYLE
1002
{
1070
   270
1070
     2
1070
     6
1000
EX_NORM
1070
     7
1000
EX_NORM
1070
    41
1040
18.0
1070
    42
1040
9.0
1070
    44
1040
6.0
1070
    73
1070
     0
1070
    74
1070
     0
1070
    75
1070
     0
1070
    76
1070
     0
1070
    77
1070
     1
1070
    78
1070
     8
1070
   140
1040
20.77742494226328
1070
   147
1040
0.0
1070
   173
1070
     1
1070
   176
1070
     2
1070
   177
1070
     2
1070
   178
1070
     2
1070
   271
1070
     2
1070
   277
1070
     2
1070
   279
1070
     2
1070
   280
1070
     0
1070
   287
1070
     5
1070
   340
1005
10E
1002
}
  0
DIMENSION
  5
185
330
1F
100
AcDbEntity
  8
Ｓ_１_１
  6
CONTINUOUS
 62
     2
100
AcDbDimension
  2
*D24
 10
1235.0000012666
 20
760.0
 30
0.0
 11
1050.0000040233
 21
776.5
 31
0.0
 70
   160
  3
ISO-25
100
AcDbAlignedDimension
 13
865.00000678
 23
636.00000149015
 33
0.0
 14
1235.0000012666
 24
636.00000149015
 34
0.0
100
AcDbRotatedDimension
1001
ACAD
1000
DSTYLE
1002
{
1070
   270
1070
     2
1070
     6
1000
EX_NORM
1070
     7
1000
EX_NORM
1070
    41
1040
18.0
1070
    42
1040
9.0
1070
    44
1040
6.0
1070
    73
1070
     0
1070
    74
1070
     0
1070
    75
1070
     0
1070
    76
1070
     0
1070
    77
1070
     1
1070
    78
1070
     8
1070
   140
1040
20.77742494226328
1070
   147
1040
0.0
1070
   173
1070
     1
1070
   176
1070
     2
1070
   177
1070
     2
1070
   178
1070
     2
1070
   271
1070
     2
1070
   277
1070
     2
1070
   279
1070
     2
1070
   280
1070
     0
1070
   287
1070
     5
1070
   340
1005
10E
1002
}
  0
DIMENSION
  5
192
330
1F
100
AcDbEntity
  8
Ｓ_１_１
  6
CONTINUOUS
 62
     2
100
AcDbDimension
  2
*D25
 10
942.9999598413
 20
1360.0
 30
0.0
 11
903.99998331065
 21
1376.5
 31
0.0
 70
   160
  3
ISO-25
100
AcDbAlignedDimension
 13
865.00000678
 23
1259.9999979138
 33
0.0
 14
942.9999598413
 24
1202.4999990314
 34
0.0
100
AcDbRotatedDimension
1001
ACAD
1000
DSTYLE
1002
{
1070
   270
1070
     2
1070
     6
1000
EX_NORM
1070
     7
1000
EX_NORM
1070
    41
1040
18.0
1070
    42
1040
9.0
1070
    44
1040
6.0
1070
    73
1070
     0
1070
    74
1070
     0
1070
    75
1070
     0
1070
    76
1070
     0
1070
    77
1070
     1
1070
    78
1070
     8
1070
   140
1040
20.77742494226328
1070
   147
1040
0.0
1070
   173
1070
     1
1070
   176
1070
     2
1070
   177
1070
     2
1070
   178
1070
     2
1070
   271
1070
     2
1070
   277
1070
     2
1070
   279
1070
     2
1070
   280
1070
     0
1070
   287
1070
     5
1070
   340
1005
10E
1002
}
  0
DIMENSION
  5
19F
330
1F
100
AcDbEntity
  8
Ｓ_１_１
  6
CONTINUOUS
 62
     2
100
AcDbDimension
  2
*D26
 10
1156.9999719113
 20
1360.0
 30
0.0
 11
1049.9999658763
 21
1376.5
 31
0.0
 70
   160
  3
ISO-25
100
AcDbAlignedDimension
 13
942.9999598413
 23
1202.4999990314
 33
0.0
 14
1156.9999719113
 24
1202.4999990314
 34
0.0
100
AcDbRotatedDimension
1001
ACAD
1000
DSTYLE
1002
{
1070
   270
1070
     2
1070
     6
1000
EX_NORM
1070
     7
1000
EX_NORM
1070
    41
1040
18.0
1070
    42
1040
9.0
1070
    44
1040
6.0
1070
    73
1070
     0
1070
    74
1070
     0
1070
    75
1070
     0
1070
    76
1070
     0
1070
    77
1070
     1
1070
    78
1070
     8
1070
   140
1040
20.77742494226328
1070
   147
1040
0.0
1070
   173
1070
     1
1070
   176
1070
     2
1070
   177
1070
     2
1070
   178
1070
     2
1070
   271
1070
     2
1070
   277
1070
     2
1070
   279
1070
     2
1070
   280
1070
     0
1070
   287
1070
     5
1070
   340
1005
10E
1002
}
  0
DIMENSION
  5
1AC
330
1F
100
AcDbEntity
  8
Ｓ_１_１
  6
CONTINUOUS
 62
     2
100
AcDbDimension
  2
*D27
 10
1235.0000012666
 20
1360.0
 30
0.0
 11
1195.99998658895
 21
1376.5
 31
0.0
 70
   160
  3
ISO-25
100
AcDbAlignedDimension
 13
1156.9999719113
 23
1202.4999990314
 33
0.0
 14
1235.0000012666
 24
1259.9999979138
 34
0.0
100
AcDbRotatedDimension
1001
ACAD
1000
DSTYLE
1002
{
1070
   270
1070
     2
1070
     6
1000
EX_NORM
1070
     7
1000
EX_NORM
1070
    41
1040
18.0
1070
    42
1040
9.0
1070
    44
1040
6.0
1070
    73
1070
     0
1070
    74
1070
     0
1070
    75
1070
     0
1070
    76
1070
     0
1070
    77
1070
     1
1070
    78
1070
     8
1070
   140
1040
20.77742494226328
1070
   147
1040
0.0
1070
   173
1070
     1
1070
   176
1070
     2
1070
   177
1070
     2
1070
   178
1070
     2
1070
   271
1070
     2
1070
   277
1070
     2
1070
   279
1070
     2
1070
   280
1070
     0
1070
   287
1070
     5
1070
   340
1005
10E
1002
}
  0
DIMENSION
  5
1B9
330
1F
100
AcDbEntity
  8
Ｓ_１_１
  6
CONTINUOUS
 62
     2
100
AcDbDimension
  2
*D28
 10
930.0000058114
 20
719.9999999999999
 30
0.0
 11
897.5000062957
 21
736.4999999999999
 31
0.0
 70
   160
  3
ISO-25
100
AcDbAlignedDimension
 13
865.00000678
 23
636.00000149015
 33
0.0
 14
930.0000058114
 24
592.49999850995
 34
0.0
100
AcDbRotatedDimension
1001
ACAD
1000
DSTYLE
1002
{
1070
   270
1070
     2
1070
     6
1000
EX_NORM
1070
     7
1000
EX_NORM
1070
    41
1040
18.0
1070
    42
1040
9.0
1070
    44
1040
6.0
1070
    73
1070
     0
1070
    74
1070
     0
1070
    75
1070
     0
1070
    76
1070
     0
1070
    77
1070
     1
1070
    78
1070
     8
1070
   140
1040
20.77742494226328
1070
   147
1040
0.0
1070
   173
1070
     1
1070
   176
1070
     2
1070
   177
1070
     2
1070
   178
1070
     2
1070
   271
1070
     2
1070
   277
1070
     2
1070
   279
1070
     2
1070
   280
1070
     0
1070
   287
1070
     5
1070
   340
1005
10E
1002
}
  0
DIMENSION
  5
1C6
330
1F
100
AcDbEntity
  8
Ｓ_１_１
  6
CONTINUOUS
 62
     2
100
AcDbDimension
  2
*D29
 10
1235.0000012666
 20
719.9999999999999
 30
0.0
 11
1202.50000175085
 21
736.4999999999999
 31
0.0
 70
   160
  3
ISO-25
100
AcDbAlignedDimension
 13
1170.0000022351
 23
592.49999850995
 33
0.0
 14
1235.0000012666
 24
636.00000149015
 34
0.0
100
AcDbRotatedDimension
1001
ACAD
1000
DSTYLE
1002
{
1070
   270
1070
     2
1070
     6
1000
EX_NORM
1070
     7
1000
EX_NORM
1070
    41
1040
18.0
1070
    42
1040
9.0
1070
    44
1040
6.0
1070
    73
1070
     0
1070
    74
1070
     0
1070
    75
1070
     0
1070
    76
1070
     0
1070
    77
1070
     1
1070
    78
1070
     8
1070
   140
1040
20.77742494226328
1070
   147
1040
0.0
1070
   173
1070
     1
1070
   176
1070
     2
1070
   177
1070
     2
1070
   178
1070
     2
1070
   271
1070
     2
1070
   277
1070
     2
1070
   279
1070
     2
1070
   280
1070
     0
1070
   287
1070
     5
1070
   340
1005
10E
1002
}
  0
DIMENSION
  5
1D3
330
1F
100
AcDbEntity
  8
Ｓ_１_１
  6
CONTINUOUS
 62
     2
100
AcDbDimension
  2
*D30
 10
1050.0000040233
 20
719.9999999999999
 30
0.0
 11
990.0000049173501
 21
736.4999999999999
 31
0.0
 70
   160
  3
ISO-25
100
AcDbAlignedDimension
 13
930.0000058114
 23
592.49999850995
 33
0.0
 14
1050.0000040233
 24
592.49999850995
 34
0.0
100
AcDbRotatedDimension
1001
ACAD
1000
DSTYLE
1002
{
1070
   270
1070
     2
1070
     6
1000
EX_NORM
1070
     7
1000
EX_NORM
1070
    41
1040
18.0
1070
    42
1040
9.0
1070
    44
1040
6.0
1070
    73
1070
     0
1070
    74
1070
     0
1070
    75
1070
     0
1070
    76
1070
     0
1070
    77
1070
     1
1070
    78
1070
     8
1070
   140
1040
20.77742494226328
1070
   147
1040
0.0
1070
   173
1070
     1
1070
   176
1070
     2
1070
   177
1070
     2
1070
   178
1070
     2
1070
   271
1070
     2
1070
   277
1070
     2
1070
   279
1070
     2
1070
   280
1070
     0
1070
   287
1070
     5
1070
   340
1005
10E
1002
}
  0
DIMENSION
  5
1E0
330
1F
100
AcDbEntity
  8
Ｓ_１_１
  6
CONTINUOUS
 62
     2
100
AcDbDimension
  2
*D31
 10
1170.0000022351
 20
719.9999999999999
 30
0.0
 11
1110.0000031292
 21
736.4999999999999
 31
0.0
 70
   160
  3
ISO-25
100
AcDbAlignedDimension
 13
1050.0000040233
 23
592.49999850995
 33
0.0
 14
1170.0000022351
 24
592.49999850995
 34
0.0
100
AcDbRotatedDimension
1001
ACAD
1000
DSTYLE
1002
{
1070
   270
1070
     2
1070
     6
1000
EX_NORM
1070
     7
1000
EX_NORM
1070
    41
1040
18.0
1070
    42
1040
9.0
1070
    44
1040
6.0
1070
    73
1070
     0
1070
    74
1070
     0
1070
    75
1070
     0
1070
    76
1070
     0
1070
    77
1070
     1
1070
    78
1070
     8
1070
   140
1040
20.77742494226328
1070
   147
1040
0.0
1070
   173
1070
     1
1070
   176
1070
     2
1070
   177
1070
     2
1070
   178
1070
     2
1070
   271
1070
     2
1070
   277
1070
     2
1070
   279
1070
     2
1070
   280
1070
     0
1070
   287
1070
     5
1070
   340
1005
10E
1002
}
  0
DIMENSION
  5
1ED
330
1F
100
AcDbEntity
  8
Ｓ_１_１
  6
CONTINUOUS
 62
     2
100
AcDbDimension
  2
*D32
 10
690.0000093877
 20
760.0
 30
0.0
 11
777.5000080838499
 21
776.5
 31
0.0
 70
   160
  3
ISO-25
100
AcDbAlignedDimension
 13
865.00000678
 23
636.00000149015
 33
0.0
 14
690.0000093877
 24
594.99999828635
 34
0.0
100
AcDbRotatedDimension
1001
ACAD
1000
DSTYLE
1002
{
1070
   270
1070
     2
1070
     6
1000
EX_NORM
1070
     7
1000
EX_NORM
1070
    41
1040
18.0
1070
    42
1040
9.0
1070
    44
1040
6.0
1070
    73
1070
     0
1070
    74
1070
     0
1070
    75
1070
     0
1070
    76
1070
     0
1070
    77
1070
     1
1070
    78
1070
     8
1070
   140
1040
20.77742494226328
1070
   147
1040
0.0
1070
   173
1070
     1
1070
   176
1070
     2
1070
   177
1070
     2
1070
   178
1070
     2
1070
   271
1070
     2
1070
   277
1070
     2
1070
   279
1070
     2
1070
   280
1070
     0
1070
   287
1070
     5
1070
   340
1005
10E
1002
}
  0
DIMENSION
  5
1FA
330
1F
100
AcDbEntity
  8
Ｓ_１_１
  6
CONTINUOUS
 62
     2
100
AcDbDimension
  2
*D33
 10
559.5000571087
 20
760.0
 30
0.0
 11
594.7500336952502
 21
776.5
 31
0.0
 70
   160
  3
ISO-25
100
AcDbAlignedDimension
 13
630.0000102818
 23
594.99999828635
 33
0.0
 14
559.5000571087
 24
557.99993574252
 34
0.0
100
AcDbRotatedDimension
1001
ACAD
1000
DSTYLE
1002
{
1070
   270
1070
     2
1070
     6
1000
EX_BCIR
1070
     7
1000
EX_NORM
1070
    41
1040
6.0
1070
    42
1040
9.0
1070
    44
1040
6.0
1070
    73
1070
     0
1070
    74
1070
     0
1070
    75
1070
     0
1070
    76
1070
     0
1070
    77
1070
     1
1070
    78
1070
     8
1070
   140
1040
20.77742494226328
1070
   147
1040
0.0
1070
   173
1070
     1
1070
   176
1070
     2
1070
   177
1070
     2
1070
   178
1070
     2
1070
   271
1070
     2
1070
   277
1070
     2
1070
   279
1070
     2
1070
   280
1070
     0
1070
   287
1070
     5
1070
   340
1005
10E
1002
}
  0
DIMENSION
  5
207
330
1F
100
AcDbEntity
  8
Ｓ_１_１
  6
CONTINUOUS
 62
     2
100
AcDbDimension
  2
*D34
 10
690.0000093877
 20
760.0
 30
0.0
 11
660.0000098347501
 21
776.5
 31
0.0
 70
   160
  3
ISO-25
100
AcDbAlignedDimension
 13
630.0000102818
 23
594.99999828635
 33
0.0
 14
690.0000093877
 24
594.99999828635
 34
0.0
100
AcDbRotatedDimension
1001
ACAD
1000
DSTYLE
1002
{
1070
   270
1070
     2
1070
     6
1000
EX_BCIR
1070
     7
1000
EX_NORM
1070
    41
1040
6.0
1070
    42
1040
9.0
1070
    44
1040
6.0
1070
    73
1070
     0
1070
    74
1070
     0
1070
    75
1070
     0
1070
    76
1070
     0
1070
    77
1070
     1
1070
    78
1070
     8
1070
   140
1040
20.77742494226328
1070
   147
1040
0.0
1070
   173
1070
     1
1070
   176
1070
     2
1070
   177
1070
     2
1070
   178
1070
     2
1070
   271
1070
     2
1070
   277
1070
     2
1070
   279
1070
     2
1070
   280
1070
     0
1070
   287
1070
     5
1070
   340
1005
10E
1002
}
  0
DIMENSION
  5
214
330
1F
100
AcDbEntity
  8
Ｓ_１_１
  6
CONTINUOUS
 62
     2
100
AcDbDimension
  2
*D35
 10
1390.500029467
 20
799.9999999999999
 30
0.0
 11
975.0000432878501
 21
816.4999999999999
 31
0.0
 70
   160
  3
ISO-25
100
AcDbAlignedDimension
 13
559.5000571087
 23
557.99993574252
 33
0.0
 14
1390.500029467
 24
557.99968400393
 34
0.0
100
AcDbRotatedDimension
1001
ACAD
1000
DSTYLE
1002
{
1070
   270
1070
     2
1070
     6
1000
EX_NORM
1070
     7
1000
EX_NORM
1070
    41
1040
18.0
1070
    42
1040
9.0
1070
    44
1040
6.0
1070
    73
1070
     0
1070
    74
1070
     0
1070
    75
1070
     0
1070
    76
1070
     0
1070
    77
1070
     1
1070
    78
1070
     8
1070
   140
1040
20.77742494226328
1070
   147
1040
0.0
1070
   173
1070
     1
1070
   176
1070
     2
1070
   177
1070
     2
1070
   178
1070
     2
1070
   271
1070
     2
1070
   277
1070
     2
1070
   279
1070
     2
1070
   280
1070
     0
1070
   287
1070
     5
1070
   340
1005
10E
1002
}
  0
DIMENSION
  5
221
330
1F
100
AcDbEntity
  8
Ｓ_１_１
  6
CONTINUOUS
 62
     2
100
AcDbDimension
  2
*D36
 10
1235.0000012666
 20
760.0
 30
0.0
 11
1247.5000010803
 21
776.5
 31
0.0
 70
   160
  3
ISO-25
100
AcDbAlignedDimension
 13
1260.000000894
 23
594.99999828635
 33
0.0
 14
1235.0000012666
 24
636.00000149015
 34
0.0
100
AcDbRotatedDimension
1001
ACAD
1000
DSTYLE
1002
{
1070
   270
1070
     2
1070
     6
1000
EX_BCIR
1070
     7
1000
EX_NORM
1070
    41
1040
6.0
1070
    42
1040
9.0
1070
    44
1040
6.0
1070
    73
1070
     0
1070
    74
1070
     0
1070
    75
1070
     0
1070
    76
1070
     0
1070
    77
1070
     1
1070
    78
1070
     8
1070
   140
1040
20.77742494226328
1070
   147
1040
0.0
1070
   173
1070
     1
1070
   176
1070
     2
1070
   177
1070
     2
1070
   178
1070
     2
1070
   271
1070
     2
1070
   277
1070
     2
1070
   279
1070
     2
1070
   280
1070
     0
1070
   287
1070
     5
1070
   340
1005
10E
1002
}
  0
DIMENSION
  5
22E
330
1F
100
AcDbEntity
  8
Ｓ_１_１
  6
CONTINUOUS
 62
     2
100
AcDbDimension
  2
*D37
 10
1320.0
 20
760.0
 30
0.0
 11
1290.000000447
 21
776.5
 31
0.0
 70
   160
  3
ISO-25
100
AcDbAlignedDimension
 13
1260.000000894
 23
594.99999828635
 33
0.0
 14
1320.0
 24
594.99999828635
 34
0.0
100
AcDbRotatedDimension
1001
ACAD
1000
DSTYLE
1002
{
1070
   270
1070
     2
1070
     6
1000
EX_BCIR
1070
     7
1000
EX_BCIR
1070
    41
1040
6.0
1070
    42
1040
9.0
1070
    44
1040
6.0
1070
    73
1070
     0
1070
    74
1070
     0
1070
    75
1070
     0
1070
    76
1070
     0
1070
    77
1070
     1
1070
    78
1070
     8
1070
   140
1040
20.77742494226328
1070
   147
1040
0.0
1070
   173
1070
     1
1070
   176
1070
     2
1070
   177
1070
     2
1070
   178
1070
     2
1070
   271
1070
     2
1070
   277
1070
     2
1070
   279
1070
     2
1070
   280
1070
     0
1070
   287
1070
     5
1070
   340
1005
10E
1002
}
  0
DIMENSION
  5
23B
330
1F
100
AcDbEntity
  8
Ｓ_１_１
  6
CONTINUOUS
 62
     2
100
AcDbDimension
  2
*D38
 10
1390.500029467
 20
760.0
 30
0.0
 11
1355.2500147335
 21
776.5
 31
0.0
 70
   160
  3
ISO-25
100
AcDbAlignedDimension
 13
1320.0
 23
594.99999828635
 33
0.0
 14
1390.500029467
 24
557.99968400393
 34
0.0
100
AcDbRotatedDimension
1001
ACAD
1000
DSTYLE
1002
{
1070
   270
1070
     2
1070
     6
1000
EX_BCIR
1070
     7
1000
EX_NORM
1070
    41
1040
6.0
1070
    42
1040
9.0
1070
    44
1040
6.0
1070
    73
1070
     0
1070
    74
1070
     0
1070
    75
1070
     0
1070
    76
1070
     0
1070
    77
1070
     1
1070
    78
1070
     8
1070
   140
1040
20.77742494226328
1070
   147
1040
0.0
1070
   173
1070
     1
1070
   176
1070
     2
1070
   177
1070
     2
1070
   178
1070
     2
1070
   271
1070
     2
1070
   277
1070
     2
1070
   279
1070
     2
1070
   280
1070
     0
1070
   287
1070
     5
1070
   340
1005
10E
1002
}
  0
DIMENSION
  5
248
330
1F
100
AcDbEntity
  8
Ｓ_１_１
  6
CONTINUOUS
 62
     2
100
AcDbDimension
  2
*D39
 10
1600.0
 20
1184.9999990314
 30
0.0
 11
1583.5
 21
1119.99999999995
 31
0.0
 70
   160
  3
ISO-25
100
AcDbAlignedDimension
 13
1694.9279806773
 23
1055.0000009685
 33
0.0
 14
1694.2717001695
 24
1184.9999990314
 34
0.0
 50
90.0
100
AcDbRotatedDimension
1001
ACAD
1000
DSTYLE
1002
{
1070
   270
1070
     2
1070
     6
1000
EX_NORM
1070
     7
1000
EX_NORM
1070
    41
1040
18.0
1070
    42
1040
9.0
1070
    44
1040
6.0
1070
    73
1070
     0
1070
    74
1070
     0
1070
    75
1070
     0
1070
    76
1070
     0
1070
    77
1070
     1
1070
    78
1070
     8
1070
   140
1040
20.77742494226328
1070
   147
1040
0.0
1070
   173
1070
     1
1070
   176
1070
     2
1070
   177
1070
     2
1070
   178
1070
     2
1070
   271
1070
     2
1070
   277
1070
     2
1070
   279
1070
     2
1070
   280
1070
     0
1070
   287
1070
     5
1070
   340
1005
10E
1002
}
  0
DIMENSION
  5
255
330
1F
100
AcDbEntity
  8
Ｓ_１_１
  6
CONTINUOUS
 62
     2
100
AcDbDimension
  2
*D40
 10
1560.0
 20
1005.00000171363
 30
0.0
 11
1543.5
 21
1119.999999999965
 31
0.0
 70
   160
  3
ISO-25
100
AcDbAlignedDimension
 13
1754.9999779605
 23
1234.9999982863
 33
0.0
 14
1755.0002369412
 24
1005.00000171363
 34
0.0
 50
90.0
100
AcDbRotatedDimension
1001
ACAD
1000
DSTYLE
1002
{
1070
   270
1070
     2
1070
     6
1000
EX_NORM
1070
     7
1000
EX_NORM
1070
    41
1040
18.0
1070
    42
1040
9.0
1070
    44
1040
6.0
1070
    73
1070
     0
1070
    74
1070
     0
1070
    75
1070
     0
1070
    76
1070
     0
1070
    77
1070
     1
1070
    78
1070
     8
1070
   140
1040
20.77742494226328
1070
   147
1040
0.0
1070
   173
1070
     1
1070
   176
1070
     2
1070
   177
1070
     2
1070
   178
1070
     2
1070
   271
1070
     2
1070
   277
1070
     2
1070
   279
1070
     2
1070
   280
1070
     0
1070
   287
1070
     5
1070
   340
1005
10E
1002
}
  0
DIMENSION
  5
262
330
1F
100
AcDbEntity
  8
Ｓ_１_１
  6
CONTINUOUS
 62
     2
100
AcDbDimension
  2
*D41
 10
1520.0
 20
980.0000020861299
 30
0.0
 11
1503.5
 21
1119.999999999965
 31
0.0
 70
   160
  3
ISO-25
100
AcDbAlignedDimension
 13
1719.9999957086
 23
1259.9999979138
 33
0.0
 14
1719.9999925408
 24
980.0000020861299
 34
0.0
 50
90.0
100
AcDbRotatedDimension
1001
ACAD
1000
DSTYLE
1002
{
1070
   270
1070
     2
1070
     6
1000
EX_NORM
1070
     7
1000
EX_NORM
1070
    41
1040
18.0
1070
    42
1040
9.0
1070
    44
1040
6.0
1070
    73
1070
     0
1070
    74
1070
     0
1070
    75
1070
     0
1070
    76
1070
     0
1070
    77
1070
     1
1070
    78
1070
     8
1070
   140
1040
20.77742494226328
1070
   147
1040
0.0
1070
   173
1070
     1
1070
   176
1070
     2
1070
   177
1070
     2
1070
   178
1070
     2
1070
   271
1070
     2
1070
   277
1070
     2
1070
   279
1070
     2
1070
   280
1070
     0
1070
   287
1070
     5
1070
   340
1005
10E
1002
}
  0
DIMENSION
  5
26F
330
1F
100
AcDbEntity
  8
Ｓ_１_１
  6
CONTINUOUS
 62
     2
100
AcDbDimension
  2
*D42
 10
1904.9999990314
 20
880.0
 30
0.0
 11
1839.99999999995
 21
896.5
 31
0.0
 70
   160
  3
ISO-25
100
AcDbAlignedDimension
 13
1775.0000009685
 23
974.06246402763
 33
0.0
 14
1904.9999990314
 24
974.71870638853
 34
0.0
100
AcDbRotatedDimension
1001
ACAD
1000
DSTYLE
1002
{
1070
   270
1070
     2
1070
     6
1000
EX_NORM
1070
     7
1000
EX_NORM
1070
    41
1040
18.0
1070
    42
1040
9.0
1070
    44
1040
6.0
1070
    73
1070
     0
1070
    74
1070
     0
1070
    75
1070
     0
1070
    76
1070
     0
1070
    77
1070
     1
1070
    78
1070
     8
1070
   140
1040
20.77742494226328
1070
   147
1040
0.0
1070
   173
1070
     1
1070
   176
1070
     2
1070
   177
1070
     2
1070
   178
1070
     2
1070
   271
1070
     2
1070
   277
1070
     2
1070
   279
1070
     2
1070
   280
1070
     0
1070
   287
1070
     5
1070
   340
1005
10E
1002
}
  0
DIMENSION
  5
27C
330
1F
100
AcDbEntity
  8
Ｓ_１_１
  6
CONTINUOUS
 62
     2
100
AcDbDimension
  2
*D43
 10
1954.9999982863
 20
839.9999999999999
 30
0.0
 11
1839.99999999995
 21
856.4999999999999
 31
0.0
 70
   160
  3
ISO-25
100
AcDbAlignedDimension
 13
1725.0000017136
 23
1035.00023694133
 33
0.0
 14
1954.9999982863
 24
1034.99973480673
 34
0.0
100
AcDbRotatedDimension
1001
ACAD
1000
DSTYLE
1002
{
1070
   270
1070
     2
1070
     6
1000
EX_NORM
1070
     7
1000
EX_NORM
1070
    41
1040
18.0
1070
    42
1040
9.0
1070
    44
1040
6.0
1070
    73
1070
     0
1070
    74
1070
     0
1070
    75
1070
     0
1070
    76
1070
     0
1070
    77
1070
     1
1070
    78
1070
     8
1070
   140
1040
20.77742494226328
1070
   147
1040
0.0
1070
   173
1070
     1
1070
   176
1070
     2
1070
   177
1070
     2
1070
   178
1070
     2
1070
   271
1070
     2
1070
   277
1070
     2
1070
   279
1070
     2
1070
   280
1070
     0
1070
   287
1070
     5
1070
   340
1005
10E
1002
}
  0
DIMENSION
  5
289
330
1F
100
AcDbEntity
  8
Ｓ_１_１
  6
CONTINUOUS
 62
     2
100
AcDbDimension
  2
*D44
 10
1979.9999979138
 20
799.9999999999999
 30
0.0
 11
1839.99999999995
 21
816.4999999999999
 31
0.0
 70
   160
  3
ISO-25
100
AcDbAlignedDimension
 13
1700.0000020861
 23
999.99991499084
 33
0.0
 14
1979.9999979138
 24
1000.00005938306
 34
0.0
100
AcDbRotatedDimension
1001
ACAD
1000
DSTYLE
1002
{
1070
   270
1070
     2
1070
     6
1000
EX_NORM
1070
     7
1000
EX_NORM
1070
    41
1040
18.0
1070
    42
1040
9.0
1070
    44
1040
6.0
1070
    73
1070
     0
1070
    74
1070
     0
1070
    75
1070
     0
1070
    76
1070
     0
1070
    77
1070
     1
1070
    78
1070
     8
1070
   140
1040
20.77742494226328
1070
   147
1040
0.0
1070
   173
1070
     1
1070
   176
1070
     2
1070
   177
1070
     2
1070
   178
1070
     2
1070
   271
1070
     2
1070
   277
1070
     2
1070
   279
1070
     2
1070
   280
1070
     0
1070
   287
1070
     5
1070
   340
1005
10E
1002
}
  0
CIRCLE
  5
296
330
1F
100
AcDbEntity
  8
Ｓ_１_１
  6
CONTINUOUS
 62
     3
100
AcDbCircle
 10
1156.9999719113
 20
1184.99999903143
 30
0.0
 40
9.000000223500004
  0
CIRCLE
  5
297
330
1F
100
AcDbEntity
  8
Ｓ_１_１
  6
CONTINUOUS
 62
     3
100
AcDbCircle
 10
942.9999598413
 20
1184.99999903143
 30
0.0
 40
9.000000223500004
  0
CIRCLE
  5
298
330
1F
100
AcDbEntity
  8
Ｓ_１_１
  6
CONTINUOUS
 62
     3
100
AcDbCircle
 10
942.9999598413
 20
1055.00000096853
 30
0.0
 40
9.000000223500004
  0
CIRCLE
  5
299
330
1F
100
AcDbEntity
  8
Ｓ_１_１
  6
CONTINUOUS
 62
     3
100
AcDbCircle
 10
1156.9999719113
 20
1055.00000096853
 30
0.0
 40
9.000000223500004
  0
CIRCLE
  5
29A
330
1F
100
AcDbEntity
  8
Ｓ_１_１
  6
CONTINUOUS
 62
     3
100
AcDbCircle
 10
1156.9999719113
 20
1055.00000096853
 30
0.0
 40
7.499999888200001
  0
CIRCLE
  5
29B
330
1F
100
AcDbEntity
  8
Ｓ_１_１
  6
CONTINUOUS
 62
     3
100
AcDbCircle
 10
942.9999598413
 20
1055.00000096853
 30
0.0
 40
7.499999888200001
  0
CIRCLE
  5
29C
330
1F
100
AcDbEntity
  8
Ｓ_１_１
  6
CONTINUOUS
 62
     3
100
AcDbCircle
 10
942.9999598413
 20
1184.99999903143
 30
0.0
 40
7.499999888200001
  0
CIRCLE
  5
29D
330
1F
100
AcDbEntity
  8
Ｓ_１_１
  6
CONTINUOUS
 62
     3
100
AcDbCircle
 10
1156.9999719113
 20
1184.99999903143
 30
0.0
 40
7.499999888200001
  0
ARC
  5
29E
330
1F
100
AcDbEntity
  8
Ｓ_１_１
  6
CONTINUOUS
 62
     3
100
AcDbCircle
 10
1342.2128292588
 20
1066.50001605603
 30
0.0
 40
33.2871932792
100
AcDbArc
 50
339.7889784723002
 51
20.21095322580035
  0
ARC
  5
29F
330
1F
100
AcDbEntity
  8
Ｓ_１_１
  6
CONTINUOUS
 62
     3
100
AcDbCircle
 10
1342.2128292588
 20
1043.49998588113
 30
0.0
 40
33.2871932792
100
AcDbArc
 50
339.7890604346002
 51
20.2110078672997
  0
ARC
  5
2A0
330
1F
100
AcDbEntity
  8
Ｓ_１_１
  6
CONTINUOUS
 62
     3
100
AcDbCircle
 10
1390.7872380198
 20
1043.49998588113
 30
0.0
 40
33.2871932792
100
AcDbArc
 50
159.7890108020003
 51
200.2109172536001
  0
ARC
  5
2A1
330
1F
100
AcDbEntity
  8
Ｓ_１_１
  6
CONTINUOUS
 62
     3
100
AcDbCircle
 10
1390.7872380198
 20
1066.50001605603
 30
0.0
 40
33.2871932792
100
AcDbArc
 50
159.7890654434997
 51
200.2109718950997
  0
ARC
  5
2A2
330
1F
100
AcDbEntity
  8
Ｓ_１_１
  6
CONTINUOUS
 62
     3
100
AcDbCircle
 10
1342.2128292588
 20
1196.50001411883
 30
0.0
 40
33.2871932792
100
AcDbArc
 50
339.7889784723002
 51
20.21095322579994
  0
ARC
  5
2A3
330
1F
100
AcDbEntity
  8
Ｓ_１_１
  6
CONTINUOUS
 62
     3
100
AcDbCircle
 10
1342.2128292588
 20
1173.49998394403
 30
0.0
 40
33.2871932792
100
AcDbArc
 50
339.7890604346002
 51
20.21100786730005
  0
ARC
  5
2A4
330
1F
100
AcDbEntity
  8
Ｓ_１_１
  6
CONTINUOUS
 62
     3
100
AcDbCircle
 10
1390.7872380198
 20
1173.49998394403
 30
0.0
 40
33.2871932792
100
AcDbArc
 50
159.7890108020003
 51
200.2109172536001
  0
ARC
  5
2A5
330
1F
100
AcDbEntity
  8
Ｓ_１_１
  6
CONTINUOUS
 62
     3
100
AcDbCircle
 10
1390.7872380198
 20
1196.50001411883
 30
0.0
 40
33.2871932792
100
AcDbArc
 50
159.7890654435
 51
200.2109718950997
  0
ARC
  5
2A6
330
1F
100
AcDbEntity
  8
Ｓ_１_１
  6
CONTINUOUS
 62
     3
100
AcDbCircle
 10
607.4868880586005
 20
1043.49998588113
 30
0.0
 40
33.00553987910001
100
AcDbArc
 50
159.6088850532002
 51
200.3910293419999
  0
ARC
  5
2A7
330
1F
100
AcDbEntity
  8
Ｓ_１_１
  6
CONTINUOUS
 62
     3
100
AcDbCircle
 10
559.2128104088006
 20
1196.50001411883
 30
0.0
 40
33.2871932792
100
AcDbArc
 50
339.7889784723002
 51
20.2109532258
  0
ARC
  5
2A8
330
1F
100
AcDbEntity
  8
Ｓ_１_１
  6
CONTINUOUS
 62
     3
100
AcDbCircle
 10
559.2128104088006
 20
1173.49998394403
 30
0.0
 40
33.2871932792
100
AcDbArc
 50
339.7890604346002
 51
20.21100786730005
  0
ARC
  5
2A9
330
1F
100
AcDbEntity
  8
Ｓ_１_１
  6
CONTINUOUS
 62
     3
100
AcDbCircle
 10
607.7871810229003
 20
1173.49998394403
 30
0.0
 40
33.2871932792
100
AcDbArc
 50
159.7890108020002
 51
200.2109172536001
  0
ARC
  5
2AA
330
1F
100
AcDbEntity
  8
Ｓ_１_１
  6
CONTINUOUS
 62
     3
100
AcDbCircle
 10
607.7871810229003
 20
1196.50001411883
 30
0.0
 40
33.2871932792
100
AcDbArc
 50
159.7890654435
 51
200.2109718950998
  0
ARC
  5
2AB
330
1F
100
AcDbEntity
  8
Ｓ_１_１
  6
CONTINUOUS
 62
     3
100
AcDbCircle
 10
559.2128104088006
 20
1043.49998588113
 30
0.0
 40
33.2871932792
100
AcDbArc
 50
339.7890604346002
 51
20.2110078672997
  0
ARC
  5
2AC
330
1F
100
AcDbEntity
  8
Ｓ_１_１
  6
CONTINUOUS
 62
     3
100
AcDbCircle
 10
559.2128104088006
 20
1066.50001605603
 30
0.0
 40
33.2871932792
100
AcDbArc
 50
339.7889784723002
 51
20.21095322580035
  0
ARC
  5
2AD
330
1F
100
AcDbEntity
  8
Ｓ_１_１
  6
CONTINUOUS
 62
     3
100
AcDbCircle
 10
607.7871810229003
 20
1066.50001605603
 30
0.0
 40
33.2871932792
100
AcDbArc
 50
159.7890654434997
 51
200.2109718950998
  0
LINE
  5
2AE
330
1F
100
AcDbEntity
  8
Ｓ_１_１
  6
CONTINUOUS
 62
     3
100
AcDbLine
 10
865.00000678
 20
1000.00000178813
 30
0.0
 11
1235.0000012666
 21
1000.00000178813
 31
0.0
  0
LINE
  5
2AF
330
1F
100
AcDbEntity
  8
Ｓ_１_１
  6
CONTINUOUS
 62
     3
100
AcDbLine
 10
865.00000678
 20
1239.99999821183
 30
0.0
 11
1235.0000012666
 21
1239.99999821183
 31
0.0
  0
LINE
  5
2B0
330
1F
100
AcDbEntity
  8
Ｓ_１_１
  6
CONTINUOUS
 62
     3
100
AcDbLine
 10
630.0000102817999
 20
1035.00000126663
 30
0.0
 11
690.0000093877002
 21
1035.00000126663
 31
0.0
  0
LINE
  5
2B1
330
1F
100
AcDbEntity
  8
Ｓ_１_１
  6
CONTINUOUS
 62
     3
100
AcDbLine
 10
630.0000102817999
 20
1204.99999873343
 30
0.0
 11
690.0000093877002
 21
1204.99999873343
 31
0.0
  0
LINE
  5
2B2
330
1F
100
AcDbEntity
  8
Ｓ_１_１
  6
CONTINUOUS
 62
     3
100
AcDbLine
 10
1260.000000894
 20
1204.99999873343
 30
0.0
 11
1320.0
 21
1204.99999873343
 31
0.0
  0
LINE
  5
2B3
330
1F
100
AcDbEntity
  8
Ｓ_１_１
  6
CONTINUOUS
 62
     3
100
AcDbLine
 10
1260.000000894
 20
1035.00000126663
 30
0.0
 11
1320.0
 21
1035.00000126663
 31
0.0
  0
LINE
  5
2B4
330
1F
100
AcDbEntity
  8
Ｓ_１_１
  6
CONTINUOUS
 62
     3
100
AcDbLine
 10
1256.9999704211
 20
1072.50000070783
 30
0.0
 11
1256.9999704211
 21
1037.50000122933
 31
0.0
  0
LINE
  5
2B5
330
1F
100
AcDbEntity
  8
Ｓ_１_１
  6
CONTINUOUS
 62
     3
100
AcDbLine
 10
1256.9999704211
 20
1202.49999877063
 30
0.0
 11
1256.9999704211
 21
1167.49999929223
 31
0.0
  0
LINE
  5
2B6
330
1F
100
AcDbEntity
  8
Ｓ_１_１
  6
CONTINUOUS
 62
     3
100
AcDbLine
 10
693.0000398606003
 20
1202.49999877063
 30
0.0
 11
693.0000398606003
 21
1167.49999929223
 31
0.0
  0
LINE
  5
2B7
330
1F
100
AcDbEntity
  8
Ｓ_１_１
  6
CONTINUOUS
 62
     3
100
AcDbLine
 10
693.0000398606003
 20
1072.50000070783
 30
0.0
 11
693.0000398606003
 21
1037.50000122933
 31
0.0
  0
LINE
  5
2B8
330
1F
100
AcDbEntity
  8
Ｓ_１_１
  6
CONTINUOUS
 62
     3
100
AcDbLine
 10
641.6699319828999
 20
1110.00000014903
 30
0.0
 11
641.6699319828999
 21
1070.00000074503
 31
0.0
  0
LINE
  5
2B9
330
1F
100
AcDbEntity
  8
Ｓ_１_１
  6
CONTINUOUS
 62
     3
100
AcDbLine
 10
641.6699319828999
 20
1070.00000074503
 30
0.0
 11
681.6699313868003
 21
1070.00000074503
 31
0.0
  0
LINE
  5
2BA
330
1F
100
AcDbEntity
  8
Ｓ_１_１
  6
CONTINUOUS
 62
     3
100
AcDbLine
 10
641.6699319828999
 20
1110.00000014903
 30
0.0
 11
681.6699313868003
 21
1110.00000014903
 31
0.0
  0
LINE
  5
2BB
330
1F
100
AcDbEntity
  8
Ｓ_１_１
  6
CONTINUOUS
 62
     3
100
AcDbLine
 10
681.6699313868003
 20
1110.00000014903
 30
0.0
 11
681.6699313868003
 21
1070.00000074503
 31
0.0
  0
LINE
  5
2BC
330
1F
100
AcDbEntity
  8
Ｓ_１_１
  6
CONTINUOUS
 62
     3
100
AcDbLine
 10
1308.1468202449
 20
1169.99999925493
 30
0.0
 11
1308.1468202449
 21
1129.99999985093
 31
0.0
  0
LINE
  5
2BD
330
1F
100
AcDbEntity
  8
Ｓ_１_１
  6
CONTINUOUS
 62
     3
100
AcDbLine
 10
1268.146820841
 20
1129.99999985093
 30
0.0
 11
1308.1468202449
 21
1129.99999985093
 31
0.0
  0
LINE
  5
2BE
330
1F
100
AcDbEntity
  8
Ｓ_１_１
  6
CONTINUOUS
 62
     3
100
AcDbLine
 10
1268.146820841
 20
1169.99999925493
 30
0.0
 11
1308.1468202449
 21
1169.99999925493
 31
0.0
  0
LINE
  5
2BF
330
1F
100
AcDbEntity
  8
Ｓ_１_１
  6
CONTINUOUS
 62
     3
100
AcDbLine
 10
1268.146820841
 20
1169.99999925493
 30
0.0
 11
1268.146820841
 21
1129.99999985093
 31
0.0
  0
LINE
  5
2C0
330
1F
100
AcDbEntity
  8
Ｓ_１_１
  6
CONTINUOUS
 62
     3
100
AcDbLine
 10
1328.4999846145
 20
1082.99999292193
 30
0.0
 11
1328.4999846145
 21
1027.00000901523
 31
0.0
  0
LINE
  5
2C1
330
1F
100
AcDbEntity
  8
Ｓ_１_１
  6
CONTINUOUS
 62
     3
100
AcDbLine
 10
1356.5000147148
 20
1077.99999299643
 30
0.0
 11
1356.5000147148
 21
1032.00000894073
 31
0.0
  0
LINE
  5
2C2
330
1F
100
AcDbEntity
  8
Ｓ_１_１
  6
CONTINUOUS
 62
     3
100
AcDbLine
 10
1357.4999994412
 20
1077.99999299643
 30
0.0
 11
1357.4999994412
 21
1032.00000894073
 31
0.0
  0
LINE
  5
2C3
330
1F
100
AcDbEntity
  8
Ｓ_１_１
  6
CONTINUOUS
 62
     3
100
AcDbLine
 10
1357.4999994412
 20
1207.99999105933
 30
0.0
 11
1357.4999994412
 21
1162.00000700353
 31
0.0
  0
LINE
  5
2C4
330
1F
100
AcDbEntity
  8
Ｓ_１_１
  6
CONTINUOUS
 62
     3
100
AcDbLine
 10
1356.5000147148
 20
1207.99999105933
 30
0.0
 11
1356.5000147148
 21
1162.00000700353
 31
0.0
  0
LINE
  5
2C5
330
1F
100
AcDbEntity
  8
Ｓ_１_１
  6
CONTINUOUS
 62
     3
100
AcDbLine
 10
1328.4999846145
 20
1212.99999098483
 30
0.0
 11
1328.4999846145
 21
1157.00000707803
 31
0.0
  0
LINE
  5
2C6
330
1F
100
AcDbEntity
  8
Ｓ_１_１
  6
CONTINUOUS
 62
     3
100
AcDbLine
 10
1357.5001040444
 20
1162.99990071203
 30
0.0
 11
1356.5001785249
 21
1161.99997519253
 31
0.0
  0
LINE
  5
2C7
330
1F
100
AcDbEntity
  8
Ｓ_１_１
  6
CONTINUOUS
 62
     3
100
AcDbLine
 10
1356.4999981189
 20
1207.99988234863
 30
0.0
 11
1357.50000574
 21
1206.99983662583
 31
0.0
  0
LINE
  5
2C8
330
1F
100
AcDbEntity
  8
Ｓ_１_１
  6
CONTINUOUS
 62
     3
100
AcDbLine
 10
1357.5000939292
 20
1032.99993660163
 30
0.0
 11
1356.5001414357
 21
1031.99998410813
 31
0.0
  0
LINE
  5
2C9
330
1F
100
AcDbEntity
  8
Ｓ_１_１
  6
CONTINUOUS
 62
     3
100
AcDbLine
 10
1356.4999981364
 20
1077.99993818403
 30
0.0
 11
1357.4999826615
 21
1076.99995365893
 31
0.0
  0
LINE
  5
2CA
330
1F
100
AcDbEntity
  8
Ｓ_１_１
  6
CONTINUOUS
 62
     3
100
AcDbLine
 10
1327.5000186958
 20
1027.99997520093
 30
0.0
 11
1328.5000015351
 21
1026.99999236173
 31
0.0
  0
LINE
  5
2CB
330
1F
100
AcDbEntity
  8
Ｓ_１_１
  6
CONTINUOUS
 62
     3
100
AcDbLine
 10
1328.5000875146
 20
1082.99994341753
 30
0.0
 11
1327.5000810732
 21
1081.99993697603
 31
0.0
  0
LINE
  5
2CC
330
1F
100
AcDbEntity
  8
Ｓ_１_１
  6
CONTINUOUS
 62
     3
100
AcDbLine
 10
1327.4999546326
 20
1157.99990559383
 30
0.0
 11
1328.4999577024
 21
1156.99990252413
 31
0.0
  0
LINE
  5
2CD
330
1F
100
AcDbEntity
  8
Ｓ_１_１
  6
CONTINUOUS
 62
     3
100
AcDbLine
 10
1328.4999644459
 20
1212.99993281593
 30
0.0
 11
1327.4999849784
 21
1211.99995334843
 31
0.0
  0
LINE
  5
2CE
330
1F
100
AcDbEntity
  8
Ｓ_１_１
  6
CONTINUOUS
 62
     3
100
AcDbLine
 10
1375.5000296905
 20
1171.50001449133
 30
0.0
 11
1389.4999684467
 21
1171.50001449133
 31
0.0
  0
LINE
  5
2CF
330
1F
100
AcDbEntity
  8
Ｓ_１_１
  6
CONTINUOUS
 62
     3
100
AcDbLine
 10
1375.5000296905
 20
1198.50002171843
 30
0.0
 11
1389.4999684467
 21
1198.50002171843
 31
0.0
  0
LINE
  5
2D0
330
1F
100
AcDbEntity
  8
Ｓ_１_１
  6
CONTINUOUS
 62
     3
100
AcDbLine
 10
1375.5000296905
 20
1041.50001642853
 30
0.0
 11
1389.4999684467
 21
1041.50001642853
 31
0.0
  0
LINE
  5
2D1
330
1F
100
AcDbEntity
  8
Ｓ_１_１
  6
CONTINUOUS
 62
     3
100
AcDbLine
 10
1375.5000296905
 20
1068.50002365563
 30
0.0
 11
1389.4999684467
 21
1068.50002365563
 31
0.0
  0
LINE
  5
2D2
330
1F
100
AcDbEntity
  8
Ｓ_１_１
  6
CONTINUOUS
 62
     3
100
AcDbLine
 10
1388.0000676512
 20
1070.00000074503
 30
0.0
 11
1388.0000676512
 21
1040.00000119213
 31
0.0
  0
LINE
  5
2D3
330
1F
100
AcDbEntity
  8
Ｓ_１_１
  6
CONTINUOUS
 62
     3
100
AcDbLine
 10
1388.0000676512
 20
1199.99999880793
 30
0.0
 11
1388.0000676512
 21
1169.99999925493
 31
0.0
  0
LINE
  5
2D4
330
1F
100
AcDbEntity
  8
Ｓ_１_１
  6
CONTINUOUS
 62
     3
100
AcDbLine
 10
1390.0000807421
 20
1171.99993508313
 30
0.0
 11
1388.0000678591
 21
1169.99992220013
 31
0.0
  0
LINE
  5
2D5
330
1F
100
AcDbEntity
  8
Ｓ_１_１
  6
CONTINUOUS
 62
     3
100
AcDbLine
 10
1387.9999565915
 20
1199.99984907663
 30
0.0
 11
1389.9999458722
 21
1197.99985979593
 31
0.0
  0
LINE
  5
2D6
330
1F
100
AcDbEntity
  8
Ｓ_１_１
  6
CONTINUOUS
 62
     3
100
AcDbLine
 10
1390.0000065637
 20
1041.99998108803
 30
0.0
 11
1388.0000206547
 21
1039.99999517903
 31
0.0
  0
LINE
  5
2D7
330
1F
100
AcDbEntity
  8
Ｓ_１_１
  6
CONTINUOUS
 62
     3
100
AcDbLine
 10
1387.999909387
 20
1069.99992205553
 30
0.0
 11
1389.9999357569
 21
1067.99989568553
 31
0.0
  0
LINE
  5
2D8
330
1F
100
AcDbEntity
  8
Ｓ_１_１
  6
CONTINUOUS
 62
     3
100
AcDbLine
 10
1375.5000296905
 20
1040.00000119213
 30
0.0
 11
1388.0000295043
 21
1040.00000119213
 31
0.0
  0
LINE
  5
2D9
330
1F
100
AcDbEntity
  8
Ｓ_１_１
  6
CONTINUOUS
 62
     3
100
AcDbLine
 10
1375.5000296905
 20
1070.00000074503
 30
0.0
 11
1388.0000295043
 21
1070.00000074503
 31
0.0
  0
LINE
  5
2DA
330
1F
100
AcDbEntity
  8
Ｓ_１_１
  6
CONTINUOUS
 62
     3
100
AcDbLine
 10
1375.5000296905
 20
1169.99999925493
 30
0.0
 11
1388.0000295043
 21
1169.99999925493
 31
0.0
  0
LINE
  5
2DB
330
1F
100
AcDbEntity
  8
Ｓ_１_１
  6
CONTINUOUS
 62
     3
100
AcDbLine
 10
1375.5000296905
 20
1199.99999880793
 30
0.0
 11
1388.0000295043
 21
1199.99999880793
 31
0.0
  0
LINE
  5
2DC
330
1F
100
AcDbEntity
  8
Ｓ_１_１
  6
CONTINUOUS
 62
     3
100
AcDbLine
 10
1389.9999989569
 20
1067.99999314543
 30
0.0
 11
1389.9999989569
 21
1042.00000879163
 31
0.0
  0
LINE
  5
2DD
330
1F
100
AcDbEntity
  8
Ｓ_１_１
  6
CONTINUOUS
 62
     3
100
AcDbLine
 10
1375.5000678375
 20
1077.99999299643
 30
0.0
 11
1375.5000678375
 21
1032.00000894073
 31
0.0
  0
LINE
  5
2DE
330
1F
100
AcDbEntity
  8
Ｓ_１_１
  6
CONTINUOUS
 62
     3
100
AcDbLine
 10
1327.4999998882
 20
1082.00000819563
 30
0.0
 11
1327.4999998882
 21
1027.99999374153
 31
0.0
  0
LINE
  5
2DF
330
1F
100
AcDbEntity
  8
Ｓ_１_１
  6
CONTINUOUS
 62
     3
100
AcDbLine
 10
1327.4999998882
 20
1159.99999940393
 30
0.0
 11
1320.0
 21
1159.99999940393
 31
0.0
  0
LINE
  5
2E0
330
1F
100
AcDbEntity
  8
Ｓ_１_１
  6
CONTINUOUS
 62
     3
100
AcDbLine
 10
1327.4999998882
 20
1209.99999865893
 30
0.0
 11
1320.0
 21
1209.99999865893
 31
0.0
  0
LINE
  5
2E1
330
1F
100
AcDbEntity
  8
Ｓ_１_１
  6
CONTINUOUS
 62
     3
100
AcDbLine
 10
1327.4999998882
 20
1030.00000134113
 30
0.0
 11
1320.0
 21
1030.00000134113
 31
0.0
  0
LINE
  5
2E2
330
1F
100
AcDbEntity
  8
Ｓ_１_１
  6
CONTINUOUS
 62
     3
100
AcDbLine
 10
1327.4999998882
 20
1080.00000059603
 30
0.0
 11
1320.0
 21
1080.00000059603
 31
0.0
  0
LINE
  5
2E3
330
1F
100
AcDbEntity
  8
Ｓ_１_１
  6
CONTINUOUS
 62
     3
100
AcDbLine
 10
1357.4999994412
 20
1162.00000700353
 30
0.0
 11
1375.5000296905
 21
1162.00000700353
 31
0.0
  0
LINE
  5
2E4
330
1F
100
AcDbEntity
  8
Ｓ_１_１
  6
CONTINUOUS
 62
     3
100
AcDbLine
 10
1357.4999994412
 20
1207.99999105933
 30
0.0
 11
1375.5000296905
 21
1207.99999105933
 31
0.0
  0
LINE
  5
2E5
330
1F
100
AcDbEntity
  8
Ｓ_１_１
  6
CONTINUOUS
 62
     3
100
AcDbLine
 10
1357.4999994412
 20
1032.00000894073
 30
0.0
 11
1375.5000296905
 21
1032.00000894073
 31
0.0
  0
LINE
  5
2E6
330
1F
100
AcDbEntity
  8
Ｓ_１_１
  6
CONTINUOUS
 62
     3
100
AcDbLine
 10
1357.4999994412
 20
1077.99999299643
 30
0.0
 11
1375.5000296905
 21
1077.99999299643
 31
0.0
  0
LINE
  5
2E7
330
1F
100
AcDbEntity
  8
Ｓ_１_１
  6
CONTINUOUS
 62
     3
100
AcDbLine
 10
1332.4999998137
 20
1162.00000700353
 30
0.0
 11
1332.4999998137
 21
1157.00000707803
 31
0.0
  0
LINE
  5
2E8
330
1F
100
AcDbEntity
  8
Ｓ_１_１
  6
CONTINUOUS
 62
     3
100
AcDbLine
 10
1332.4999998137
 20
1212.99999098483
 30
0.0
 11
1332.4999998137
 21
1207.99999105933
 31
0.0
  0
LINE
  5
2E9
330
1F
100
AcDbEntity
  8
Ｓ_１_１
  6
CONTINUOUS
 62
     3
100
AcDbLine
 10
1332.4999998137
 20
1082.99999292193
 30
0.0
 11
1332.4999998137
 21
1077.99999299643
 31
0.0
  0
LINE
  5
2EA
330
1F
100
AcDbEntity
  8
Ｓ_１_１
  6
CONTINUOUS
 62
     3
100
AcDbLine
 10
1332.4999998137
 20
1032.00000894073
 30
0.0
 11
1332.4999998137
 21
1027.00000901523
 31
0.0
  0
LINE
  5
2EB
330
1F
100
AcDbEntity
  8
Ｓ_１_１
  6
CONTINUOUS
 62
     3
100
AcDbLine
 10
1328.4999846145
 20
1027.00000901523
 30
0.0
 11
1332.4999998137
 21
1027.00000901523
 31
0.0
  0
LINE
  5
2EC
330
1F
100
AcDbEntity
  8
Ｓ_１_１
  6
CONTINUOUS
 62
     3
100
AcDbLine
 10
1328.4999846145
 20
1082.99999292193
 30
0.0
 11
1332.4999998137
 21
1082.99999292193
 31
0.0
  0
LINE
  5
2ED
330
1F
100
AcDbEntity
  8
Ｓ_１_１
  6
CONTINUOUS
 62
     3
100
AcDbLine
 10
1328.4999846145
 20
1157.00000707803
 30
0.0
 11
1332.4999998137
 21
1157.00000707803
 31
0.0
  0
LINE
  5
2EE
330
1F
100
AcDbEntity
  8
Ｓ_１_１
  6
CONTINUOUS
 62
     3
100
AcDbLine
 10
1328.4999846145
 20
1212.99999098483
 30
0.0
 11
1332.4999998137
 21
1212.99999098483
 31
0.0
  0
LINE
  5
2EF
330
1F
100
AcDbEntity
  8
Ｓ_１_１
  6
CONTINUOUS
 62
     3
100
AcDbLine
 10
1332.4999998137
 20
1032.00000894073
 30
0.0
 11
1356.5000147148
 21
1032.00000894073
 31
0.0
  0
LINE
  5
2F0
330
1F
100
AcDbEntity
  8
Ｓ_１_１
  6
CONTINUOUS
 62
     3
100
AcDbLine
 10
1332.4999998137
 20
1077.99999299643
 30
0.0
 11
1356.5000147148
 21
1077.99999299643
 31
0.0
  0
LINE
  5
2F1
330
1F
100
AcDbEntity
  8
Ｓ_１_１
  6
CONTINUOUS
 62
     3
100
AcDbLine
 10
1332.4999998137
 20
1162.00000700353
 30
0.0
 11
1356.5000147148
 21
1162.00000700353
 31
0.0
  0
LINE
  5
2F2
330
1F
100
AcDbEntity
  8
Ｓ_１_１
  6
CONTINUOUS
 62
     3
100
AcDbLine
 10
1332.4999998137
 20
1207.99999105933
 30
0.0
 11
1356.5000147148
 21
1207.99999105933
 31
0.0
  0
LINE
  5
2F3
330
1F
100
AcDbEntity
  8
Ｓ_１_１
  6
CONTINUOUS
 62
     3
100
AcDbLine
 10
1389.9999989569
 20
1197.99999120833
 30
0.0
 11
1389.9999989569
 21
1172.00000685453
 31
0.0
  0
LINE
  5
2F4
330
1F
100
AcDbEntity
  8
Ｓ_１_１
  6
CONTINUOUS
 62
     3
100
AcDbLine
 10
1375.5000678375
 20
1207.99999105933
 30
0.0
 11
1375.5000678375
 21
1162.00000700353
 31
0.0
  0
LINE
  5
2F5
330
1F
100
AcDbEntity
  8
Ｓ_１_１
  6
CONTINUOUS
 62
     3
100
AcDbLine
 10
1327.4999998882
 20
1212.00000625843
 30
0.0
 11
1327.4999998882
 21
1157.99999180433
 31
0.0
  0
LINE
  5
2F6
330
1F
100
AcDbEntity
  8
Ｓ_１_１
  6
CONTINUOUS
 62
     3
100
AcDbLine
 10
1240.000001192
 20
1037.50000122933
 30
0.0
 11
1240.000001192
 21
1035.00000126663
 31
0.0
  0
LINE
  5
2F7
330
1F
100
AcDbEntity
  8
Ｓ_１_１
  6
CONTINUOUS
 62
     3
100
AcDbLine
 10
1240.000001192
 20
1075.00000067053
 30
0.0
 11
1240.000001192
 21
1072.50000070783
 31
0.0
  0
LINE
  5
2F8
330
1F
100
AcDbEntity
  8
Ｓ_１_１
  6
CONTINUOUS
 62
     3
100
AcDbLine
 10
1240.000001192
 20
1167.49999929223
 30
0.0
 11
1240.000001192
 21
1164.99999932943
 31
0.0
  0
LINE
  5
2F9
330
1F
100
AcDbEntity
  8
Ｓ_１_１
  6
CONTINUOUS
 62
     3
100
AcDbLine
 10
1240.000001192
 20
1204.99999873343
 30
0.0
 11
1240.000001192
 21
1202.49999877063
 31
0.0
  0
LINE
  5
2FA
330
1F
100
AcDbEntity
  8
Ｓ_１_１
  6
CONTINUOUS
 62
     3
100
AcDbLine
 10
710.0000090897006
 20
1037.50000122933
 30
0.0
 11
710.0000090897006
 21
1035.00000126663
 31
0.0
  0
LINE
  5
2FB
330
1F
100
AcDbEntity
  8
Ｓ_１_１
  6
CONTINUOUS
 62
     3
100
AcDbLine
 10
710.0000090897006
 20
1075.00000067053
 30
0.0
 11
710.0000090897006
 21
1072.50000070783
 31
0.0
  0
LINE
  5
2FC
330
1F
100
AcDbEntity
  8
Ｓ_１_１
  6
CONTINUOUS
 62
     3
100
AcDbLine
 10
710.0000090897006
 20
1164.99999932943
 30
0.0
 11
710.0000090897006
 21
1167.49999929223
 31
0.0
  0
LINE
  5
2FD
330
1F
100
AcDbEntity
  8
Ｓ_１_１
  6
CONTINUOUS
 62
     3
100
AcDbLine
 10
710.0000090897006
 20
1204.99999873343
 30
0.0
 11
710.0000090897006
 21
1202.49999877063
 31
0.0
  0
LINE
  5
2FE
330
1F
100
AcDbEntity
  8
Ｓ_１_１
  6
CONTINUOUS
 62
     3
100
AcDbLine
 10
1235.0000012666
 20
1035.00000126663
 30
0.0
 11
1240.000001192
 21
1035.00000126663
 31
0.0
  0
LINE
  5
2FF
330
1F
100
AcDbEntity
  8
Ｓ_１_１
  6
CONTINUOUS
 62
     3
100
AcDbLine
 10
1235.0000012666
 20
1075.00000067053
 30
0.0
 11
1240.000001192
 21
1075.00000067053
 31
0.0
  0
LINE
  5
300
330
1F
100
AcDbEntity
  8
Ｓ_１_１
  6
CONTINUOUS
 62
     3
100
AcDbLine
 10
1235.0000012666
 20
1164.99999932943
 30
0.0
 11
1240.000001192
 21
1164.99999932943
 31
0.0
  0
LINE
  5
301
330
1F
100
AcDbEntity
  8
Ｓ_１_１
  6
CONTINUOUS
 62
     3
100
AcDbLine
 10
1235.0000012666
 20
1204.99999873343
 30
0.0
 11
1240.000001192
 21
1204.99999873343
 31
0.0
  0
LINE
  5
302
330
1F
100
AcDbEntity
  8
Ｓ_１_１
  6
CONTINUOUS
 62
     3
100
AcDbLine
 10
865.00000678
 20
1035.00000126663
 30
0.0
 11
710.0000090897006
 21
1035.00000126663
 31
0.0
  0
LINE
  5
303
330
1F
100
AcDbEntity
  8
Ｓ_１_１
  6
CONTINUOUS
 62
     3
100
AcDbLine
 10
865.00000678
 20
1075.00000067053
 30
0.0
 11
710.0000090897006
 21
1075.00000067053
 31
0.0
  0
LINE
  5
304
330
1F
100
AcDbEntity
  8
Ｓ_１_１
  6
CONTINUOUS
 62
     3
100
AcDbLine
 10
865.00000678
 20
1164.99999932943
 30
0.0
 11
710.0000090897006
 21
1164.99999932943
 31
0.0
  0
LINE
  5
305
330
1F
100
AcDbEntity
  8
Ｓ_１_１
  6
CONTINUOUS
 62
     3
100
AcDbLine
 10
865.00000678
 20
1204.99999873343
 30
0.0
 11
710.0000090897006
 21
1204.99999873343
 31
0.0
  0
LINE
  5
306
330
1F
100
AcDbEntity
  8
Ｓ_１_１
  6
CONTINUOUS
 62
     3
100
AcDbLine
 10
1240.000001192
 20
1037.50000122933
 30
0.0
 11
1260.000000894
 21
1037.50000122933
 31
0.0
  0
LINE
  5
307
330
1F
100
AcDbEntity
  8
Ｓ_１_１
  6
CONTINUOUS
 62
     3
100
AcDbLine
 10
1240.000001192
 20
1072.50000070783
 30
0.0
 11
1260.000000894
 21
1072.50000070783
 31
0.0
  0
LINE
  5
308
330
1F
100
AcDbEntity
  8
Ｓ_１_１
  6
CONTINUOUS
 62
     3
100
AcDbLine
 10
1240.000001192
 20
1167.49999929223
 30
0.0
 11
1260.000000894
 21
1167.49999929223
 31
0.0
  0
LINE
  5
309
330
1F
100
AcDbEntity
  8
Ｓ_１_１
  6
CONTINUOUS
 62
     3
100
AcDbLine
 10
1240.000001192
 20
1202.49999877063
 30
0.0
 11
1260.000000894
 21
1202.49999877063
 31
0.0
  0
LINE
  5
30A
330
1F
100
AcDbEntity
  8
Ｓ_１_１
  6
CONTINUOUS
 62
     3
100
AcDbLine
 10
690.0000093877002
 20
1037.50000122933
 30
0.0
 11
710.0000090897006
 21
1037.50000122933
 31
0.0
  0
LINE
  5
30B
330
1F
100
AcDbEntity
  8
Ｓ_１_１
  6
CONTINUOUS
 62
     3
100
AcDbLine
 10
690.0000093877002
 20
1072.50000070783
 30
0.0
 11
710.0000090897006
 21
1072.50000070783
 31
0.0
  0
LINE
  5
30C
330
1F
100
AcDbEntity
  8
Ｓ_１_１
  6
CONTINUOUS
 62
     3
100
AcDbLine
 10
690.0000093877002
 20
1167.49999929223
 30
0.0
 11
710.0000090897006
 21
1167.49999929223
 31
0.0
  0
LINE
  5
30D
330
1F
100
AcDbEntity
  8
Ｓ_１_１
  6
CONTINUOUS
 62
     3
100
AcDbLine
 10
690.0000093877002
 20
1202.49999877063
 30
0.0
 11
710.0000090897006
 21
1202.49999877063
 31
0.0
  0
LINE
  5
30E
330
1F
100
AcDbEntity
  8
Ｓ_１_１
  6
CONTINUOUS
 62
     3
100
AcDbLine
 10
592.5000108405002
 20
1207.99999105933
 30
0.0
 11
592.5000108405002
 21
1162.00000700353
 31
0.0
  0
LINE
  5
30F
330
1F
100
AcDbEntity
  8
Ｓ_１_１
  6
CONTINUOUS
 62
     3
100
AcDbLine
 10
621.4999493733003
 20
1212.99999098483
 30
0.0
 11
621.4999493733003
 21
1157.00000707803
 31
0.0
  0
LINE
  5
310
330
1F
100
AcDbEntity
  8
Ｓ_１_１
  6
CONTINUOUS
 62
     3
100
AcDbLine
 10
621.4999129413004
 20
1213.00010998993
 30
0.0
 11
622.4999907787001
 21
1212.00001301623
 31
0.0
  0
LINE
  5
311
330
1F
100
AcDbEntity
  8
Ｓ_１_１
  6
CONTINUOUS
 62
     3
100
AcDbLine
 10
622.4998787524005
 20
1158.00001355793
 30
0.0
 11
621.4999301370003
 21
1157.00008407603
 31
0.0
  0
LINE
  5
312
330
1F
100
AcDbEntity
  8
Ｓ_１_１
  6
CONTINUOUS
 62
     3
100
AcDbLine
 10
592.5000113949004
 20
1163.00002883843
 30
0.0
 11
593.5000987583003
 21
1161.99994147503
 31
0.0
  0
LINE
  5
313
330
1F
100
AcDbEntity
  8
Ｓ_１_１
  6
CONTINUOUS
 62
     3
100
AcDbLine
 10
593.5000178364003
 20
1207.99999501743
 30
0.0
 11
592.4999776774002
 21
1206.99995485853
 31
0.0
  0
LINE
  5
314
330
1F
100
AcDbEntity
  8
Ｓ_１_１
  6
CONTINUOUS
 62
     3
100
AcDbLine
 10
621.4999493733003
 20
1027.00000901523
 30
0.0
 11
621.4999493733003
 21
1082.99999292193
 31
0.0
  0
LINE
  5
315
330
1F
100
AcDbEntity
  8
Ｓ_１_１
  6
CONTINUOUS
 62
     3
100
AcDbLine
 10
617.5000104680003
 20
1082.99999292193
 30
0.0
 11
617.5000104680003
 21
1027.00000901523
 31
0.0
  0
LINE
  5
316
330
1F
100
AcDbEntity
  8
Ｓ_１_１
  6
CONTINUOUS
 62
     3
100
AcDbLine
 10
592.5000108405002
 20
1077.99999299643
 30
0.0
 11
592.5000108405002
 21
1032.00000894073
 31
0.0
  0
LINE
  5
317
330
1F
100
AcDbEntity
  8
Ｓ_１_１
  6
CONTINUOUS
 62
     3
100
AcDbLine
 10
622.5000427956002
 20
1027.99988753553
 30
0.0
 11
621.5000936738002
 21
1026.99993841373
 31
0.0
  0
LINE
  5
318
330
1F
100
AcDbEntity
  8
Ｓ_１_１
  6
CONTINUOUS
 62
     3
100
AcDbLine
 10
621.4997788291003
 20
1083.00003211053
 30
0.0
 11
622.4997948801006
 21
1082.00003519423
 31
0.0
  0
LINE
  5
319
330
1F
100
AcDbEntity
  8
Ｓ_１_１
  6
CONTINUOUS
 62
     3
100
AcDbLine
 10
592.5000535418003
 20
1032.99998886373
 30
0.0
 11
593.5000869572
 21
1031.99995544833
 31
0.0
  0
LINE
  5
31A
330
1F
100
AcDbEntity
  8
Ｓ_１_１
  6
CONTINUOUS
 62
     3
100
AcDbLine
 10
593.5000650862003
 20
1077.99994853793
 30
0.0
 11
592.5000237483005
 21
1076.99986909693
 31
0.0
  0
LINE
  5
31B
330
1F
100
AcDbEntity
  8
Ｓ_１_１
  6
CONTINUOUS
 62
     3
100
AcDbLine
 10
622.5000103935004
 20
1082.00000819563
 30
0.0
 11
622.5000103935004
 21
1027.99999374153
 31
0.0
  0
LINE
  5
31C
330
1F
100
AcDbEntity
  8
Ｓ_１_１
  6
CONTINUOUS
 62
     3
100
AcDbLine
 10
574.4999805912003
 20
1077.99999299643
 30
0.0
 11
574.4999805912003
 21
1032.00000894073
 31
0.0
  0
LINE
  5
31D
330
1F
100
AcDbEntity
  8
Ｓ_１_１
  6
CONTINUOUS
 62
     3
100
AcDbLine
 10
574.4999805912003
 20
1162.00000700353
 30
0.0
 11
574.4999805912003
 21
1207.99999105933
 31
0.0
  0
LINE
  5
31E
330
1F
100
AcDbEntity
  8
Ｓ_１_１
  6
CONTINUOUS
 62
     3
100
AcDbLine
 10
574.4999805912003
 20
1032.00000894073
 30
0.0
 11
592.5000108405002
 21
1032.00000894073
 31
0.0
  0
LINE
  5
31F
330
1F
100
AcDbEntity
  8
Ｓ_１_１
  6
CONTINUOUS
 62
     3
100
AcDbLine
 10
574.4999805912003
 20
1077.99999299643
 30
0.0
 11
592.5000108405002
 21
1077.99999299643
 31
0.0
  0
LINE
  5
320
330
1F
100
AcDbEntity
  8
Ｓ_１_１
  6
CONTINUOUS
 62
     3
100
AcDbLine
 10
574.4999805912003
 20
1162.00000700353
 30
0.0
 11
592.5000108405002
 21
1162.00000700353
 31
0.0
  0
LINE
  5
321
330
1F
100
AcDbEntity
  8
Ｓ_１_１
  6
CONTINUOUS
 62
     3
100
AcDbLine
 10
574.4999805912003
 20
1207.99999105933
 30
0.0
 11
592.5000108405002
 21
1207.99999105933
 31
0.0
  0
LINE
  5
322
330
1F
100
AcDbEntity
  8
Ｓ_１_１
  6
CONTINUOUS
 62
     3
100
AcDbLine
 10
622.5000103935004
 20
1159.99999940393
 30
0.0
 11
630.0000102817999
 21
1159.99999940393
 31
0.0
  0
LINE
  5
323
330
1F
100
AcDbEntity
  8
Ｓ_１_１
  6
CONTINUOUS
 62
     3
100
AcDbLine
 10
622.5000103935004
 20
1209.99999865893
 30
0.0
 11
630.0000102817999
 21
1209.99999865893
 31
0.0
  0
LINE
  5
324
330
1F
100
AcDbEntity
  8
Ｓ_１_１
  6
CONTINUOUS
 62
     3
100
AcDbLine
 10
622.5000103935004
 20
1030.00000134113
 30
0.0
 11
630.0000102817999
 21
1030.00000134113
 31
0.0
  0
LINE
  5
325
330
1F
100
AcDbEntity
  8
Ｓ_１_１
  6
CONTINUOUS
 62
     3
100
AcDbLine
 10
622.5000103935004
 20
1080.00000059603
 30
0.0
 11
630.0000102817999
 21
1080.00000059603
 31
0.0
  0
LINE
  5
326
330
1F
100
AcDbEntity
  8
Ｓ_１_１
  6
CONTINUOUS
 62
     3
100
AcDbLine
 10
617.5000104680003
 20
1162.00000700353
 30
0.0
 11
617.5000104680003
 21
1157.00000707803
 31
0.0
  0
LINE
  5
327
330
1F
100
AcDbEntity
  8
Ｓ_１_１
  6
CONTINUOUS
 62
     3
100
AcDbLine
 10
617.5000104680003
 20
1212.99999098483
 30
0.0
 11
617.5000104680003
 21
1207.99999105933
 31
0.0
  0
LINE
  5
328
330
1F
100
AcDbEntity
  8
Ｓ_１_１
  6
CONTINUOUS
 62
     3
100
AcDbLine
 10
593.5000718608003
 20
1162.00000700353
 30
0.0
 11
617.5000104680003
 21
1162.00000700353
 31
0.0
  0
LINE
  5
329
330
1F
100
AcDbEntity
  8
Ｓ_１_１
  6
CONTINUOUS
 62
     3
100
AcDbLine
 10
593.5000718608003
 20
1207.99999105933
 30
0.0
 11
617.5000104680003
 21
1207.99999105933
 31
0.0
  0
LINE
  5
32A
330
1F
100
AcDbEntity
  8
Ｓ_１_１
  6
CONTINUOUS
 62
     3
100
AcDbLine
 10
593.5000718608003
 20
1032.00000894073
 30
0.0
 11
617.5000104680003
 21
1032.00000894073
 31
0.0
  0
LINE
  5
32B
330
1F
100
AcDbEntity
  8
Ｓ_１_１
  6
CONTINUOUS
 62
     3
100
AcDbLine
 10
593.5000718608003
 20
1077.99999299643
 30
0.0
 11
617.5000104680003
 21
1077.99999299643
 31
0.0
  0
LINE
  5
32C
330
1F
100
AcDbEntity
  8
Ｓ_１_１
  6
CONTINUOUS
 62
     3
100
AcDbLine
 10
617.5000104680003
 20
1027.00000901523
 30
0.0
 11
621.4999493733003
 21
1027.00000901523
 31
0.0
  0
LINE
  5
32D
330
1F
100
AcDbEntity
  8
Ｓ_１_１
  6
CONTINUOUS
 62
     3
100
AcDbLine
 10
617.5000104680003
 20
1082.99999292193
 30
0.0
 11
621.4999493733003
 21
1082.99999292193
 31
0.0
  0
LINE
  5
32E
330
1F
100
AcDbEntity
  8
Ｓ_１_１
  6
CONTINUOUS
 62
     3
100
AcDbLine
 10
617.5000104680003
 20
1157.00000707803
 30
0.0
 11
621.4999493733003
 21
1157.00000707803
 31
0.0
  0
LINE
  5
32F
330
1F
100
AcDbEntity
  8
Ｓ_１_１
  6
CONTINUOUS
 62
     3
100
AcDbLine
 10
617.5000104680003
 20
1212.99999098483
 30
0.0
 11
621.4999493733003
 21
1212.99999098483
 31
0.0
  0
LINE
  5
330
330
1F
100
AcDbEntity
  8
Ｓ_１_１
  6
CONTINUOUS
 62
     3
100
AcDbLine
 10
622.5000103935004
 20
1211.99996811153
 30
0.0
 11
622.5000103935004
 21
1157.99999180433
 31
0.0
  0
LINE
  5
331
330
1F
100
AcDbEntity
  8
Ｓ_１_１
  6
CONTINUOUS
 62
     3
100
AcDbLine
 10
1260.000000894
 20
1005.00000171363
 30
0.0
 11
1320.0
 21
1005.00000171363
 31
0.0
  0
LINE
  5
332
330
1F
100
AcDbEntity
  8
Ｓ_１_１
  6
CONTINUOUS
 62
     3
100
AcDbLine
 10
1260.000000894
 20
1234.99999828633
 30
0.0
 11
1320.0
 21
1234.99999828633
 31
0.0
  0
LINE
  5
333
330
1F
100
AcDbEntity
  8
Ｓ_１_１
  6
CONTINUOUS
 62
     3
100
AcDbLine
 10
630.0000102817999
 20
1005.00000171363
 30
0.0
 11
690.0000093877002
 21
1005.00000171363
 31
0.0
  0
LINE
  5
334
330
1F
100
AcDbEntity
  8
Ｓ_１_１
  6
CONTINUOUS
 62
     3
100
AcDbLine
 10
630.0000102817999
 20
1234.99999828633
 30
0.0
 11
690.0000093877002
 21
1234.99999828633
 31
0.0
  0
LINE
  5
335
330
1F
100
AcDbEntity
  8
Ｓ_１_１
  6
CONTINUOUS
 62
     3
100
AcDbLine
 10
1320.0
 20
1234.99999828633
 30
0.0
 11
1320.0
 21
1005.00000171363
 31
0.0
  0
LINE
  5
336
330
1F
100
AcDbEntity
  8
Ｓ_１_１
  6
CONTINUOUS
 62
     3
100
AcDbLine
 10
630.0000102817999
 20
1234.99999828633
 30
0.0
 11
630.0000102817999
 21
1005.00000171363
 31
0.0
  0
LINE
  5
337
330
1F
100
AcDbEntity
  8
Ｓ_１_１
  6
CONTINUOUS
 62
     3
100
AcDbLine
 10
690.0000093877002
 20
1234.99999828633
 30
0.0
 11
690.0000093877002
 21
1005.00000171363
 31
0.0
  0
LINE
  5
338
330
1F
100
AcDbEntity
  8
Ｓ_１_１
  6
CONTINUOUS
 62
     3
100
AcDbLine
 10
865.00000678
 20
1259.99999791383
 30
0.0
 11
1235.0000012666
 21
1259.99999791383
 31
0.0
  0
LINE
  5
339
330
1F
100
AcDbEntity
  8
Ｓ_１_１
  6
CONTINUOUS
 62
     3
100
AcDbLine
 10
865.00000678
 20
980.0000020861299
 30
0.0
 11
1235.0000012666
 21
980.0000020861299
 31
0.0
  0
LINE
  5
33A
330
1F
100
AcDbEntity
  8
Ｓ_１_１
  6
CONTINUOUS
 62
     3
100
AcDbLine
 10
865.00000678
 20
1259.99999791383
 30
0.0
 11
865.00000678
 21
980.0000020861299
 31
0.0
  0
LINE
  5
33B
330
1F
100
AcDbEntity
  8
Ｓ_１_１
  6
CONTINUOUS
 62
     3
100
AcDbLine
 10
1235.0000012666
 20
1259.99999791383
 30
0.0
 11
1235.0000012666
 21
980.0000020861299
 31
0.0
  0
LINE
  5
33C
330
1F
100
AcDbEntity
  8
Ｓ_１_１
  6
CONTINUOUS
 62
     3
100
AcDbLine
 10
1260.000000894
 20
1136.89907048793
 30
0.0
 11
1260.000000894
 21
1005.00000171363
 31
0.0
  0
LINE
  5
33D
330
1F
100
AcDbEntity
  8
Ｓ_１_１
  6
CONTINUOUS
 62
     3
100
AcDbLine
 10
1260.000000894
 20
1234.99999828633
 30
0.0
 11
1260.000000894
 21
1164.43748407903
 31
0.0
  0
LINE
  5
33E
330
1F
100
AcDbEntity
  8
Ｓ_１_１
  6
CONTINUOUS
 62
     3
100
AcDbLine
 10
1285.6468205802
 20
1162.49999936673
 30
0.0
 11
1288.8166813728
 21
1162.49999936673
 31
0.0
  0
LINE
  5
33F
330
1F
100
AcDbEntity
  8
Ｓ_１_１
  6
CONTINUOUS
 62
     3
100
AcDbLine
 10
1285.6468205802
 20
1157.49999944123
 30
0.0
 11
1288.8166813728
 21
1157.49999944123
 31
0.0
  0
LINE
  5
340
330
1F
100
AcDbEntity
  8
Ｓ_１_１
  6
CONTINUOUS
 62
     3
100
AcDbLine
 10
1285.6468205802
 20
1142.49999966473
 30
0.0
 11
1288.8166813728
 21
1142.49999966473
 31
0.0
  0
LINE
  5
341
330
1F
100
AcDbEntity
  8
Ｓ_１_１
  6
CONTINUOUS
 62
     3
100
AcDbLine
 10
1285.6468205802
 20
1137.49999973923
 30
0.0
 11
1288.8166813728
 21
1137.49999973923
 31
0.0
  0
LINE
  5
342
330
1F
100
AcDbEntity
  8
Ｓ_１_１
  6
CONTINUOUS
 62
     3
100
AcDbLine
 10
1300.6468203567
 20
1142.49999966473
 30
0.0
 11
1297.4769595641
 21
1142.49999966473
 31
0.0
  0
LINE
  5
343
330
1F
100
AcDbEntity
  8
Ｓ_１_１
  6
CONTINUOUS
 62
     3
100
AcDbLine
 10
1300.6468203567
 20
1137.49999973923
 30
0.0
 11
1297.4769595641
 21
1137.49999973923
 31
0.0
  0
LINE
  5
344
330
1F
100
AcDbEntity
  8
Ｓ_１_１
  6
CONTINUOUS
 62
     3
100
AcDbLine
 10
1300.6468203567
 20
1162.49999936673
 30
0.0
 11
1297.4769595641
 21
1162.49999936673
 31
0.0
  0
LINE
  5
345
330
1F
100
AcDbEntity
  8
Ｓ_１_１
  6
CONTINUOUS
 62
     3
100
AcDbLine
 10
1300.6468203567
 20
1157.49999944123
 30
0.0
 11
1297.4769595641
 21
1157.49999944123
 31
0.0
  0
CIRCLE
  5
346
330
1F
100
AcDbEntity
  8
Ｓ_１_１
  6
CONTINUOUS
 62
     3
100
AcDbCircle
 10
1293.1468204685
 20
1159.99999940393
 30
0.0
 40
4.0
  0
CIRCLE
  5
347
330
1F
100
AcDbEntity
  8
Ｓ_１_１
  6
CONTINUOUS
 62
     3
100
AcDbCircle
 10
1293.1468204685
 20
1139.99999970193
 30
0.0
 40
4.0
  0
CIRCLE
  5
348
330
1F
100
AcDbEntity
  8
Ｓ_１_１
  6
CONTINUOUS
 62
     3
100
AcDbCircle
 10
1293.1468204685
 20
1139.99999970193
 30
0.0
 40
3.000000074500002
  0
CIRCLE
  5
349
330
1F
100
AcDbEntity
  8
Ｓ_１_１
  6
CONTINUOUS
 62
     3
100
AcDbCircle
 10
1293.1468204685
 20
1159.99999940393
 30
0.0
 40
3.000000074500002
  0
ARC
  5
34A
330
1F
100
AcDbEntity
  8
Ｓ_１_１
  6
CONTINUOUS
 62
     3
100
AcDbCircle
 10
1285.6468205802
 20
1159.99999940393
 30
0.0
 40
2.4999999627
100
AcDbArc
 50
89.99998201390092
 51
270.0000006832013
  0
ARC
  5
34B
330
1F
100
AcDbEntity
  8
Ｓ_１_１
  6
CONTINUOUS
 62
     3
100
AcDbCircle
 10
1300.6468203567
 20
1159.99999940393
 30
0.0
 40
2.4999999627
100
AcDbArc
 50
270.0000179860992
 51
89.99998201390092
  0
ARC
  5
34C
330
1F
100
AcDbEntity
  8
Ｓ_１_１
  6
CONTINUOUS
 62
     3
100
AcDbCircle
 10
1285.6468205802
 20
1139.99999970193
 30
0.0
 40
2.4999999627
100
AcDbArc
 50
89.99998201390092
 51
270.0000006832013
  0
ARC
  5
34D
330
1F
100
AcDbEntity
  8
Ｓ_１_１
  6
CONTINUOUS
 62
     3
100
AcDbCircle
 10
1300.6468203567
 20
1139.99999970193
 30
0.0
 40
2.4999999627
100
AcDbArc
 50
270.0000179860992
 51
89.99998201390092
  0
CIRCLE
  5
34E
330
1F
100
AcDbEntity
  8
Ｓ_１_１
  6
CONTINUOUS
 62
     3
100
AcDbCircle
 10
1293.1468204685
 20
1159.99999940393
 30
0.0
 40
4.9999999255
  0
CIRCLE
  5
34F
330
1F
100
AcDbEntity
  8
Ｓ_１_１
  6
CONTINUOUS
 62
     3
100
AcDbCircle
 10
1293.1468204685
 20
1139.99999970193
 30
0.0
 40
4.9999999255
  0
LINE
  5
350
330
1F
100
AcDbEntity
  8
Ｓ_１_１
  6
CONTINUOUS
 62
     3
100
AcDbLine
 10
1271.1468513139
 20
1169.99999925493
 30
0.0
 11
1271.1468513139
 21
1129.99999985093
 31
0.0
  0
LINE
  5
351
330
1F
100
AcDbEntity
  8
Ｓ_１_１
  6
CONTINUOUS
 62
     3
100
AcDbLine
 10
1252.9777708471
 20
1117.60588739603
 30
0.0
 11
1259.8181868722
 21
1136.39977529173
 31
0.0
  0
LINE
  5
352
330
1F
100
AcDbEntity
  8
Ｓ_１_１
  6
CONTINUOUS
 62
     3
100
AcDbLine
 10
1259.8181700126
 20
1136.39969783483
 30
0.0
 11
1261.7361247437
 21
1147.27681815943
 31
0.0
  0
CIRCLE
  5
353
330
1F
100
AcDbEntity
  8
Ｓ_１_１
  6
CONTINUOUS
 62
     3
100
AcDbCircle
 10
1259.3968209714
 20
1155.70831245613
 30
0.0
 40
8.7499998696
  0
CIRCLE
  5
354
330
1F
100
AcDbEntity
  8
Ｓ_１_１
  6
CONTINUOUS
 62
     3
100
AcDbCircle
 10
1259.3968209714
 20
1155.70831245613
 30
0.0
 40
7.499999888200001
  0
CIRCLE
  5
355
330
1F
100
AcDbEntity
  8
Ｓ_１_１
  6
CONTINUOUS
 62
     3
100
AcDbCircle
 10
1259.3968209714
 20
1155.70831245613
 30
0.0
 40
4.0
  0
LINE
  5
356
330
1F
100
AcDbEntity
  8
Ｓ_１_１
  6
CONTINUOUS
 62
     3
100
AcDbLine
 10
1239.8221048821
 20
1122.39415839073
 30
0.0
 11
1246.6624948131
 21
1141.18797459353
 31
0.0
  0
LINE
  5
357
330
1F
100
AcDbEntity
  8
Ｓ_１_１
  6
CONTINUOUS
 62
     3
100
AcDbLine
 10
1246.6625095666
 20
1141.18799050863
 30
0.0
 11
1252.1849579316
 21
1150.75313613473
 31
0.0
  0
LINE
  5
358
330
1F
100
AcDbEntity
  8
Ｓ_１_１
  6
CONTINUOUS
 62
     3
100
AcDbLine
 10
1241.9999706447
 20
1137.45220158323
 30
0.0
 11
1241.9999706447
 21
1128.37776171593
 31
0.0
  0
LINE
  5
359
330
1F
100
AcDbEntity
  8
Ｓ_１_１
  6
CONTINUOUS
 62
     3
100
AcDbLine
 10
1235.0000185256
 20
1099.99992604813
 30
0.0
 11
1242.0000718092
 21
1102.54774098773
 31
0.0
  0
LINE
  5
35A
330
1F
100
AcDbEntity
  8
Ｓ_１_１
  6
CONTINUOUS
 62
     3
100
AcDbLine
 10
1234.9999970421
 20
1139.99997990943
 30
0.0
 11
1242.0000503257
 21
1137.45216496983
 31
0.0
  0
LINE
  5
35B
330
1F
100
AcDbEntity
  8
Ｓ_１_１
  6
CONTINUOUS
 62
     3
100
AcDbLine
 10
1241.9999706447
 20
1114.55574043753
 30
0.0
 11
1241.9999706447
 21
1102.54779841683
 31
0.0
  0
LINE
  5
35C
330
1F
100
AcDbEntity
  8
Ｓ_１_１
  6
CONTINUOUS
 62
     3
100
AcDbLine
 10
1219.4999709799
 20
1137.00000737603
 30
0.0
 11
1219.4999709799
 21
1120.00000000003
 31
0.0
  0
LINE
  5
35D
330
1F
100
AcDbEntity
  8
Ｓ_１_１
  6
CONTINUOUS
 62
     3
100
AcDbLine
 10
1219.4999709799
 20
1120.00000000003
 30
0.0
 11
1219.4999709799
 21
1102.99999262393
 31
0.0
  0
LINE
  5
35E
330
1F
100
AcDbEntity
  8
Ｓ_１_１
  6
CONTINUOUS
 62
     3
100
AcDbLine
 10
1235.0000012666
 20
1139.99999970193
 30
0.0
 11
1190.5000324472
 21
1139.99999970193
 31
0.0
  0
LINE
  5
35F
330
1F
100
AcDbEntity
  8
Ｓ_１_１
  6
CONTINUOUS
 62
     3
100
AcDbLine
 10
1235.0000012666
 20
1100.00000029803
 30
0.0
 11
1190.5000324472
 21
1100.00000029803
 31
0.0
  0
LINE
  5
360
330
1F
100
AcDbEntity
  8
Ｓ_１_１
  6
CONTINUOUS
 62
     3
100
AcDbLine
 10
1190.5000324472
 20
1139.99999970193
 30
0.0
 11
1190.5000324472
 21
1100.00000029803
 31
0.0
  0
LINE
  5
361
330
1F
100
AcDbEntity
  8
Ｓ_１_１
  6
CONTINUOUS
 62
     3
100
AcDbLine
 10
1196.500017099
 20
1137.00000737603
 30
0.0
 11
1219.4999709799
 21
1137.00000737603
 31
0.0
  0
LINE
  5
362
330
1F
100
AcDbEntity
  8
Ｓ_１_１
  6
CONTINUOUS
 62
     3
100
AcDbLine
 10
1196.500017099
 20
1102.99999262393
 30
0.0
 11
1219.4999709799
 21
1102.99999262393
 31
0.0
  0
LINE
  5
363
330
1F
100
AcDbEntity
  8
Ｓ_１_１
  6
CONTINUOUS
 62
     3
100
AcDbLine
 10
1196.500017099
 20
1137.00000737603
 30
0.0
 11
1196.500017099
 21
1102.99999262393
 31
0.0
  0
ARC
  5
364
330
1F
100
AcDbEntity
  8
Ｓ_１_１
  6
CONTINUOUS
 62
     3
100
AcDbCircle
 10
1246.3999949932
 20
1120.00000000003
 30
0.0
 40
6.999999776499999
100
AcDbArc
 50
160.0000226662003
 51
339.9999866940999
  0
CIRCLE
  5
365
330
1F
100
AcDbEntity
  8
Ｓ_１_１
  6
CONTINUOUS
 62
     3
100
AcDbCircle
 10
1246.3999949932
 20
1120.00000000003
 30
0.0
 40
3.000000074500002
  0
CIRCLE
  5
366
330
1F
100
AcDbEntity
  8
Ｓ_１_１
  6
CONTINUOUS
 62
     3
100
AcDbCircle
 10
1227.5000013783
 20
1132.49999981373
 30
0.0
 40
5.099999828600002
  0
CIRCLE
  5
367
330
1F
100
AcDbEntity
  8
Ｓ_１_１
  6
CONTINUOUS
 62
     3
100
AcDbCircle
 10
1227.5000013783
 20
1107.50000018623
 30
0.0
 40
5.099999828600002
  0
CIRCLE
  5
368
330
1F
100
AcDbEntity
  8
Ｓ_１_１
  6
CONTINUOUS
 62
     3
100
AcDbCircle
 10
1227.5000013783
 20
1107.50000018623
 30
0.0
 40
4.0
  0
CIRCLE
  5
369
330
1F
100
AcDbEntity
  8
Ｓ_１_１
  6
CONTINUOUS
 62
     3
100
AcDbCircle
 10
1227.5000013783
 20
1132.49999981373
 30
0.0
 40
4.0
  0
CIRCLE
  5
36A
330
1F
100
AcDbEntity
  8
Ｓ_１_１
  6
CONTINUOUS
 62
     3
100
AcDbCircle
 10
1227.5000013783
 20
1132.49999981373
 30
0.0
 40
3.000000074500002
  0
CIRCLE
  5
36B
330
1F
100
AcDbEntity
  8
Ｓ_１_１
  6
CONTINUOUS
 62
     3
100
AcDbCircle
 10
1227.5000013783
 20
1107.50000018623
 30
0.0
 40
3.000000074500002
  0
LINE
  5
36C
330
1F
100
AcDbEntity
  8
Ｓ_１_１
  6
CONTINUOUS
 62
     3
100
AcDbLine
 10
865.00000678
 20
1139.99999970193
 30
0.0
 11
909.4999755993002
 21
1139.99999970193
 31
0.0
  0
LINE
  5
36D
330
1F
100
AcDbEntity
  8
Ｓ_１_１
  6
CONTINUOUS
 62
     3
100
AcDbLine
 10
865.00000678
 20
1100.00000029803
 30
0.0
 11
909.4999755993002
 21
1100.00000029803
 31
0.0
  0
LINE
  5
36E
330
1F
100
AcDbEntity
  8
Ｓ_１_１
  6
CONTINUOUS
 62
     3
100
AcDbLine
 10
909.4999755993002
 20
1139.99999970193
 30
0.0
 11
909.4999755993002
 21
1100.00000029803
 31
0.0
  0
LINE
  5
36F
330
1F
100
AcDbEntity
  8
Ｓ_１_１
  6
CONTINUOUS
 62
     3
100
AcDbLine
 10
880.4999607726
 20
1137.00000737603
 30
0.0
 11
880.4999607726
 21
1120.00000000003
 31
0.0
  0
LINE
  5
370
330
1F
100
AcDbEntity
  8
Ｓ_１_１
  6
CONTINUOUS
 62
     3
100
AcDbLine
 10
880.4999607726
 20
1120.00000000003
 30
0.0
 11
880.4999607726
 21
1102.99999262393
 31
0.0
  0
LINE
  5
371
330
1F
100
AcDbEntity
  8
Ｓ_１_１
  6
CONTINUOUS
 62
     3
100
AcDbLine
 10
880.5000370666002
 20
1137.00000737603
 30
0.0
 11
903.4999909475001
 21
1137.00000737603
 31
0.0
  0
LINE
  5
372
330
1F
100
AcDbEntity
  8
Ｓ_１_１
  6
CONTINUOUS
 62
     3
100
AcDbLine
 10
880.5000370666002
 20
1102.99999262393
 30
0.0
 11
903.4999909475001
 21
1102.99999262393
 31
0.0
  0
LINE
  5
373
330
1F
100
AcDbEntity
  8
Ｓ_１_１
  6
CONTINUOUS
 62
     3
100
AcDbLine
 10
903.4999909475001
 20
1137.00000737603
 30
0.0
 11
903.4999909475001
 21
1102.99999262393
 31
0.0
  0
LINE
  5
374
330
1F
100
AcDbEntity
  8
Ｓ_１_１
  6
CONTINUOUS
 62
     3
100
AcDbLine
 10
834.5080994264002
 20
1110.80759513943
 30
0.0
 11
848.6502762504001
 21
1124.94977077133
 31
0.0
  0
LINE
  5
375
330
1F
100
AcDbEntity
  8
Ｓ_１_１
  6
CONTINUOUS
 62
     3
100
AcDbLine
 10
844.4074025308001
 20
1100.90821027863
 30
0.0
 11
858.5495793548002
 21
1115.05038591053
 31
0.0
  0
LINE
  5
376
330
1F
100
AcDbEntity
  8
Ｓ_１_１
  6
CONTINUOUS
 62
     3
100
AcDbLine
 10
844.4074954798001
 20
1100.90828319703
 30
0.0
 11
835.3599567181001
 21
1094.57314232263
 31
0.0
  0
LINE
  5
377
330
1F
100
AcDbEntity
  8
Ｓ_１_１
  6
CONTINUOUS
 62
     3
100
AcDbLine
 10
834.5080497158001
 20
1110.80760780653
 30
0.0
 11
828.1729433851001
 21
1101.76013680783
 31
0.0
  0
LINE
  5
378
330
1F
100
AcDbEntity
  8
Ｓ_１_１
  6
CONTINUOUS
 62
     3
100
AcDbLine
 10
857.9999611079
 20
1137.45223973013
 30
0.0
 11
857.9999611079
 21
1125.44425956243
 31
0.0
  0
LINE
  5
379
330
1F
100
AcDbEntity
  8
Ｓ_１_１
  6
CONTINUOUS
 62
     3
100
AcDbLine
 10
864.9998285456002
 20
1100.00020301423
 30
0.0
 11
857.9998648781002
 21
1102.54798689033
 31
0.0
  0
LINE
  5
37A
330
1F
100
AcDbEntity
  8
Ｓ_１_１
  6
CONTINUOUS
 62
     3
100
AcDbLine
 10
865.0001270391003
 20
1139.99991291903
 30
0.0
 11
858.0001513834001
 21
1137.45216278753
 31
0.0
  0
LINE
  5
37B
330
1F
100
AcDbEntity
  8
Ｓ_１_１
  6
CONTINUOUS
 62
     3
100
AcDbLine
 10
857.9999611079
 20
1114.50050362193
 30
0.0
 11
857.9999611079
 21
1102.54779841683
 31
0.0
  0
CIRCLE
  5
37C
330
1F
100
AcDbEntity
  8
Ｓ_１_１
  6
CONTINUOUS
 62
     3
100
AcDbCircle
 10
872.5000066682003
 20
1107.50000018623
 30
0.0
 40
5.099999828600002
  0
CIRCLE
  5
37D
330
1F
100
AcDbEntity
  8
Ｓ_１_１
  6
CONTINUOUS
 62
     3
100
AcDbCircle
 10
872.5000066682003
 20
1132.49999981373
 30
0.0
 40
5.099999828600002
  0
CIRCLE
  5
37E
330
1F
100
AcDbEntity
  8
Ｓ_１_１
  6
CONTINUOUS
 62
     3
100
AcDbCircle
 10
872.5000066682003
 20
1132.49999981373
 30
0.0
 40
4.0
  0
CIRCLE
  5
37F
330
1F
100
AcDbEntity
  8
Ｓ_１_１
  6
CONTINUOUS
 62
     3
100
AcDbCircle
 10
872.5000066682003
 20
1107.50000018623
 30
0.0
 40
4.0
  0
CIRCLE
  5
380
330
1F
100
AcDbEntity
  8
Ｓ_１_１
  6
CONTINUOUS
 62
     3
100
AcDbCircle
 10
872.5000066682003
 20
1107.50000018623
 30
0.0
 40
3.000000074500002
  0
CIRCLE
  5
381
330
1F
100
AcDbEntity
  8
Ｓ_１_１
  6
CONTINUOUS
 62
     3
100
AcDbCircle
 10
872.5000066682003
 20
1132.49999981373
 30
0.0
 40
3.000000074500002
  0
CIRCLE
  5
382
330
1F
100
AcDbEntity
  8
Ｓ_１_１
  6
CONTINUOUS
 62
     3
100
AcDbCircle
 10
826.7298199723002
 20
1093.12995950683
 30
0.0
 40
8.7499998696
  0
CIRCLE
  5
383
330
1F
100
AcDbEntity
  8
Ｓ_１_１
  6
CONTINUOUS
 62
     3
100
AcDbCircle
 10
826.7298199723002
 20
1093.12995950683
 30
0.0
 40
6.999999776499999
  0
CIRCLE
  5
384
330
1F
100
AcDbEntity
  8
Ｓ_１_１
  6
CONTINUOUS
 62
     3
100
AcDbCircle
 10
826.7298199723002
 20
1093.12995950683
 30
0.0
 40
3.000000074500002
  0
ARC
  5
385
330
1F
100
AcDbEntity
  8
Ｓ_１_１
  6
CONTINUOUS
 62
     3
100
AcDbCircle
 10
853.5999367594002
 20
1120.00000000003
 30
0.0
 40
6.999999776499999
100
AcDbArc
 50
314.9998723892994
 51
135.0002462283999
  0
CIRCLE
  5
386
330
1F
100
AcDbEntity
  8
Ｓ_１_１
  6
CONTINUOUS
 62
     3
100
AcDbCircle
 10
853.5999367594002
 20
1120.00000000003
 30
0.0
 40
3.000000074500002
  0
LINE
  5
387
330
1F
100
AcDbEntity
  8
Ｓ_１_１
  6
CONTINUOUS
 62
     3
100
AcDbLine
 10
649.1699318711003
 20
1082.50000055883
 30
0.0
 11
652.3399452516
 21
1082.50000055883
 31
0.0
  0
LINE
  5
388
330
1F
100
AcDbEntity
  8
Ｓ_１_１
  6
CONTINUOUS
 62
     3
100
AcDbLine
 10
649.1699318711003
 20
1077.50000063333
 30
0.0
 11
652.3399452516
 21
1077.50000063333
 31
0.0
  0
LINE
  5
389
330
1F
100
AcDbEntity
  8
Ｓ_１_１
  6
CONTINUOUS
 62
     3
100
AcDbLine
 10
664.1699316476002
 20
1082.50000055883
 30
0.0
 11
661.0000708550001
 21
1082.50000055883
 31
0.0
  0
LINE
  5
38A
330
1F
100
AcDbEntity
  8
Ｓ_１_１
  6
CONTINUOUS
 62
     3
100
AcDbLine
 10
664.1699316476002
 20
1077.50000063333
 30
0.0
 11
661.0000708550001
 21
1077.50000063333
 31
0.0
  0
CIRCLE
  5
38B
330
1F
100
AcDbEntity
  8
Ｓ_１_１
  6
CONTINUOUS
 62
     3
100
AcDbCircle
 10
656.6699317593002
 20
1080.00000059603
 30
0.0
 40
4.9999999255
  0
CIRCLE
  5
38C
330
1F
100
AcDbEntity
  8
Ｓ_１_１
  6
CONTINUOUS
 62
     3
100
AcDbCircle
 10
656.6699317593002
 20
1080.00000059603
 30
0.0
 40
4.0
  0
CIRCLE
  5
38D
330
1F
100
AcDbEntity
  8
Ｓ_１_１
  6
CONTINUOUS
 62
     3
100
AcDbCircle
 10
656.6699317593002
 20
1080.00000059603
 30
0.0
 40
3.000000074500002
  0
CIRCLE
  5
38E
330
1F
100
AcDbEntity
  8
Ｓ_１_１
  6
CONTINUOUS
 62
     3
100
AcDbCircle
 10
649.1699318711003
 20
1080.00000059603
 30
0.0
 40
2.4999999627
  0
CIRCLE
  5
38F
330
1F
100
AcDbEntity
  8
Ｓ_１_１
  6
CONTINUOUS
 62
     3
100
AcDbCircle
 10
664.1699316476002
 20
1080.00000059603
 30
0.0
 40
2.4999999627
  0
LINE
  5
390
330
1F
100
AcDbEntity
  8
Ｓ_１_１
  6
CONTINUOUS
 62
     3
100
AcDbLine
 10
649.1699318711003
 20
1102.50000026073
 30
0.0
 11
652.3399452516
 21
1102.50000026073
 31
0.0
  0
LINE
  5
391
330
1F
100
AcDbEntity
  8
Ｓ_１_１
  6
CONTINUOUS
 62
     3
100
AcDbLine
 10
664.1699316476002
 20
1102.50000026073
 30
0.0
 11
661.0000708550001
 21
1102.50000026073
 31
0.0
  0
LINE
  5
392
330
1F
100
AcDbEntity
  8
Ｓ_１_１
  6
CONTINUOUS
 62
     3
100
AcDbLine
 10
649.1699318711003
 20
1097.50000033523
 30
0.0
 11
652.3399452516
 21
1097.50000033523
 31
0.0
  0
LINE
  5
393
330
1F
100
AcDbEntity
  8
Ｓ_１_１
  6
CONTINUOUS
 62
     3
100
AcDbLine
 10
664.1699316476002
 20
1097.50000033523
 30
0.0
 11
661.0000708550001
 21
1097.50000033523
 31
0.0
  0
CIRCLE
  5
394
330
1F
100
AcDbEntity
  8
Ｓ_１_１
  6
CONTINUOUS
 62
     3
100
AcDbCircle
 10
656.6699317593002
 20
1100.00000029803
 30
0.0
 40
4.9999999255
  0
CIRCLE
  5
395
330
1F
100
AcDbEntity
  8
Ｓ_１_１
  6
CONTINUOUS
 62
     3
100
AcDbCircle
 10
656.6699317593002
 20
1100.00000029803
 30
0.0
 40
4.0
  0
CIRCLE
  5
396
330
1F
100
AcDbEntity
  8
Ｓ_１_１
  6
CONTINUOUS
 62
     3
100
AcDbCircle
 10
656.6699317593002
 20
1100.00000029803
 30
0.0
 40
3.000000074500002
  0
CIRCLE
  5
397
330
1F
100
AcDbEntity
  8
Ｓ_１_１
  6
CONTINUOUS
 62
     3
100
AcDbCircle
 10
649.1699318711003
 20
1100.00000029803
 30
0.0
 40
2.4999999627
  0
CIRCLE
  5
398
330
1F
100
AcDbEntity
  8
Ｓ_１_１
  6
CONTINUOUS
 62
     3
100
AcDbCircle
 10
664.1699316476002
 20
1100.00000029803
 30
0.0
 40
2.4999999627
  0
LINE
  5
399
330
1F
100
AcDbEntity
  8
Ｓ_１_１
  6
CONTINUOUS
 62
     3
100
AcDbLine
 10
678.6700535018003
 20
1110.00000014903
 30
0.0
 11
678.6700535018003
 21
1070.00000074503
 31
0.0
  0
LINE
  5
39A
330
1F
100
AcDbEntity
  8
Ｓ_１_１
  6
CONTINUOUS
 62
     3
100
AcDbLine
 10
561.4999502673006
 20
1070.0000078976
 30
0.0
 11
561.4999502673006
 21
1040.0000083447
 31
0.0
  0
LINE
  5
39B
330
1F
100
AcDbEntity
  8
Ｓ_１_１
  6
CONTINUOUS
 62
     3
100
AcDbLine
 10
561.4999502673006
 20
1200.0000059605
 30
0.0
 11
561.4999502673006
 21
1170.0000064075
 31
0.0
  0
LINE
  5
39C
330
1F
100
AcDbEntity
  8
Ｓ_１_１
  6
CONTINUOUS
 62
     3
100
AcDbLine
 10
574.4999805912005
 20
1171.5000061467
 30
0.0
 11
560.0000113248004
 21
1171.5000061467
 31
0.0
  0
LINE
  5
39D
330
1F
100
AcDbEntity
  8
Ｓ_１_１
  6
CONTINUOUS
 62
     3
100
AcDbLine
 10
574.4999805912005
 20
1198.5000062213
 30
0.0
 11
559.4999808147002
 21
1198.5000062213
 31
0.0
  0
LINE
  5
39E
330
1F
100
AcDbEntity
  8
Ｓ_１_１
  6
CONTINUOUS
 62
     3
100
AcDbLine
 10
574.4999805912005
 20
1041.5000045076
 30
0.0
 11
560.0000113248004
 21
1041.5000045076
 31
0.0
  0
LINE
  5
39F
330
1F
100
AcDbEntity
  8
Ｓ_１_１
  6
CONTINUOUS
 62
     3
100
AcDbLine
 10
574.4999805912005
 20
1068.5000021979
 30
0.0
 11
559.4999808147002
 21
1068.5000021979
 31
0.0
  0
LINE
  5
3A0
330
1F
100
AcDbEntity
  8
Ｓ_１_１
  6
CONTINUOUS
 62
     3
100
AcDbLine
 10
559.4999079066008
 20
1042.0000348743
 30
0.0
 11
561.4999445605006
 21
1040.0000459309
 31
0.0
  0
LINE
  5
3A1
330
1F
100
AcDbEntity
  8
Ｓ_１_１
  6
CONTINUOUS
 62
     3
100
AcDbLine
 10
561.4999500894007
 20
1069.9999119221
 30
0.0
 11
559.5000275690006
 21
1067.9999703519
 31
0.0
  0
LINE
  5
3A2
330
1F
100
AcDbEntity
  8
Ｓ_１_１
  6
CONTINUOUS
 62
     3
100
AcDbLine
 10
559.5000763595006
 20
1171.9999459411
 30
0.0
 11
561.5000580533003
 21
1170.0000095964
 31
0.0
  0
LINE
  5
3A3
330
1F
100
AcDbEntity
  8
Ｓ_１_１
  6
CONTINUOUS
 62
     3
100
AcDbLine
 10
561.5000043808002
 20
1199.9999641009
 30
0.0
 11
559.5000442657008
 21
1198.000006346
 31
0.0
  0
LINE
  5
3A4
330
1F
100
AcDbEntity
  8
Ｓ_１_１
  6
CONTINUOUS
 62
     3
100
AcDbLine
 10
561.5000265612005
 20
1040.0000083447
 30
0.0
 11
574.4999805912005
 21
1040.0000083447
 31
0.0
  0
LINE
  5
3A5
330
1F
100
AcDbEntity
  8
Ｓ_１_１
  6
CONTINUOUS
 62
     3
100
AcDbLine
 10
561.4999502673006
 20
1070.0000078976
 30
0.0
 11
574.4999805912005
 21
1070.0000078976
 31
0.0
  0
LINE
  5
3A6
330
1F
100
AcDbEntity
  8
Ｓ_１_１
  6
CONTINUOUS
 62
     3
100
AcDbLine
 10
561.5000265612005
 20
1170.0000064075
 30
0.0
 11
574.4999805912005
 21
1170.0000064075
 31
0.0
  0
LINE
  5
3A7
330
1F
100
AcDbEntity
  8
Ｓ_１_１
  6
CONTINUOUS
 62
     3
100
AcDbLine
 10
561.4999502673006
 20
1200.0000059605
 30
0.0
 11
574.4999805912005
 21
1200.0000059605
 31
0.0
  0
LINE
  5
3A8
330
1F
100
AcDbEntity
  8
Ｓ_１_１
  6
CONTINUOUS
 62
     3
100
AcDbLine
 10
559.4999808147002
 20
1055.0000081212
 30
0.0
 11
559.4999808147002
 21
1042.0000064075
 31
0.0
  0
LINE
  5
3A9
330
1F
100
AcDbEntity
  8
Ｓ_１_１
  6
CONTINUOUS
 62
     3
100
AcDbLine
 10
559.4999808147002
 20
1068.0000193715
 30
0.0
 11
559.4999808147002
 21
1055.0000081212
 31
0.0
  0
LINE
  5
3AA
330
1F
100
AcDbEntity
  8
Ｓ_１_１
  6
CONTINUOUS
 62
     3
100
AcDbLine
 10
559.4999808147002
 20
1185.000006184
 30
0.0
 11
559.4999808147002
 21
1172.0000068546
 31
0.0
  0
LINE
  5
3AB
330
1F
100
AcDbEntity
  8
Ｓ_１_１
  6
CONTINUOUS
 62
     3
100
AcDbLine
 10
559.4999808147002
 20
1198.000038892
 30
0.0
 11
559.4999808147002
 21
1185.000006184
 31
0.0
  0
LINE
  5
3AC
330
1F
100
AcDbEntity
  8
Ｓ_１_１
  6
EXLTYPE2
 62
     1
100
AcDbLine
 10
554.3124831942005
 20
1184.99999903143
 30
0.0
 11
1399.2749774564
 21
1184.99999903143
 31
0.0
  0
LINE
  5
3AD
330
1F
100
AcDbEntity
  8
Ｓ_１_１
  6
EXLTYPE2
 62
     1
100
AcDbLine
 10
553.3124831942005
 20
1055.000000968581
 30
0.0
 11
1396.3124831942
 21
1055.000000968581
 31
0.0
  0
LINE
  5
3AE
330
1F
100
AcDbEntity
  8
Ｓ_１_１
  6
EXLTYPE2
 62
     1
100
AcDbLine
 10
620.8749875295002
 20
1120.00000000003
 30
0.0
 11
1326.1249541323
 21
1120.00000000003
 31
0.0
  0
LINE
  5
3AF
330
1F
100
AcDbEntity
  8
Ｓ_１_１
  6
EXLTYPE2
 62
     1
100
AcDbLine
 10
818.7717192427003
 20
1085.17192666483
 30
0.0
 11
860.1592118335001
 21
1126.55941576693
 31
0.0
  0
ARC
  5
3B0
330
1F
100
AcDbEntity
  8
Ｓ_１_１
  6
EXLTYPE2
 62
     1
100
AcDbCircle
 10
853.5999367594002
 20
1120.00000000003
 30
0.0
 40
37.9999989569
100
AcDbArc
 50
207.839627482
 51
242.2197808202002
  0
LINE
  5
3B1
330
1F
100
AcDbEntity
  8
Ｓ_１_１
  6
EXLTYPE2
 62
     1
100
AcDbLine
 10
853.5999367594002
 20
1128.58745562153
 30
0.0
 11
853.5999367594002
 21
1112.66246806583
 31
0.0
  0
LINE
  5
3B2
330
1F
100
AcDbEntity
  8
Ｓ_１_１
  6
EXLTYPE2
 62
     1
100
AcDbLine
 10
872.5000066682003
 20
1115.00000007453
 30
0.0
 11
872.5000066682003
 21
1100.00000029803
 31
0.0
  0
LINE
  5
3B3
330
1F
100
AcDbEntity
  8
Ｓ_１_１
  6
EXLTYPE2
 62
     1
100
AcDbLine
 10
865.00000678
 20
1107.50000018623
 30
0.0
 11
880.0000065565002
 21
1107.50000018623
 31
0.0
  0
LINE
  5
3B4
330
1F
100
AcDbEntity
  8
Ｓ_１_１
  6
EXLTYPE2
 62
     1
100
AcDbLine
 10
872.5000066682003
 20
1139.99999970193
 30
0.0
 11
872.5000066682003
 21
1124.99999992553
 31
0.0
  0
LINE
  5
3B5
330
1F
100
AcDbEntity
  8
Ｓ_１_１
  6
EXLTYPE2
 62
     1
100
AcDbLine
 10
865.00000678
 20
1132.49999981373
 30
0.0
 11
880.0000065565002
 21
1132.49999981373
 31
0.0
  0
LINE
  5
3B6
330
1F
100
AcDbEntity
  8
Ｓ_１_１
  6
EXLTYPE2
 62
     1
100
AcDbLine
 10
656.6699317593002
 20
1110.73738111943
 30
0.0
 11
656.6699317593002
 21
1068.03737717813
 31
0.0
  0
LINE
  5
3B7
330
1F
100
AcDbEntity
  8
Ｓ_１_１
  6
EXLTYPE2
 62
     1
100
AcDbLine
 10
641.6699319828999
 20
1080.00000059603
 30
0.0
 11
671.6699315358005
 21
1080.00000059603
 31
0.0
  0
LINE
  5
3B8
330
1F
100
AcDbEntity
  8
Ｓ_１_１
  6
EXLTYPE2
 62
     1
100
AcDbLine
 10
641.6699319828999
 20
1100.00000029803
 30
0.0
 11
671.6699315358005
 21
1100.00000029803
 31
0.0
  0
LINE
  5
3B9
330
1F
100
AcDbEntity
  8
Ｓ_１_１
  6
EXLTYPE2
 62
     1
100
AcDbLine
 10
1220.0000014901
 20
1132.49999981373
 30
0.0
 11
1235.0000012666
 21
1132.49999981373
 31
0.0
  0
LINE
  5
3BA
330
1F
100
AcDbEntity
  8
Ｓ_１_１
  6
EXLTYPE2
 62
     1
100
AcDbLine
 10
1227.5000013783
 20
1139.99999970193
 30
0.0
 11
1227.5000013783
 21
1124.99999992553
 31
0.0
  0
LINE
  5
3BB
330
1F
100
AcDbEntity
  8
Ｓ_１_１
  6
EXLTYPE2
 62
     1
100
AcDbLine
 10
1227.5000013783
 20
1115.00000007453
 30
0.0
 11
1227.5000013783
 21
1100.00000029803
 31
0.0
  0
LINE
  5
3BC
330
1F
100
AcDbEntity
  8
Ｓ_１_１
  6
EXLTYPE2
 62
     1
100
AcDbLine
 10
1220.0000014901
 20
1107.50000018623
 30
0.0
 11
1235.0000012666
 21
1107.50000018623
 31
0.0
  0
LINE
  5
3BD
330
1F
100
AcDbEntity
  8
Ｓ_１_１
  6
EXLTYPE2
 62
     1
100
AcDbLine
 10
1246.3999949932
 20
1128.93745409043
 30
0.0
 11
1246.3999949932
 21
1110.56243910543
 31
0.0
  0
LINE
  5
3BE
330
1F
100
AcDbEntity
  8
Ｓ_１_１
  6
EXLTYPE2
 62
     1
100
AcDbLine
 10
1243.2349864259
 20
1111.30415358293
 30
0.0
 11
1262.8355705986
 21
1165.15631407713
 31
0.0
  0
ARC
  5
3BF
330
1F
100
AcDbEntity
  8
Ｓ_１_１
  6
EXLTYPE2
 62
     1
100
AcDbCircle
 10
1246.3999949932
 20
1120.00000000003
 30
0.0
 40
37.9999989569
100
AcDbArc
 50
52.81001179449977
 51
87.01461561069986
  0
LINE
  5
3C0
330
1F
100
AcDbEntity
  8
Ｓ_１_１
  6
EXLTYPE2
 62
     1
100
AcDbLine
 10
1293.1468204685
 20
1166.73744132013
 30
0.0
 11
1293.1468204685
 21
1131.38744337283
 31
0.0
  0
LINE
  5
3C1
330
1F
100
AcDbEntity
  8
Ｓ_１_１
  6
EXLTYPE2
 62
     1
100
AcDbLine
 10
1281.0186010447
 20
1159.99999940393
 30
0.0
 11
1305.1686098401
 21
1159.99999940393
 31
0.0
  0
LINE
  5
3C2
330
1F
100
AcDbEntity
  8
Ｓ_１_１
  6
EXLTYPE2
 62
     1
100
AcDbLine
 10
1280.8436590307
 20
1139.99999970193
 30
0.0
 11
1304.8185732242
 21
1139.99999970193
 31
0.0
  0
LINE
  5
3C3
330
1F
100
AcDbEntity
  8
Ｓ_１_１
  6
EXLTYPE2
 62
     1
100
AcDbLine
 10
942.9999598413
 20
1202.4999990314
 30
0.0
 11
942.9999598413
 21
1167.4999990314
 31
0.0
  0
LINE
  5
3C4
330
1F
100
AcDbEntity
  8
Ｓ_１_１
  6
EXLTYPE2
 62
     1
100
AcDbLine
 10
1156.9999719113
 20
1202.4999990314
 30
0.0
 11
1156.9999719113
 21
1167.4999990314
 31
0.0
  0
LINE
  5
3C5
330
1F
100
AcDbEntity
  8
Ｓ_１_１
  6
EXLTYPE2
 62
     1
100
AcDbLine
 10
942.9999598413
 20
1072.5000009685
 30
0.0
 11
942.9999598413
 21
1037.5000009685
 31
0.0
  0
LINE
  5
3C6
330
1F
100
AcDbEntity
  8
Ｓ_１_１
  6
EXLTYPE2
 62
     1
100
AcDbLine
 10
1156.9999719113
 20
1072.5000009685
 30
0.0
 11
1156.9999719113
 21
1037.5000009685
 31
0.0
  0
ARC
  5
3C7
330
1F
100
AcDbEntity
  8
Ｓ_１_１
  6
CONTINUOUS
 62
     3
100
AcDbCircle
 10
1904.9999990314
 20
1055.00000096853
 30
0.0
 40
54.9999991804
100
AcDbArc
 50
245.3799727454
 51
24.61996327839993
  0
ARC
  5
3C8
330
1F
100
AcDbEntity
  8
Ｓ_１_１
  6
CONTINUOUS
 62
     3
100
AcDbCircle
 10
1775.0000009685
 20
1184.99999903143
 30
0.0
 40
57.49999914320001
100
AcDbArc
 50
60.40816011410014
 51
195.1216203596
  0
ARC
  5
3C9
330
1F
100
AcDbEntity
  8
Ｓ_１_１
  6
CONTINUOUS
 62
     3
100
AcDbCircle
 10
1775.0000009685
 20
1184.99999903143
 30
0.0
 40
54.9999991804
100
AcDbArc
 50
65.37999141470014
 51
195.8265778443
  0
ARC
  5
3CA
330
1F
100
AcDbEntity
  8
Ｓ_１_１
  6
CONTINUOUS
 62
     3
100
AcDbCircle
 10
1904.9999990314
 20
1184.99999903143
 30
0.0
 40
54.9999991804
100
AcDbArc
 50
335.3800367216
 51
114.6200135942001
  0
ARC
  5
3CB
330
1F
100
AcDbEntity
  8
Ｓ_１_１
  6
CONTINUOUS
 62
     3
100
AcDbCircle
 10
1775.0000009685
 20
1055.00000096853
 30
0.0
 40
54.9999991804
100
AcDbArc
 50
155.3800553909002
 51
294.6199912824
  0
ARC
  5
3CC
330
1F
100
AcDbEntity
  8
Ｓ_１_１
  6
CONTINUOUS
 62
     3
100
AcDbCircle
 10
1775.0000009685
 20
1055.00000096853
 30
0.0
 40
57.49999914320001
100
AcDbArc
 50
150.4081694487001
 51
299.5918225830998
  0
ARC
  5
3CD
330
1F
100
AcDbEntity
  8
Ｓ_１_１
  6
CONTINUOUS
 62
     3
100
AcDbCircle
 10
1904.9999990314
 20
1055.00000096853
 30
0.0
 40
57.49999914320001
100
AcDbArc
 50
240.4081414447002
 51
29.59184922060001
  0
ARC
  5
3CE
330
1F
100
AcDbEntity
  8
Ｓ_１_１
  6
CONTINUOUS
 62
     3
100
AcDbCircle
 10
1904.9999990314
 20
1184.99999903143
 30
0.0
 40
57.49999914320001
100
AcDbArc
 50
330.4081507794
 51
119.5918722156002
  0
CIRCLE
  5
3CF
330
1F
100
AcDbEntity
  8
Ｓ_１_１
  6
CONTINUOUS
 62
     3
100
AcDbCircle
 10
1775.0000009685
 20
1055.00000096853
 30
0.0
 40
27.9999991059
  0
CIRCLE
  5
3D0
330
1F
100
AcDbEntity
  8
Ｓ_１_１
  6
CONTINUOUS
 62
     3
100
AcDbCircle
 10
1904.9999990314
 20
1055.00000096853
 30
0.0
 40
27.9999991059
  0
CIRCLE
  5
3D1
330
1F
100
AcDbEntity
  8
Ｓ_１_１
  6
CONTINUOUS
 62
     3
100
AcDbCircle
 10
1904.9999990314
 20
1184.99999903143
 30
0.0
 40
27.9999991059
  0
CIRCLE
  5
3D2
330
1F
100
AcDbEntity
  8
Ｓ_１_１
  6
CONTINUOUS
 62
     3
100
AcDbCircle
 10
1775.0000009685
 20
1184.99999903143
 30
0.0
 40
27.9999991059
  0
CIRCLE
  5
3D3
330
1F
100
AcDbEntity
  8
Ｓ_１_１
  6
CONTINUOUS
 62
     3
100
AcDbCircle
 10
1904.9999990314
 20
1184.99999903143
 30
0.0
 40
13.5000000373
  0
CIRCLE
  5
3D4
330
1F
100
AcDbEntity
  8
Ｓ_１_１
  6
CONTINUOUS
 62
     3
100
AcDbCircle
 10
1775.0000009685
 20
1184.99999903143
 30
0.0
 40
13.5000000373
  0
CIRCLE
  5
3D5
330
1F
100
AcDbEntity
  8
Ｓ_１_１
  6
CONTINUOUS
 62
     3
100
AcDbCircle
 10
1775.0000009685
 20
1055.00000096853
 30
0.0
 40
13.5000000373
  0
CIRCLE
  5
3D6
330
1F
100
AcDbEntity
  8
Ｓ_１_１
  6
CONTINUOUS
 62
     3
100
AcDbCircle
 10
1904.9999990314
 20
1055.00000096853
 30
0.0
 40
13.5000000373
  0
CIRCLE
  5
3D7
330
1F
100
AcDbEntity
  8
Ｓ_１_１
  6
CONTINUOUS
 62
     3
100
AcDbCircle
 10
1904.9999990314
 20
1055.00000096853
 30
0.0
 40
14.9999997765
  0
CIRCLE
  5
3D8
330
1F
100
AcDbEntity
  8
Ｓ_１_１
  6
CONTINUOUS
 62
     3
100
AcDbCircle
 10
1904.9999990314
 20
1184.99999903143
 30
0.0
 40
14.9999997765
  0
CIRCLE
  5
3D9
330
1F
100
AcDbEntity
  8
Ｓ_１_１
  6
CONTINUOUS
 62
     3
100
AcDbCircle
 10
1775.0000009685
 20
1184.99999903143
 30
0.0
 40
14.9999997765
  0
CIRCLE
  5
3DA
330
1F
100
AcDbEntity
  8
Ｓ_１_１
  6
CONTINUOUS
 62
     3
100
AcDbCircle
 10
1775.0000009685
 20
1055.00000096853
 30
0.0
 40
14.9999997765
  0
CIRCLE
  5
3DB
330
1F
100
AcDbEntity
  8
Ｓ_１_１
  6
CONTINUOUS
 62
     3
100
AcDbCircle
 10
1775.0000009685
 20
1055.00000096853
 30
0.0
 40
22.99999918040001
  0
CIRCLE
  5
3DC
330
1F
100
AcDbEntity
  8
Ｓ_１_１
  6
CONTINUOUS
 62
     3
100
AcDbCircle
 10
1904.9999990314
 20
1055.00000096853
 30
0.0
 40
22.99999918040001
  0
CIRCLE
  5
3DD
330
1F
100
AcDbEntity
  8
Ｓ_１_１
  6
CONTINUOUS
 62
     3
100
AcDbCircle
 10
1904.9999990314
 20
1184.99999903143
 30
0.0
 40
22.99999918040001
  0
CIRCLE
  5
3DE
330
1F
100
AcDbEntity
  8
Ｓ_１_１
  6
CONTINUOUS
 62
     3
100
AcDbCircle
 10
1775.0000009685
 20
1184.99999903143
 30
0.0
 40
22.99999918040001
  0
LINE
  5
3DF
330
1F
100
AcDbEntity
  8
Ｓ_１_１
  6
CONTINUOUS
 62
     3
100
AcDbLine
 10
1959.9999615244
 20
1259.99993885263
 30
0.0
 11
1979.9999639136
 21
1239.99989768833
 31
0.0
  0
LINE
  5
3E0
330
1F
100
AcDbEntity
  8
Ｓ_１_１
  6
CONTINUOUS
 62
     3
100
AcDbLine
 10
1959.9999766974
 20
980.0000752558301
 30
0.0
 11
1979.9999622277
 21
1000.00002369703
 31
0.0
  0
LINE
  5
3E1
330
1F
100
AcDbEntity
  8
Ｓ_１_１
  6
CONTINUOUS
 62
     3
100
AcDbLine
 10
1699.9999481696
 20
999.9999689071298
 30
0.0
 11
1720.0000348526
 21
979.9999597745302
 31
0.0
  0
LINE
  5
3E2
330
1F
100
AcDbEntity
  8
Ｓ_１_１
  6
CONTINUOUS
 62
     3
100
AcDbLine
 10
1719.9999636207
 20
1259.99996582593
 30
0.0
 11
1699.999942687
 21
1239.99994489213
 31
0.0
  0
LINE
  5
3E3
330
1F
100
AcDbEntity
  8
Ｓ_１_１
  6
CONTINUOUS
 62
     3
100
AcDbLine
 10
1685.0000023096
 20
1129.99999985093
 30
0.0
 11
1725.0000017136
 21
1129.99999985093
 31
0.0
  0
LINE
  5
3E4
330
1F
100
AcDbEntity
  8
Ｓ_１_１
  6
CONTINUOUS
 62
     3
100
AcDbLine
 10
1685.0000023096
 20
1169.99999925493
 30
0.0
 11
1725.0000017136
 21
1169.99999925493
 31
0.0
  0
LINE
  5
3E5
330
1F
100
AcDbEntity
  8
Ｓ_１_１
  6
CONTINUOUS
 62
     3
100
AcDbLine
 10
1685.0000023096
 20
1169.99999925493
 30
0.0
 11
1685.0000023096
 21
1129.99999985093
 31
0.0
  0
LINE
  5
3E6
330
1F
100
AcDbEntity
  8
Ｓ_１_１
  6
CONTINUOUS
 62
     3
100
AcDbLine
 10
1700.0000020861
 20
1129.99999985093
 30
0.0
 11
1700.0000020861
 21
1000.00000178813
 31
0.0
  0
LINE
  5
3E7
330
1F
100
AcDbEntity
  8
Ｓ_１_１
  6
CONTINUOUS
 62
     3
100
AcDbLine
 10
1955.0003174884
 20
1035.00005400883
 30
0.0
 11
1925.0002860878
 21
1005.00002260813
 31
0.0
  0
LINE
  5
3E8
330
1F
100
AcDbEntity
  8
Ｓ_１_１
  6
CONTINUOUS
 62
     3
100
AcDbLine
 10
1725.0001306981
 20
1035.00010795683
 30
0.0
 11
1755.0001351247
 21
1005.00010353013
 31
0.0
  0
LINE
  5
3E9
330
1F
100
AcDbEntity
  8
Ｓ_１_１
  6
CONTINUOUS
 62
     3
100
AcDbLine
 10
1925.0002591138
 20
1235.00018242453
 30
0.0
 11
1955.0002635405
 21
1205.00017799783
 31
0.0
  0
LINE
  5
3EA
330
1F
100
AcDbEntity
  8
Ｓ_１_１
  6
CONTINUOUS
 62
     3
100
AcDbLine
 10
1755.0001755857
 20
1235.00019591153
 30
0.0
 11
1725.0001441851
 21
1205.00016451093
 31
0.0
  0
LINE
  5
3EB
330
1F
100
AcDbEntity
  8
Ｓ_１_１
  6
CONTINUOUS
 62
     3
100
AcDbLine
 10
1979.9999979138
 20
1239.99996006483
 30
0.0
 11
1979.9999979138
 21
999.9999636411301
 31
0.0
  0
LINE
  5
3EC
330
1F
100
AcDbEntity
  8
Ｓ_１_１
  6
CONTINUOUS
 62
     3
100
AcDbLine
 10
1700.0000020861
 20
1239.99999821183
 30
0.0
 11
1700.0000020861
 21
1169.99999925493
 31
0.0
  0
LINE
  5
3ED
330
1F
100
AcDbEntity
  8
Ｓ_１_１
  6
CONTINUOUS
 62
     3
100
AcDbLine
 10
1720.000078082
 20
980.0000020861299
 30
0.0
 11
1959.9999982118
 21
980.0000020861299
 31
0.0
  0
LINE
  5
3EE
330
1F
100
AcDbEntity
  8
Ｓ_１_１
  6
CONTINUOUS
 62
     3
100
AcDbLine
 10
1720.0000017881
 20
1259.99999791383
 30
0.0
 11
1959.9999982118
 21
1259.99999791383
 31
0.0
  0
LINE
  5
3EF
330
1F
100
AcDbEntity
  8
Ｓ_１_１
  6
CONTINUOUS
 62
     3
100
AcDbLine
 10
1725.0000017136
 20
1204.99999873343
 30
0.0
 11
1725.0000017136
 21
1035.00000126663
 31
0.0
  0
LINE
  5
3F0
330
1F
100
AcDbEntity
  8
Ｓ_１_１
  6
CONTINUOUS
 62
     3
100
AcDbLine
 10
1954.9999982863
 20
1204.99999873343
 30
0.0
 11
1954.9999982863
 21
1035.00000126663
 31
0.0
  0
LINE
  5
3F1
330
1F
100
AcDbEntity
  8
Ｓ_１_１
  6
CONTINUOUS
 62
     3
100
AcDbLine
 10
1755.0000012666
 20
1234.99999828633
 30
0.0
 11
1924.9999987334
 21
1234.99999828633
 31
0.0
  0
LINE
  5
3F2
330
1F
100
AcDbEntity
  8
Ｓ_１_１
  6
CONTINUOUS
 62
     3
100
AcDbLine
 10
1755.0000012666
 20
1005.00000171363
 30
0.0
 11
1924.9999987334
 21
1005.00000171363
 31
0.0
  0
LINE
  5
3F3
330
1F
100
AcDbEntity
  8
Ｓ_１_１
  6
CONTINUOUS
 62
     3
100
AcDbLine
 10
1891.7250771456
 20
1032.00711616333
 30
0.0
 11
1878.4500683297
 21
1055.00011550813
 31
0.0
  0
LINE
  5
3F4
330
1F
100
AcDbEntity
  8
Ｓ_１_１
  6
CONTINUOUS
 62
     3
100
AcDbLine
 10
1918.27499273
 20
1032.00702798353
 30
0.0
 11
1891.7250053327
 21
1032.00702798353
 31
0.0
  0
LINE
  5
3F5
330
1F
100
AcDbEntity
  8
Ｓ_１_１
  6
CONTINUOUS
 62
     3
100
AcDbLine
 10
1931.5499713332
 20
1054.99999542083
 30
0.0
 11
1918.2749815908
 21
1032.00702911233
 31
0.0
  0
LINE
  5
3F6
330
1F
100
AcDbEntity
  8
Ｓ_１_１
  6
CONTINUOUS
 62
     3
100
AcDbLine
 10
1918.2749765259
 20
1077.99293927433
 30
0.0
 11
1931.5499948785
 21
1054.99992341133
 31
0.0
  0
LINE
  5
3F7
330
1F
100
AcDbEntity
  8
Ｓ_１_１
  6
CONTINUOUS
 62
     3
100
AcDbLine
 10
1891.7250053327
 20
1077.99297395363
 30
0.0
 11
1918.27499273
 21
1077.99297395363
 31
0.0
  0
LINE
  5
3F8
330
1F
100
AcDbEntity
  8
Ｓ_１_１
  6
CONTINUOUS
 62
     3
100
AcDbLine
 10
1891.7250352114
 20
1077.99292340653
 30
0.0
 11
1878.450045469
 21
1054.99995709793
 31
0.0
  0
LINE
  5
3F9
330
1F
100
AcDbEntity
  8
Ｓ_１_１
  6
CONTINUOUS
 62
     3
100
AcDbLine
 10
1788.2749946672
 20
1077.99297395363
 30
0.0
 11
1761.7250072699
 21
1077.99297395363
 31
0.0
  0
LINE
  5
3FA
330
1F
100
AcDbEntity
  8
Ｓ_１_１
  6
CONTINUOUS
 62
     3
100
AcDbLine
 10
1801.5501083486
 20
1055.00003448973
 30
0.0
 11
1788.275089996
 21
1077.99305035273
 31
0.0
  0
LINE
  5
3FB
330
1F
100
AcDbEntity
  8
Ｓ_１_１
  6
CONTINUOUS
 62
     3
100
AcDbLine
 10
1788.2750105995
 20
1032.00707691843
 30
0.0
 11
1801.5500003419
 21
1055.00004322703
 31
0.0
  0
LINE
  5
3FC
330
1F
100
AcDbEntity
  8
Ｓ_１_１
  6
CONTINUOUS
 62
     3
100
AcDbLine
 10
1761.7250072699
 20
1032.00702798353
 30
0.0
 11
1788.2749946672
 21
1032.00702798353
 31
0.0
  0
LINE
  5
3FD
330
1F
100
AcDbEntity
  8
Ｓ_１_１
  6
CONTINUOUS
 62
     3
100
AcDbLine
 10
1748.4500169608
 20
1055.00005433223
 30
0.0
 11
1761.7250210084
 21
1032.00706324643
 31
0.0
  0
LINE
  5
3FE
330
1F
100
AcDbEntity
  8
Ｓ_１_１
  6
CONTINUOUS
 62
     3
100
AcDbLine
 10
1761.7250362946
 20
1077.99307543213
 30
0.0
 11
1748.4500084053
 21
1055.00004305103
 31
0.0
  0
LINE
  5
3FF
330
1F
100
AcDbEntity
  8
Ｓ_１_１
  6
CONTINUOUS
 62
     3
100
AcDbLine
 10
1931.550192288899
 20
1185.00008002673
 30
0.0
 11
1918.2751548628
 21
1207.99312892593
 31
0.0
  0
LINE
  5
400
330
1F
100
AcDbEntity
  8
Ｓ_１_１
  6
CONTINUOUS
 62
     3
100
AcDbLine
 10
1918.2751336164
 20
1162.00702802903
 30
0.0
 11
1931.5501233588
 21
1184.99999433763
 31
0.0
  0
LINE
  5
401
330
1F
100
AcDbEntity
  8
Ｓ_１_１
  6
CONTINUOUS
 62
     3
100
AcDbLine
 10
1891.7250053327
 20
1162.00702604643
 30
0.0
 11
1918.27499273
 21
1162.00702604643
 31
0.0
  0
LINE
  5
402
330
1F
100
AcDbEntity
  8
Ｓ_１_１
  6
CONTINUOUS
 62
     3
100
AcDbLine
 10
1878.4501581215
 20
1185.00000076043
 30
0.0
 11
1891.725147864
 21
1162.00703445183
 31
0.0
  0
LINE
  5
403
330
1F
100
AcDbEntity
  8
Ｓ_１_１
  6
CONTINUOUS
 62
     3
100
AcDbLine
 10
1891.725055091999
 20
1207.99299861713
 30
0.0
 11
1878.4500653496
 21
1185.00003230863
 31
0.0
  0
LINE
  5
404
330
1F
100
AcDbEntity
  8
Ｓ_１_１
  6
CONTINUOUS
 62
     3
100
AcDbLine
 10
1918.27499273
 20
1207.99297201643
 30
0.0
 11
1891.7250053327
 21
1207.99297201643
 31
0.0
  0
LINE
  5
405
330
1F
100
AcDbEntity
  8
Ｓ_１_１
  6
CONTINUOUS
 62
     3
100
AcDbLine
 10
1788.2749946672
 20
1207.99297201643
 30
0.0
 11
1761.7250072699
 21
1207.99297201643
 31
0.0
  0
LINE
  5
406
330
1F
100
AcDbEntity
  8
Ｓ_１_１
  6
CONTINUOUS
 62
     3
100
AcDbLine
 10
1801.5500836996
 20
1185.00011795953
 30
0.0
 11
1788.2751058781
 21
1207.99306362043
 31
0.0
  0
LINE
  5
407
330
1F
100
AcDbEntity
  8
Ｓ_１_１
  6
CONTINUOUS
 62
     3
100
AcDbLine
 10
1788.2751956614
 20
1162.00705676173
 30
0.0
 11
1801.5501854038
 21
1185.00002307033
 31
0.0
  0
LINE
  5
408
330
1F
100
AcDbEntity
  8
Ｓ_１_１
  6
CONTINUOUS
 62
     3
100
AcDbLine
 10
1761.7250072699
 20
1162.00702604643
 30
0.0
 11
1788.2749946672
 21
1162.00702604643
 31
0.0
  0
LINE
  5
409
330
1F
100
AcDbEntity
  8
Ｓ_１_１
  6
CONTINUOUS
 62
     3
100
AcDbLine
 10
1748.4500137695
 20
1185.00010063623
 30
0.0
 11
1761.7250249696
 21
1162.00709716183
 31
0.0
  0
LINE
  5
40A
330
1F
100
AcDbEntity
  8
Ｓ_１_１
  6
CONTINUOUS
 62
     3
100
AcDbLine
 10
1761.7250841008
 20
1207.99304642333
 30
0.0
 11
1748.4500562114
 21
1185.00001404223
 31
0.0
  0
LINE
  5
40B
330
1F
100
AcDbEntity
  8
Ｓ_１_１
  6
CONTINUOUS
 62
     3
100
AcDbLine
 10
1682.0000481307
 20
1169.99999925493
 30
0.0
 11
1682.0000481307
 21
1129.99999985093
 31
0.0
  0
LINE
  5
40C
330
1F
100
AcDbEntity
  8
Ｓ_１_１
  6
CONTINUOUS
 62
     3
100
AcDbLine
 10
1680.0000786781
 20
1164.99999932943
 30
0.0
 11
1680.0000786781
 21
1154.99999947843
 31
0.0
  0
LINE
  5
40D
330
1F
100
AcDbEntity
  8
Ｓ_１_１
  6
CONTINUOUS
 62
     3
100
AcDbLine
 10
1680.0000786781
 20
1144.99999962743
 30
0.0
 11
1680.0000786781
 21
1134.99999977643
 31
0.0
  0
LINE
  5
40E
330
1F
100
AcDbEntity
  8
Ｓ_１_１
  6
CONTINUOUS
 62
     3
100
AcDbLine
 10
1680.0000786781
 20
1164.99999932943
 30
0.0
 11
1682.0000481307
 21
1164.99999932943
 31
0.0
  0
LINE
  5
40F
330
1F
100
AcDbEntity
  8
Ｓ_１_１
  6
CONTINUOUS
 62
     3
100
AcDbLine
 10
1680.0000786781
 20
1154.99999947843
 30
0.0
 11
1682.0000481307
 21
1154.99999947843
 31
0.0
  0
LINE
  5
410
330
1F
100
AcDbEntity
  8
Ｓ_１_１
  6
CONTINUOUS
 62
     3
100
AcDbLine
 10
1680.0000786781
 20
1144.99999962743
 30
0.0
 11
1682.0000481307
 21
1144.99999962743
 31
0.0
  0
LINE
  5
411
330
1F
100
AcDbEntity
  8
Ｓ_１_１
  6
CONTINUOUS
 62
     3
100
AcDbLine
 10
1680.0000786781
 20
1134.99999977643
 30
0.0
 11
1682.0000481307
 21
1134.99999977643
 31
0.0
  0
LINE
  5
412
330
1F
100
AcDbEntity
  8
Ｓ_１_１
  6
CONTINUOUS
 62
     3
100
AcDbLine
 10
1676.500093989
 20
1164.00001460313
 30
0.0
 11
1680.0000786781
 21
1164.00001460313
 31
0.0
  0
LINE
  5
413
330
1F
100
AcDbEntity
  8
Ｓ_１_１
  6
CONTINUOUS
 62
     3
100
AcDbLine
 10
1676.500093989
 20
1156.00002235173
 30
0.0
 11
1680.0000786781
 21
1156.00002235173
 31
0.0
  0
LINE
  5
414
330
1F
100
AcDbEntity
  8
Ｓ_１_１
  6
CONTINUOUS
 62
     3
100
AcDbLine
 10
1676.500093989
 20
1144.00001490113
 30
0.0
 11
1680.0000786781
 21
1144.00001490113
 31
0.0
  0
LINE
  5
415
330
1F
100
AcDbEntity
  8
Ｓ_１_１
  6
CONTINUOUS
 62
     3
100
AcDbLine
 10
1676.500093989
 20
1136.00002264973
 30
0.0
 11
1680.0000786781
 21
1136.00002264973
 31
0.0
  0
LINE
  5
416
330
1F
100
AcDbEntity
  8
Ｓ_１_１
  6
CONTINUOUS
 62
     3
100
AcDbLine
 10
1675.0000787526
 20
1163.13396389583
 30
0.0
 11
1675.0000787526
 21
1156.86607305903
 31
0.0
  0
LINE
  5
417
330
1F
100
AcDbEntity
  8
Ｓ_１_１
  6
CONTINUOUS
 62
     3
100
AcDbLine
 10
1675.0000787526
 20
1136.86611150403
 30
0.0
 11
1675.0000787526
 21
1143.13396419383
 31
0.0
  0
LINE
  5
418
330
1F
100
AcDbEntity
  8
Ｓ_１_１
  6
CONTINUOUS
 62
     3
100
AcDbLine
 10
1676.5001973879
 20
1164.00003464023
 30
0.0
 11
1675.0001607115
 21
1163.13397154393
 31
0.0
  0
LINE
  5
419
330
1F
100
AcDbEntity
  8
Ｓ_１_１
  6
CONTINUOUS
 62
     3
100
AcDbLine
 10
1676.5001154366
 20
1156.00002478033
 30
0.0
 11
1675.0001117963
 21
1156.86606880283
 31
0.0
  0
LINE
  5
41A
330
1F
100
AcDbEntity
  8
Ｓ_１_１
  6
CONTINUOUS
 62
     3
100
AcDbLine
 10
1676.5000051277
 20
1144.00004364633
 30
0.0
 11
1674.9999684513
 21
1143.13398055013
 31
0.0
  0
LINE
  5
41B
330
1F
100
AcDbEntity
  8
Ｓ_１_１
  6
CONTINUOUS
 62
     3
100
AcDbLine
 10
1676.5000817981
 20
1135.99987463503
 30
0.0
 11
1675.0000616403
 21
1136.86596632913
 31
0.0
  0
LINE
  5
41C
330
1F
100
AcDbEntity
  8
Ｓ_１_１
  6
CONTINUOUS
 62
     3
100
AcDbLine
 10
1676.500093989
 20
1164.00001460313
 30
0.0
 11
1676.500093989
 21
1156.00002235173
 31
0.0
  0
LINE
  5
41D
330
1F
100
AcDbEntity
  8
Ｓ_１_１
  6
CONTINUOUS
 62
     3
100
AcDbLine
 10
1676.500093989
 20
1144.00001490113
 30
0.0
 11
1676.500093989
 21
1136.00002264973
 31
0.0
  0
LINE
  5
41E
330
1F
100
AcDbEntity
  8
Ｓ_１_１
  6
CONTINUOUS
 62
     3
100
AcDbLine
 10
1684.0000175833
 20
1100.00000029803
 30
0.0
 11
1700.0000020861
 21
1100.00000029803
 31
0.0
  0
LINE
  5
41F
330
1F
100
AcDbEntity
  8
Ｓ_１_１
  6
CONTINUOUS
 62
     3
100
AcDbLine
 10
1684.0000175833
 20
1100.00000029803
 30
0.0
 11
1684.0000175833
 21
1129.99999985093
 31
0.0
  0
LINE
  5
420
330
1F
100
AcDbEntity
  8
Ｓ_１_１
  6
CONTINUOUS
 62
     3
100
AcDbLine
 10
1684.0000175833
 20
1110.99998487533
 30
0.0
 11
1700.0000020861
 21
1110.99998487533
 31
0.0
  0
LINE
  5
421
330
1F
100
AcDbEntity
  8
Ｓ_１_１
  6
CONTINUOUS
 62
     3
100
AcDbLine
 10
1645.0000029057
 20
1169.99999925493
 30
0.0
 11
1685.0000023096
 21
1169.99999925493
 31
0.0
  0
LINE
  5
422
330
1F
100
AcDbEntity
  8
Ｓ_１_１
  6
CONTINUOUS
 62
     3
100
AcDbLine
 10
1645.0000029057
 20
1129.99999985093
 30
0.0
 11
1685.0000023096
 21
1129.99999985093
 31
0.0
  0
LINE
  5
423
330
1F
100
AcDbEntity
  8
Ｓ_１_１
  6
CONTINUOUS
 62
     3
100
AcDbLine
 10
1645.0000029057
 20
1129.99999985093
 30
0.0
 11
1645.0000029057
 21
1169.99999925493
 31
0.0
  0
LINE
  5
424
330
1F
100
AcDbEntity
  8
Ｓ_１_１
  6
CONTINUOUS
 62
     3
100
AcDbLine
 10
1668.4999872967
 20
1128.00003039833
 30
0.0
 11
1668.4999872967
 21
1120.00000000003
 31
0.0
  0
LINE
  5
425
330
1F
100
AcDbEntity
  8
Ｓ_１_１
  6
CONTINUOUS
 62
     3
100
AcDbLine
 10
1668.4999872967
 20
1120.00000000003
 30
0.0
 11
1668.4999872967
 21
1111.99996960163
 31
0.0
  0
LINE
  5
426
330
1F
100
AcDbEntity
  8
Ｓ_１_１
  6
CONTINUOUS
 62
     3
100
AcDbLine
 10
1668.4999872967
 20
1111.99996960163
 30
0.0
 11
1684.0000175833
 21
1111.99996960163
 31
0.0
  0
LINE
  5
427
330
1F
100
AcDbEntity
  8
Ｓ_１_１
  6
CONTINUOUS
 62
     3
100
AcDbLine
 10
1668.4999872967
 20
1128.00003039833
 30
0.0
 11
1684.0000175833
 21
1128.00003039833
 31
0.0
  0
LINE
  5
428
330
1F
100
AcDbEntity
  8
Ｓ_１_１
  6
CONTINUOUS
 62
     3
100
AcDbLine
 10
1661.5000179186
 20
1111.99996960163
 30
0.0
 11
1668.4999872967
 21
1111.99996960163
 31
0.0
  0
LINE
  5
429
330
1F
100
AcDbEntity
  8
Ｓ_１_１
  6
CONTINUOUS
 62
     3
100
AcDbLine
 10
1661.5000179186
 20
1111.99996960163
 30
0.0
 11
1661.5000179186
 21
1129.99999985093
 31
0.0
  0
LINE
  5
42A
330
1F
100
AcDbEntity
  8
Ｓ_１_１
  6
EXLTYPE2
 62
     1
100
AcDbLine
 10
1694.2717001695
 20
1184.99999903143
 30
0.0
 11
1984.3341805885
 21
1184.99999903143
 31
0.0
  0
LINE
  5
42B
330
1F
100
AcDbEntity
  8
Ｓ_１_１
  6
EXLTYPE2
 62
     1
100
AcDbLine
 10
1775.0000009685
 20
1264.12494444663
 30
0.0
 11
1775.0000009685
 21
974.0624640276303
 31
0.0
  0
LINE
  5
42C
330
1F
100
AcDbEntity
  8
Ｓ_１_１
  6
EXLTYPE2
 62
     1
100
AcDbLine
 10
1694.9279806773
 20
1055.00000096853
 30
0.0
 11
1984.3341805885
 21
1055.00000096853
 31
0.0
  0
LINE
  5
42D
330
1F
100
AcDbEntity
  8
Ｓ_１_１
  6
EXLTYPE2
 62
     1
100
AcDbLine
 10
1904.9999990314
 20
1268.71867911933
 30
0.0
 11
1904.9999990314
 21
974.7187063885301
 31
0.0
  0
CIRCLE
  5
42E
330
1F
100
AcDbEntity
  8
Ｓ_１_１
  6
EXLTYPE2
 62
     1
100
AcDbCircle
 10
1904.9999990314
 20
1184.99999903143
 30
0.0
 40
44.99999932940002
  0
CIRCLE
  5
42F
330
1F
100
AcDbEntity
  8
Ｓ_１_１
  6
EXLTYPE2
 62
     1
100
AcDbCircle
 10
1904.9999990314
 20
1055.00000096853
 30
0.0
 40
44.99999932940002
  0
CIRCLE
  5
430
330
1F
100
AcDbEntity
  8
Ｓ_１_１
  6
EXLTYPE2
 62
     1
100
AcDbCircle
 10
1775.0000009685
 20
1055.00000096853
 30
0.0
 40
44.99999932940002
  0
CIRCLE
  5
431
330
1F
100
AcDbEntity
  8
Ｓ_１_１
  6
EXLTYPE2
 62
     1
100
AcDbCircle
 10
1775.0000009685
 20
1184.99999903143
 30
0.0
 40
44.99999932940002
  0
LINE
  5
432
330
1F
100
AcDbEntity
  8
Ｓ_１_１
  6
EXLTYPE2
 62
     1
100
AcDbLine
 10
1939.9999985098
 20
1000.96878229123
 30
0.0
 11
1939.9999985098
 21
974.71878268243
 31
0.0
  0
LINE
  5
433
330
1F
100
AcDbEntity
  8
Ｓ_１_１
  6
EXLTYPE2
 62
     1
100
AcDbLine
 10
1740.0000014901
 20
1004.90627460323
 30
0.0
 11
1740.0000014901
 21
972.7500365264302
 31
0.0
  0
LINE
  5
434
330
1F
100
AcDbEntity
  8
Ｓ_１_１
  6
EXLTYPE2
 62
     1
100
AcDbLine
 10
1740.0000014901
 20
1264.78126310133
 30
0.0
 11
1740.0000014901
 21
1237.21877877083
 31
0.0
  0
LINE
  5
435
330
1F
100
AcDbEntity
  8
Ｓ_１_１
  6
EXLTYPE2
 62
     1
100
AcDbLine
 10
1939.9999985098
 20
1266.75002833083
 30
0.0
 11
1939.9999985098
 21
1239.18750585333
 31
0.0
  0
LINE
  5
436
330
1F
100
AcDbEntity
  8
Ｓ_１_１
  6
EXLTYPE2
 62
     1
100
AcDbLine
 10
1672.9310632805
 20
1159.99999940393
 30
0.0
 11
1693.4060690789
 21
1159.99999940393
 31
0.0
  0
LINE
  5
437
330
1F
100
AcDbEntity
  8
Ｓ_１_１
  6
EXLTYPE2
 62
     1
100
AcDbLine
 10
1673.6310602183
 20
1139.99999970193
 30
0.0
 11
1692.7060721411
 21
1139.99999970193
 31
0.0
  0
LINE
  5
438
330
1F
100
AcDbEntity
  8
Ｓ_１_１
  6
EXLTYPE2
 62
     1
100
AcDbLine
 10
1840.0
 20
1265.43742916823
 30
0.0
 11
1840.0
 21
974.7187063885301
 31
0.0
  0
LINE
  5
439
330
1F
100
AcDbEntity
  8
Ｓ_１_１
  6
EXLTYPE2
 62
     1
100
AcDbLine
 10
1655.5529812641
 20
1120.00000000003
 30
0.0
 11
1985.6467416041
 21
1120.00000000003
 31
0.0
  0
LINE
  5
43A
330
1F
100
AcDbEntity
  8
Ｓ_１_１
  6
EXLTYPE2
 62
     1
100
AcDbLine
 10
1645.999987632
 20
1155.70831245613
 30
0.0
 11
1665.999987334
 21
1155.70831245613
 31
0.0
  0
LINE
  5
43B
330
1F
100
AcDbEntity
  8
Ｓ_１_１
  6
EXLTYPE2
 62
     1
100
AcDbLine
 10
1655.999987483
 20
1167.87494588083
 30
0.0
 11
1655.999987483
 21
1144.24995386223
 31
0.0
  0
ARC
  5
43C
330
1F
100
AcDbEntity
  8
Ｓ_１_１
  6
EXLTYPE0
 62
     2
100
AcDbCircle
 10
1904.9999990314
 20
1184.99999903143
 30
0.0
 40
57.49999914320003
100
AcDbArc
 50
119.5918722156002
 51
330.4081334766002
  0
ARC
  5
43D
330
1F
100
AcDbEntity
  8
Ｓ_１_１
  6
EXLTYPE0
 62
     2
100
AcDbCircle
 10
1904.9999990314
 20
1184.99999903143
 30
0.0
 40
54.9999991804
100
AcDbArc
 50
114.6200135942001
 51
335.3800194187
  0
ARC
  5
43E
330
1F
100
AcDbEntity
  8
Ｓ_１_１
  6
EXLTYPE0
 62
     2
100
AcDbCircle
 10
1775.0000009685
 20
1184.99999903143
 30
0.0
 40
54.9999991804
100
AcDbArc
 50
195.8265951471
 51
65.37999141470014
  0
ARC
  5
43F
330
1F
100
AcDbEntity
  8
Ｓ_１_１
  6
EXLTYPE0
 62
     2
100
AcDbCircle
 10
1775.0000009685
 20
1184.99999903143
 30
0.0
 40
57.49999914320002
100
AcDbArc
 50
195.1216376625
 51
60.40816011410014
  0
ARC
  5
440
330
1F
100
AcDbEntity
  8
Ｓ_１_１
  6
EXLTYPE0
 62
     2
100
AcDbCircle
 10
1775.0000009685
 20
1055.00000096853
 30
0.0
 40
57.49999914320002
100
AcDbArc
 50
299.5918398859003
 51
150.4081694487001
  0
ARC
  5
441
330
1F
100
AcDbEntity
  8
Ｓ_１_１
  6
EXLTYPE0
 62
     2
100
AcDbCircle
 10
1775.0000009685
 20
1055.00000096853
 30
0.0
 40
54.9999991804
100
AcDbArc
 50
294.6200085852999
 51
155.3800553909002
  0
ARC
  5
442
330
1F
100
AcDbEntity
  8
Ｓ_１_１
  6
EXLTYPE0
 62
     2
100
AcDbCircle
 10
1904.9999990314
 20
1055.00000096853
 30
0.0
 40
57.49999914320002
100
AcDbArc
 50
29.59184922060001
 51
240.4081241419
  0
ARC
  5
443
330
1F
100
AcDbEntity
  8
Ｓ_１_１
  6
EXLTYPE0
 62
     2
100
AcDbCircle
 10
1904.9999990314
 20
1055.00000096853
 30
0.0
 40
54.9999991804
100
AcDbArc
 50
24.61996327839993
 51
245.3799554425
  0
CIRCLE
  5
444
330
1F
100
AcDbEntity
  8
Ｓ_１_１
  6
EXLTYPE0
 62
     2
100
AcDbCircle
 10
1820.000000298
 20
1055.00000096853
 30
0.0
 40
4.0
  0
CIRCLE
  5
445
330
1F
100
AcDbEntity
  8
Ｓ_１_１
  6
EXLTYPE0
 62
     2
100
AcDbCircle
 10
1775.0000009685
 20
1010.00000163913
 30
0.0
 40
4.0
  0
CIRCLE
  5
446
330
1F
100
AcDbEntity
  8
Ｓ_１_１
  6
EXLTYPE0
 62
     2
100
AcDbCircle
 10
1730.0000016391
 20
1055.00000096853
 30
0.0
 40
4.0
  0
CIRCLE
  5
447
330
1F
100
AcDbEntity
  8
Ｓ_１_１
  6
EXLTYPE0
 62
     2
100
AcDbCircle
 10
1775.0000009685
 20
1100.00000029803
 30
0.0
 40
4.0
  0
CIRCLE
  5
448
330
1F
100
AcDbEntity
  8
Ｓ_１_１
  6
EXLTYPE0
 62
     2
100
AcDbCircle
 10
1949.9999983608
 20
1055.00000096853
 30
0.0
 40
4.0
  0
CIRCLE
  5
449
330
1F
100
AcDbEntity
  8
Ｓ_１_１
  6
EXLTYPE0
 62
     2
100
AcDbCircle
 10
1904.9999990314
 20
1010.00000163913
 30
0.0
 40
4.0
  0
CIRCLE
  5
44A
330
1F
100
AcDbEntity
  8
Ｓ_１_１
  6
EXLTYPE0
 62
     2
100
AcDbCircle
 10
1859.9999997019
 20
1055.00000096853
 30
0.0
 40
4.0
  0
CIRCLE
  5
44B
330
1F
100
AcDbEntity
  8
Ｓ_１_１
  6
EXLTYPE0
 62
     2
100
AcDbCircle
 10
1904.9999990314
 20
1100.00000029803
 30
0.0
 40
4.0
  0
CIRCLE
  5
44C
330
1F
100
AcDbEntity
  8
Ｓ_１_１
  6
EXLTYPE0
 62
     2
100
AcDbCircle
 10
1949.9999983608
 20
1184.99999903143
 30
0.0
 40
4.0
  0
CIRCLE
  5
44D
330
1F
100
AcDbEntity
  8
Ｓ_１_１
  6
EXLTYPE0
 62
     2
100
AcDbCircle
 10
1904.9999990314
 20
1139.99999970193
 30
0.0
 40
4.0
  0
CIRCLE
  5
44E
330
1F
100
AcDbEntity
  8
Ｓ_１_１
  6
EXLTYPE0
 62
     2
100
AcDbCircle
 10
1859.9999997019
 20
1184.99999903143
 30
0.0
 40
4.0
  0
CIRCLE
  5
44F
330
1F
100
AcDbEntity
  8
Ｓ_１_１
  6
EXLTYPE0
 62
     2
100
AcDbCircle
 10
1904.9999990314
 20
1229.99999836083
 30
0.0
 40
4.0
  0
CIRCLE
  5
450
330
1F
100
AcDbEntity
  8
Ｓ_１_１
  6
EXLTYPE0
 62
     2
100
AcDbCircle
 10
1820.000000298
 20
1184.99999903143
 30
0.0
 40
4.0
  0
CIRCLE
  5
451
330
1F
100
AcDbEntity
  8
Ｓ_１_１
  6
EXLTYPE0
 62
     2
100
AcDbCircle
 10
1775.0000009685
 20
1139.99999970193
 30
0.0
 40
4.0
  0
CIRCLE
  5
452
330
1F
100
AcDbEntity
  8
Ｓ_１_１
  6
EXLTYPE0
 62
     2
100
AcDbCircle
 10
1730.0000016391
 20
1184.99999903143
 30
0.0
 40
4.0
  0
CIRCLE
  5
453
330
1F
100
AcDbEntity
  8
Ｓ_１_１
  6
EXLTYPE0
 62
     2
100
AcDbCircle
 10
1775.0000009685
 20
1229.99999836083
 30
0.0
 40
4.0
  0
CIRCLE
  5
454
330
1F
100
AcDbEntity
  8
Ｓ_１_１
  6
EXLTYPE0
 62
     2
100
AcDbCircle
 10
1904.9999990314
 20
1010.00000163913
 30
0.0
 40
4.9999999255
  0
CIRCLE
  5
455
330
1F
100
AcDbEntity
  8
Ｓ_１_１
  6
EXLTYPE0
 62
     2
100
AcDbCircle
 10
1949.9999983608
 20
1055.00000096853
 30
0.0
 40
4.9999999255
  0
CIRCLE
  5
456
330
1F
100
AcDbEntity
  8
Ｓ_１_１
  6
EXLTYPE0
 62
     2
100
AcDbCircle
 10
1904.9999990314
 20
1100.00000029803
 30
0.0
 40
4.9999999255
  0
CIRCLE
  5
457
330
1F
100
AcDbEntity
  8
Ｓ_１_１
  6
EXLTYPE0
 62
     2
100
AcDbCircle
 10
1859.9999997019
 20
1055.00000096853
 30
0.0
 40
4.9999999255
  0
CIRCLE
  5
458
330
1F
100
AcDbEntity
  8
Ｓ_１_１
  6
EXLTYPE0
 62
     2
100
AcDbCircle
 10
1820.000000298
 20
1055.00000096853
 30
0.0
 40
4.9999999255
  0
CIRCLE
  5
459
330
1F
100
AcDbEntity
  8
Ｓ_１_１
  6
EXLTYPE0
 62
     2
100
AcDbCircle
 10
1775.0000009685
 20
1010.00000163913
 30
0.0
 40
4.9999999255
  0
CIRCLE
  5
45A
330
1F
100
AcDbEntity
  8
Ｓ_１_１
  6
EXLTYPE0
 62
     2
100
AcDbCircle
 10
1730.0000016391
 20
1055.00000096853
 30
0.0
 40
4.9999999255
  0
CIRCLE
  5
45B
330
1F
100
AcDbEntity
  8
Ｓ_１_１
  6
EXLTYPE0
 62
     2
100
AcDbCircle
 10
1775.0000009685
 20
1100.00000029803
 30
0.0
 40
4.9999999255
  0
CIRCLE
  5
45C
330
1F
100
AcDbEntity
  8
Ｓ_１_１
  6
EXLTYPE0
 62
     2
100
AcDbCircle
 10
1949.9999983608
 20
1184.99999903143
 30
0.0
 40
4.9999999255
  0
CIRCLE
  5
45D
330
1F
100
AcDbEntity
  8
Ｓ_１_１
  6
EXLTYPE0
 62
     2
100
AcDbCircle
 10
1904.9999990314
 20
1139.99999970193
 30
0.0
 40
4.9999999255
  0
CIRCLE
  5
45E
330
1F
100
AcDbEntity
  8
Ｓ_１_１
  6
EXLTYPE0
 62
     2
100
AcDbCircle
 10
1859.9999997019
 20
1184.99999903143
 30
0.0
 40
4.9999999255
  0
CIRCLE
  5
45F
330
1F
100
AcDbEntity
  8
Ｓ_１_１
  6
EXLTYPE0
 62
     2
100
AcDbCircle
 10
1904.9999990314
 20
1229.99999836083
 30
0.0
 40
4.9999999255
  0
CIRCLE
  5
460
330
1F
100
AcDbEntity
  8
Ｓ_１_１
  6
EXLTYPE0
 62
     2
100
AcDbCircle
 10
1820.000000298
 20
1184.99999903143
 30
0.0
 40
4.9999999255
  0
CIRCLE
  5
461
330
1F
100
AcDbEntity
  8
Ｓ_１_１
  6
EXLTYPE0
 62
     2
100
AcDbCircle
 10
1775.0000009685
 20
1139.99999970193
 30
0.0
 40
4.9999999255
  0
CIRCLE
  5
462
330
1F
100
AcDbEntity
  8
Ｓ_１_１
  6
EXLTYPE0
 62
     2
100
AcDbCircle
 10
1730.0000016391
 20
1184.99999903143
 30
0.0
 40
4.9999999255
  0
CIRCLE
  5
463
330
1F
100
AcDbEntity
  8
Ｓ_１_１
  6
EXLTYPE0
 62
     2
100
AcDbCircle
 10
1775.0000009685
 20
1229.99999836083
 30
0.0
 40
4.9999999255
  0
LINE
  5
464
330
1F
100
AcDbEntity
  8
Ｓ_１_１
  6
EXLTYPE0
 62
     2
100
AcDbLine
 10
1650.9999875575
 20
1164.45831232583
 30
0.0
 11
1660.9999874085
 21
1164.45831232583
 31
0.0
  0
LINE
  5
465
330
1F
100
AcDbEntity
  8
Ｓ_１_１
  6
EXLTYPE0
 62
     2
100
AcDbLine
 10
1660.9999874085
 20
1164.45831232583
 30
0.0
 11
1660.9999874085
 21
1146.95831258653
 31
0.0
  0
LINE
  5
466
330
1F
100
AcDbEntity
  8
Ｓ_１_１
  6
EXLTYPE0
 62
     2
100
AcDbLine
 10
1660.9999874085
 20
1146.95831258653
 30
0.0
 11
1650.9999875575
 21
1146.95831258653
 31
0.0
  0
LINE
  5
467
330
1F
100
AcDbEntity
  8
Ｓ_１_１
  6
EXLTYPE0
 62
     2
100
AcDbLine
 10
1650.9999875575
 20
1146.95831258653
 30
0.0
 11
1650.9999875575
 21
1164.45831232583
 31
0.0
  0
LINE
  5
468
330
1F
100
AcDbEntity
  8
Ｓ_１_１
  6
EXLTYPE0
 62
     2
100
AcDbLine
 10
1668.4999872967
 20
1138.00003024933
 30
0.0
 11
1668.4999872967
 21
1128.00003039833
 31
0.0
  0
LINE
  5
469
330
1F
100
AcDbEntity
  8
Ｓ_１_１
  6
EXLTYPE0
 62
     2
100
AcDbLine
 10
1661.5000179186
 20
1129.99999985093
 30
0.0
 11
1661.5000179186
 21
1138.00003024933
 31
0.0
  0
LINE
  5
46A
330
1F
100
AcDbEntity
  8
Ｓ_１_１
  6
EXLTYPE0
 62
     2
100
AcDbLine
 10
1660.9999874085
 20
1160.70831238163
 30
0.0
 11
1665.999987334
 21
1160.70831238163
 31
0.0
  0
LINE
  5
46B
330
1F
100
AcDbEntity
  8
Ｓ_１_１
  6
EXLTYPE0
 62
     2
100
AcDbLine
 10
1665.9999901784
 20
1160.70830725503
 30
0.0
 11
1668.49999179
 21
1138.00001104133
 31
0.0
  0
LINE
  5
46C
330
1F
100
AcDbEntity
  8
Ｓ_１_１
  6
EXLTYPE0
 62
     2
100
AcDbLine
 10
1660.9999258497
 20
1146.95830232263
 30
0.0
 11
1661.4999594649
 21
1137.99996468803
 31
0.0
  0
TEXT
  5
46D
330
1F
100
AcDbEntity
  8
Ｓ_１_１
  6
CONTINUOUS
 62
     4
100
AcDbText
 10
1307.4
 20
1329.773546698
 30
0.0
 40
20.77742494226328
  1
2×4-Rc3/8
 41
0.9992307692307688
  7
EXCADTTF1
 72
     5
 11
1442.4
 21
1329.773546698
 31
0.0
100
AcDbText
  0
LEADER
  5
46E
330
1F
100
AcDbEntity
  8
Ｓ_１_１
  6
CONTINUOUS
 62
     2
100
AcDbLeader
  3
ISO-25
 76
     3
 10
1163.2868132463
 20
1191.4401566422
 30
0.0
 10
1294.8233283021
 20
1322.976671698
 30
0.0
 10
1442.4
 20
1322.976671698
 30
0.0
1001
ACAD
1000
DSTYLE
1002
{
1070
     5
1000
EX_NORM
1070
    41
1040
18.0
1070
   341
1005
7B
1002
}
  0
TEXT
  5
46F
330
1F
100
AcDbEntity
  8
Ｓ_１_１
  6
CONTINUOUS
 62
     4
100
AcDbText
 10
1254.6
 20
261.22837036067
 30
0.0
 40
20.77742494226328
  1
2×9-M12ネジ深18
 41
0.9992307692307688
  7
EXCADTTF1
 72
     5
 11
1470.6
 21
261.22837036067
 31
0.0
100
AcDbText
  0
LEADER
  5
470
330
1F
100
AcDbEntity
  8
Ｓ_１_１
  6
CONTINUOUS
 62
     2
100
AcDbLeader
  3
ISO-25
 76
     3
 10
1173.8692265047
 20
375.41425124187
 30
0.0
 10
1243.71865318
 20
254.43149536067
 30
0.0
 10
1470.6
 20
254.43149536067
 30
0.0
1001
ACAD
1000
DSTYLE
1002
{
1070
     5
1000
EX_NORM
1070
    41
1040
18.0
1070
   341
1005
7B
1002
}
  0
DIMENSION
  5
471
330
1F
100
AcDbEntity
  8
Ｓ_１_１
  6
CONTINUOUS
 62
     2
100
AcDbDimension
  2
*D45
 10
1480.0
 20
480.0000000000499
 30
0.0
 11
1463.5
 21
529.999999255
 31
0.0
 70
   160
  3
ISO-25
100
AcDbAlignedDimension
 13
1182.5000022351
 23
579.99999850995
 33
0.0
 14
1182.5000022351
 24
480.00000000005
 34
0.0
 50
90.0
100
AcDbRotatedDimension
1001
ACAD
1000
DSTYLE
1002
{
1070
   270
1070
     2
1070
     6
1000
EX_NORM
1070
     7
1000
EX_NORM
1070
    41
1040
18.0
1070
    42
1040
9.0
1070
    44
1040
6.0
1070
    73
1070
     0
1070
    74
1070
     0
1070
    75
1070
     0
1070
    76
1070
     0
1070
    77
1070
     1
1070
    78
1070
     8
1070
   140
1040
20.77742494226328
1070
   147
1040
0.0
1070
   173
1070
     1
1070
   176
1070
     2
1070
   177
1070
     2
1070
   178
1070
     2
1070
   271
1070
     2
1070
   277
1070
     2
1070
   279
1070
     2
1070
   280
1070
     0
1070
   287
1070
     5
1070
   340
1005
10E
1002
}
  0
DIMENSION
  5
47E
330
1F
100
AcDbEntity
  8
Ｓ_１_１
  6
CONTINUOUS
 62
     2
100
AcDbDimension
  2
*D46
 10
1480.0
 20
380.0000014901499
 30
0.0
 11
1463.5
 21
430.0000007451
 31
0.0
 70
   160
  3
ISO-25
100
AcDbAlignedDimension
 13
1182.5000022351
 23
480.00000000005
 33
0.0
 14
1182.5000022351
 24
380.00000149015
 34
0.0
 50
90.0
100
AcDbRotatedDimension
1001
ACAD
1000
DSTYLE
1002
{
1070
   270
1070
     2
1070
     6
1000
EX_NORM
1070
     7
1000
EX_NORM
1070
    41
1040
18.0
1070
    42
1040
9.0
1070
    44
1040
6.0
1070
    73
1070
     0
1070
    74
1070
     0
1070
    75
1070
     0
1070
    76
1070
     0
1070
    77
1070
     1
1070
    78
1070
     8
1070
   140
1040
20.77742494226328
1070
   147
1040
0.0
1070
   173
1070
     1
1070
   176
1070
     2
1070
   177
1070
     2
1070
   178
1070
     2
1070
   271
1070
     2
1070
   277
1070
     2
1070
   279
1070
     2
1070
   280
1070
     0
1070
   287
1070
     5
1070
   340
1005
10E
1002
}
  0
DIMENSION
  5
48B
330
1F
100
AcDbEntity
  8
Ｓ_１_１
  6
CONTINUOUS
 62
     2
100
AcDbDimension
  2
*D47
 10
1480.0
 20
619.99999791385
 30
0.0
 11
1463.5
 21
599.9999982119001
 31
0.0
 70
   160
  3
ISO-25
100
AcDbAlignedDimension
 13
1182.5000022351
 23
579.99999850995
 33
0.0
 14
1255.5000314787
 24
619.99999791385
 34
0.0
 50
90.0
100
AcDbRotatedDimension
1001
ACAD
1000
DSTYLE
1002
{
1070
   270
1070
     2
1070
     6
1000
EX_NORM
1070
     7
1000
EX_NORM
1070
    41
1040
18.0
1070
    42
1040
9.0
1070
    44
1040
6.0
1070
    73
1070
     0
1070
    74
1070
     0
1070
    75
1070
     0
1070
    76
1070
     0
1070
    77
1070
     1
1070
    78
1070
     8
1070
   140
1040
20.77742494226328
1070
   147
1040
0.0
1070
   173
1070
     1
1070
   176
1070
     2
1070
   177
1070
     2
1070
   178
1070
     2
1070
   271
1070
     2
1070
   277
1070
     2
1070
   279
1070
     2
1070
   280
1070
     0
1070
   287
1070
     5
1070
   340
1005
10E
1002
}
  0
DIMENSION
  5
498
330
1F
100
AcDbEntity
  8
Ｓ_１_１
  6
CONTINUOUS
 62
     2
100
AcDbDimension
  2
*D48
 10
1480.0
 20
340.0000020861499
 30
0.0
 11
1463.5
 21
360.00000178815
 31
0.0
 70
   160
  3
ISO-25
100
AcDbAlignedDimension
 13
1182.5000022351
 23
380.00000149015
 33
0.0
 14
1235.0000012666
 24
340.00000208615
 34
0.0
 50
90.0
100
AcDbRotatedDimension
1001
ACAD
1000
DSTYLE
1002
{
1070
   270
1070
     2
1070
     6
1000
EX_NORM
1070
     7
1000
EX_NORM
1070
    41
1040
18.0
1070
    42
1040
9.0
1070
    44
1040
6.0
1070
    73
1070
     0
1070
    74
1070
     0
1070
    75
1070
     0
1070
    76
1070
     0
1070
    77
1070
     1
1070
    78
1070
     8
1070
   140
1040
20.77742494226328
1070
   147
1040
0.0
1070
   173
1070
     1
1070
   176
1070
     2
1070
   177
1070
     2
1070
   178
1070
     2
1070
   271
1070
     2
1070
   277
1070
     2
1070
   279
1070
     2
1070
   280
1070
     0
1070
   287
1070
     5
1070
   340
1005
10E
1002
}
  0
LINE
  5
4A5
330
1F
100
AcDbEntity
  8
Ｓ_１_１
  6
EXLTYPE2
 62
     1
100
AcDbLine
 10
1157.5000022351
 20
380.0000014901499
 30
0.0
 11
1182.5000022351
 21
380.0000014901499
 31
0.0
  0
LINE
  5
4A6
330
1F
100
AcDbEntity
  8
Ｓ_１_１
  6
EXLTYPE2
 62
     1
100
AcDbLine
 10
1170.000002235101
 20
392.5000014901499
 30
0.0
 11
1170.000002235101
 21
367.5000014901499
 31
0.0
  0
LINE
  5
4A7
330
1F
100
AcDbEntity
  8
Ｓ_１_１
  6
EXLTYPE2
 62
     1
100
AcDbLine
 10
1037.5000040233
 20
380.0000014901499
 30
0.0
 11
1062.5000040233
 21
380.0000014901499
 31
0.0
  0
LINE
  5
4A8
330
1F
100
AcDbEntity
  8
Ｓ_１_１
  6
EXLTYPE2
 62
     1
100
AcDbLine
 10
1050.0000040233
 20
392.5000014901499
 30
0.0
 11
1050.0000040233
 21
367.5000014901499
 31
0.0
  0
LINE
  5
4A9
330
1F
100
AcDbEntity
  8
Ｓ_１_１
  6
EXLTYPE2
 62
     1
100
AcDbLine
 10
917.5000058114
 20
380.0000014901499
 30
0.0
 11
942.5000058114001
 21
380.0000014901499
 31
0.0
  0
LINE
  5
4AA
330
1F
100
AcDbEntity
  8
Ｓ_１_１
  6
EXLTYPE2
 62
     1
100
AcDbLine
 10
930.0000058114003
 20
392.5000014901499
 30
0.0
 11
930.0000058114003
 21
367.5000014901499
 31
0.0
  0
LINE
  5
4AB
330
1F
100
AcDbEntity
  8
Ｓ_１_１
  6
EXLTYPE2
 62
     1
100
AcDbLine
 10
917.5000058114
 20
480.00000000005
 30
0.0
 11
942.5000058114001
 21
480.00000000005
 31
0.0
  0
LINE
  5
4AC
330
1F
100
AcDbEntity
  8
Ｓ_１_１
  6
EXLTYPE2
 62
     1
100
AcDbLine
 10
930.0000058114003
 20
492.50000000005
 30
0.0
 11
930.0000058114003
 21
467.50000000005
 31
0.0
  0
LINE
  5
4AD
330
1F
100
AcDbEntity
  8
Ｓ_１_１
  6
EXLTYPE2
 62
     1
100
AcDbLine
 10
1037.5000040233
 20
480.00000000005
 30
0.0
 11
1062.5000040233
 21
480.00000000005
 31
0.0
  0
LINE
  5
4AE
330
1F
100
AcDbEntity
  8
Ｓ_１_１
  6
EXLTYPE2
 62
     1
100
AcDbLine
 10
1050.0000040233
 20
492.50000000005
 30
0.0
 11
1050.0000040233
 21
467.50000000005
 31
0.0
  0
LINE
  5
4AF
330
1F
100
AcDbEntity
  8
Ｓ_１_１
  6
EXLTYPE2
 62
     1
100
AcDbLine
 10
1157.5000022351
 20
480.00000000005
 30
0.0
 11
1182.5000022351
 21
480.00000000005
 31
0.0
  0
LINE
  5
4B0
330
1F
100
AcDbEntity
  8
Ｓ_１_１
  6
EXLTYPE2
 62
     1
100
AcDbLine
 10
1170.000002235101
 20
492.50000000005
 30
0.0
 11
1170.000002235101
 21
467.50000000005
 31
0.0
  0
LINE
  5
4B1
330
1F
100
AcDbEntity
  8
Ｓ_１_１
  6
EXLTYPE2
 62
     1
100
AcDbLine
 10
1157.5000022351
 20
579.99999850995
 30
0.0
 11
1182.5000022351
 21
579.99999850995
 31
0.0
  0
LINE
  5
4B2
330
1F
100
AcDbEntity
  8
Ｓ_１_１
  6
EXLTYPE2
 62
     1
100
AcDbLine
 10
1170.000002235101
 20
592.49999850995
 30
0.0
 11
1170.000002235101
 21
567.49999850995
 31
0.0
  0
LINE
  5
4B3
330
1F
100
AcDbEntity
  8
Ｓ_１_１
  6
EXLTYPE2
 62
     1
100
AcDbLine
 10
1037.5000040233
 20
579.99999850995
 30
0.0
 11
1062.5000040233
 21
579.99999850995
 31
0.0
  0
LINE
  5
4B4
330
1F
100
AcDbEntity
  8
Ｓ_１_１
  6
EXLTYPE2
 62
     1
100
AcDbLine
 10
1050.0000040233
 20
592.49999850995
 30
0.0
 11
1050.0000040233
 21
567.49999850995
 31
0.0
  0
LINE
  5
4B5
330
1F
100
AcDbEntity
  8
Ｓ_１_１
  6
EXLTYPE2
 62
     1
100
AcDbLine
 10
917.5000058114
 20
579.99999850995
 30
0.0
 11
942.5000058114001
 21
579.99999850995
 31
0.0
  0
LINE
  5
4B6
330
1F
100
AcDbEntity
  8
Ｓ_１_１
  6
EXLTYPE2
 62
     1
100
AcDbLine
 10
930.0000058114003
 20
592.49999850995
 30
0.0
 11
930.0000058114003
 21
567.49999850995
 31
0.0
  0
LINE
  5
4B7
330
1F
100
AcDbEntity
  8
Ｓ_１_１
  6
EXLTYPE2
 62
     1
100
AcDbLine
 10
1227.5000013783
 20
639.9811720851501
 30
0.0
 11
1227.5000013783
 21
611.0000018626504
 31
0.0
  0
LINE
  5
4B8
330
1F
100
AcDbEntity
  8
Ｓ_１_１
  6
EXLTYPE2
 62
     1
100
AcDbLine
 10
1246.0623179963
 20
664.0000029802502
 30
0.0
 11
1270.562439701501
 21
664.0000029802502
 31
0.0
  0
LINE
  5
4B9
330
1F
100
AcDbEntity
  8
Ｓ_１_１
  6
EXLTYPE2
 62
     1
100
AcDbLine
 10
1259.3968209714
 20
671.9186754239502
 30
0.0
 11
1259.3968209714
 21
649.0000032037503
 31
0.0
  0
LINE
  5
4BA
330
1F
100
AcDbEntity
  8
Ｓ_１_１
  6
EXLTYPE2
 62
     1
100
AcDbLine
 10
1246.3999949932
 20
660.9811755868502
 30
0.0
 11
1246.3999949932
 21
617.1875027241501
 31
0.0
  0
LINE
  5
4BB
330
1F
100
AcDbEntity
  8
Ｓ_１_１
  6
EXLTYPE2
 62
     1
100
AcDbLine
 10
1293.1468204685
 20
646.8062280594502
 30
0.0
 11
1293.1468204685
 21
619.4999864772501
 31
0.0
  0
LINE
  5
4BC
330
1F
100
AcDbEntity
  8
Ｓ_１_１
  6
EXLTYPE2
 62
     1
100
AcDbLine
 10
553.4434242033001
 20
544.9999990314502
 30
0.0
 11
1396.9433582284
 21
544.9999990314502
 31
0.0
  0
LINE
  5
4BD
330
1F
100
AcDbEntity
  8
Ｓ_１_１
  6
EXLTYPE2
 62
     1
100
AcDbLine
 10
552.5684471045004
 20
415.0000009686503
 30
0.0
 11
1400.4434192114
 21
415.0000009686503
 31
0.0
  0
LINE
  5
4BE
330
1F
100
AcDbEntity
  8
Ｓ_１_１
  6
EXLTYPE2
 62
     1
100
AcDbLine
 10
826.7298962663004
 20
671.9186754239502
 30
0.0
 11
826.7298962663004
 21
652.6686642666502
 31
0.0
  0
LINE
  5
4BF
330
1F
100
AcDbEntity
  8
Ｓ_１_１
  6
EXLTYPE2
 62
     1
100
AcDbLine
 10
811.8435744666
 20
664.0000029802502
 30
0.0
 11
841.5936350585004
 21
664.0000029802502
 31
0.0
  0
LINE
  5
4C0
330
1F
100
AcDbEntity
  8
Ｓ_１_１
  6
EXLTYPE2
 62
     1
100
AcDbLine
 10
853.6000130534003
 20
662.2936603085502
 30
0.0
 11
853.6000130534003
 21
617.6686695565502
 31
0.0
  0
LINE
  5
4C1
330
1F
100
AcDbEntity
  8
Ｓ_１_１
  6
EXLTYPE2
 62
     1
100
AcDbLine
 10
872.5000066682003
 20
641.2936663435501
 30
0.0
 11
872.5000066682003
 21
611.0000018626504
 31
0.0
  0
LINE
  5
4C2
330
1F
100
AcDbEntity
  8
Ｓ_１_１
  6
EXLTYPE2
 62
     1
100
AcDbLine
 10
656.6699317594005
 20
647.1562360651503
 30
0.0
 11
656.6699317594005
 21
619.5000007823503
 31
0.0
  0
LINE
  5
4C3
330
1F
100
AcDbEntity
  8
Ｓ_１_１
  6
CONTINUOUS
 62
     3
100
AcDbLine
 10
1260.000000894
 20
594.9999982863503
 30
0.0
 11
1260.000000894
 21
365.0000017136501
 31
0.0
  0
LINE
  5
4C4
330
1F
100
AcDbEntity
  8
Ｓ_１_１
  6
CONTINUOUS
 62
     3
100
AcDbLine
 10
865.0000067800004
 20
619.9999979138499
 30
0.0
 11
865.0000067800004
 21
340.00000208615
 31
0.0
  0
LINE
  5
4C5
330
1F
100
AcDbEntity
  8
Ｓ_１_１
  6
CONTINUOUS
 62
     3
100
AcDbLine
 10
690.0000093877004
 20
594.9999982863503
 30
0.0
 11
690.0000093877004
 21
365.0000017136501
 31
0.0
  0
LINE
  5
4C6
330
1F
100
AcDbEntity
  8
Ｓ_１_１
  6
CONTINUOUS
 62
     3
100
AcDbLine
 10
865.0000067800004
 20
619.9999979138499
 30
0.0
 11
1235.0000012666
 21
619.9999979138499
 31
0.0
  0
LINE
  5
4C7
330
1F
100
AcDbEntity
  8
Ｓ_１_１
  6
CONTINUOUS
 62
     3
100
AcDbLine
 10
865.0000067800004
 20
340.0000020861501
 30
0.0
 11
1235.0000012666
 21
340.0000020861501
 31
0.0
  0
LINE
  5
4C8
330
1F
100
AcDbEntity
  8
Ｓ_１_１
  6
CONTINUOUS
 62
     3
100
AcDbLine
 10
1235.0000012666
 20
619.9999979138499
 30
0.0
 11
1235.0000012666
 21
340.0000020861501
 31
0.0
  0
LINE
  5
4C9
330
1F
100
AcDbEntity
  8
Ｓ_１_１
  6
CONTINUOUS
 62
     3
100
AcDbLine
 10
630.0000102818001
 20
594.9999982863503
 30
0.0
 11
690.0000093877004
 21
594.9999982863503
 31
0.0
  0
LINE
  5
4CA
330
1F
100
AcDbEntity
  8
Ｓ_１_１
  6
CONTINUOUS
 62
     3
100
AcDbLine
 10
630.0000102818001
 20
365.0000017136501
 30
0.0
 11
690.0000093877004
 21
365.0000017136501
 31
0.0
  0
LINE
  5
4CB
330
1F
100
AcDbEntity
  8
Ｓ_１_１
  6
CONTINUOUS
 62
     3
100
AcDbLine
 10
1260.000000894
 20
594.9999982863503
 30
0.0
 11
1320.0
 21
594.9999982863503
 31
0.0
  0
LINE
  5
4CC
330
1F
100
AcDbEntity
  8
Ｓ_１_１
  6
CONTINUOUS
 62
     3
100
AcDbLine
 10
1260.000000894
 20
365.0000017136501
 30
0.0
 11
1320.0
 21
365.0000017136501
 31
0.0
  0
LINE
  5
4CD
330
1F
100
AcDbEntity
  8
Ｓ_１_１
  6
CONTINUOUS
 62
     3
100
AcDbLine
 10
630.0000102818001
 20
594.9999982863503
 30
0.0
 11
630.0000102818001
 21
365.0000017136501
 31
0.0
  0
LINE
  5
4CE
330
1F
100
AcDbEntity
  8
Ｓ_１_１
  6
CONTINUOUS
 62
     3
100
AcDbLine
 10
1320.0
 20
594.9999982863503
 30
0.0
 11
1320.0
 21
365.0000017136501
 31
0.0
  0
LINE
  5
4CF
330
1F
100
AcDbEntity
  8
Ｓ_１_１
  6
CONTINUOUS
 62
     3
100
AcDbLine
 10
622.5000103935006
 20
571.9999991059501
 30
0.0
 11
622.5000103935006
 21
544.9999990314502
 31
0.0
  0
LINE
  5
4D0
330
1F
100
AcDbEntity
  8
Ｓ_１_１
  6
CONTINUOUS
 62
     3
100
AcDbLine
 10
622.5000103935006
 20
544.9999990314502
 30
0.0
 11
622.5000103935006
 21
517.9999989569503
 31
0.0
  0
LINE
  5
4D1
330
1F
100
AcDbEntity
  8
Ｓ_１_１
  6
CONTINUOUS
 62
     3
100
AcDbLine
 10
622.5000103935006
 20
441.9999986589503
 30
0.0
 11
622.5000103935006
 21
415.0000009686503
 31
0.0
  0
LINE
  5
4D2
330
1F
100
AcDbEntity
  8
Ｓ_１_１
  6
CONTINUOUS
 62
     3
100
AcDbLine
 10
622.5000103935006
 20
415.0000009686503
 30
0.0
 11
622.5000103935006
 21
388.0000032782502
 31
0.0
  0
LINE
  5
4D3
330
1F
100
AcDbEntity
  8
Ｓ_１_１
  6
CONTINUOUS
 62
     3
100
AcDbLine
 10
1327.4999998882
 20
573.0000005215504
 30
0.0
 11
1327.4999998882
 21
544.9999990314502
 31
0.0
  0
LINE
  5
4D4
330
1F
100
AcDbEntity
  8
Ｓ_１_１
  6
CONTINUOUS
 62
     3
100
AcDbLine
 10
1327.4999998882
 20
544.9999990314502
 30
0.0
 11
1327.4999998882
 21
516.99999754135
 31
0.0
  0
LINE
  5
4D5
330
1F
100
AcDbEntity
  8
Ｓ_１_１
  6
CONTINUOUS
 62
     3
100
AcDbLine
 10
1327.4999998882
 20
441.9999795854503
 30
0.0
 11
1327.4999998882
 21
415.0000009686503
 31
0.0
  0
LINE
  5
4D6
330
1F
100
AcDbEntity
  8
Ｓ_１_１
  6
CONTINUOUS
 62
     3
100
AcDbLine
 10
1327.4999998882
 20
415.0000009686503
 30
0.0
 11
1327.4999998882
 21
388.0000032782502
 31
0.0
  0
LINE
  5
4D7
330
1F
100
AcDbEntity
  8
Ｓ_１_１
  6
CONTINUOUS
 62
     3
100
AcDbLine
 10
593.4999955669007
 20
572.9999981373501
 30
0.0
 11
621.5000256672004
 21
572.9999981373501
 31
0.0
  0
LINE
  5
4D8
330
1F
100
AcDbEntity
  8
Ｓ_１_１
  6
CONTINUOUS
 62
     3
100
AcDbLine
 10
593.4999955669007
 20
516.9999999255504
 30
0.0
 11
621.5000256672004
 21
516.9999999255504
 31
0.0
  0
LINE
  5
4D9
330
1F
100
AcDbEntity
  8
Ｓ_１_１
  6
CONTINUOUS
 62
     3
100
AcDbLine
 10
593.4999955669007
 20
443.0000024587505
 30
0.0
 11
621.5000256672004
 21
443.0000024587505
 31
0.0
  0
LINE
  5
4DA
330
1F
100
AcDbEntity
  8
Ｓ_１_１
  6
CONTINUOUS
 62
     3
100
AcDbLine
 10
593.4999955669007
 20
386.99999947845
 30
0.0
 11
621.5000256672004
 21
386.99999947845
 31
0.0
  0
LINE
  5
4DB
330
1F
100
AcDbEntity
  8
Ｓ_１_１
  6
CONTINUOUS
 62
     3
100
AcDbLine
 10
1327.4999998882
 20
571.9998918175504
 30
0.0
 11
1327.4999998882
 21
517.99999657275
 31
0.0
  0
LINE
  5
4DC
330
1F
100
AcDbEntity
  8
Ｓ_１_１
  6
CONTINUOUS
 62
     3
100
AcDbLine
 10
1328.5000609085
 20
573.0000005215504
 30
0.0
 11
1356.4999384209
 21
573.0000005215504
 31
0.0
  0
LINE
  5
4DD
330
1F
100
AcDbEntity
  8
Ｓ_１_１
  6
CONTINUOUS
 62
     3
100
AcDbLine
 10
1328.4999083206
 20
516.99999754135
 30
0.0
 11
1356.4999384209
 21
516.99999754135
 31
0.0
  0
LINE
  5
4DE
330
1F
100
AcDbEntity
  8
Ｓ_１_１
  6
CONTINUOUS
 62
     3
100
AcDbLine
 10
1328.5000609085
 20
443.0000024587505
 30
0.0
 11
1356.4999384209
 21
443.0000024587505
 31
0.0
  0
LINE
  5
4DF
330
1F
100
AcDbEntity
  8
Ｓ_１_１
  6
CONTINUOUS
 62
     3
100
AcDbLine
 10
1328.5000609085
 20
386.99999947845
 30
0.0
 11
1356.5000910088
 21
386.99999947845
 31
0.0
  0
LINE
  5
4E0
330
1F
100
AcDbEntity
  8
Ｓ_１_１
  6
CONTINUOUS
 62
     3
100
AcDbLine
 10
1357.4999994412
 20
571.9999776482503
 30
0.0
 11
1357.4999994412
 21
517.99999657275
 31
0.0
  0
LINE
  5
4E1
330
1F
100
AcDbEntity
  8
Ｓ_１_１
  6
CONTINUOUS
 62
     3
100
AcDbLine
 10
1357.4999994412
 20
441.9999223649499
 30
0.0
 11
1357.4999994412
 21
388.0000032782502
 31
0.0
  0
LINE
  5
4E2
330
1F
100
AcDbEntity
  8
Ｓ_１_１
  6
CONTINUOUS
 62
     3
100
AcDbLine
 10
574.5000568852004
 20
567.9999982118504
 30
0.0
 11
574.5000568852004
 21
544.9999990314502
 31
0.0
  0
LINE
  5
4E3
330
1F
100
AcDbEntity
  8
Ｓ_１_１
  6
CONTINUOUS
 62
     3
100
AcDbLine
 10
574.5000568852004
 20
544.9999990314502
 30
0.0
 11
574.5000568852004
 21
521.99999985105
 31
0.0
  0
LINE
  5
4E4
330
1F
100
AcDbEntity
  8
Ｓ_１_１
  6
CONTINUOUS
 62
     3
100
AcDbLine
 10
574.5000568852004
 20
438.0000025332499
 30
0.0
 11
574.5000568852004
 21
415.0000009686503
 31
0.0
  0
LINE
  5
4E5
330
1F
100
AcDbEntity
  8
Ｓ_１_１
  6
CONTINUOUS
 62
     3
100
AcDbLine
 10
574.5000568852004
 20
415.0000009686503
 30
0.0
 11
574.5000568852004
 21
391.9999994039501
 31
0.0
  0
LINE
  5
4E6
330
1F
100
AcDbEntity
  8
Ｓ_１_１
  6
CONTINUOUS
 62
     3
100
AcDbLine
 10
1375.5000296905
 20
568.0000005960503
 30
0.0
 11
1375.5000296905
 21
544.9999990314502
 31
0.0
  0
LINE
  5
4E7
330
1F
100
AcDbEntity
  8
Ｓ_１_１
  6
CONTINUOUS
 62
     3
100
AcDbLine
 10
1375.5000296905
 20
544.9999990314502
 30
0.0
 11
1375.5000296905
 21
521.9999974668501
 31
0.0
  0
LINE
  5
4E8
330
1F
100
AcDbEntity
  8
Ｓ_１_１
  6
CONTINUOUS
 62
     3
100
AcDbLine
 10
1375.5000296905
 20
438.0000025332499
 30
0.0
 11
1375.5000296905
 21
415.0000009686503
 31
0.0
  0
LINE
  5
4E9
330
1F
100
AcDbEntity
  8
Ｓ_１_１
  6
CONTINUOUS
 62
     3
100
AcDbLine
 10
1375.5000296905
 20
415.0000009686503
 30
0.0
 11
1375.5000296905
 21
391.9999994039501
 31
0.0
  0
LINE
  5
4EA
330
1F
100
AcDbEntity
  8
Ｓ_１_１
  6
CONTINUOUS
 62
     3
100
AcDbLine
 10
1375.5002112725
 20
567.99999127975
 30
0.0
 11
1373.4506744558
 21
571.5499480901501
 31
0.0
  0
LINE
  5
4EB
330
1F
100
AcDbEntity
  8
Ｓ_１_１
  6
CONTINUOUS
 62
     3
100
AcDbLine
 10
1357.500039396101
 20
521.9999936002503
 30
0.0
 11
1359.5496133819
 21
518.44997022845
 31
0.0
  0
LINE
  5
4EC
330
1F
100
AcDbEntity
  8
Ｓ_１_１
  6
CONTINUOUS
 62
     3
100
AcDbLine
 10
1375.5000617247
 20
437.9999812440503
 30
0.0
 11
1373.450485662
 21
441.5500033942501
 31
0.0
  0
LINE
  5
4ED
330
1F
100
AcDbEntity
  8
Ｓ_１_１
  6
CONTINUOUS
 62
     3
100
AcDbLine
 10
1357.500039631601
 20
391.9999467456502
 30
0.0
 11
1359.5496114184
 21
388.4499221521502
 31
0.0
  0
LINE
  5
4EE
330
1F
100
AcDbEntity
  8
Ｓ_１_１
  6
CONTINUOUS
 62
     3
100
AcDbLine
 10
1375.5000506636
 20
391.9999493816501
 30
0.0
 11
1373.45049795
 21
388.4499578245502
 31
0.0
  0
LINE
  5
4EF
330
1F
100
AcDbEntity
  8
Ｓ_１_１
  6
CONTINUOUS
 62
     3
100
AcDbLine
 10
1357.5000311888
 20
437.9999835811502
 30
0.0
 11
1359.549588178201
 21
441.5499726949499
 31
0.0
  0
LINE
  5
4F0
330
1F
100
AcDbEntity
  8
Ｓ_１_１
  6
CONTINUOUS
 62
     3
100
AcDbLine
 10
1375.5002112725
 20
522.0000067831504
 30
0.0
 11
1373.4506744558
 21
518.4500499727503
 31
0.0
  0
LINE
  5
4F1
330
1F
100
AcDbEntity
  8
Ｓ_１_１
  6
CONTINUOUS
 62
     3
100
AcDbLine
 10
1357.500039396101
 20
568.0000044626502
 30
0.0
 11
1359.5496133819
 21
571.5500278344505
 31
0.0
  0
LINE
  5
4F2
330
1F
100
AcDbEntity
  8
Ｓ_１_１
  6
CONTINUOUS
 62
     3
100
AcDbLine
 10
574.5000575137003
 20
567.99998224145
 30
0.0
 11
576.5496124263007
 21
571.5499725769503
 31
0.0
  0
LINE
  5
4F3
330
1F
100
AcDbEntity
  8
Ｓ_１_１
  6
CONTINUOUS
 62
     3
100
AcDbLine
 10
592.5000342854007
 20
522.00001480485
 30
0.0
 11
590.4504126630006
 21
518.4500409357504
 31
0.0
  0
LINE
  5
4F4
330
1F
100
AcDbEntity
  8
Ｓ_１_１
  6
CONTINUOUS
 62
     3
100
AcDbLine
 10
574.5000509980007
 20
437.9999602657501
 30
0.0
 11
576.5496079874003
 21
441.5499493794503
 31
0.0
  0
LINE
  5
4F5
330
1F
100
AcDbEntity
  8
Ｓ_１_１
  6
CONTINUOUS
 62
     3
100
AcDbLine
 10
592.5001169031004
 20
391.99997411865
 30
0.0
 11
590.4505355796007
 21
388.44993300695
 31
0.0
  0
LINE
  5
4F6
330
1F
100
AcDbEntity
  8
Ｓ_１_１
  6
CONTINUOUS
 62
     3
100
AcDbLine
 10
574.5000060783002
 20
392.0000185627502
 30
0.0
 11
576.5495778651004
 21
388.4499939693503
 31
0.0
  0
LINE
  5
4F7
330
1F
100
AcDbEntity
  8
Ｓ_１_１
  6
CONTINUOUS
 62
     3
100
AcDbLine
 10
592.5000645438001
 20
438.00000933355
 30
0.0
 11
590.4504123560007
 21
441.5500315350502
 31
0.0
  0
LINE
  5
4F8
330
1F
100
AcDbEntity
  8
Ｓ_１_１
  6
CONTINUOUS
 62
     3
100
AcDbLine
 10
574.5000575137003
 20
522.0000158214505
 30
0.0
 11
576.5496124263007
 21
518.4500254859502
 31
0.0
  0
LINE
  5
4F9
330
1F
100
AcDbEntity
  8
Ｓ_１_１
  6
CONTINUOUS
 62
     3
100
AcDbLine
 10
592.5000342854007
 20
567.9999832580504
 30
0.0
 11
590.4504126630006
 21
571.54995712715
 31
0.0
  0
LINE
  5
4FA
330
1F
100
AcDbEntity
  8
Ｓ_１_１
  6
CONTINUOUS
 62
     3
100
AcDbLine
 10
1359.5495599575
 20
441.5499979026501
 30
0.0
 11
1373.4504691742
 21
441.5499979026501
 31
0.0
  0
LINE
  5
4FB
330
1F
100
AcDbEntity
  8
Ｓ_１_１
  6
CONTINUOUS
 62
     3
100
AcDbLine
 10
1359.5495599575
 20
428.2750042040504
 30
0.0
 11
1373.4504691742
 21
428.2750042040504
 31
0.0
  0
LINE
  5
4FC
330
1F
100
AcDbEntity
  8
Ｓ_１_１
  6
CONTINUOUS
 62
     3
100
AcDbLine
 10
1359.5495599575
 20
401.7250072699501
 30
0.0
 11
1373.4504691742
 21
401.7250072699501
 31
0.0
  0
LINE
  5
4FD
330
1F
100
AcDbEntity
  8
Ｓ_１_１
  6
CONTINUOUS
 62
     3
100
AcDbLine
 10
1359.5495599575
 20
388.4499944977504
 30
0.0
 11
1373.4504691742
 21
388.4499944977504
 31
0.0
  0
LINE
  5
4FE
330
1F
100
AcDbEntity
  8
Ｓ_１_１
  6
CONTINUOUS
 62
     3
100
AcDbLine
 10
1359.5495599575
 20
571.54999834975
 30
0.0
 11
1373.4504691742
 21
571.54999834975
 31
0.0
  0
LINE
  5
4FF
330
1F
100
AcDbEntity
  8
Ｓ_１_１
  6
CONTINUOUS
 62
     3
100
AcDbLine
 10
1359.5495599575
 20
558.2749891538504
 30
0.0
 11
1373.4504691742
 21
558.2749891538504
 31
0.0
  0
LINE
  5
500
330
1F
100
AcDbEntity
  8
Ｓ_１_１
  6
CONTINUOUS
 62
     3
100
AcDbLine
 10
1359.5495599575
 20
531.7249946039503
 30
0.0
 11
1373.4504691742
 21
531.7249946039503
 31
0.0
  0
LINE
  5
501
330
1F
100
AcDbEntity
  8
Ｓ_１_１
  6
CONTINUOUS
 62
     3
100
AcDbLine
 10
1359.5495599575
 20
518.4499997131504
 30
0.0
 11
1373.4504691742
 21
518.4499997131504
 31
0.0
  0
LINE
  5
502
330
1F
100
AcDbEntity
  8
Ｓ_１_１
  6
CONTINUOUS
 62
     3
100
AcDbLine
 10
576.5496174015004
 20
571.54999834975
 30
0.0
 11
590.4503740303005
 21
571.54999834975
 31
0.0
  0
LINE
  5
503
330
1F
100
AcDbEntity
  8
Ｓ_１_１
  6
CONTINUOUS
 62
     3
100
AcDbLine
 10
576.5496174015004
 20
558.2749891538504
 30
0.0
 11
590.4503740303005
 21
558.2749891538504
 31
0.0
  0
LINE
  5
504
330
1F
100
AcDbEntity
  8
Ｓ_１_１
  6
CONTINUOUS
 62
     3
100
AcDbLine
 10
576.5496174015004
 20
531.7249946039503
 30
0.0
 11
590.4503740303005
 21
531.7249946039503
 31
0.0
  0
LINE
  5
505
330
1F
100
AcDbEntity
  8
Ｓ_１_１
  6
CONTINUOUS
 62
     3
100
AcDbLine
 10
576.5496174015004
 20
518.4499997131504
 30
0.0
 11
590.4503740303005
 21
518.4499997131504
 31
0.0
  0
LINE
  5
506
330
1F
100
AcDbEntity
  8
Ｓ_１_１
  6
CONTINUOUS
 62
     3
100
AcDbLine
 10
576.5496174015004
 20
441.5499979026501
 30
0.0
 11
590.4503740303005
 21
441.5499979026501
 31
0.0
  0
LINE
  5
507
330
1F
100
AcDbEntity
  8
Ｓ_１_１
  6
CONTINUOUS
 62
     3
100
AcDbLine
 10
576.5496174015004
 20
428.2750042040504
 30
0.0
 11
590.4503740303005
 21
428.2750042040504
 31
0.0
  0
LINE
  5
508
330
1F
100
AcDbEntity
  8
Ｓ_１_１
  6
CONTINUOUS
 62
     3
100
AcDbLine
 10
576.5496174015004
 20
401.7250072699501
 30
0.0
 11
590.4503740303005
 21
401.7250072699501
 31
0.0
  0
LINE
  5
509
330
1F
100
AcDbEntity
  8
Ｓ_１_１
  6
CONTINUOUS
 62
     3
100
AcDbLine
 10
576.5496174015004
 20
388.4499944977504
 30
0.0
 11
590.4504503242003
 21
388.4499944977504
 31
0.0
  0
LINE
  5
50A
330
1F
100
AcDbEntity
  8
Ｓ_１_１
  6
CONTINUOUS
 62
     3
100
AcDbLine
 10
559.5000571087
 20
558.0000317394504
 30
0.0
 11
559.5000571087
 21
544.9999990314502
 31
0.0
  0
LINE
  5
50B
330
1F
100
AcDbEntity
  8
Ｓ_１_１
  6
CONTINUOUS
 62
     3
100
AcDbLine
 10
559.5000571087
 20
544.9999990314502
 30
0.0
 11
559.5000571087
 21
531.9999997020502
 31
0.0
  0
LINE
  5
50C
330
1F
100
AcDbEntity
  8
Ｓ_１_１
  6
CONTINUOUS
 62
     3
100
AcDbLine
 10
559.5000571087
 20
428.0000122189501
 30
0.0
 11
559.5000571087
 21
415.0000009686503
 31
0.0
  0
LINE
  5
50D
330
1F
100
AcDbEntity
  8
Ｓ_１_１
  6
CONTINUOUS
 62
     3
100
AcDbLine
 10
559.5000571087
 20
415.0000009686503
 30
0.0
 11
559.5000571087
 21
401.9999992549504
 31
0.0
  0
LINE
  5
50E
330
1F
100
AcDbEntity
  8
Ｓ_１_１
  6
CONTINUOUS
 62
     3
100
AcDbLine
 10
561.5000265613005
 20
559.9999988079501
 30
0.0
 11
574.5000568852004
 21
559.9999988079501
 31
0.0
  0
LINE
  5
50F
330
1F
100
AcDbEntity
  8
Ｓ_１_１
  6
CONTINUOUS
 62
     3
100
AcDbLine
 10
561.5001028552003
 20
529.9999992549504
 30
0.0
 11
574.5000568852004
 21
529.9999992549504
 31
0.0
  0
LINE
  5
510
330
1F
100
AcDbEntity
  8
Ｓ_１_１
  6
CONTINUOUS
 62
     3
100
AcDbLine
 10
561.5000265613005
 20
430.00000074505
 30
0.0
 11
574.5000568852004
 21
430.00000074505
 31
0.0
  0
LINE
  5
511
330
1F
100
AcDbEntity
  8
Ｓ_１_１
  6
CONTINUOUS
 62
     3
100
AcDbLine
 10
561.5001028552003
 20
400.00000119215
 30
0.0
 11
574.5000568852004
 21
400.00000119215
 31
0.0
  0
LINE
  5
512
330
1F
100
AcDbEntity
  8
Ｓ_１_１
  6
CONTINUOUS
 62
     3
100
AcDbLine
 10
561.5000806748001
 20
559.9999569483505
 30
0.0
 11
559.5001205597007
 21
557.9999991934503
 31
0.0
  0
LINE
  5
513
330
1F
100
AcDbEntity
  8
Ｓ_１_１
  6
CONTINUOUS
 62
     3
100
AcDbLine
 10
559.5001526535004
 20
531.9999387885503
 30
0.0
 11
561.5001343473002
 21
530.0000024438502
 31
0.0
  0
LINE
  5
514
330
1F
100
AcDbEntity
  8
Ｓ_１_１
  6
CONTINUOUS
 62
     3
100
AcDbLine
 10
561.5000263834006
 20
429.9999047695503
 30
0.0
 11
559.5001038630005
 21
427.9999631993503
 31
0.0
  0
LINE
  5
515
330
1F
100
AcDbEntity
  8
Ｓ_１_１
  6
CONTINUOUS
 62
     3
100
AcDbLine
 10
559.4999842006007
 20
402.0000277217503
 30
0.0
 11
561.5000208545005
 21
400.00003877835
 31
0.0
  0
LINE
  5
516
330
1F
100
AcDbEntity
  8
Ｓ_１_１
  6
CONTINUOUS
 62
     3
100
AcDbLine
 10
574.5000568852004
 20
428.49999504535
 30
0.0
 11
559.5000571087
 21
428.49999504535
 31
0.0
  0
LINE
  5
517
330
1F
100
AcDbEntity
  8
Ｓ_１_１
  6
CONTINUOUS
 62
     3
100
AcDbLine
 10
574.5000568852004
 20
401.49999735505
 30
0.0
 11
560.0000876188003
 21
401.49999735505
 31
0.0
  0
LINE
  5
518
330
1F
100
AcDbEntity
  8
Ｓ_１_１
  6
CONTINUOUS
 62
     3
100
AcDbLine
 10
574.5000568852004
 20
558.49999906875
 30
0.0
 11
559.5000571087
 21
558.49999906875
 31
0.0
  0
LINE
  5
519
330
1F
100
AcDbEntity
  8
Ｓ_１_１
  6
CONTINUOUS
 62
     3
100
AcDbLine
 10
574.5000568852004
 20
531.4999989941505
 30
0.0
 11
560.0000876188003
 21
531.4999989941505
 31
0.0
  0
LINE
  5
51A
330
1F
100
AcDbEntity
  8
Ｓ_１_１
  6
CONTINUOUS
 62
     3
100
AcDbLine
 10
561.5000265613005
 20
559.9999988079501
 30
0.0
 11
561.5000265613005
 21
529.9999992549504
 31
0.0
  0
LINE
  5
51B
330
1F
100
AcDbEntity
  8
Ｓ_１_１
  6
CONTINUOUS
 62
     3
100
AcDbLine
 10
561.5000265613005
 20
430.00000074505
 30
0.0
 11
561.5000265613005
 21
400.00000119215
 31
0.0
  0
LINE
  5
51C
330
1F
100
AcDbEntity
  8
Ｓ_１_１
  6
CONTINUOUS
 62
     3
100
AcDbLine
 10
621.4999846185003
 20
572.99999963815
 30
0.0
 11
622.4999838950005
 21
571.99998603165
 31
0.0
  0
LINE
  5
51D
330
1F
100
AcDbEntity
  8
Ｓ_１_１
  6
CONTINUOUS
 62
     3
100
AcDbLine
 10
622.4999838950005
 20
518.0000120312504
 30
0.0
 11
621.4999846185003
 21
516.9999984247504
 31
0.0
  0
LINE
  5
51E
330
1F
100
AcDbEntity
  8
Ｓ_１_１
  6
CONTINUOUS
 62
     3
100
AcDbLine
 10
593.5000443362003
 20
573.0000151491502
 30
0.0
 11
592.5000192661007
 21
571.9999733883503
 31
0.0
  0
LINE
  5
51F
330
1F
100
AcDbEntity
  8
Ｓ_１_１
  6
CONTINUOUS
 62
     3
100
AcDbLine
 10
592.4999701945005
 20
517.99998800765
 30
0.0
 11
593.4999694710002
 21
516.99997440115
 31
0.0
  0
LINE
  5
520
330
1F
100
AcDbEntity
  8
Ｓ_１_１
  6
CONTINUOUS
 62
     3
100
AcDbLine
 10
593.4999826223004
 20
442.9999365846504
 30
0.0
 11
592.5000522984003
 21
442.0000157851502
 31
0.0
  0
LINE
  5
521
330
1F
100
AcDbEntity
  8
Ｓ_１_１
  6
CONTINUOUS
 62
     3
100
AcDbLine
 10
621.5001057130005
 20
442.99991529255
 30
0.0
 11
622.5000486817005
 21
441.9999531900501
 31
0.0
  0
LINE
  5
522
330
1F
100
AcDbEntity
  8
Ｓ_１_１
  6
CONTINUOUS
 62
     3
100
AcDbLine
 10
622.5000276086005
 20
388.00000451755
 30
0.0
 11
621.5000306924001
 21
386.9999884665501
 31
0.0
  0
LINE
  5
523
330
1F
100
AcDbEntity
  8
Ｓ_１_１
  6
CONTINUOUS
 62
     3
100
AcDbLine
 10
592.5000388580004
 20
387.9999979850502
 30
0.0
 11
593.5000357742003
 21
386.9999819340503
 31
0.0
  0
LINE
  5
524
330
1F
100
AcDbEntity
  8
Ｓ_１_１
  6
CONTINUOUS
 62
     3
100
AcDbLine
 10
592.5000108406005
 20
572.0000014901505
 30
0.0
 11
592.5000108406005
 21
518.0000227988501
 31
0.0
  0
LINE
  5
525
330
1F
100
AcDbEntity
  8
Ｓ_１_１
  6
CONTINUOUS
 62
     3
100
AcDbLine
 10
621.5000256672004
 20
572.9999981373501
 30
0.0
 11
621.5000256672004
 21
516.9999999255504
 31
0.0
  0
LINE
  5
526
330
1F
100
AcDbEntity
  8
Ｓ_１_１
  6
CONTINUOUS
 62
     3
100
AcDbLine
 10
592.5000871345003
 20
442.0000177324502
 30
0.0
 11
592.5000871345003
 21
387.9999269843499
 31
0.0
  0
LINE
  5
527
330
1F
100
AcDbEntity
  8
Ｓ_１_１
  6
CONTINUOUS
 62
     3
100
AcDbLine
 10
621.5000256672004
 20
443.0000024587505
 30
0.0
 11
621.5000256672004
 21
386.99999947845
 31
0.0
  0
LINE
  5
528
330
1F
100
AcDbEntity
  8
Ｓ_１_１
  6
CONTINUOUS
 62
     3
100
AcDbLine
 10
592.5000108406005
 20
561.6658317794502
 30
0.0
 11
617.5000104680005
 21
561.6658317794502
 31
0.0
  0
LINE
  5
529
330
1F
100
AcDbEntity
  8
Ｓ_１_１
  6
CONTINUOUS
 62
     3
100
AcDbLine
 10
592.5000108406005
 20
528.3341662834503
 30
0.0
 11
617.5000104680005
 21
528.3341662834503
 31
0.0
  0
LINE
  5
52A
330
1F
100
AcDbEntity
  8
Ｓ_１_１
  6
CONTINUOUS
 62
     3
100
AcDbLine
 10
592.5000871345003
 20
431.6658313324504
 30
0.0
 11
617.5000104680005
 21
431.6658313324504
 31
0.0
  0
LINE
  5
52B
330
1F
100
AcDbEntity
  8
Ｓ_１_１
  6
CONTINUOUS
 62
     3
100
AcDbLine
 10
592.5000871345003
 20
398.3341706047502
 30
0.0
 11
617.5000104680005
 21
398.3341706047502
 31
0.0
  0
LINE
  5
52C
330
1F
100
AcDbEntity
  8
Ｓ_１_１
  6
CONTINUOUS
 62
     3
100
AcDbLine
 10
617.5000104680005
 20
561.6658317794502
 30
0.0
 11
617.5000104680005
 21
528.3341662834503
 31
0.0
  0
LINE
  5
52D
330
1F
100
AcDbEntity
  8
Ｓ_１_１
  6
CONTINUOUS
 62
     3
100
AcDbLine
 10
617.5000104680005
 20
431.6658313324504
 30
0.0
 11
617.5000104680005
 21
398.3341706047502
 31
0.0
  0
LINE
  5
52E
330
1F
100
AcDbEntity
  8
Ｓ_１_１
  6
CONTINUOUS
 62
     3
100
AcDbLine
 10
1332.4999998137
 20
561.6658317794502
 30
0.0
 11
1332.4999998137
 21
528.3341662834503
 31
0.0
  0
LINE
  5
52F
330
1F
100
AcDbEntity
  8
Ｓ_１_１
  6
CONTINUOUS
 62
     3
100
AcDbLine
 10
1332.4999998137
 20
431.6658313324504
 30
0.0
 11
1332.4999998137
 21
398.3341706047502
 31
0.0
  0
LINE
  5
530
330
1F
100
AcDbEntity
  8
Ｓ_１_１
  6
CONTINUOUS
 62
     3
100
AcDbLine
 10
1332.4999998137
 20
561.6658317794502
 30
0.0
 11
1357.4999994412
 21
561.6658317794502
 31
0.0
  0
LINE
  5
531
330
1F
100
AcDbEntity
  8
Ｓ_１_１
  6
CONTINUOUS
 62
     3
100
AcDbLine
 10
1332.4999998137
 20
528.3341662834503
 30
0.0
 11
1357.4999994412
 21
528.3341662834503
 31
0.0
  0
LINE
  5
532
330
1F
100
AcDbEntity
  8
Ｓ_１_１
  6
CONTINUOUS
 62
     3
100
AcDbLine
 10
1332.4999998137
 20
431.6658313324504
 30
0.0
 11
1357.4999994412
 21
431.6658313324504
 31
0.0
  0
LINE
  5
533
330
1F
100
AcDbEntity
  8
Ｓ_１_１
  6
CONTINUOUS
 62
     3
100
AcDbLine
 10
1332.4999998137
 20
398.3341706047502
 30
0.0
 11
1357.4999994412
 21
398.3341706047502
 31
0.0
  0
LINE
  5
534
330
1F
100
AcDbEntity
  8
Ｓ_１_１
  6
CONTINUOUS
 62
     3
100
AcDbLine
 10
1327.4999998882
 20
569.9999986589503
 30
0.0
 11
1320.0
 21
569.9999986589503
 31
0.0
  0
LINE
  5
535
330
1F
100
AcDbEntity
  8
Ｓ_１_１
  6
CONTINUOUS
 62
     3
100
AcDbLine
 10
1327.4999998882
 20
519.9999994039501
 30
0.0
 11
1320.0
 21
519.9999994039501
 31
0.0
  0
LINE
  5
536
330
1F
100
AcDbEntity
  8
Ｓ_１_１
  6
CONTINUOUS
 62
     3
100
AcDbLine
 10
1327.4999998882
 20
440.0000005960503
 30
0.0
 11
1320.0
 21
440.0000005960503
 31
0.0
  0
LINE
  5
537
330
1F
100
AcDbEntity
  8
Ｓ_１_１
  6
CONTINUOUS
 62
     3
100
AcDbLine
 10
1327.4999998882
 20
390.0000013411502
 30
0.0
 11
1320.0
 21
390.0000013411502
 31
0.0
  0
LINE
  5
538
330
1F
100
AcDbEntity
  8
Ｓ_１_１
  6
CONTINUOUS
 62
     3
100
AcDbLine
 10
1328.5002790346
 20
573.0000687994504
 30
0.0
 11
1327.500215444101
 21
571.9999575788504
 31
0.0
  0
LINE
  5
539
330
1F
100
AcDbEntity
  8
Ｓ_１_１
  6
CONTINUOUS
 62
     3
100
AcDbLine
 10
1327.499679961001
 20
518.0000538992501
 30
0.0
 11
1328.4996140794
 21
517.0000291669501
 31
0.0
  0
LINE
  5
53A
330
1F
100
AcDbEntity
  8
Ｓ_１_１
  6
CONTINUOUS
 62
     3
100
AcDbLine
 10
1357.4995560062
 20
517.9999443484501
 30
0.0
 11
1356.499599553201
 21
517.0000498466504
 31
0.0
  0
LINE
  5
53B
330
1F
100
AcDbEntity
  8
Ｓ_１_１
  6
CONTINUOUS
 62
     3
100
AcDbLine
 10
1356.499885521501
 20
573.0000191596503
 30
0.0
 11
1357.499937988
 21
572.0000047951501
 31
0.0
  0
LINE
  5
53C
330
1F
100
AcDbEntity
  8
Ｓ_１_１
  6
CONTINUOUS
 62
     3
100
AcDbLine
 10
1328.5000609085
 20
573.0000005215504
 30
0.0
 11
1328.5000609085
 21
516.99999754135
 31
0.0
  0
LINE
  5
53D
330
1F
100
AcDbEntity
  8
Ｓ_１_１
  6
CONTINUOUS
 62
     3
100
AcDbLine
 10
1356.4999384209
 20
573.0000005215504
 30
0.0
 11
1356.4999384209
 21
561.6658317794502
 31
0.0
  0
LINE
  5
53E
330
1F
100
AcDbEntity
  8
Ｓ_１_１
  6
CONTINUOUS
 62
     3
100
AcDbLine
 10
1356.4999384209
 20
516.99999754135
 30
0.0
 11
1356.4999384209
 21
528.3341662834503
 31
0.0
  0
LINE
  5
53F
330
1F
100
AcDbEntity
  8
Ｓ_１_１
  6
CONTINUOUS
 62
     3
100
AcDbLine
 10
1332.4995432524
 20
528.3340712891502
 30
0.0
 11
1357.499547603001
 21
561.6657432018503
 31
0.0
  0
LINE
  5
540
330
1F
100
AcDbEntity
  8
Ｓ_１_１
  6
CONTINUOUS
 62
     3
100
AcDbLine
 10
1357.499547603001
 20
528.3342548610501
 30
0.0
 11
1332.4995432524
 21
561.6659267737502
 31
0.0
  0
LINE
  5
541
330
1F
100
AcDbEntity
  8
Ｓ_１_１
  6
CONTINUOUS
 62
     3
100
AcDbLine
 10
1357.4999215528
 20
431.6659001507503
 30
0.0
 11
1332.4999122353
 21
398.3342282380502
 31
0.0
  0
LINE
  5
542
330
1F
100
AcDbEntity
  8
Ｓ_１_１
  6
CONTINUOUS
 62
     3
100
AcDbLine
 10
1357.5000240703
 20
398.33421154875
 30
0.0
 11
1332.500014752701
 21
431.6658834615503
 31
0.0
  0
LINE
  5
543
330
1F
100
AcDbEntity
  8
Ｓ_１_１
  6
CONTINUOUS
 62
     3
100
AcDbLine
 10
1328.5000217569
 20
442.9999816665502
 30
0.0
 11
1327.4999692904
 21
441.99996730205
 31
0.0
  0
LINE
  5
544
330
1F
100
AcDbEntity
  8
Ｓ_１_１
  6
CONTINUOUS
 62
     3
100
AcDbLine
 10
1327.5001727263
 20
387.9999405539499
 30
0.0
 11
1328.5002348026
 21
386.9999357149501
 31
0.0
  0
LINE
  5
545
330
1F
100
AcDbEntity
  8
Ｓ_１_１
  6
CONTINUOUS
 62
     3
100
AcDbLine
 10
1357.500231278201
 20
388.0000642420503
 30
0.0
 11
1356.5001915449
 21
386.9999291642505
 31
0.0
  0
LINE
  5
546
330
1F
100
AcDbEntity
  8
Ｓ_１_１
  6
CONTINUOUS
 62
     3
100
AcDbLine
 10
1356.4999889595
 20
443.0000044345504
 30
0.0
 11
1357.500066797
 21
441.9999074607501
 31
0.0
  0
LINE
  5
547
330
1F
100
AcDbEntity
  8
Ｓ_１_１
  6
CONTINUOUS
 62
     3
100
AcDbLine
 10
1328.5000609085
 20
443.0000024587505
 30
0.0
 11
1328.5000609085
 21
386.99999947845
 31
0.0
  0
LINE
  5
548
330
1F
100
AcDbEntity
  8
Ｓ_１_１
  6
CONTINUOUS
 62
     3
100
AcDbLine
 10
1356.4999384209
 20
443.0000024587505
 30
0.0
 11
1356.4999384209
 21
431.6658313324504
 31
0.0
  0
LINE
  5
549
330
1F
100
AcDbEntity
  8
Ｓ_１_１
  6
CONTINUOUS
 62
     3
100
AcDbLine
 10
1356.5000910088
 20
386.99999947845
 30
0.0
 11
1356.5000910088
 21
398.3341706047502
 31
0.0
  0
LINE
  5
54A
330
1F
100
AcDbEntity
  8
Ｓ_１_１
  6
CONTINUOUS
 62
     3
100
AcDbLine
 10
1390.500029467001
 20
428.00005036595
 30
0.0
 11
1390.500029467001
 21
415.0000009686503
 31
0.0
  0
LINE
  5
54B
330
1F
100
AcDbEntity
  8
Ｓ_１_１
  6
CONTINUOUS
 62
     3
100
AcDbLine
 10
1390.500029467001
 20
415.0000009686503
 30
0.0
 11
1390.500029467001
 21
401.9999992549504
 31
0.0
  0
LINE
  5
54C
330
1F
100
AcDbEntity
  8
Ｓ_１_１
  6
CONTINUOUS
 62
     3
100
AcDbLine
 10
1388.5000600144
 20
430.00000074505
 30
0.0
 11
1375.5000296905
 21
430.00000074505
 31
0.0
  0
LINE
  5
54D
330
1F
100
AcDbEntity
  8
Ｓ_１_１
  6
CONTINUOUS
 62
     3
100
AcDbLine
 10
1388.5000600144
 20
400.00000119215
 30
0.0
 11
1375.5000296905
 21
400.00000119215
 31
0.0
  0
LINE
  5
54E
330
1F
100
AcDbEntity
  8
Ｓ_１_１
  6
CONTINUOUS
 62
     3
100
AcDbLine
 10
1388.5003172568
 20
429.9999322084502
 30
0.0
 11
1390.5002858011
 21
427.9999827141503
 31
0.0
  0
LINE
  5
54F
330
1F
100
AcDbEntity
  8
Ｓ_１_１
  6
CONTINUOUS
 62
     3
100
AcDbLine
 10
1390.499989698301
 20
402.0000200848501
 30
0.0
 11
1388.500045093
 21
400.0000468202504
 31
0.0
  0
LINE
  5
550
330
1F
100
AcDbEntity
  8
Ｓ_１_１
  6
CONTINUOUS
 62
     3
100
AcDbLine
 10
1375.5000296905
 20
428.49999504535
 30
0.0
 11
1390.0001515448
 21
428.49999504535
 31
0.0
  0
LINE
  5
551
330
1F
100
AcDbEntity
  8
Ｓ_１_１
  6
CONTINUOUS
 62
     3
100
AcDbLine
 10
1375.5000296905
 20
401.49999735505
 30
0.0
 11
1389.9999989569
 21
401.49999735505
 31
0.0
  0
LINE
  5
552
330
1F
100
AcDbEntity
  8
Ｓ_１_１
  6
CONTINUOUS
 62
     3
100
AcDbLine
 10
1388.5000600144
 20
430.00000074505
 30
0.0
 11
1388.5000600144
 21
400.00000119215
 31
0.0
  0
LINE
  5
553
330
1F
100
AcDbEntity
  8
Ｓ_１_１
  6
CONTINUOUS
 62
     3
100
AcDbLine
 10
1390.500029467001
 20
558.0000281632504
 30
0.0
 11
1390.500029467001
 21
544.9999990314502
 31
0.0
  0
LINE
  5
554
330
1F
100
AcDbEntity
  8
Ｓ_１_１
  6
CONTINUOUS
 62
     3
100
AcDbLine
 10
1390.500029467001
 20
544.9999990314502
 30
0.0
 11
1390.500029467001
 21
531.9999997020502
 31
0.0
  0
LINE
  5
555
330
1F
100
AcDbEntity
  8
Ｓ_１_１
  6
CONTINUOUS
 62
     3
100
AcDbLine
 10
1388.5000600144
 20
559.9999988079501
 30
0.0
 11
1375.5000296905
 21
559.9999988079501
 31
0.0
  0
LINE
  5
556
330
1F
100
AcDbEntity
  8
Ｓ_１_１
  6
CONTINUOUS
 62
     3
100
AcDbLine
 10
1388.5000600144
 20
529.9999992549504
 30
0.0
 11
1375.5000296905
 21
529.9999992549504
 31
0.0
  0
LINE
  5
557
330
1F
100
AcDbEntity
  8
Ｓ_１_１
  6
CONTINUOUS
 62
     3
100
AcDbLine
 10
1388.4997036915
 20
560.0000109596501
 30
0.0
 11
1390.499661952201
 21
558.0000515189502
 31
0.0
  0
LINE
  5
558
330
1F
100
AcDbEntity
  8
Ｓ_１_１
  6
CONTINUOUS
 62
     3
100
AcDbLine
 10
1390.500098639
 20
531.9999929892504
 30
0.0
 11
1388.5001550452
 21
530.0000185445504
 31
0.0
  0
LINE
  5
559
330
1F
100
AcDbEntity
  8
Ｓ_１_１
  6
CONTINUOUS
 62
     3
100
AcDbLine
 10
1375.5000296905
 20
558.49999906875
 30
0.0
 11
1390.0001515448
 21
558.49999906875
 31
0.0
  0
LINE
  5
55A
330
1F
100
AcDbEntity
  8
Ｓ_１_１
  6
CONTINUOUS
 62
     3
100
AcDbLine
 10
1375.5000296905
 20
531.4999989941505
 30
0.0
 11
1389.9999989569
 21
531.4999989941505
 31
0.0
  0
LINE
  5
55B
330
1F
100
AcDbEntity
  8
Ｓ_１_１
  6
CONTINUOUS
 62
     3
100
AcDbLine
 10
1388.5000600144
 20
559.9999988079501
 30
0.0
 11
1388.5000600144
 21
529.9999992549504
 31
0.0
  0
LINE
  5
55C
330
1F
100
AcDbEntity
  8
Ｓ_１_１
  6
CONTINUOUS
 62
     3
100
AcDbLine
 10
622.5000103935006
 20
569.9999986589503
 30
0.0
 11
630.0000102818001
 21
569.9999986589503
 31
0.0
  0
LINE
  5
55D
330
1F
100
AcDbEntity
  8
Ｓ_１_１
  6
CONTINUOUS
 62
     3
100
AcDbLine
 10
622.5000103935006
 20
519.9999994039501
 30
0.0
 11
630.0000102818001
 21
519.9999994039501
 31
0.0
  0
LINE
  5
55E
330
1F
100
AcDbEntity
  8
Ｓ_１_１
  6
CONTINUOUS
 62
     3
100
AcDbLine
 10
592.4999131523007
 20
528.3341909695503
 30
0.0
 11
617.4998717251003
 21
561.6658018482501
 31
0.0
  0
LINE
  5
55F
330
1F
100
AcDbEntity
  8
Ｓ_１_１
  6
CONTINUOUS
 62
     3
100
AcDbLine
 10
592.4999131523007
 20
561.6658070933502
 30
0.0
 11
617.4998717251003
 21
528.3341962146503
 31
0.0
  0
LINE
  5
560
330
1F
100
AcDbEntity
  8
Ｓ_１_１
  6
CONTINUOUS
 62
     3
100
AcDbLine
 10
593.4999955669007
 20
572.9999981373501
 30
0.0
 11
593.4999955669007
 21
561.6658317794502
 31
0.0
  0
LINE
  5
561
330
1F
100
AcDbEntity
  8
Ｓ_１_１
  6
CONTINUOUS
 62
     3
100
AcDbLine
 10
593.4999955669007
 20
516.9999999255504
 30
0.0
 11
593.4999955669007
 21
528.3341662834503
 31
0.0
  0
LINE
  5
562
330
1F
100
AcDbEntity
  8
Ｓ_１_１
  6
CONTINUOUS
 62
     3
100
AcDbLine
 10
592.5001348957001
 20
398.3341844641502
 30
0.0
 11
617.5000258777006
 21
431.6658020774501
 31
0.0
  0
LINE
  5
563
330
1F
100
AcDbEntity
  8
Ｓ_１_１
  6
CONTINUOUS
 62
     3
100
AcDbLine
 10
617.4999851103005
 20
398.3341112725499
 30
0.0
 11
592.5000025728002
 21
431.6658509541501
 31
0.0
  0
LINE
  5
564
330
1F
100
AcDbEntity
  8
Ｓ_１_１
  6
CONTINUOUS
 62
     3
100
AcDbLine
 10
622.5000103935006
 20
440.0000005960503
 30
0.0
 11
630.0000102818001
 21
440.0000005960503
 31
0.0
  0
LINE
  5
565
330
1F
100
AcDbEntity
  8
Ｓ_１_１
  6
CONTINUOUS
 62
     3
100
AcDbLine
 10
622.5000103935006
 20
390.0000013411502
 30
0.0
 11
630.0000102818001
 21
390.0000013411502
 31
0.0
  0
LINE
  5
566
330
1F
100
AcDbEntity
  8
Ｓ_１_１
  6
CONTINUOUS
 62
     3
100
AcDbLine
 10
622.5000682684001
 20
419.7500327384502
 30
0.0
 11
630.0000767507006
 21
412.2500248882504
 31
0.0
  0
LINE
  5
567
330
1F
100
AcDbEntity
  8
Ｓ_１_１
  6
CONTINUOUS
 62
     3
100
AcDbLine
 10
622.5000144047006
 20
417.7499658232502
 30
0.0
 11
630.0000498610004
 21
410.2499309990501
 31
0.0
  0
LINE
  5
568
330
1F
100
AcDbEntity
  8
Ｓ_１_１
  6
CONTINUOUS
 62
     3
100
AcDbLine
 10
622.5001167372004
 20
549.7499584951499
 30
0.0
 11
630.0000712716003
 21
542.2500045929503
 31
0.0
  0
LINE
  5
569
330
1F
100
AcDbEntity
  8
Ｓ_１_１
  6
CONTINUOUS
 62
     3
100
AcDbLine
 10
622.4999819516004
 20
547.7499725018504
 30
0.0
 11
630.0000174080003
 21
540.2499376777503
 31
0.0
  0
LINE
  5
56A
330
1F
100
AcDbEntity
  8
Ｓ_１_１
  6
CONTINUOUS
 62
     3
100
AcDbLine
 10
1320.000255882501
 20
542.2499961635501
 30
0.0
 11
1327.5002104169
 21
549.7499500657502
 31
0.0
  0
LINE
  5
56B
330
1F
100
AcDbEntity
  8
Ｓ_１_１
  6
CONTINUOUS
 62
     3
100
AcDbLine
 10
1320.0002557982
 20
540.25003714425
 30
0.0
 11
1327.5002103326
 21
547.7499910464501
 31
0.0
  0
LINE
  5
56C
330
1F
100
AcDbEntity
  8
Ｓ_１_１
  6
CONTINUOUS
 62
     3
100
AcDbLine
 10
1320.0001964554
 20
412.2499085629503
 30
0.0
 11
1327.500204937801
 21
419.7499164131502
 31
0.0
  0
LINE
  5
56D
330
1F
100
AcDbEntity
  8
Ｓ_１_１
  6
CONTINUOUS
 62
     3
100
AcDbLine
 10
1320.000250319101
 20
410.2498955957501
 30
0.0
 11
1327.5002588015
 21
417.7499034458504
 31
0.0
  0
LINE
  5
56E
330
1F
100
AcDbEntity
  8
Ｓ_１_１
  6
CONTINUOUS
 62
     3
100
AcDbLine
 10
1235.0000012666
 20
564.9999987334502
 30
0.0
 11
1256.9999704212
 21
564.9999987334502
 31
0.0
  0
LINE
  5
56F
330
1F
100
AcDbEntity
  8
Ｓ_１_１
  6
CONTINUOUS
 62
     3
100
AcDbLine
 10
1235.0000012666
 20
524.9999993294502
 30
0.0
 11
1256.9999704212
 21
524.9999993294502
 31
0.0
  0
LINE
  5
570
330
1F
100
AcDbEntity
  8
Ｓ_１_１
  6
CONTINUOUS
 62
     3
100
AcDbLine
 10
1235.0000012666
 20
435.0000006705502
 30
0.0
 11
1256.9999704212
 21
435.0000006705502
 31
0.0
  0
LINE
  5
571
330
1F
100
AcDbEntity
  8
Ｓ_１_１
  6
CONTINUOUS
 62
     3
100
AcDbLine
 10
1235.0000012666
 20
395.0000012666503
 30
0.0
 11
1256.9999704212
 21
395.0000012666503
 31
0.0
  0
LINE
  5
572
330
1F
100
AcDbEntity
  8
Ｓ_１_１
  6
CONTINUOUS
 62
     3
100
AcDbLine
 10
693.0000398606005
 20
564.9999987334502
 30
0.0
 11
865.0000067800004
 21
564.9999987334502
 31
0.0
  0
LINE
  5
573
330
1F
100
AcDbEntity
  8
Ｓ_１_１
  6
CONTINUOUS
 62
     3
100
AcDbLine
 10
693.0000398606005
 20
524.9999993294502
 30
0.0
 11
865.0000067800004
 21
524.9999993294502
 31
0.0
  0
LINE
  5
574
330
1F
100
AcDbEntity
  8
Ｓ_１_１
  6
CONTINUOUS
 62
     3
100
AcDbLine
 10
693.0000398606005
 20
435.0000006705502
 30
0.0
 11
865.0000067800004
 21
435.0000006705502
 31
0.0
  0
LINE
  5
575
330
1F
100
AcDbEntity
  8
Ｓ_１_１
  6
CONTINUOUS
 62
     3
100
AcDbLine
 10
693.0000398606005
 20
395.0000012666503
 30
0.0
 11
865.0000067800004
 21
395.0000012666503
 31
0.0
  0
LINE
  5
576
330
1F
100
AcDbEntity
  8
Ｓ_１_１
  6
CONTINUOUS
 62
     3
100
AcDbLine
 10
690.0000093877004
 20
424.6824654239501
 30
0.0
 11
710.0000090897004
 21
424.6824654239501
 31
0.0
  0
LINE
  5
577
330
1F
100
AcDbEntity
  8
Ｓ_１_１
  6
CONTINUOUS
 62
     3
100
AcDbLine
 10
690.0000093877004
 20
405.3175365132499
 30
0.0
 11
710.0000090897004
 21
405.3175365132499
 31
0.0
  0
LINE
  5
578
330
1F
100
AcDbEntity
  8
Ｓ_１_１
  6
CONTINUOUS
 62
     3
100
AcDbLine
 10
690.0000093877004
 20
554.6824581223502
 30
0.0
 11
710.0000090897004
 21
554.6824581223502
 31
0.0
  0
LINE
  5
579
330
1F
100
AcDbEntity
  8
Ｓ_１_１
  6
CONTINUOUS
 62
     3
100
AcDbLine
 10
690.0000093877004
 20
535.3175405365503
 30
0.0
 11
710.0000090897004
 21
535.3175405365503
 31
0.0
  0
LINE
  5
57A
330
1F
100
AcDbEntity
  8
Ｓ_１_１
  6
CONTINUOUS
 62
     3
100
AcDbLine
 10
710.0000090897004
 20
554.6824581223502
 30
0.0
 11
710.0000090897004
 21
535.3175405365503
 31
0.0
  0
LINE
  5
57B
330
1F
100
AcDbEntity
  8
Ｓ_１_１
  6
CONTINUOUS
 62
     3
100
AcDbLine
 10
710.0000090897004
 20
424.6824654239501
 30
0.0
 11
710.0000090897004
 21
405.3175365132499
 31
0.0
  0
LINE
  5
57C
330
1F
100
AcDbEntity
  8
Ｓ_１_１
  6
CONTINUOUS
 62
     3
100
AcDbLine
 10
1240.0000011921
 20
554.6824581223502
 30
0.0
 11
1260.000000894
 21
554.6824581223502
 31
0.0
  0
LINE
  5
57D
330
1F
100
AcDbEntity
  8
Ｓ_１_１
  6
CONTINUOUS
 62
     3
100
AcDbLine
 10
1240.0000011921
 20
535.3175405365503
 30
0.0
 11
1260.000000894
 21
535.3175405365503
 31
0.0
  0
LINE
  5
57E
330
1F
100
AcDbEntity
  8
Ｓ_１_１
  6
CONTINUOUS
 62
     3
100
AcDbLine
 10
1240.0000011921
 20
424.6824654239501
 30
0.0
 11
1260.000000894
 21
424.6824654239501
 31
0.0
  0
LINE
  5
57F
330
1F
100
AcDbEntity
  8
Ｓ_１_１
  6
CONTINUOUS
 62
     3
100
AcDbLine
 10
1240.0000011921
 20
405.3175365132499
 30
0.0
 11
1260.000000894
 21
405.3175365132499
 31
0.0
  0
LINE
  5
580
330
1F
100
AcDbEntity
  8
Ｓ_１_１
  6
CONTINUOUS
 62
     3
100
AcDbLine
 10
693.0000398606005
 20
564.9999987334502
 30
0.0
 11
693.0000398606005
 21
554.6824581223502
 31
0.0
  0
LINE
  5
581
330
1F
100
AcDbEntity
  8
Ｓ_１_１
  6
CONTINUOUS
 62
     3
100
AcDbLine
 10
693.0000398606005
 20
524.9999993294502
 30
0.0
 11
693.0000398606005
 21
535.3175405365503
 31
0.0
  0
LINE
  5
582
330
1F
100
AcDbEntity
  8
Ｓ_１_１
  6
CONTINUOUS
 62
     3
100
AcDbLine
 10
693.0000398606005
 20
435.0000006705502
 30
0.0
 11
693.0000398606005
 21
424.6824654239501
 31
0.0
  0
LINE
  5
583
330
1F
100
AcDbEntity
  8
Ｓ_１_１
  6
CONTINUOUS
 62
     3
100
AcDbLine
 10
693.0000398606005
 20
395.0000012666503
 30
0.0
 11
693.0000398606005
 21
405.3175365132499
 31
0.0
  0
LINE
  5
584
330
1F
100
AcDbEntity
  8
Ｓ_１_１
  6
CONTINUOUS
 62
     3
100
AcDbLine
 10
693.0000276832004
 20
565.0000060595501
 30
0.0
 11
690.0000007871001
 21
563.2679519802502
 31
0.0
  0
LINE
  5
585
330
1F
100
AcDbEntity
  8
Ｓ_１_１
  6
CONTINUOUS
 62
     3
100
AcDbLine
 10
693.0000287971004
 20
434.9999892882504
 30
0.0
 11
690.0000091277004
 21
433.2679227169503
 31
0.0
  0
LINE
  5
586
330
1F
100
AcDbEntity
  8
Ｓ_１_１
  6
CONTINUOUS
 62
     3
100
AcDbLine
 10
692.9999809921003
 20
395.00000900395
 30
0.0
 11
689.9998250482001
 21
396.73214464235
 31
0.0
  0
LINE
  5
587
330
1F
100
AcDbEntity
  8
Ｓ_１_１
  6
CONTINUOUS
 62
     3
100
AcDbLine
 10
693.0000276832004
 20
524.9999920033504
 30
0.0
 11
690.0000007871001
 21
526.7320460826502
 31
0.0
  0
LINE
  5
588
330
1F
100
AcDbEntity
  8
Ｓ_１_１
  6
CONTINUOUS
 62
     3
100
AcDbLine
 10
710.0000891651005
 20
554.68246723485
 30
0.0
 11
690.0000893998001
 21
535.3175501312501
 31
0.0
  0
LINE
  5
589
330
1F
100
AcDbEntity
  8
Ｓ_１_１
  6
CONTINUOUS
 62
     3
100
AcDbLine
 10
710.0000891651005
 20
535.3175308280504
 30
0.0
 11
690.0000893998001
 21
554.6824479316504
 31
0.0
  0
LINE
  5
58A
330
1F
100
AcDbEntity
  8
Ｓ_１_１
  6
CONTINUOUS
 62
     3
100
AcDbLine
 10
710.0000226358004
 20
424.6824551815505
 30
0.0
 11
690.0000021023004
 21
405.3175065646503
 31
0.0
  0
LINE
  5
58B
330
1F
100
AcDbEntity
  8
Ｓ_１_１
  6
CONTINUOUS
 62
     3
100
AcDbLine
 10
710.0000401856003
 20
405.31756373445
 30
0.0
 11
690.0000470577004
 21
424.6824858159505
 31
0.0
  0
LINE
  5
58C
330
1F
100
AcDbEntity
  8
Ｓ_１_１
  6
CONTINUOUS
 62
     3
100
AcDbLine
 10
1240.0000011921
 20
554.6824581223502
 30
0.0
 11
1240.0000011921
 21
535.3175405365503
 31
0.0
  0
LINE
  5
58D
330
1F
100
AcDbEntity
  8
Ｓ_１_１
  6
CONTINUOUS
 62
     3
100
AcDbLine
 10
1240.0000011921
 20
424.6824654239501
 30
0.0
 11
1240.0000011921
 21
405.3175365132499
 31
0.0
  0
LINE
  5
58E
330
1F
100
AcDbEntity
  8
Ｓ_１_１
  6
CONTINUOUS
 62
     3
100
AcDbLine
 10
1256.9999704212
 20
564.9999987334502
 30
0.0
 11
1256.9999704212
 21
554.6824581223502
 31
0.0
  0
LINE
  5
58F
330
1F
100
AcDbEntity
  8
Ｓ_１_１
  6
CONTINUOUS
 62
     3
100
AcDbLine
 10
1256.9999704212
 20
524.9999993294502
 30
0.0
 11
1256.9999704212
 21
535.3175405365503
 31
0.0
  0
LINE
  5
590
330
1F
100
AcDbEntity
  8
Ｓ_１_１
  6
CONTINUOUS
 62
     3
100
AcDbLine
 10
1256.9999704212
 20
435.0000006705502
 30
0.0
 11
1256.9999704212
 21
424.6824654239501
 31
0.0
  0
LINE
  5
591
330
1F
100
AcDbEntity
  8
Ｓ_１_１
  6
CONTINUOUS
 62
     3
100
AcDbLine
 10
1256.9999704212
 20
395.0000012666503
 30
0.0
 11
1256.9999704212
 21
405.3175365132499
 31
0.0
  0
LINE
  5
592
330
1F
100
AcDbEntity
  8
Ｓ_１_１
  6
CONTINUOUS
 62
     3
100
AcDbLine
 10
1256.9996830908
 20
565.0000158849505
 30
0.0
 11
1259.9997568566
 21
563.2678907248503
 31
0.0
  0
LINE
  5
593
330
1F
100
AcDbEntity
  8
Ｓ_１_１
  6
CONTINUOUS
 62
     3
100
AcDbLine
 10
1256.9999640266
 20
434.9999964408505
 30
0.0
 11
1259.9999836959
 21
433.26792986955
 31
0.0
  0
LINE
  5
594
330
1F
100
AcDbEntity
  8
Ｓ_１_１
  6
CONTINUOUS
 62
     3
100
AcDbLine
 10
1257.0000064695
 20
395.0000280305501
 30
0.0
 11
1260.0000220093
 21
396.7321018285499
 31
0.0
  0
LINE
  5
595
330
1F
100
AcDbEntity
  8
Ｓ_１_１
  6
CONTINUOUS
 62
     3
100
AcDbLine
 10
1256.9996830908
 20
524.99998217795
 30
0.0
 11
1259.9997568566
 21
526.7321073380501
 31
0.0
  0
LINE
  5
596
330
1F
100
AcDbEntity
  8
Ｓ_１_１
  6
CONTINUOUS
 62
     3
100
AcDbLine
 10
1259.999925135
 20
424.6825174898502
 30
0.0
 11
1239.9999320071
 21
405.3175954083501
 31
0.0
  0
LINE
  5
597
330
1F
100
AcDbEntity
  8
Ｓ_１_１
  6
CONTINUOUS
 62
     3
100
AcDbLine
 10
1259.9999692202
 20
405.3175288317504
 30
0.0
 11
1239.9999760922
 21
424.68245091325
 31
0.0
  0
LINE
  5
598
330
1F
100
AcDbEntity
  8
Ｓ_１_１
  6
CONTINUOUS
 62
     3
100
AcDbLine
 10
1260.0002101689
 20
554.6826073612503
 30
0.0
 11
1240.0000459701
 21
535.3175310456502
 31
0.0
  0
LINE
  5
599
330
1F
100
AcDbEntity
  8
Ｓ_１_１
  6
CONTINUOUS
 62
     3
100
AcDbLine
 10
1260.000045735301
 20
535.3175499137503
 30
0.0
 11
1240.0000459701
 21
554.6824670172502
 31
0.0
  0
LINE
  5
59A
330
1F
100
AcDbEntity
  8
Ｓ_１_１
  6
CONTINUOUS
 62
     3
100
AcDbLine
 10
1260.000000894
 20
564.9999987334502
 30
0.0
 11
1320.0
 21
564.9999987334502
 31
0.0
  0
LINE
  5
59B
330
1F
100
AcDbEntity
  8
Ｓ_１_１
  6
CONTINUOUS
 62
     3
100
AcDbLine
 10
1260.000000894
 20
395.0000012666503
 30
0.0
 11
1320.0
 21
395.0000012666503
 31
0.0
  0
LINE
  5
59C
330
1F
100
AcDbEntity
  8
Ｓ_１_１
  6
CONTINUOUS
 62
     3
100
AcDbLine
 10
630.0000102818001
 20
564.9999987334502
 30
0.0
 11
690.0000093877004
 21
564.9999987334502
 31
0.0
  0
LINE
  5
59D
330
1F
100
AcDbEntity
  8
Ｓ_１_１
  6
CONTINUOUS
 62
     3
100
AcDbLine
 10
630.0000102818001
 20
395.0000012666503
 30
0.0
 11
690.0000093877004
 21
395.0000012666503
 31
0.0
  0
LINE
  5
59E
330
1F
100
AcDbEntity
  8
Ｓ_１_１
  6
CONTINUOUS
 62
     3
100
AcDbLine
 10
1289.146881713201
 20
643.5000372996503
 30
0.0
 11
1290.012886324301
 21
645.0000196729504
 31
0.0
  0
LINE
  5
59F
330
1F
100
AcDbEntity
  8
Ｓ_１_１
  6
CONTINUOUS
 62
     3
100
AcDbLine
 10
1290.012817829601
 20
644.9999880045505
 30
0.0
 11
1296.2808231073
 21
644.9999880045505
 31
0.0
  0
LINE
  5
5A0
330
1F
100
AcDbEntity
  8
Ｓ_１_１
  6
CONTINUOUS
 62
     3
100
AcDbLine
 10
1289.1467289753
 20
643.4999918416504
 30
0.0
 11
1297.1467593737
 21
643.4999918416504
 31
0.0
  0
LINE
  5
5A1
330
1F
100
AcDbEntity
  8
Ｓ_１_１
  6
CONTINUOUS
 62
     3
100
AcDbLine
 10
1289.1467289753
 20
643.4999918416504
 30
0.0
 11
1289.1467289753
 21
639.9999880790504
 31
0.0
  0
LINE
  5
5A2
330
1F
100
AcDbEntity
  8
Ｓ_１_１
  6
CONTINUOUS
 62
     3
100
AcDbLine
 10
1297.146871968401
 20
643.4999846057501
 30
0.0
 11
1296.2808292106
 21
645.0000330516502
 31
0.0
  0
LINE
  5
5A3
330
1F
100
AcDbEntity
  8
Ｓ_１_１
  6
CONTINUOUS
 62
     3
100
AcDbLine
 10
1190.5000324472
 20
636.0000014901505
 30
0.0
 11
1190.5000324472
 21
619.9999979138499
 31
0.0
  0
LINE
  5
5A4
330
1F
100
AcDbEntity
  8
Ｓ_１_１
  6
CONTINUOUS
 62
     3
100
AcDbLine
 10
1235.0000012666
 20
619.9999979138499
 30
0.0
 11
1235.0000012666
 21
636.0000014901505
 31
0.0
  0
LINE
  5
5A5
330
1F
100
AcDbEntity
  8
Ｓ_１_１
  6
CONTINUOUS
 62
     3
100
AcDbLine
 10
1235.0000012666
 20
619.9999979138499
 30
0.0
 11
1255.5000314787
 21
619.9999979138499
 31
0.0
  0
LINE
  5
5A6
330
1F
100
AcDbEntity
  8
Ｓ_１_１
  6
CONTINUOUS
 62
     3
100
AcDbLine
 10
1255.5000314787
 20
619.9999979138499
 30
0.0
 11
1255.5000314787
 21
636.0000014901505
 31
0.0
  0
LINE
  5
5A7
330
1F
100
AcDbEntity
  8
Ｓ_１_１
  6
CONTINUOUS
 62
     3
100
AcDbLine
 10
1190.5000324472
 20
636.0000014901505
 30
0.0
 11
1255.5000314787
 21
636.0000014901505
 31
0.0
  0
LINE
  5
5A8
330
1F
100
AcDbEntity
  8
Ｓ_１_１
  6
CONTINUOUS
 62
     3
100
AcDbLine
 10
1250.6468211018
 20
659.0000030547501
 30
0.0
 11
1268.146820841
 21
659.0000030547501
 31
0.0
  0
LINE
  5
5A9
330
1F
100
AcDbEntity
  8
Ｓ_１_１
  6
CONTINUOUS
 62
     3
100
AcDbLine
 10
1268.146820841
 20
669.0000029057503
 30
0.0
 11
1250.6468211018
 21
669.0000029057503
 31
0.0
  0
LINE
  5
5AA
330
1F
100
AcDbEntity
  8
Ｓ_１_１
  6
CONTINUOUS
 62
     3
100
AcDbLine
 10
1250.6468211018
 20
669.0000029057503
 30
0.0
 11
1250.6468211018
 21
659.0000030547501
 31
0.0
  0
LINE
  5
5AB
330
1F
100
AcDbEntity
  8
Ｓ_１_１
  6
CONTINUOUS
 62
     3
100
AcDbLine
 10
1246.3999949932
 20
651.5000031665502
 30
0.0
 11
1255.5000314787
 21
651.5000031665502
 31
0.0
  0
LINE
  5
5AC
330
1F
100
AcDbEntity
  8
Ｓ_１_１
  6
CONTINUOUS
 62
     3
100
AcDbLine
 10
1246.3999949932
 20
651.5000031665502
 30
0.0
 11
1237.3999035746
 21
651.5000031665502
 31
0.0
  0
LINE
  5
5AD
330
1F
100
AcDbEntity
  8
Ｓ_１_１
  6
CONTINUOUS
 62
     3
100
AcDbLine
 10
1255.5000314787
 20
651.5000031665502
 30
0.0
 11
1255.5000314787
 21
636.0000014901505
 31
0.0
  0
LINE
  5
5AE
330
1F
100
AcDbEntity
  8
Ｓ_１_１
  6
CONTINUOUS
 62
     3
100
AcDbLine
 10
1237.3999035746
 20
651.5000031665502
 30
0.0
 11
1237.3999035746
 21
636.0000014901505
 31
0.0
  0
LINE
  5
5AF
330
1F
100
AcDbEntity
  8
Ｓ_１_１
  6
CONTINUOUS
 62
     3
100
AcDbLine
 10
1250.6468211018
 20
659.0000030547501
 30
0.0
 11
1237.3999035746
 21
659.0000030547501
 31
0.0
  0
LINE
  5
5B0
330
1F
100
AcDbEntity
  8
Ｓ_１_１
  6
CONTINUOUS
 62
     3
100
AcDbLine
 10
1237.3999035746
 20
659.0000030547501
 30
0.0
 11
1237.3999035746
 21
651.5000031665502
 31
0.0
  0
LINE
  5
5B1
330
1F
100
AcDbEntity
  8
Ｓ_１_１
  6
CONTINUOUS
 62
     3
100
AcDbLine
 10
1266.1468513884
 20
659.0000030547501
 30
0.0
 11
1266.1468513884
 21
657.0000049919502
 31
0.0
  0
LINE
  5
5B2
330
1F
100
AcDbEntity
  8
Ｓ_１_１
  6
CONTINUOUS
 62
     3
100
AcDbLine
 10
1255.5000347997
 20
651.4999161769504
 30
0.0
 11
1266.1468266394
 21
656.9999036205502
 31
0.0
  0
LINE
  5
5B3
330
1F
100
AcDbEntity
  8
Ｓ_１_１
  6
CONTINUOUS
 62
     3
100
AcDbLine
 10
1268.146820841
 20
634.9999976903503
 30
0.0
 11
1268.146820841
 21
594.9999982863503
 31
0.0
  0
LINE
  5
5B4
330
1F
100
AcDbEntity
  8
Ｓ_１_１
  6
CONTINUOUS
 62
     3
100
AcDbLine
 10
1268.146820841
 20
674.9999970942501
 30
0.0
 11
1268.146820841
 21
634.9999976903503
 31
0.0
  0
LINE
  5
5B5
330
1F
100
AcDbEntity
  8
Ｓ_１_１
  6
CONTINUOUS
 62
     3
100
AcDbLine
 10
1308.146820245
 20
594.9999982863503
 30
0.0
 11
1308.146820245
 21
634.9999976903503
 31
0.0
  0
LINE
  5
5B6
330
1F
100
AcDbEntity
  8
Ｓ_１_１
  6
CONTINUOUS
 62
     3
100
AcDbLine
 10
1268.146820841
 20
634.9999976903503
 30
0.0
 11
1308.146820245
 21
634.9999976903503
 31
0.0
  0
LINE
  5
5B7
330
1F
100
AcDbEntity
  8
Ｓ_１_１
  6
CONTINUOUS
 62
     3
100
AcDbLine
 10
1268.146820841
 20
674.9999970942501
 30
0.0
 11
1271.1468513139
 21
674.9999970942501
 31
0.0
  0
LINE
  5
5B8
330
1F
100
AcDbEntity
  8
Ｓ_１_１
  6
CONTINUOUS
 62
     3
100
AcDbLine
 10
1308.146820245
 20
637.99999001625
 30
0.0
 11
1308.146820245
 21
634.9999976903503
 31
0.0
  0
LINE
  5
5B9
330
1F
100
AcDbEntity
  8
Ｓ_１_１
  6
CONTINUOUS
 62
     3
100
AcDbLine
 10
1308.146820245
 20
637.99999001625
 30
0.0
 11
1275.6468207292
 21
637.99999001625
 31
0.0
  0
LINE
  5
5BA
330
1F
100
AcDbEntity
  8
Ｓ_１_１
  6
CONTINUOUS
 62
     3
100
AcDbLine
 10
1271.1468513139
 20
674.9999970942501
 30
0.0
 11
1271.1468513139
 21
642.4999880418502
 31
0.0
  0
LINE
  5
5BB
330
1F
100
AcDbEntity
  8
Ｓ_１_１
  6
CONTINUOUS
 62
     3
100
AcDbLine
 10
1288.146820543
 20
637.99999001625
 30
0.0
 11
1288.146820543
 21
639.9999880790504
 31
0.0
  0
LINE
  5
5BC
330
1F
100
AcDbEntity
  8
Ｓ_１_１
  6
CONTINUOUS
 62
     3
100
AcDbLine
 10
1298.146820394
 20
639.9999880790504
 30
0.0
 11
1298.146820394
 21
637.99999001625
 31
0.0
  0
LINE
  5
5BD
330
1F
100
AcDbEntity
  8
Ｓ_１_１
  6
CONTINUOUS
 62
     3
100
AcDbLine
 10
1288.146820543
 20
639.9999880790504
 30
0.0
 11
1298.146820394
 21
639.9999880790504
 31
0.0
  0
LINE
  5
5BE
330
1F
100
AcDbEntity
  8
Ｓ_１_１
  6
CONTINUOUS
 62
     3
100
AcDbLine
 10
1297.1467593737
 20
643.4999918416504
 30
0.0
 11
1297.1467593737
 21
639.9999880790504
 31
0.0
  0
LINE
  5
5BF
330
1F
100
AcDbEntity
  8
Ｓ_１_１
  6
CONTINUOUS
 62
     3
100
AcDbLine
 10
652.6699928541004
 20
643.5000013783504
 30
0.0
 11
660.6700232525006
 21
643.5000013783504
 31
0.0
  0
LINE
  5
5C0
330
1F
100
AcDbEntity
  8
Ｓ_１_１
  6
CONTINUOUS
 62
     3
100
AcDbLine
 10
652.6699928541004
 20
643.5000013783504
 30
0.0
 11
652.6699928541004
 21
639.9999976158504
 31
0.0
  0
LINE
  5
5C1
330
1F
100
AcDbEntity
  8
Ｓ_１_１
  6
CONTINUOUS
 62
     3
100
AcDbLine
 10
660.6700094190003
 20
643.5000953556503
 30
0.0
 11
659.8040477821003
 21
644.9999703614501
 31
0.0
  0
LINE
  5
5C2
330
1F
100
AcDbEntity
  8
Ｓ_１_１
  6
CONTINUOUS
 62
     3
100
AcDbLine
 10
660.6700232525006
 20
643.5000013783504
 30
0.0
 11
660.6700232525006
 21
639.9999976158504
 31
0.0
  0
LINE
  5
5C3
330
1F
100
AcDbEntity
  8
Ｓ_１_１
  6
CONTINUOUS
 62
     3
100
AcDbLine
 10
652.6697879250003
 20
643.5001636156501
 30
0.0
 11
653.5358306828005
 21
645.0002120615502
 31
0.0
  0
LINE
  5
5C4
330
1F
100
AcDbEntity
  8
Ｓ_１_１
  6
CONTINUOUS
 62
     3
100
AcDbLine
 10
653.5360817084004
 20
644.99999754135
 30
0.0
 11
659.8040869861004
 21
644.99999754135
 31
0.0
  0
LINE
  5
5C5
330
1F
100
AcDbEntity
  8
Ｓ_１_１
  6
CONTINUOUS
 62
     3
100
AcDbLine
 10
909.4999755993002
 20
636.0000014901505
 30
0.0
 11
909.4999755993002
 21
619.9999979138499
 31
0.0
  0
LINE
  5
5C6
330
1F
100
AcDbEntity
  8
Ｓ_１_１
  6
CONTINUOUS
 62
     3
100
AcDbLine
 10
865.0000067800004
 20
619.9999979138499
 30
0.0
 11
865.0000067800004
 21
636.0000014901505
 31
0.0
  0
LINE
  5
5C7
330
1F
100
AcDbEntity
  8
Ｓ_１_１
  6
CONTINUOUS
 62
     3
100
AcDbLine
 10
865.0000067800004
 20
619.9999979138499
 30
0.0
 11
844.4999765679003
 21
619.9999979138499
 31
0.0
  0
LINE
  5
5C8
330
1F
100
AcDbEntity
  8
Ｓ_１_１
  6
CONTINUOUS
 62
     3
100
AcDbLine
 10
844.4999765679003
 20
619.9999979138499
 30
0.0
 11
844.4999765679003
 21
636.0000014901505
 31
0.0
  0
LINE
  5
5C9
330
1F
100
AcDbEntity
  8
Ｓ_１_１
  6
CONTINUOUS
 62
     3
100
AcDbLine
 10
844.4999765679003
 20
636.0000014901505
 30
0.0
 11
909.4999755993002
 21
636.0000014901505
 31
0.0
  0
LINE
  5
5CA
330
1F
100
AcDbEntity
  8
Ｓ_１_１
  6
CONTINUOUS
 62
     3
100
AcDbLine
 10
817.9798963967003
 20
659.0000030547501
 30
0.0
 11
835.4798961359003
 21
659.0000030547501
 31
0.0
  0
LINE
  5
5CB
330
1F
100
AcDbEntity
  8
Ｓ_１_１
  6
CONTINUOUS
 62
     3
100
AcDbLine
 10
835.4798961359003
 20
669.0000029057503
 30
0.0
 11
817.9798963967003
 21
669.0000029057503
 31
0.0
  0
LINE
  5
5CC
330
1F
100
AcDbEntity
  8
Ｓ_１_１
  6
CONTINUOUS
 62
     3
100
AcDbLine
 10
817.9798963967003
 20
669.0000029057503
 30
0.0
 11
817.9798963967003
 21
659.0000030547501
 31
0.0
  0
LINE
  5
5CD
330
1F
100
AcDbEntity
  8
Ｓ_１_１
  6
CONTINUOUS
 62
     3
100
AcDbLine
 10
835.4798961359003
 20
669.0000029057503
 30
0.0
 11
835.4798961359003
 21
659.0000030547501
 31
0.0
  0
LINE
  5
5CE
330
1F
100
AcDbEntity
  8
Ｓ_１_１
  6
CONTINUOUS
 62
     3
100
AcDbLine
 10
853.6000130534003
 20
651.5000031665502
 30
0.0
 11
844.4999765679003
 21
651.5000031665502
 31
0.0
  0
LINE
  5
5CF
330
1F
100
AcDbEntity
  8
Ｓ_１_１
  6
CONTINUOUS
 62
     3
100
AcDbLine
 10
853.6000130534003
 20
651.5000031665502
 30
0.0
 11
862.6001044720003
 21
651.5000031665502
 31
0.0
  0
LINE
  5
5D0
330
1F
100
AcDbEntity
  8
Ｓ_１_１
  6
CONTINUOUS
 62
     3
100
AcDbLine
 10
862.6001044720003
 20
651.5000031665502
 30
0.0
 11
862.6001044720003
 21
636.0000014901505
 31
0.0
  0
LINE
  5
5D1
330
1F
100
AcDbEntity
  8
Ｓ_１_１
  6
CONTINUOUS
 62
     3
100
AcDbLine
 10
844.4999765679003
 20
651.5000031665502
 30
0.0
 11
844.4999765679003
 21
636.0000014901505
 31
0.0
  0
LINE
  5
5D2
330
1F
100
AcDbEntity
  8
Ｓ_１_１
  6
CONTINUOUS
 62
     3
100
AcDbLine
 10
820.7299879084001
 20
659.0000030547501
 30
0.0
 11
820.7299879084001
 21
657.0000049919502
 31
0.0
  0
LINE
  5
5D3
330
1F
100
AcDbEntity
  8
Ｓ_１_１
  6
CONTINUOUS
 62
     3
100
AcDbLine
 10
862.6001044720003
 20
651.5000031665502
 30
0.0
 11
862.6001044720003
 21
659.0000030547501
 31
0.0
  0
LINE
  5
5D4
330
1F
100
AcDbEntity
  8
Ｓ_１_１
  6
CONTINUOUS
 62
     3
100
AcDbLine
 10
835.4798961359003
 20
659.0000030547501
 30
0.0
 11
862.6001044720003
 21
659.0000030547501
 31
0.0
  0
LINE
  5
5D5
330
1F
100
AcDbEntity
  8
Ｓ_１_１
  6
CONTINUOUS
 62
     3
100
AcDbLine
 10
841.4999460950005
 20
651.5000031665502
 30
0.0
 11
844.4999765679003
 21
651.5000031665502
 31
0.0
  0
LINE
  5
5D6
330
1F
100
AcDbEntity
  8
Ｓ_１_１
  6
CONTINUOUS
 62
     3
100
AcDbLine
 10
820.7300527764003
 20
656.9999313559504
 30
0.0
 11
841.5001538110005
 21
651.4999218682503
 31
0.0
  0
LINE
  5
5D7
330
1F
100
AcDbEntity
  8
Ｓ_１_１
  6
CONTINUOUS
 62
     3
100
AcDbLine
 10
681.6699313868
 20
634.9999976903503
 30
0.0
 11
681.6699313868
 21
594.9999982863503
 31
0.0
  0
LINE
  5
5D8
330
1F
100
AcDbEntity
  8
Ｓ_１_１
  6
CONTINUOUS
 62
     3
100
AcDbLine
 10
681.6699313868
 20
674.9999970942501
 30
0.0
 11
681.6699313868
 21
634.9999976903503
 31
0.0
  0
LINE
  5
5D9
330
1F
100
AcDbEntity
  8
Ｓ_１_１
  6
CONTINUOUS
 62
     3
100
AcDbLine
 10
641.6699319829002
 20
634.9999976903503
 30
0.0
 11
681.6699313868
 21
634.9999976903503
 31
0.0
  0
LINE
  5
5DA
330
1F
100
AcDbEntity
  8
Ｓ_１_１
  6
CONTINUOUS
 62
     3
100
AcDbLine
 10
641.6699319829002
 20
634.9999976903503
 30
0.0
 11
641.6699319829002
 21
594.9999982863503
 31
0.0
  0
LINE
  5
5DB
330
1F
100
AcDbEntity
  8
Ｓ_１_１
  6
CONTINUOUS
 62
     3
100
AcDbLine
 10
641.6699319829002
 20
637.9999995529504
 30
0.0
 11
641.6699319829002
 21
634.9999976903503
 31
0.0
  0
LINE
  5
5DC
330
1F
100
AcDbEntity
  8
Ｓ_１_１
  6
CONTINUOUS
 62
     3
100
AcDbLine
 10
678.6700535018006
 20
674.9999970942501
 30
0.0
 11
681.6699313868
 21
674.9999970942501
 31
0.0
  0
LINE
  5
5DD
330
1F
100
AcDbEntity
  8
Ｓ_１_１
  6
CONTINUOUS
 62
     3
100
AcDbLine
 10
641.6699319829002
 20
637.9999995529504
 30
0.0
 11
674.1699314986006
 21
637.9999995529504
 31
0.0
  0
LINE
  5
5DE
330
1F
100
AcDbEntity
  8
Ｓ_１_１
  6
CONTINUOUS
 62
     3
100
AcDbLine
 10
678.6700535018006
 20
674.9999970942501
 30
0.0
 11
678.6700535018006
 21
642.4999975785502
 31
0.0
  0
LINE
  5
5DF
330
1F
100
AcDbEntity
  8
Ｓ_１_１
  6
CONTINUOUS
 62
     3
100
AcDbLine
 10
651.6699318339004
 20
639.9999976158504
 30
0.0
 11
661.6699316849006
 21
639.9999976158504
 31
0.0
  0
LINE
  5
5E0
330
1F
100
AcDbEntity
  8
Ｓ_１_１
  6
CONTINUOUS
 62
     3
100
AcDbLine
 10
661.6699316849006
 20
639.9999976158504
 30
0.0
 11
661.6699316849006
 21
637.9999995529504
 31
0.0
  0
LINE
  5
5E1
330
1F
100
AcDbEntity
  8
Ｓ_１_１
  6
CONTINUOUS
 62
     3
100
AcDbLine
 10
651.6699318339004
 20
639.9999976158504
 30
0.0
 11
651.6699318339004
 21
637.9999995529504
 31
0.0
  0
LINE
  5
5E2
330
1F
100
AcDbEntity
  8
Ｓ_１_１
  6
CONTINUOUS
 62
     3
100
AcDbLine
 10
865.0000067800004
 20
599.9999982118504
 30
0.0
 11
1235.0000012666
 21
599.9999982118504
 31
0.0
  0
LINE
  5
5E3
330
1F
100
AcDbEntity
  8
Ｓ_１_１
  6
CONTINUOUS
 62
     3
100
AcDbLine
 10
865.0000067800004
 20
360.00000178815
 30
0.0
 11
1235.0000012666
 21
360.00000178815
 31
0.0
  0
ARC
  5
5E4
330
1F
100
AcDbEntity
  8
Ｓ_１_１
  6
CONTINUOUS
 62
     3
100
AcDbCircle
 10
1401.5158068908
 20
544.9999918788501
 30
0.0
 40
44.01584082820002
100
AcDbArc
 50
162.4465281251001
 51
197.5534545721
  0
ARC
  5
5E5
330
1F
100
AcDbEntity
  8
Ｓ_１_１
  6
CONTINUOUS
 62
     3
100
AcDbCircle
 10
1331.4842222409
 20
544.9999918788501
 30
0.0
 40
44.01584082820002
100
AcDbArc
 50
342.4464957953002
 51
17.55349054430003
  0
ARC
  5
5E6
330
1F
100
AcDbEntity
  8
Ｓ_１_１
  6
CONTINUOUS
 62
     3
100
AcDbCircle
 10
1401.5158068908
 20
415.0000009686503
 30
0.0
 40
44.0158455966
100
AcDbArc
 50
162.4465144647001
 51
197.5534545721001
  0
ARC
  5
5E7
330
1F
100
AcDbEntity
  8
Ｓ_１_１
  6
CONTINUOUS
 62
     3
100
AcDbCircle
 10
1331.4842222409
 20
415.0000009686503
 30
0.0
 40
44.0158455966
100
AcDbArc
 50
342.4465231161001
 51
17.55350420469991
  0
ARC
  5
5E8
330
1F
100
AcDbEntity
  8
Ｓ_１_１
  6
CONTINUOUS
 62
     3
100
AcDbCircle
 10
1397.3617542183
 20
571.3224492770503
 30
0.0
 40
39.999999404
100
AcDbArc
 50
184.7645437107
 51
199.0374807363
  0
ARC
  5
5E9
330
1F
100
AcDbEntity
  8
Ｓ_１_１
  6
CONTINUOUS
 62
     3
100
AcDbCircle
 10
1335.638274913401
 20
571.3224492770503
 30
0.0
 40
39.999999404
100
AcDbArc
 50
340.9625142547
 51
355.2354512803004
  0
ARC
  5
5EA
330
1F
100
AcDbEntity
  8
Ｓ_１_１
  6
CONTINUOUS
 62
     3
100
AcDbCircle
 10
1397.3617542183
 20
518.6775297123502
 30
0.0
 40
39.999999404
100
AcDbArc
 50
160.9625192637
 51
175.2354289685
  0
ARC
  5
5EB
330
1F
100
AcDbEntity
  8
Ｓ_１_１
  6
CONTINUOUS
 62
     3
100
AcDbCircle
 10
1335.638274913401
 20
518.6775297123502
 30
0.0
 40
39.999999404
100
AcDbArc
 50
4.764576040500074
 51
19.03749940559998
  0
ARC
  5
5EC
330
1F
100
AcDbEntity
  8
Ｓ_１_１
  6
CONTINUOUS
 62
     3
100
AcDbCircle
 10
1397.3617542183
 20
441.3224702876502
 30
0.0
 40
39.999999404
100
AcDbArc
 50
184.7645573711002
 51
199.0374807363002
  0
ARC
  5
5ED
330
1F
100
AcDbEntity
  8
Ｓ_１_１
  6
CONTINUOUS
 62
     3
100
AcDbCircle
 10
1335.638274913401
 20
441.3224702876502
 30
0.0
 40
39.999999404
100
AcDbArc
 50
340.962486934
 51
355.2354239595001
  0
ARC
  5
5EE
330
1F
100
AcDbEntity
  8
Ｓ_１_１
  6
CONTINUOUS
 62
     3
100
AcDbCircle
 10
1397.3617542183
 20
388.6775507230502
 30
0.0
 40
39.999999404
100
AcDbArc
 50
160.9625192637
 51
175.2354699496
  0
ARC
  5
5EF
330
1F
100
AcDbEntity
  8
Ｓ_１_１
  6
CONTINUOUS
 62
     3
100
AcDbCircle
 10
1335.638274913401
 20
388.6775507230502
 30
0.0
 40
39.999999404
100
AcDbArc
 50
4.764548719699919
 51
19.03748574530002
  0
ARC
  5
5F0
330
1F
100
AcDbEntity
  8
Ｓ_１_１
  6
CONTINUOUS
 62
     3
100
AcDbCircle
 10
618.5159406287005
 20
415.0000009686503
 30
0.0
 40
44.0158455966
100
AcDbArc
 50
162.4465554458002
 51
197.5534135910001
  0
ARC
  5
5F1
330
1F
100
AcDbEntity
  8
Ｓ_１_１
  6
CONTINUOUS
 62
     3
100
AcDbCircle
 10
548.4857292699005
 20
415.0000105053502
 30
0.0
 40
44.01428157070001
100
AcDbArc
 50
342.4458674178999
 51
17.5541189216999
  0
ARC
  5
5F2
330
1F
100
AcDbEntity
  8
Ｓ_１_１
  6
CONTINUOUS
 62
     3
100
AcDbCircle
 10
618.5158643347002
 20
544.9999918788501
 30
0.0
 40
44.01584082820002
100
AcDbArc
 50
162.4465144647
 51
197.5534682325
  0
ARC
  5
5F3
330
1F
100
AcDbEntity
  8
Ｓ_１_１
  6
CONTINUOUS
 62
     3
100
AcDbCircle
 10
548.4857292699005
 20
544.9999918788501
 30
0.0
 40
44.0142768023
100
AcDbArc
 50
342.4458674179
 51
17.5541189216999
  0
ARC
  5
5F4
330
1F
100
AcDbEntity
  8
Ｓ_１_１
  6
CONTINUOUS
 62
     3
100
AcDbCircle
 10
614.3618116623004
 20
441.3224702876502
 30
0.0
 40
39.999999404
100
AcDbArc
 50
184.7645573711002
 51
199.0374807363002
  0
ARC
  5
5F5
330
1F
100
AcDbEntity
  8
Ｓ_１_１
  6
CONTINUOUS
 62
     3
100
AcDbCircle
 10
552.6382560635004
 20
441.3227563899502
 30
0.0
 40
39.999999404
100
AcDbArc
 50
340.9620771226002
 51
355.2350141482
  0
ARC
  5
5F6
330
1F
100
AcDbEntity
  8
Ｓ_１_１
  6
CONTINUOUS
 62
     3
100
AcDbCircle
 10
614.3618116623004
 20
388.6775507230502
 30
0.0
 40
39.999999404
100
AcDbArc
 50
160.9625192637
 51
175.2354699496001
  0
ARC
  5
5F7
330
1F
100
AcDbEntity
  8
Ｓ_１_１
  6
CONTINUOUS
 62
     3
100
AcDbCircle
 10
552.6382560635004
 20
388.6772550839503
 30
0.0
 40
39.999999404
100
AcDbArc
 50
4.76497219140009
 51
19.03792287740001
  0
ARC
  5
5F8
330
1F
100
AcDbEntity
  8
Ｓ_１_１
  6
CONTINUOUS
 62
     3
100
AcDbCircle
 10
614.3618116623004
 20
571.3224492770503
 30
0.0
 40
39.999999404
100
AcDbArc
 50
184.764912541
 51
199.0374807363
  0
ARC
  5
5F9
330
1F
100
AcDbEntity
  8
Ｓ_１_１
  6
CONTINUOUS
 62
     3
100
AcDbCircle
 10
552.6382560635004
 20
571.3227425318503
 30
0.0
 40
39.999999404
100
AcDbArc
 50
340.9620771226002
 51
355.2350414689001
  0
ARC
  5
5FA
330
1F
100
AcDbEntity
  8
Ｓ_１_１
  6
CONTINUOUS
 62
     3
100
AcDbCircle
 10
614.3618116623004
 20
518.6775297123502
 30
0.0
 40
39.999999404
100
AcDbArc
 50
160.9625192637
 51
175.2354289685
  0
ARC
  5
5FB
330
1F
100
AcDbEntity
  8
Ｓ_１_１
  6
CONTINUOUS
 62
     3
100
AcDbCircle
 10
552.6382560635004
 20
518.6772388417501
 30
0.0
 40
39.999999404
100
AcDbArc
 50
4.764999512200017
 51
19.03792287740007
  0
ARC
  5
5FC
330
1F
100
AcDbEntity
  8
Ｓ_１_１
  6
CONTINUOUS
 62
     3
100
AcDbCircle
 10
1275.6468207292
 20
642.4999880418502
 30
0.0
 40
4.500000111800002
100
AcDbArc
 50
179.9999640278004
 51
270.0000006831997
  0
ARC
  5
5FD
330
1F
100
AcDbEntity
  8
Ｓ_１_１
  6
CONTINUOUS
 62
     3
100
AcDbCircle
 10
674.1699314986006
 20
642.4999975785502
 30
0.0
 40
4.500000111800002
100
AcDbArc
 50
270.0000179861012
 51
0.0
  0
CIRCLE
  5
5FE
330
1F
100
AcDbEntity
  8
Ｓ_１_１
  6
CONTINUOUS
 62
     3
100
AcDbCircle
 10
930.0000058114003
 20
579.99999850995
 30
0.0
 40
6.000000149000004
  0
CIRCLE
  5
5FF
330
1F
100
AcDbEntity
  8
Ｓ_１_１
  6
CONTINUOUS
 62
     3
100
AcDbCircle
 10
930.0000058114003
 20
480.0000000000502
 30
0.0
 40
6.000000149000004
  0
CIRCLE
  5
600
330
1F
100
AcDbEntity
  8
Ｓ_１_１
  6
CONTINUOUS
 62
     3
100
AcDbCircle
 10
930.0000058114003
 20
380.0000014901505
 30
0.0
 40
6.000000149000004
  0
CIRCLE
  5
601
330
1F
100
AcDbEntity
  8
Ｓ_１_１
  6
CONTINUOUS
 62
     3
100
AcDbCircle
 10
1050.000004023301
 20
380.0000014901505
 30
0.0
 40
6.000000149000004
  0
CIRCLE
  5
602
330
1F
100
AcDbEntity
  8
Ｓ_１_１
  6
CONTINUOUS
 62
     3
100
AcDbCircle
 10
1050.000004023301
 20
480.0000000000502
 30
0.0
 40
6.000000149000004
  0
CIRCLE
  5
603
330
1F
100
AcDbEntity
  8
Ｓ_１_１
  6
CONTINUOUS
 62
     3
100
AcDbCircle
 10
1050.000004023301
 20
579.99999850995
 30
0.0
 40
6.000000149000004
  0
CIRCLE
  5
604
330
1F
100
AcDbEntity
  8
Ｓ_１_１
  6
CONTINUOUS
 62
     3
100
AcDbCircle
 10
1170.0000022351
 20
579.99999850995
 30
0.0
 40
6.000000149000004
  0
CIRCLE
  5
605
330
1F
100
AcDbEntity
  8
Ｓ_１_１
  6
CONTINUOUS
 62
     3
100
AcDbCircle
 10
1170.0000022351
 20
480.0000000000502
 30
0.0
 40
6.000000149000004
  0
CIRCLE
  5
606
330
1F
100
AcDbEntity
  8
Ｓ_１_１
  6
CONTINUOUS
 62
     3
100
AcDbCircle
 10
1170.0000022351
 20
380.0000014901505
 30
0.0
 40
6.000000149000004
  0
CIRCLE
  5
607
330
1F
100
AcDbEntity
  8
Ｓ_１_１
  6
CONTINUOUS
 62
     3
100
AcDbCircle
 10
1170.0000022351
 20
380.0000014901505
 30
0.0
 40
4.9999999255
  0
CIRCLE
  5
608
330
1F
100
AcDbEntity
  8
Ｓ_１_１
  6
CONTINUOUS
 62
     3
100
AcDbCircle
 10
1050.000004023301
 20
380.0000014901505
 30
0.0
 40
4.9999999255
  0
CIRCLE
  5
609
330
1F
100
AcDbEntity
  8
Ｓ_１_１
  6
CONTINUOUS
 62
     3
100
AcDbCircle
 10
930.0000058114003
 20
380.0000014901505
 30
0.0
 40
4.9999999255
  0
CIRCLE
  5
60A
330
1F
100
AcDbEntity
  8
Ｓ_１_１
  6
CONTINUOUS
 62
     3
100
AcDbCircle
 10
930.0000058114003
 20
480.0000000000502
 30
0.0
 40
4.9999999255
  0
CIRCLE
  5
60B
330
1F
100
AcDbEntity
  8
Ｓ_１_１
  6
CONTINUOUS
 62
     3
100
AcDbCircle
 10
1050.000004023301
 20
480.0000000000502
 30
0.0
 40
4.9999999255
  0
CIRCLE
  5
60C
330
1F
100
AcDbEntity
  8
Ｓ_１_１
  6
CONTINUOUS
 62
     3
100
AcDbCircle
 10
1170.0000022351
 20
480.0000000000502
 30
0.0
 40
4.9999999255
  0
CIRCLE
  5
60D
330
1F
100
AcDbEntity
  8
Ｓ_１_１
  6
CONTINUOUS
 62
     3
100
AcDbCircle
 10
1170.0000022351
 20
579.99999850995
 30
0.0
 40
4.9999999255
  0
CIRCLE
  5
60E
330
1F
100
AcDbEntity
  8
Ｓ_１_１
  6
CONTINUOUS
 62
     3
100
AcDbCircle
 10
1050.000004023301
 20
579.99999850995
 30
0.0
 40
4.9999999255
  0
CIRCLE
  5
60F
330
1F
100
AcDbEntity
  8
Ｓ_１_１
  6
CONTINUOUS
 62
     3
100
AcDbCircle
 10
930.0000058114003
 20
579.99999850995
 30
0.0
 40
4.9999999255
  0
ENDSEC
  0
SECTION
  2
OBJECTS
  0
DICTIONARY
  5
C
330
0
100
AcDbDictionary
  3
ACAD_GROUP
350
D
  3
ACAD_LAYOUT
350
1A
  3
ACAD_MATERIAL
350
43
  3
ACAD_MLEADERSTYLE
350
6B
  3
ACAD_MLINESTYLE
350
17
  3
ACAD_PLOTSETTINGS
350
19
  3
ACAD_SCALELIST
350
47
  3
ACAD_VISUALSTYLE
350
2A
  3
ACDBHEADERROUNDTRIPXREC
350
610
  3
ACDBVARIABLEDICTIONARY
350
631
  0
DICTIONARY
  5
63C
330
8
100
AcDbDictionary
280
     1
  3
ACAD_XREC_ROUNDTRIP
360
63D
  0
DICTIONARY
  5
D
102
{ACAD_REACTORS
330
C
102
}
330
C
100
AcDbDictionary
  0
DICTIONARY
  5
1A
102
{ACAD_REACTORS
330
C
102
}
330
C
100
AcDbDictionary
  0
DICTIONARY
  5
43
102
{ACAD_REACTORS
330
C
102
}
330
C
100
AcDbDictionary
  3
BYBLOCK
350
45
  3
BYLAYER
350
44
  3
GLOBAL
350
46
  0
DICTIONARY
  5
6B
102
{ACAD_REACTORS
330
C
102
}
330
C
100
AcDbDictionary
  3
STANDARD
350
6C
  0
DICTIONARY
  5
17
102
{ACAD_REACTORS
330
C
102
}
330
C
100
AcDbDictionary
  3
STANDARD
350
18
  0
DICTIONARY
  5
19
102
{ACAD_REACTORS
330
C
102
}
330
C
100
AcDbDictionary
  0
DICTIONARY
  5
47
102
{ACAD_REACTORS
330
C
102
}
330
C
100
AcDbDictionary
  3
A0
350
48
  3
A1
350
49
  3
A2
350
4A
  3
A3
350
4B
  3
A4
350
4C
  3
A5
350
4D
  3
A6
350
4E
  3
A7
350
4F
  3
A8
350
50
  3
A9
350
51
  3
B0
350
52
  3
B1
350
53
  3
B2
350
54
  3
B3
350
55
  3
B4
350
56
  3
B5
350
57
  3
B6
350
58
  3
B7
350
59
  3
B8
350
5A
  3
B9
350
5B
  3
C0
350
5C
  3
C1
350
5D
  3
C2
350
5E
  3
C3
350
5F
  3
C4
350
60
  3
C5
350
61
  3
C6
350
62
  3
C7
350
63
  3
C8
350
64
  3
C9
350
65
  3
D0
350
66
  3
D1
350
67
  3
D2
350
68
  0
DICTIONARY
  5
2A
102
{ACAD_REACTORS
330
C
102
}
330
C
100
AcDbDictionary
  3
2DWIREFRAME
350
2F
  3
BASIC
350
32
  3
BRIGHTEN
350
36
  3
COLORCHANGE
350
3A
  3
CONCEPTUAL
350
34
  3
DIM
350
35
  3
EDGECOLOROFF
350
3D
  3
FACEPATTERN
350
39
  3
FLAT
350
2B
  3
FLATWITHEDGES
350
2C
  3
GOURAUD
350
2D
  3
GOURAUDWITHEDGES
350
2E
  3
HIDDEN
350
31
  3
JITTEROFF
350
3B
  3
LINEPATTERN
350
38
  3
OVERHANGOFF
350
3C
  3
REALISTIC
350
33
  3
SHADED
350
42
  3
SHADED_WITH_EDGES
350
41
  3
SHADES_OF_GRAY
350
3E
  3
SKETCHY
350
3F
  3
THICKEN
350
37
  3
WIREFRAME
350
30
  3
X-RAY
350
40
  0
DICTIONARY
  5
610
102
{ACAD_REACTORS
330
C
102
}
330
C
100
AcDbDictionary
  3
CEPSNID
350
61A
  3
CEPSNTYPE
350
619
  3
DIMSTYLEDATA
350
630
  3
FINGERPRINTGUID
350
61B
  3
HYPERLINKBASE
350
613
  3
INSUNITS
350
618
  3
LAYOUTDICT
350
615
  3
LWETCUNION
350
617
  3
PLOTSETDICT
350
616
  3
PSVPSCALE
350
61D
  3
PUCSBASE
350
620
  3
PUCSORGBACK
350
626
  3
PUCSORGBOTTOM
350
622
  3
PUCSORGFRONT
350
625
  3
PUCSORGLEFT
350
623
  3
PUCSORGRIGHT
350
624
  3
PUCSORGTOP
350
621
  3
PUCSORTHOREF
350
61E
  3
PUCSORTHOVIEW
350
61F
  3
STYLESHEET
350
614
  3
TSTACKALIGN
350
611
  3
TSTACKSIZE
350
612
  3
UCSBASE
350
629
  3
UCSORGBACK
350
62F
  3
UCSORGBOTTOM
350
62B
  3
UCSORGFRONT
350
62E
  3
UCSORGLEFT
350
62C
  3
UCSORGRIGHT
350
62D
  3
UCSORGTOP
350
62A
  3
UCSORTHOREF
350
627
  3
UCSORTHOVIEW
350
628
  3
VERSIONGUID
350
61C
  0
DICTIONARY
  5
631
102
{ACAD_REACTORS
330
C
102
}
330
C
100
AcDbDictionary
  3
CANNOSCALE
350
63E
  3
CENTEREXE
350
638
  3
CENTERLTYPEFILE
350
639
  3
CMLEADERSTYLE
350
633
  3
CTABLESTYLE
350
632
  3
DIMASSOC
350
63A
  3
HIDETEXT
350
63B
  3
MSLTSCALE
350
63F
  3
PSOLHEIGHT
350
635
  3
PSOLWIDTH
350
634
  0
XRECORD
  5
63D
102
{ACAD_REACTORS
330
63C
102
}
330
63C
100
AcDbXrecord
102
VTR_0.000_0.000_1.000_1.000_VISUALSTYLE
340
2F
102
VTR_0.000_0.000_1.000_1.000_GRIDDISPLAY
 70
     3
102
VTR_0.000_0.000_1.000_1.000_GRIDMAJOR
 70
     5
102
VTR_0.000_0.000_1.000_1.000_DEFAULTLIGHTING
280
     1
102
VTR_0.000_0.000_1.000_1.000_DEFAULTLIGHTINGTYPE
 70
     1
102
VTR_0.000_0.000_1.000_1.000_BRIGHTNESS
141
0.0
102
VTR_0.000_0.000_1.000_1.000_CONTRAST
142
0.0
  0
MATERIAL
  5
45
102
{ACAD_REACTORS
330
43
102
}
102
{ACAD_XDICTIONARY
360
642
102
}
330
43
100
AcDbMaterial
  1
BYBLOCK
  0
MATERIAL
  5
44
102
{ACAD_REACTORS
330
43
102
}
102
{ACAD_XDICTIONARY
360
640
102
}
330
43
100
AcDbMaterial
  1
BYLAYER
  0
MATERIAL
  5
46
102
{ACAD_REACTORS
330
43
102
}
102
{ACAD_XDICTIONARY
360
644
102
}
330
43
100
AcDbMaterial
  1
GLOBAL
  0
ACAD_PROXY_OBJECT
  5
6C
102
{ACAD_REACTORS
330
6B
102
}
330
6B
100
AcDbProxyObject
 90
      499
 91
      505
 93
      610
310
40901902A4063FBFFFFFE0000000000000020400000000000020404214DD185B99185C990000000000000104090141901A00000000000004100000000000000041025764000000000000039000
340
14
340
0
340
11
340
0
 94
        0
1001
ACAD_MLEADERVER
1070
     2
  0
MLINESTYLE
  5
18
102
{ACAD_REACTORS
330
17
102
}
330
17
100
AcDbMlineStyle
  2
Standard
 70
     0
  3

 62
   256
 51
90.0
 52
90.0
 71
     2
 49
0.5
 62
   256
  6
BYLAYER
 49
-0.5
 62
   256
  6
BYLAYER
  0
ACAD_PROXY_OBJECT
  5
48
102
{ACAD_REACTORS
330
47
102
}
330
47
100
AcDbProxyObject
 90
      499
 91
      503
 93
       41
310
903313A31580
  0
ACAD_PROXY_OBJECT
  5
49
102
{ACAD_REACTORS
330
47
102
}
330
47
100
AcDbProxyObject
 90
      499
 91
      503
 93
      105
310
903313A324000000000000004000
  0
ACAD_PROXY_OBJECT
  5
4A
102
{ACAD_REACTORS
330
47
102
}
330
47
100
AcDbProxyObject
 90
      499
 91
      503
 93
      105
310
903313A344000000000000104000
  0
ACAD_PROXY_OBJECT
  5
4B
102
{ACAD_REACTORS
330
47
102
}
330
47
100
AcDbProxyObject
 90
      499
 91
      503
 93
      105
310
903313A354000000000000144000
  0
ACAD_PROXY_OBJECT
  5
4C
102
{ACAD_REACTORS
330
47
102
}
330
47
100
AcDbProxyObject
 90
      499
 91
      503
 93
      105
310
903313A384000000000000204000
  0
ACAD_PROXY_OBJECT
  5
4D
102
{ACAD_REACTORS
330
47
102
}
330
47
100
AcDbProxyObject
 90
      499
 91
      503
 93
      113
310
904313A31304000000000000244000
  0
ACAD_PROXY_OBJECT
  5
4E
102
{ACAD_REACTORS
330
47
102
}
330
47
100
AcDbProxyObject
 90
      499
 91
      503
 93
      113
310
904313A31364000000000000304000
  0
ACAD_PROXY_OBJECT
  5
4F
102
{ACAD_REACTORS
330
47
102
}
330
47
100
AcDbProxyObject
 90
      499
 91
      503
 93
      113
310
904313A32304000000000000344000
  0
ACAD_PROXY_OBJECT
  5
50
102
{ACAD_REACTORS
330
47
102
}
330
47
100
AcDbProxyObject
 90
      499
 91
      503
 93
      113
310
904313A333040000000000003E4000
  0
ACAD_PROXY_OBJECT
  5
51
102
{ACAD_REACTORS
330
47
102
}
330
47
100
AcDbProxyObject
 90
      499
 91
      503
 93
      113
310
904313A34304000000000000444000
  0
ACAD_PROXY_OBJECT
  5
52
102
{ACAD_REACTORS
330
47
102
}
330
47
100
AcDbProxyObject
 90
      499
 91
      503
 93
      113
310
904313A35304000000000000494000
  0
ACAD_PROXY_OBJECT
  5
53
102
{ACAD_REACTORS
330
47
102
}
330
47
100
AcDbProxyObject
 90
      499
 91
      503
 93
      121
310
905313A3130304000000000000594000
  0
ACAD_PROXY_OBJECT
  5
54
102
{ACAD_REACTORS
330
47
102
}
330
47
100
AcDbProxyObject
 90
      499
 91
      503
 93
      105
310
903323A310000000000000010100
  0
ACAD_PROXY_OBJECT
  5
55
102
{ACAD_REACTORS
330
47
102
}
330
47
100
AcDbProxyObject
 90
      499
 91
      503
 93
      105
310
903343A310000000000000410100
  0
ACAD_PROXY_OBJECT
  5
56
102
{ACAD_REACTORS
330
47
102
}
330
47
100
AcDbProxyObject
 90
      499
 91
      503
 93
      105
310
903383A310000000000000810100
  0
ACAD_PROXY_OBJECT
  5
57
102
{ACAD_REACTORS
330
47
102
}
330
47
100
AcDbProxyObject
 90
      499
 91
      503
 93
      113
310
90431303A310000000000000910100
  0
ACAD_PROXY_OBJECT
  5
58
102
{ACAD_REACTORS
330
47
102
}
330
47
100
AcDbProxyObject
 90
      499
 91
      503
 93
      121
310
9053130303A310000000000001650100
  0
ACAD_PROXY_OBJECT
  5
59
102
{ACAD_REACTORS
330
47
102
}
330
47
100
AcDbProxyObject
 90
      499
 91
      503
 93
      257
310
90E312F31323822203D2031272D3022000000000000200FC000000000000284000
  0
ACAD_PROXY_OBJECT
  5
5A
102
{ACAD_REACTORS
330
47
102
}
330
47
100
AcDbProxyObject
 90
      499
 91
      503
 93
      249
310
90D312F363422203D2031272D3022000000000000240FC000000000000284000
  0
ACAD_PROXY_OBJECT
  5
5B
102
{ACAD_REACTORS
330
47
102
}
330
47
100
AcDbProxyObject
 90
      499
 91
      503
 93
      249
310
90D312F333222203D2031272D3022000000000000280FC000000000000284000
  0
ACAD_PROXY_OBJECT
  5
5C
102
{ACAD_REACTORS
330
47
102
}
330
47
100
AcDbProxyObject
 90
      499
 91
      503
 93
      249
310
90D312F313622203D2031272D30220000000000002C0FC000000000000284000
  0
ACAD_PROXY_OBJECT
  5
5D
102
{ACAD_REACTORS
330
47
102
}
330
47
100
AcDbProxyObject
 90
      499
 91
      503
 93
      249
310
90D332F333222203D2031272D30220000000000002E0FC000000000000284000
  0
ACAD_PROXY_OBJECT
  5
5E
102
{ACAD_REACTORS
330
47
102
}
330
47
100
AcDbProxyObject
 90
      499
 91
      503
 93
      241
310
90C312F3822203D2031272D3022000000000000300FC000000000000284000
  0
ACAD_PROXY_OBJECT
  5
5F
102
{ACAD_REACTORS
330
47
102
}
330
47
100
AcDbProxyObject
 90
      499
 91
      503
 93
      249
310
90D332F313622203D2031272D3022000000000000320FC000000000000284000
  0
ACAD_PROXY_OBJECT
  5
60
102
{ACAD_REACTORS
330
47
102
}
330
47
100
AcDbProxyObject
 90
      499
 91
      503
 93
      241
310
90C312F3422203D2031272D3022000000000000340FC000000000000284000
  0
ACAD_PROXY_OBJECT
  5
61
102
{ACAD_REACTORS
330
47
102
}
330
47
100
AcDbProxyObject
 90
      499
 91
      503
 93
      241
310
90C332F3822203D2031272D3022000000000000360FC000000000000284000
  0
ACAD_PROXY_OBJECT
  5
62
102
{ACAD_REACTORS
330
47
102
}
330
47
100
AcDbProxyObject
 90
      499
 91
      503
 93
      241
310
90C312F3222203D2031272D3022000000000000380FC000000000000284000
  0
ACAD_PROXY_OBJECT
  5
63
102
{ACAD_REACTORS
330
47
102
}
330
47
100
AcDbProxyObject
 90
      499
 91
      503
 93
      241
310
90C332F3422203D2031272D30220000000000003A0FC000000000000284000
  0
ACAD_PROXY_OBJECT
  5
64
102
{ACAD_REACTORS
330
47
102
}
330
47
100
AcDbProxyObject
 90
      499
 91
      503
 93
      161
310
90A3122203D2031272D30224000000000000284000
  0
ACAD_PROXY_OBJECT
  5
65
102
{ACAD_REACTORS
330
47
102
}
330
47
100
AcDbProxyObject
 90
      499
 91
      503
 93
      257
310
90E312D312F3222203D2031272D30220000000000003E0FC000000000000284000
  0
ACAD_PROXY_OBJECT
  5
66
102
{ACAD_REACTORS
330
47
102
}
330
47
100
AcDbProxyObject
 90
      499
 91
      503
 93
      225
310
90A3322203D2031272D302200000000000002100000000000000284000
  0
ACAD_PROXY_OBJECT
  5
67
102
{ACAD_REACTORS
330
47
102
}
330
47
100
AcDbProxyObject
 90
      499
 91
      503
 93
      225
310
90A3622203D2031272D302200000000000006100000000000000284000
  0
ACAD_PROXY_OBJECT
  5
68
102
{ACAD_REACTORS
330
47
102
}
330
47
100
AcDbProxyObject
 90
      499
 91
      503
 93
      249
310
90D31272D3022203D2031272D30220000000000000A100000000000000284000
  0
ACAD_PROXY_OBJECT
  5
2F
102
{ACAD_REACTORS
330
2A
102
}
330
2A
100
AcDbProxyObject
 90
      499
 91
      501
 93
      436
310
42CC9915DA5C99599C985B595049028333333333333E33F0000000000000F90107901411070040501600405405064090741402480A0340
1001
ACAD
1000
AcDbSavedByObjectVersion
1070
     0
  0
ACAD_PROXY_OBJECT
  5
32
102
{ACAD_REACTORS
330
2A
102
}
330
2A
100
AcDbProxyObject
 90
      499
 91
      501
 93
      388
310
4150985CDA58D07406404333333333333E33F0000000000000F90107A41107004050150841D405064090741402480A0350
1001
ACAD
1000
AcDbSavedByObjectVersion
1070
     0
  0
ACAD_PROXY_OBJECT
  5
36
102
{ACAD_REACTORS
330
2A
102
}
330
2A
100
AcDbProxyObject
 90
      499
 91
      501
 93
      428
310
42109C9A59DA1D195B90C409028333333333333E33F0000000000000F9010790141107004050150841D405064090741402480A029950
1001
ACAD
1000
AcDbSavedByObjectVersion
1070
     0
  0
ACAD_PROXY_OBJECT
  5
3A
102
{ACAD_REACTORS
330
2A
102
}
330
2A
100
AcDbProxyObject
 90
      499
 91
      501
 93
      452
310
42D0DBDB1BDC90DA185B99D95104090240C333333333333E33F0000000000000F90108901411070040501508421405064090741402480A0350
1001
ACAD
1000
AcDbSavedByObjectVersion
1070
     0
  0
ACAD_PROXY_OBJECT
  5
34
102
{ACAD_REACTORS
330
2A
102
}
330
2A
100
AcDbProxyObject
 90
      499
 91
      501
 93
      500
310
4290DBDB98D95C1D1D585B10940D028333333333333E33F0000000000000F90107902409070040501000000000018199010841D405064090740C02480A0340
1001
ACAD
1000
AcDbSavedByObjectVersion
1070
     0
  0
ACAD_PROXY_OBJECT
  5
35
102
{ACAD_REACTORS
330
2A
102
}
330
2A
100
AcDbProxyObject
 90
      499
 91
      501
 93
      412
310
40D11A5B50B409028333333333333E33F0000000000000F9010790141107004050150841D405064090741402480A02677FFFFFD0
1001
ACAD
1000
AcDbSavedByObjectVersion
1070
     0
  0
ACAD_PROXY_OBJECT
  5
3D
102
{ACAD_REACTORS
330
2A
102
}
330
2A
100
AcDbProxyObject
 90
      499
 91
      501
 93
      452
310
43115919D950DBDB1BDC93D999916409028333333333333E33F0000000000000F9010790141107004050150841D405064090741402480A0350
1001
ACAD
1000
AcDbSavedByObjectVersion
1070
     0
  0
ACAD_PROXY_OBJECT
  5
39
102
{ACAD_REACTORS
330
2A
102
}
330
2A
100
AcDbProxyObject
 90
      499
 91
      501
 93
      444
310
42D19858D95C185D1D195C9B90F409028333333333333E33F0000000000000F9010790141107004050150841D405064090741402480A0350
1001
ACAD
1000
AcDbSavedByObjectVersion
1070
     0
  0
ACAD_PROXY_OBJECT
  5
2B
102
{ACAD_REACTORS
330
2A
102
}
330
2A
100
AcDbProxyObject
 90
      499
 91
      501
 93
      380
310
41119B185D240901404333333333333E33F0000000000000F9010740A907004050150841D405064090741402480A1B50
1001
ACAD
1000
AcDbSavedByObjectVersion
1070
     0
  0
ACAD_PROXY_OBJECT
  5
2C
102
{ACAD_REACTORS
330
2A
102
}
330
2A
100
AcDbProxyObject
 90
      499
 91
      501
 93
      468
310
43519B185D15DA5D1A115919D95CD0140901404333333333333E33F0000000000000F90107409019070040501600405405064090741402480A1B50
1001
ACAD
1000
AcDbSavedByObjectVersion
1070
     0
  0
ACAD_PROXY_OBJECT
  5
2D
102
{ACAD_REACTORS
330
2A
102
}
330
2A
100
AcDbProxyObject
 90
      499
 91
      501
 93
      404
310
41D1DBDD5C985D5910240902404333333333333E33F0000000000000F9010740A9070040501641D405064090741402480A1B50
1001
ACAD
1000
AcDbSavedByObjectVersion
1070
     0
  0
ACAD_PROXY_OBJECT
  5
2E
102
{ACAD_REACTORS
330
2A
102
}
330
2A
100
AcDbProxyObject
 90
      499
 91
      501
 93
      492
310
4411DBDD5C985D5915DA5D1A115919D95CD0340902404333333333333E33F0000000000000F90107409019070040501600405405064090741402480A1B50
1001
ACAD
1000
AcDbSavedByObjectVersion
1070
     0
  0
ACAD_PROXY_OBJECT
  5
31
102
{ACAD_REACTORS
330
2A
102
}
330
2A
100
AcDbProxyObject
 90
      499
 91
      501
 93
      476
310
41921A5919195B90640502408333333333333E33F0000000000000F901079024090700405020000000000001110200405405064090740C02480A0340
1001
ACAD
1000
AcDbSavedByObjectVersion
1070
     0
  0
ACAD_PROXY_OBJECT
  5
3B
102
{ACAD_REACTORS
330
2A
102
}
330
2A
100
AcDbProxyObject
 90
      499
 91
      501
 93
      428
310
42529A5D1D195C93D999914409028333333333333E33F0000000000000F9010790141107004050150A41D405064090741402480A0350
1001
ACAD
1000
AcDbSavedByObjectVersion
1070
     0
  0
ACAD_PROXY_OBJECT
  5
38
102
{ACAD_REACTORS
330
2A
102
}
330
2A
100
AcDbProxyObject
 90
      499
 91
      501
 93
      444
310
42D31A5B995C185D1D195C9B90E409028333333333333E33F0000000000000F9010790141107004050750841D405064090741402483A0350
1001
ACAD
1000
AcDbSavedByObjectVersion
1070
     0
  0
ACAD_PROXY_OBJECT
  5
3C
102
{ACAD_REACTORS
330
2A
102
}
330
2A
100
AcDbProxyObject
 90
      499
 91
      501
 93
      444
310
42D3DD995C9A185B99D3D999915409028333333333333E33F0000000000000F9010790141107004050150941D405064090741402480A0350
1001
ACAD
1000
AcDbSavedByObjectVersion
1070
     0
  0
ACAD_PROXY_OBJECT
  5
33
102
{ACAD_REACTORS
330
2A
102
}
330
2A
100
AcDbProxyObject
 90
      499
 91
      501
 93
      428
310
425499585B1A5CDD1A58D08409038333333333333E33F0000000000000F9010740A907004050150800405405064090740C02480A1B40
1001
ACAD
1000
AcDbSavedByObjectVersion
1070
     0
  0
ACAD_PROXY_OBJECT
  5
42
102
{ACAD_REACTORS
330
2A
102
}
330
2A
100
AcDbProxyObject
 90
      499
 91
      501
 93
      420
310
4194DA1859195911B40902404333333333333E33F0000000000000F9010740A41107004050150800405405064090840C02480A0B40
1001
ACAD
1000
AcDbSavedByObjectVersion
1070
     0
  0
ACAD_PROXY_OBJECT
  5
41
102
{ACAD_REACTORS
330
2A
102
}
330
2A
100
AcDbProxyObject
 90
      499
 91
      501
 93
      516
310
4454DA18591959081DDA5D1A08195919D95CD1A40902404333333333333E33F0000000000000F901074090142907004050250800405405064090740C02480A0B40
1001
ACAD
1000
AcDbSavedByObjectVersion
1070
     0
  0
ACAD_PROXY_OBJECT
  5
3E
102
{ACAD_REACTORS
330
2A
102
}
330
2A
100
AcDbProxyObject
 90
      499
 91
      501
 93
      532
310
4394DA1859195CC81BD98811DC985E5174090240C333333333333E33F0000000000000F901079024090741D01000000000000111010841D405064090740C02480A0340
1001
ACAD
1000
AcDbSavedByObjectVersion
1070
     0
  0
ACAD_PROXY_OBJECT
  5
3F
102
{ACAD_REACTORS
330
2A
102
}
330
2A
100
AcDbProxyObject
 90
      499
 91
      501
 93
      476
310
41D4DAD95D18DA1E51840502408333333333333E33F0000000000000F901079024090741D01000000000000111010B41D405064090741802480A0340
1001
ACAD
1000
AcDbSavedByObjectVersion
1070
     0
  0
ACAD_PROXY_OBJECT
  5
37
102
{ACAD_REACTORS
330
2A
102
}
330
2A
100
AcDbProxyObject
 90
      499
 91
      501
 93
      412
310
41D51A1A58DAD95B90D409028333333333333E33F0000000000000F9010790141107004050150C41D405064090741402480A0350
1001
ACAD
1000
AcDbSavedByObjectVersion
1070
     0
  0
ACAD_PROXY_OBJECT
  5
30
102
{ACAD_REACTORS
330
2A
102
}
330
2A
100
AcDbProxyObject
 90
      499
 91
      501
 93
      420
310
4255DA5C99599C985B595059028333333333333E33F0000000000000F90107901411070040501600405405064090740C02480A0340
1001
ACAD
1000
AcDbSavedByObjectVersion
1070
     0
  0
ACAD_PROXY_OBJECT
  5
40
102
{ACAD_REACTORS
330
2A
102
}
330
2A
100
AcDbProxyObject
 90
      499
 91
      501
 93
      404
310
41560B54985E51940902404000000000000E03F0000000000000F9010740501907004050150841D405064090740C02480A1B40
1001
ACAD
1000
AcDbSavedByObjectVersion
1070
     0
  0
XRECORD
  5
61A
102
{ACAD_REACTORS
330
610
102
}
330
610
100
AcDbXrecord
340
0
  0
XRECORD
  5
619
102
{ACAD_REACTORS
330
610
102
}
330
610
100
AcDbXrecord
 90
        0
  0
XRECORD
  5
630
102
{ACAD_REACTORS
330
610
102
}
330
610
100
AcDbXrecord
1000
DSTYLE
1002
{
1070
   340
340
11
1002
}
  0
XRECORD
  5
61B
102
{ACAD_REACTORS
330
610
102
}
330
610
100
AcDbXrecord
  1
{d07b2f81-1b84-410f-b5d4-8dedf625ffec}
  0
XRECORD
  5
613
102
{ACAD_REACTORS
330
610
102
}
330
610
100
AcDbXrecord
  1

  0
XRECORD
  5
618
102
{ACAD_REACTORS
330
610
102
}
330
610
100
AcDbXrecord
 90
        4
  0
XRECORD
  5
615
102
{ACAD_REACTORS
330
610
102
}
330
610
100
AcDbXrecord
340
1A
  0
XRECORD
  5
617
102
{ACAD_REACTORS
330
610
102
}
330
610
100
AcDbXrecord
 90
    10781
  0
XRECORD
  5
616
102
{ACAD_REACTORS
330
610
102
}
330
610
100
AcDbXrecord
340
19
  0
XRECORD
  5
61D
102
{ACAD_REACTORS
330
610
102
}
330
610
100
AcDbXrecord
 40
0.0
  0
XRECORD
  5
620
102
{ACAD_REACTORS
330
610
102
}
330
610
100
AcDbXrecord
340
0
  0
XRECORD
  5
626
102
{ACAD_REACTORS
330
610
102
}
330
610
100
AcDbXrecord
 10
0.0
 20
0.0
 30
0.0
  0
XRECORD
  5
622
102
{ACAD_REACTORS
330
610
102
}
330
610
100
AcDbXrecord
 10
0.0
 20
0.0
 30
0.0
  0
XRECORD
  5
625
102
{ACAD_REACTORS
330
610
102
}
330
610
100
AcDbXrecord
 10
0.0
 20
0.0
 30
0.0
  0
XRECORD
  5
623
102
{ACAD_REACTORS
330
610
102
}
330
610
100
AcDbXrecord
 10
0.0
 20
0.0
 30
0.0
  0
XRECORD
  5
624
102
{ACAD_REACTORS
330
610
102
}
330
610
100
AcDbXrecord
 10
0.0
 20
0.0
 30
0.0
  0
XRECORD
  5
621
102
{ACAD_REACTORS
330
610
102
}
330
610
100
AcDbXrecord
 10
0.0
 20
0.0
 30
0.0
  0
XRECORD
  5
61E
102
{ACAD_REACTORS
330
610
102
}
330
610
100
AcDbXrecord
340
0
  0
XRECORD
  5
61F
102
{ACAD_REACTORS
330
610
102
}
330
610
100
AcDbXrecord
 70
     0
  0
XRECORD
  5
614
102
{ACAD_REACTORS
330
610
102
}
330
610
100
AcDbXrecord
  1

  0
XRECORD
  5
611
102
{ACAD_REACTORS
330
610
102
}
330
610
100
AcDbXrecord
 90
        1
  0
XRECORD
  5
612
102
{ACAD_REACTORS
330
610
102
}
330
610
100
AcDbXrecord
 90
       70
  0
XRECORD
  5
629
102
{ACAD_REACTORS
330
610
102
}
330
610
100
AcDbXrecord
340
0
  0
XRECORD
  5
62F
102
{ACAD_REACTORS
330
610
102
}
330
610
100
AcDbXrecord
 10
0.0
 20
0.0
 30
0.0
  0
XRECORD
  5
62B
102
{ACAD_REACTORS
330
610
102
}
330
610
100
AcDbXrecord
 10
0.0
 20
0.0
 30
0.0
  0
XRECORD
  5
62E
102
{ACAD_REACTORS
330
610
102
}
330
610
100
AcDbXrecord
 10
0.0
 20
0.0
 30
0.0
  0
XRECORD
  5
62C
102
{ACAD_REACTORS
330
610
102
}
330
610
100
AcDbXrecord
 10
0.0
 20
0.0
 30
0.0
  0
XRECORD
  5
62D
102
{ACAD_REACTORS
330
610
102
}
330
610
100
AcDbXrecord
 10
0.0
 20
0.0
 30
0.0
  0
XRECORD
  5
62A
102
{ACAD_REACTORS
330
610
102
}
330
610
100
AcDbXrecord
 10
0.0
 20
0.0
 30
0.0
  0
XRECORD
  5
627
102
{ACAD_REACTORS
330
610
102
}
330
610
100
AcDbXrecord
340
0
  0
XRECORD
  5
628
102
{ACAD_REACTORS
330
610
102
}
330
610
100
AcDbXrecord
 70
     0
  0
XRECORD
  5
61C
102
{ACAD_REACTORS
330
610
102
}
330
610
100
AcDbXrecord
  1
{FAEB1C32-E019-11D5-929B-00C0DF256EC4}
  0
DICTIONARYVAR
  5
63E
102
{ACAD_REACTORS
330
631
102
}
330
631
100
DictionaryVariables
280
     0
  1
1:1
  0
DICTIONARYVAR
  5
638
102
{ACAD_REACTORS
330
631
102
}
330
631
100
DictionaryVariables
280
     0
  1
3.500000
  0
DICTIONARYVAR
  5
639
102
{ACAD_REACTORS
330
631
102
}
330
631
100
DictionaryVariables
280
     0
  1
acadiso.lin
  0
DICTIONARYVAR
  5
633
102
{ACAD_REACTORS
330
631
102
}
330
631
100
DictionaryVariables
280
     0
  1
Standard
  0
DICTIONARYVAR
  5
632
102
{ACAD_REACTORS
330
631
102
}
330
631
100
DictionaryVariables
280
     0
  1
Standard
  0
DICTIONARYVAR
  5
63A
102
{ACAD_REACTORS
330
631
102
}
330
631
100
DictionaryVariables
280
     0
  1
2
  0
DICTIONARYVAR
  5
63B
102
{ACAD_REACTORS
330
631
102
}
330
631
100
DictionaryVariables
280
     0
  1
1
  0
DICTIONARYVAR
  5
63F
102
{ACAD_REACTORS
330
631
102
}
330
631
100
DictionaryVariables
280
     0
  1
1
  0
DICTIONARYVAR
  5
635
102
{ACAD_REACTORS
330
631
102
}
330
631
100
DictionaryVariables
280
     0
  1
80.000000
  0
DICTIONARYVAR
  5
634
102
{ACAD_REACTORS
330
631
102
}
330
631
100
DictionaryVariables
280
     0
  1
5.000000
  0
DICTIONARY
  5
642
330
45
100
AcDbDictionary
280
     1
  3
ACAD_XREC_ROUNDTRIP
360
643
  0
DICTIONARY
  5
640
330
44
100
AcDbDictionary
280
     1
  3
ACAD_XREC_ROUNDTRIP
360
641
  0
DICTIONARY
  5
644
330
46
100
AcDbDictionary
280
     1
  3
ACAD_XREC_ROUNDTRIP
360
645
  0
XRECORD
  5
643
102
{ACAD_REACTORS
330
642
102
}
330
642
100
AcDbXrecord
102
MATERIAL
148
0.0
149
0.0
149
0.0
 93
        0
 94
      127
282
     0
 72
     1
 77
     1
171
     1
175
     1
179
     1
273
     0
  0
XRECORD
  5
641
102
{ACAD_REACTORS
330
640
102
}
330
640
100
AcDbXrecord
102
MATERIAL
148
0.0
149
0.0
149
0.0
 93
        0
 94
      127
282
     0
 72
     1
 77
     1
171
     1
175
     1
179
     1
273
     0
  0
XRECORD
  5
645
102
{ACAD_REACTORS
330
644
102
}
330
644
100
AcDbXrecord
102
MATERIAL
148
0.0
149
0.0
149
0.0
 93
        0
 94
      127
282
     0
 72
     1
 77
     1
171
     1
175
     1
179
     1
273
     0
  0
ENDSEC
  0
EOF
