  0
SECTION
  2
HEADER
  9
$ACADVER
  1
AC1014
  9
$ACADMAINTVER
 70
     9
  9
$DWGCODEPAGE
  3
ANSI_932
  9
$INSBASE
 10
0.0
 20
0.0
 30
0.0
  9
$EXTMIN
 10
100.0
 20
100.0
 30
0.0
  9
$EXTMAX
 10
4100.0
 20
2870.0
 30
0.0
  9
$LIMMIN
 10
0.0
 20
0.0
  9
$LIMMAX
 10
420.0
 20
297.0
  9
$ORTHOMODE
 70
     0
  9
$REGENMODE
 70
     1
  9
$FILLMODE
 70
     1
  9
$QTEXTMODE
 70
     0
  9
$MIRRTEXT
 70
     1
  9
$DRAGMODE
 70
     2
  9
$LTSCALE
 40
1.0
  9
$OSMODE
 70
    37
  9
$ATTMODE
 70
     1
  9
$TEXTSIZE
 40
2.5
  9
$TRACEWID
 40
1.0
  9
$TEXTSTYLE
  7
STANDARD
  9
$CLAYER
  8
Ｓ_１_１
  9
$CELTYPE
  6
BYLAYER
  9
$CECOLOR
 62
   256
  9
$CELTSCALE
 40
1.0
  9
$DELOBJ
 70
     1
  9
$DISPSILH
 70
     0
  9
$DIMSCALE
 40
1.0
  9
$DIMASZ
 40
2.5
  9
$DIMEXO
 40
0.625
  9
$DIMDLI
 40
3.75
  9
$DIMRND
 40
0.0
  9
$DIMDLE
 40
0.0
  9
$DIMEXE
 40
1.25
  9
$DIMTP
 40
0.0
  9
$DIMTM
 40
0.0
  9
$DIMTXT
 40
2.5
  9
$DIMCEN
 40
2.5
  9
$DIMTSZ
 40
0.0
  9
$DIMTOL
 70
     0
  9
$DIMLIM
 70
     0
  9
$DIMTIH
 70
     0
  9
$DIMTOH
 70
     0
  9
$DIMSE1
 70
     0
  9
$DIMSE2
 70
     0
  9
$DIMTAD
 70
     1
  9
$DIMZIN
 70
     8
  9
$DIMBLK
  1

  9
$DIMASO
 70
     1
  9
$DIMSHO
 70
     1
  9
$DIMPOST
  1

  9
$DIMAPOST
  1

  9
$DIMALT
 70
     0
  9
$DIMALTD
 70
     3
  9
$DIMALTF
 40
0.03937007874016
  9
$DIMLFAC
 40
1.0
  9
$DIMTOFL
 70
     1
  9
$DIMTVP
 40
0.0
  9
$DIMTIX
 70
     0
  9
$DIMSOXD
 70
     0
  9
$DIMSAH
 70
     0
  9
$DIMBLK1
  1

  9
$DIMBLK2
  1

  9
$DIMSTYLE
  2
ISO-25
  9
$DIMCLRD
 70
     0
  9
$DIMCLRE
 70
     0
  9
$DIMCLRT
 70
     0
  9
$DIMTFAC
 40
1.0
  9
$DIMGAP
 40
0.625
  9
$DIMJUST
 70
     0
  9
$DIMSD1
 70
     0
  9
$DIMSD2
 70
     0
  9
$DIMTOLJ
 70
     0
  9
$DIMTZIN
 70
     8
  9
$DIMALTZ
 70
     0
  9
$DIMALTTZ
 70
     0
  9
$DIMFIT
 70
     3
  9
$DIMUPT
 70
     0
  9
$DIMUNIT
 70
     2
  9
$DIMDEC
 70
     2
  9
$DIMTDEC
 70
     2
  9
$DIMALTU
 70
     2
  9
$DIMALTTD
 70
     3
  9
$DIMTXSTY
  7
STANDARD
  9
$DIMAUNIT
 70
     0
  9
$LUNITS
 70
     2
  9
$LUPREC
 70
     4
  9
$SKETCHINC
 40
1.0
  9
$FILLETRAD
 40
10.0
  9
$AUNITS
 70
     0
  9
$AUPREC
 70
     0
  9
$MENU
  1
.
  9
$ELEVATION
 40
0.0
  9
$PELEVATION
 40
0.0
  9
$THICKNESS
 40
0.0
  9
$LIMCHECK
 70
     0
  9
$CHAMFERA
 40
0.0
  9
$CHAMFERB
 40
0.0
  9
$CHAMFERC
 40
0.0
  9
$CHAMFERD
 40
0.0
  9
$SKPOLY
 70
     0
  9
$TDCREATE
 40
2459585.72515684
  9
$TDUPDATE
 40
2459585.725159086
  9
$TDINDWG
 40
0.0000000116
  9
$TDUSRTIMER
 40
0.0000000116
  9
$USRTIMER
 70
     1
  9
$ANGBASE
 50
0.0
  9
$ANGDIR
 70
     0
  9
$PDMODE
 70
     0
  9
$PDSIZE
 40
0.0
  9
$PLINEWID
 40
0.0
  9
$COORDS
 70
     1
  9
$SPLFRAME
 70
     0
  9
$SPLINETYPE
 70
     6
  9
$SPLINESEGS
 70
     8
  9
$ATTDIA
 70
     0
  9
$ATTREQ
 70
     1
  9
$HANDLING
 70
     1
  9
$HANDSEED
  5
700
  9
$SURFTAB1
 70
     6
  9
$SURFTAB2
 70
     6
  9
$SURFTYPE
 70
     6
  9
$SURFU
 70
     6
  9
$SURFV
 70
     6
  9
$UCSNAME
  2

  9
$UCSORG
 10
0.0
 20
0.0
 30
0.0
  9
$UCSXDIR
 10
1.0
 20
0.0
 30
0.0
  9
$UCSYDIR
 10
0.0
 20
1.0
 30
0.0
  9
$PUCSNAME
  2

  9
$PUCSORG
 10
0.0
 20
0.0
 30
0.0
  9
$PUCSXDIR
 10
1.0
 20
0.0
 30
0.0
  9
$PUCSYDIR
 10
0.0
 20
1.0
 30
0.0
  9
$USERI1
 70
     0
  9
$USERI2
 70
     0
  9
$USERI3
 70
     0
  9
$USERI4
 70
     0
  9
$USERI5
 70
     0
  9
$USERR1
 40
0.0
  9
$USERR2
 40
0.0
  9
$USERR3
 40
0.0
  9
$USERR4
 40
0.0
  9
$USERR5
 40
0.0
  9
$WORLDVIEW
 70
     1
  9
$SHADEDGE
 70
     3
  9
$SHADEDIF
 70
    70
  9
$TILEMODE
 70
     1
  9
$MAXACTVP
 70
    64
  9
$PINSBASE
 10
0.0
 20
0.0
 30
0.0
  9
$PLIMCHECK
 70
     0
  9
$PEXTMIN
 10
1.000000000000000E+20
 20
1.000000000000000E+20
 30
1.000000000000000E+20
  9
$PEXTMAX
 10
-1.000000000000000E+20
 20
-1.000000000000000E+20
 30
-1.000000000000000E+20
  9
$PLIMMIN
 10
0.0
 20
0.0
  9
$PLIMMAX
 10
420.0
 20
297.0
  9
$UNITMODE
 70
     0
  9
$VISRETAIN
 70
     1
  9
$PLINEGEN
 70
     0
  9
$PSLTSCALE
 70
     1
  9
$TREEDEPTH
 70
  3020
  9
$PICKSTYLE
 70
     1
  9
$CMLSTYLE
  2
STANDARD
  9
$CMLJUST
 70
     0
  9
$CMLSCALE
 40
20.0
  9
$PROXYGRAPHICS
 70
     1
  9
$MEASUREMENT
 70
     1
  0
ENDSEC
  0
SECTION
  2
CLASSES
  0
CLASS
  1
ACDBDICTIONARYWDFLT
  2
AcDbDictionaryWithDefault
  3
ObjectDBX Classes
 90
        0
280
     0
281
     0
  0
CLASS
  1
VISUALSTYLE
  2
AcDbVisualStyle
  3
ObjectDBX Classes
 90
     4095
280
     0
281
     0
  0
CLASS
  1
MATERIAL
  2
AcDbMaterial
  3
ObjectDBX Classes
 90
     1153
280
     0
281
     0
  0
CLASS
  1
SCALE
  2
AcDbScale
  3
ObjectDBX Classes
 90
     1153
280
     0
281
     0
  0
CLASS
  1
TABLESTYLE
  2
AcDbTableStyle
  3
ObjectDBX Classes
 90
     4095
280
     0
281
     0
  0
CLASS
  1
MLEADERSTYLE
  2
AcDbMLeaderStyle
  3
ACDB_MLEADERSTYLE_CLASS
 90
     4095
280
     0
281
     0
  0
CLASS
  1
SUN
  2
AcDbSun
  3
SCENEOE
 90
     1153
280
     0
281
     0
  0
CLASS
  1
DICTIONARYVAR
  2
AcDbDictionaryVar
  3
ObjectDBX Classes
 90
        0
280
     0
281
     0
  0
CLASS
  1
XRECORD
  2
AcDbXrecord
  3
ObjectDBX Classes
 90
        0
280
     0
281
     0
  0
CLASS
  1
LWPOLYLINE
  2
AcDbPolyline
  3
ObjectDBX Classes
 90
        0
280
     0
281
     1
  0
CLASS
  1
HATCH
  2
AcDbHatch
  3
ObjectDBX Classes
 90
        0
280
     0
281
     1
  0
CLASS
  1
ACDBPLACEHOLDER
  2
AcDbPlaceHolder
  3
ObjectDBX Classes
 90
        0
280
     0
281
     0
  0
CLASS
  1
LAYOUT
  2
AcDbLayout
  3
ObjectDBX Classes
 90
        0
280
     0
281
     0
  0
ENDSEC
  0
SECTION
  2
TABLES
  0
TABLE
  2
VPORT
  5
8
102
{ACAD_XDICTIONARY
360
6F5
102
}
330
0
100
AcDbSymbolTable
 70
     1
  0
VPORT
  5
29
330
8
100
AcDbSymbolTableRecord
100
AcDbViewportTableRecord
  2
*ACTIVE
 70
     0
 10
0.0
 20
0.0
 11
1.0
 21
1.0
 12
2100.0
 22
1485.0
 13
0.0
 23
0.0
 14
10.0
 24
10.0
 15
10.0
 25
10.0
 16
0.0
 26
0.0
 36
1.0
 17
0.0
 27
0.0
 37
0.0
 40
2770.0
 41
1.444043321299639
 42
50.0
 43
0.0
 44
0.0
 50
0.0
 51
0.0
 71
     0
 72
  1000
 73
     1
 74
     3
 75
     0
 76
     0
 77
     0
 78
     0
  0
ENDTAB
  0
TABLE
  2
LTYPE
  5
5
330
0
100
AcDbSymbolTable
 70
     7
  0
LTYPE
  5
14
330
5
100
AcDbSymbolTableRecord
100
AcDbLinetypeTableRecord
  2
BYBLOCK
 70
     0
  3

 72
    65
 73
     0
 40
0.0
  0
LTYPE
  5
15
330
5
100
AcDbSymbolTableRecord
100
AcDbLinetypeTableRecord
  2
BYLAYER
 70
     0
  3

 72
    65
 73
     0
 40
0.0
  0
LTYPE
  5
16
330
5
100
AcDbSymbolTableRecord
100
AcDbLinetypeTableRecord
  2
CONTINUOUS
 70
     0
  3
Solid line
 72
    65
 73
     0
 40
0.0
  0
LTYPE
  5
6E
330
5
100
AcDbSymbolTableRecord
100
AcDbLinetypeTableRecord
  2
EXLTYPE0
 70
     0
  3
破線
 72
    65
 73
     2
 40
4.0
 49
3.0
 74
     0
 49
-1.0
 74
     0
  0
LTYPE
  5
6F
330
5
100
AcDbSymbolTableRecord
100
AcDbLinetypeTableRecord
  2
EXLTYPE1
 70
     0
  3
点線
 72
    65
 73
     2
 40
2.0
 49
1.0
 74
     0
 49
-1.0
 74
     0
  0
LTYPE
  5
70
330
5
100
AcDbSymbolTableRecord
100
AcDbLinetypeTableRecord
  2
EXLTYPE2
 70
     0
  3
一点鎖線
 72
    65
 73
     4
 40
13.0
 49
10.0
 74
     0
 49
-1.0
 74
     0
 49
1.0
 74
     0
 49
-1.0
 74
     0
  0
LTYPE
  5
71
330
5
100
AcDbSymbolTableRecord
100
AcDbLinetypeTableRecord
  2
EXLTYPE3
 70
     0
  3
二点鎖線
 72
    65
 73
     6
 40
15.0
 49
10.0
 74
     0
 49
-1.0
 74
     0
 49
1.0
 74
     0
 49
-1.0
 74
     0
 49
1.0
 74
     0
 49
-1.0
 74
     0
  0
LTYPE
  5
72
330
5
100
AcDbSymbolTableRecord
100
AcDbLinetypeTableRecord
  2
EXLTYPE4
 70
     0
  3
一点鎖線2
 72
    65
 73
     4
 40
3.5
 49
2.0
 74
     0
 49
-0.5
 74
     0
 49
0.5
 74
     0
 49
-0.5
 74
     0
  0
LTYPE
  5
73
330
5
100
AcDbSymbolTableRecord
100
AcDbLinetypeTableRecord
  2
EXLTYPE5
 70
     0
  3
二点鎖線2
 72
    65
 73
     6
 40
4.5
 49
2.0
 74
     0
 49
-0.5
 74
     0
 49
0.5
 74
     0
 49
-0.5
 74
     0
 49
0.5
 74
     0
 49
-0.5
 74
     0
  0
ENDTAB
  0
TABLE
  2
LAYER
  5
2
330
0
100
AcDbSymbolTable
 70
     4
  0
LAYER
  5
10
330
2
100
AcDbSymbolTableRecord
100
AcDbLayerTableRecord
  2
0
 70
     0
 62
     7
  6
CONTINUOUS
  0
LAYER
  5
76
330
2
100
AcDbSymbolTableRecord
100
AcDbLayerTableRecord
  2
図面枠
 70
     4
 62
     7
  6
CONTINUOUS
  0
LAYER
  5
77
330
2
100
AcDbSymbolTableRecord
100
AcDbLayerTableRecord
  2
Ｓ_１_１
 70
     0
 62
     7
  6
CONTINUOUS
  0
LAYER
  5
12C
330
2
100
AcDbSymbolTableRecord
100
AcDbLayerTableRecord
  2
DEFPOINTS
 70
     0
 62
     7
  6
CONTINUOUS
  0
ENDTAB
  0
TABLE
  2
STYLE
  5
3
330
0
100
AcDbSymbolTable
 70
     5
  0
STYLE
  5
11
330
3
100
AcDbSymbolTableRecord
100
AcDbTextStyleTableRecord
  2
STANDARD
 70
     0
 40
0.0
 41
1.0
 50
0.0
 71
     0
 42
2.5
  3
monotxt
  4
extfont
  0
STYLE
  5
74
330
3
100
AcDbSymbolTableRecord
100
AcDbTextStyleTableRecord
  2
EXCADSTD
 70
     0
 40
0.0
 41
1.0
 50
0.0
 71
     0
 42
2.5
  3
monotxt
  4
extfont
  0
STYLE
  5
75
330
3
100
AcDbSymbolTableRecord
100
AcDbTextStyleTableRecord
  2
EXCADVERT
 70
     4
 40
0.0
 41
1.0
 50
0.0
 71
     0
 42
2.5
  3
monotxt
  4
extfont
  0
STYLE
  5
D5
330
3
100
AcDbSymbolTableRecord
100
AcDbTextStyleTableRecord
  2
EXCADTTF1
 70
     0
 40
0.0
 41
1.0
 50
0.0
 71
     0
 42
2.5
  3
msgothic.ttc
  4

1001
ACAD
1000
MS Gothic
1071
    32817
  0
STYLE
  5
12A
330
3
100
AcDbSymbolTableRecord
100
AcDbTextStyleTableRecord
  2
EXCADDIM1
 70
     0
 40
0.0
 41
1.0
 50
0.0
 71
     0
 42
2.5
  3
msgothic.ttc
  4

1001
ACAD
1000
MS Gothic
1071
    32817
  0
ENDTAB
  0
TABLE
  2
VIEW
  5
6
330
0
100
AcDbSymbolTable
 70
     0
  0
ENDTAB
  0
TABLE
  2
UCS
  5
7
330
0
100
AcDbSymbolTable
 70
     0
  0
ENDTAB
  0
TABLE
  2
APPID
  5
9
330
0
100
AcDbSymbolTable
 70
     2
  0
APPID
  5
12
330
9
100
AcDbSymbolTableRecord
100
AcDbRegAppTableRecord
  2
ACAD
 70
     0
  0
APPID
  5
6FF
330
9
100
AcDbSymbolTableRecord
100
AcDbRegAppTableRecord
  2
ACAD_MLEADERVER
 70
     0
  0
ENDTAB
  0
TABLE
  2
DIMSTYLE
  5
A
330
0
100
AcDbSymbolTable
 70
     1
  0
DIMSTYLE
105
27
102
{ACAD_REACTORS
330
12B
330
138
330
145
330
152
330
160
330
16D
330
17A
330
185
330
192
330
19F
330
1AC
330
1B9
330
1C6
330
1D3
330
1DF
330
1EB
330
1F8
330
205
330
213
330
21E
330
22C
330
5AE
330
5BB
330
5C5
330
5D1
330
5DD
330
5EB
330
5F7
330
601
330
610
330
61E
330
62A
330
636
330
643
330
64F
330
65C
330
66C
330
67E
330
689
330
695
330
6A2
330
6AF
330
6BC
102
}
330
A
100
AcDbSymbolTableRecord
100
AcDbDimStyleTableRecord
  2
ISO-25
 70
     0
  3

  4

  5

  6

  7

 40
1.0
 41
2.5
 42
0.625
 43
3.75
 44
1.25
 45
0.0
 46
0.0
 47
0.0
 48
0.0
140
2.5
141
2.5
142
0.0
143
0.03937007874016
144
1.0
145
0.0
146
1.0
147
0.625
 71
     0
 72
     0
 73
     0
 74
     0
 75
     0
 76
     0
 77
     1
 78
     8
170
     0
171
     3
172
     1
173
     0
174
     0
175
     0
176
     0
177
     0
178
     0
270
     2
271
     2
272
     2
273
     2
274
     3
340
11
275
     0
280
     0
281
     0
282
     0
283
     0
284
     8
285
     0
286
     0
287
     5
288
     0
  0
ENDTAB
  0
TABLE
  2
BLOCK_RECORD
  5
1
330
0
100
AcDbSymbolTable
 70
    57
  0
BLOCK_RECORD
  5
1F
330
1
100
AcDbSymbolTableRecord
100
AcDbBlockTableRecord
  2
*MODEL_SPACE
  0
BLOCK_RECORD
  5
1B
330
1
100
AcDbSymbolTableRecord
100
AcDbBlockTableRecord
  2
*PAPER_SPACE
  0
BLOCK_RECORD
  5
78
330
1
100
AcDbSymbolTableRecord
100
AcDbBlockTableRecord
  2
EX_NORM
  0
BLOCK_RECORD
  5
7B
330
1
100
AcDbSymbolTableRecord
100
AcDbBlockTableRecord
  2
EX_BNORM
  0
BLOCK_RECORD
  5
7E
330
1
100
AcDbSymbolTableRecord
100
AcDbBlockTableRecord
  2
EX_BCIR
  0
BLOCK_RECORD
  5
81
330
1
100
AcDbSymbolTableRecord
100
AcDbBlockTableRecord
  2
EX_RCIVIL
  0
BLOCK_RECORD
  5
84
330
1
100
AcDbSymbolTableRecord
100
AcDbBlockTableRecord
  2
EX_SLANT
  0
BLOCK_RECORD
  5
87
330
1
100
AcDbSymbolTableRecord
100
AcDbBlockTableRecord
  2
EX_NONE
  0
BLOCK_RECORD
  5
8A
330
1
100
AcDbSymbolTableRecord
100
AcDbBlockTableRecord
  2
EX_CIVIL
  0
BLOCK_RECORD
  5
8D
330
1
100
AcDbSymbolTableRecord
100
AcDbBlockTableRecord
  2
EX_WCIR
  0
BLOCK_RECORD
  5
90
330
1
100
AcDbSymbolTableRecord
100
AcDbBlockTableRecord
  2
EX_WCIR2
  0
BLOCK_RECORD
  5
93
330
1
100
AcDbSymbolTableRecord
100
AcDbBlockTableRecord
  2
EX_WNORM
  0
BLOCK_RECORD
  5
96
330
1
100
AcDbSymbolTableRecord
100
AcDbBlockTableRecord
  2
EX_NNORM
  0
BLOCK_RECORD
  5
99
330
1
100
AcDbSymbolTableRecord
100
AcDbBlockTableRecord
  2
EX_BBOX
  0
BLOCK_RECORD
  5
9C
330
1
100
AcDbSymbolTableRecord
100
AcDbBlockTableRecord
  2
EX_WBOX
  0
BLOCK_RECORD
  5
9F
330
1
100
AcDbSymbolTableRecord
100
AcDbBlockTableRecord
  2
EX_INTEGRAL
  0
BLOCK_RECORD
  5
12D
330
1
100
AcDbSymbolTableRecord
100
AcDbBlockTableRecord
  2
*D15
  0
BLOCK_RECORD
  5
139
330
1
100
AcDbSymbolTableRecord
100
AcDbBlockTableRecord
  2
*D16
  0
BLOCK_RECORD
  5
146
330
1
100
AcDbSymbolTableRecord
100
AcDbBlockTableRecord
  2
*D17
  0
BLOCK_RECORD
  5
153
330
1
100
AcDbSymbolTableRecord
100
AcDbBlockTableRecord
  2
*D18
  0
BLOCK_RECORD
  5
161
330
1
100
AcDbSymbolTableRecord
100
AcDbBlockTableRecord
  2
*D19
  0
BLOCK_RECORD
  5
16E
330
1
100
AcDbSymbolTableRecord
100
AcDbBlockTableRecord
  2
*D20
  0
BLOCK_RECORD
  5
17B
330
1
100
AcDbSymbolTableRecord
100
AcDbBlockTableRecord
  2
*D21
  0
BLOCK_RECORD
  5
186
330
1
100
AcDbSymbolTableRecord
100
AcDbBlockTableRecord
  2
*D22
  0
BLOCK_RECORD
  5
193
330
1
100
AcDbSymbolTableRecord
100
AcDbBlockTableRecord
  2
*D23
  0
BLOCK_RECORD
  5
1A0
330
1
100
AcDbSymbolTableRecord
100
AcDbBlockTableRecord
  2
*D24
  0
BLOCK_RECORD
  5
1AD
330
1
100
AcDbSymbolTableRecord
100
AcDbBlockTableRecord
  2
*D25
  0
BLOCK_RECORD
  5
1BA
330
1
100
AcDbSymbolTableRecord
100
AcDbBlockTableRecord
  2
*D26
  0
BLOCK_RECORD
  5
1C7
330
1
100
AcDbSymbolTableRecord
100
AcDbBlockTableRecord
  2
*D27
  0
BLOCK_RECORD
  5
1D4
330
1
100
AcDbSymbolTableRecord
100
AcDbBlockTableRecord
  2
*D28
  0
BLOCK_RECORD
  5
1E0
330
1
100
AcDbSymbolTableRecord
100
AcDbBlockTableRecord
  2
*D29
  0
BLOCK_RECORD
  5
1EC
330
1
100
AcDbSymbolTableRecord
100
AcDbBlockTableRecord
  2
*D30
  0
BLOCK_RECORD
  5
1F9
330
1
100
AcDbSymbolTableRecord
100
AcDbBlockTableRecord
  2
*D31
  0
BLOCK_RECORD
  5
206
330
1
100
AcDbSymbolTableRecord
100
AcDbBlockTableRecord
  2
*D32
  0
BLOCK_RECORD
  5
214
330
1
100
AcDbSymbolTableRecord
100
AcDbBlockTableRecord
  2
*D33
  0
BLOCK_RECORD
  5
21F
330
1
100
AcDbSymbolTableRecord
100
AcDbBlockTableRecord
  2
*D34
  0
BLOCK_RECORD
  5
22D
330
1
100
AcDbSymbolTableRecord
100
AcDbBlockTableRecord
  2
*D35
  0
BLOCK_RECORD
  5
5AF
330
1
100
AcDbSymbolTableRecord
100
AcDbBlockTableRecord
  2
*D36
  0
BLOCK_RECORD
  5
5BC
330
1
100
AcDbSymbolTableRecord
100
AcDbBlockTableRecord
  2
*D37
  0
BLOCK_RECORD
  5
5C6
330
1
100
AcDbSymbolTableRecord
100
AcDbBlockTableRecord
  2
*D38
  0
BLOCK_RECORD
  5
5D2
330
1
100
AcDbSymbolTableRecord
100
AcDbBlockTableRecord
  2
*D39
  0
BLOCK_RECORD
  5
5DE
330
1
100
AcDbSymbolTableRecord
100
AcDbBlockTableRecord
  2
*D40
  0
BLOCK_RECORD
  5
5EC
330
1
100
AcDbSymbolTableRecord
100
AcDbBlockTableRecord
  2
*D41
  0
BLOCK_RECORD
  5
5F8
330
1
100
AcDbSymbolTableRecord
100
AcDbBlockTableRecord
  2
*D42
  0
BLOCK_RECORD
  5
602
330
1
100
AcDbSymbolTableRecord
100
AcDbBlockTableRecord
  2
*D43
  0
BLOCK_RECORD
  5
611
330
1
100
AcDbSymbolTableRecord
100
AcDbBlockTableRecord
  2
*D44
  0
BLOCK_RECORD
  5
61F
330
1
100
AcDbSymbolTableRecord
100
AcDbBlockTableRecord
  2
*D45
  0
BLOCK_RECORD
  5
62B
330
1
100
AcDbSymbolTableRecord
100
AcDbBlockTableRecord
  2
*D46
  0
BLOCK_RECORD
  5
637
330
1
100
AcDbSymbolTableRecord
100
AcDbBlockTableRecord
  2
*D47
  0
BLOCK_RECORD
  5
644
330
1
100
AcDbSymbolTableRecord
100
AcDbBlockTableRecord
  2
*D48
  0
BLOCK_RECORD
  5
650
330
1
100
AcDbSymbolTableRecord
100
AcDbBlockTableRecord
  2
*D49
  0
BLOCK_RECORD
  5
65D
330
1
100
AcDbSymbolTableRecord
100
AcDbBlockTableRecord
  2
*D50
  0
BLOCK_RECORD
  5
66D
330
1
100
AcDbSymbolTableRecord
100
AcDbBlockTableRecord
  2
*D51
  0
BLOCK_RECORD
  5
67F
330
1
100
AcDbSymbolTableRecord
100
AcDbBlockTableRecord
  2
*D52
  0
BLOCK_RECORD
  5
68A
330
1
100
AcDbSymbolTableRecord
100
AcDbBlockTableRecord
  2
*D53
  0
BLOCK_RECORD
  5
696
330
1
100
AcDbSymbolTableRecord
100
AcDbBlockTableRecord
  2
*D54
  0
BLOCK_RECORD
  5
6A3
330
1
100
AcDbSymbolTableRecord
100
AcDbBlockTableRecord
  2
*D55
  0
BLOCK_RECORD
  5
6B0
330
1
100
AcDbSymbolTableRecord
100
AcDbBlockTableRecord
  2
*D56
  0
BLOCK_RECORD
  5
6BD
330
1
100
AcDbSymbolTableRecord
100
AcDbBlockTableRecord
  2
*D57
  0
ENDTAB
  0
ENDSEC
  0
SECTION
  2
BLOCKS
  0
BLOCK
  5
20
330
1F
100
AcDbEntity
  8
0
100
AcDbBlockBegin
  2
*MODEL_SPACE
 70
     0
 10
0.0
 20
0.0
 30
0.0
  3
*MODEL_SPACE
  1

  0
ENDBLK
  5
21
330
1F
100
AcDbEntity
  8
0
100
AcDbBlockEnd
  0
BLOCK
  5
1C
330
1B
100
AcDbEntity
 67
     1
  8
0
100
AcDbBlockBegin
  2
*PAPER_SPACE
 70
     0
 10
0.0
 20
0.0
 30
0.0
  3
*PAPER_SPACE
  1

  0
ENDBLK
  5
1D
330
1B
100
AcDbEntity
 67
     1
  8
0
100
AcDbBlockEnd
  0
BLOCK
  5
79
330
78
100
AcDbEntity
  8
0
100
AcDbBlockBegin
  2
EX_NORM
 70
     0
 10
0.0
 20
0.0
 30
0.0
  3
EX_NORM
  1

  0
LINE
  5
A2
330
78
100
AcDbEntity
  8
0
  6
CONTINUOUS
 62
     0
100
AcDbLine
 10
0.0
 20
0.0
 30
0.0
 11
-1.0
 21
0.0
 31
0.0
  0
LINE
  5
A3
330
78
100
AcDbEntity
  8
0
  6
CONTINUOUS
 62
     0
100
AcDbLine
 10
0.0
 20
0.0
 30
0.0
 11
-1.0
 21
0.166666667
 31
0.0
  0
LINE
  5
A4
330
78
100
AcDbEntity
  8
0
  6
CONTINUOUS
 62
     0
100
AcDbLine
 10
0.0
 20
0.0
 30
0.0
 11
-1.0
 21
-0.166666667
 31
0.0
  0
ENDBLK
  5
7A
330
78
100
AcDbEntity
  8
0
100
AcDbBlockEnd
  0
BLOCK
  5
7C
330
7B
100
AcDbEntity
  8
0
100
AcDbBlockBegin
  2
EX_BNORM
 70
     0
 10
0.0
 20
0.0
 30
0.0
  3
EX_BNORM
  1

  0
LINE
  5
A5
330
7B
100
AcDbEntity
  8
0
  6
CONTINUOUS
 62
     0
100
AcDbLine
 10
0.0
 20
0.0
 30
0.0
 11
-1.0
 21
0.0
 31
0.0
  0
LINE
  5
A6
330
7B
100
AcDbEntity
  8
0
  6
CONTINUOUS
 62
     0
100
AcDbLine
 10
0.0
 20
0.0
 30
0.0
 11
-1.0
 21
0.166666667
 31
0.0
  0
LINE
  5
A7
330
7B
100
AcDbEntity
  8
0
  6
CONTINUOUS
 62
     0
100
AcDbLine
 10
0.0
 20
0.0
 30
0.0
 11
-1.0
 21
-0.166666667
 31
0.0
  0
LINE
  5
A8
330
7B
100
AcDbEntity
  8
0
  6
CONTINUOUS
 62
     0
100
AcDbLine
 10
0.0
 20
0.0
 30
0.0
 11
-1.0
 21
0.083333333
 31
0.0
  0
LINE
  5
A9
330
7B
100
AcDbEntity
  8
0
  6
CONTINUOUS
 62
     0
100
AcDbLine
 10
0.0
 20
0.0
 30
0.0
 11
-1.0
 21
-0.083333333
 31
0.0
  0
LINE
  5
AA
330
7B
100
AcDbEntity
  8
0
  6
CONTINUOUS
 62
     0
100
AcDbLine
 10
-1.0
 20
0.166666667
 30
0.0
 11
-1.0
 21
-0.166666667
 31
0.0
  0
ENDBLK
  5
7D
330
7B
100
AcDbEntity
  8
0
100
AcDbBlockEnd
  0
BLOCK
  5
7F
330
7E
100
AcDbEntity
  8
0
100
AcDbBlockBegin
  2
EX_BCIR
 70
     0
 10
0.0
 20
0.0
 30
0.0
  3
EX_BCIR
  1

  0
LINE
  5
AB
330
7E
100
AcDbEntity
  8
0
  6
CONTINUOUS
 62
     0
100
AcDbLine
 10
0.0
 20
0.0
 30
0.0
 11
-1.0
 21
0.0
 31
0.0
  0
CIRCLE
  5
AC
330
7E
100
AcDbEntity
  8
0
  6
CONTINUOUS
 62
     0
100
AcDbCircle
 10
0.0
 20
0.0
 30
0.0
 40
0.5
  0
CIRCLE
  5
AD
330
7E
100
AcDbEntity
  8
0
  6
CONTINUOUS
 62
     0
100
AcDbCircle
 10
0.0
 20
0.0
 30
0.0
 40
0.25
  0
ENDBLK
  5
80
330
7E
100
AcDbEntity
  8
0
100
AcDbBlockEnd
  0
BLOCK
  5
82
330
81
100
AcDbEntity
  8
0
100
AcDbBlockBegin
  2
EX_RCIVIL
 70
     0
 10
0.0
 20
0.0
 30
0.0
  3
EX_RCIVIL
  1

  0
LINE
  5
AE
330
81
100
AcDbEntity
  8
0
  6
CONTINUOUS
 62
     0
100
AcDbLine
 10
0.0
 20
0.0
 30
0.0
 11
-1.0
 21
0.0
 31
0.0
  0
LINE
  5
AF
330
81
100
AcDbEntity
  8
0
  6
CONTINUOUS
 62
     0
100
AcDbLine
 10
-1.0
 20
-0.25
 30
0.0
 11
0.0
 21
-0.25
 31
0.0
  0
LINE
  5
B0
330
81
100
AcDbEntity
  8
0
  6
CONTINUOUS
 62
     0
100
AcDbLine
 10
-1.0
 20
-0.125
 30
0.0
 11
0.0
 21
-0.125
 31
0.0
  0
ENDBLK
  5
83
330
81
100
AcDbEntity
  8
0
100
AcDbBlockEnd
  0
BLOCK
  5
85
330
84
100
AcDbEntity
  8
0
100
AcDbBlockBegin
  2
EX_SLANT
 70
     0
 10
0.0
 20
0.0
 30
0.0
  3
EX_SLANT
  1

  0
LINE
  5
B1
330
84
100
AcDbEntity
  8
0
  6
CONTINUOUS
 62
     0
100
AcDbLine
 10
0.0
 20
0.0
 30
0.0
 11
-1.0
 21
0.0
 31
0.0
  0
LINE
  5
B2
330
84
100
AcDbEntity
  8
0
  6
CONTINUOUS
 62
     0
100
AcDbLine
 10
0.707106781
 20
0.707106781
 30
0.0
 11
-0.707106781
 21
-0.707106781
 31
0.0
  0
ENDBLK
  5
86
330
84
100
AcDbEntity
  8
0
100
AcDbBlockEnd
  0
BLOCK
  5
88
330
87
100
AcDbEntity
  8
0
100
AcDbBlockBegin
  2
EX_NONE
 70
     0
 10
0.0
 20
0.0
 30
0.0
  3
EX_NONE
  1

  0
LINE
  5
B3
330
87
100
AcDbEntity
  8
0
  6
CONTINUOUS
 62
     0
100
AcDbLine
 10
0.0
 20
0.0
 30
0.0
 11
-1.0
 21
0.0
 31
0.0
  0
ENDBLK
  5
89
330
87
100
AcDbEntity
  8
0
100
AcDbBlockEnd
  0
BLOCK
  5
8B
330
8A
100
AcDbEntity
  8
0
100
AcDbBlockBegin
  2
EX_CIVIL
 70
     0
 10
0.0
 20
0.0
 30
0.0
  3
EX_CIVIL
  1

  0
LINE
  5
B4
330
8A
100
AcDbEntity
  8
0
  6
CONTINUOUS
 62
     0
100
AcDbLine
 10
0.0
 20
0.0
 30
0.0
 11
-1.0
 21
0.0
 31
0.0
  0
LINE
  5
B5
330
8A
100
AcDbEntity
  8
0
  6
CONTINUOUS
 62
     0
100
AcDbLine
 10
-1.0
 20
0.25
 30
0.0
 11
0.0
 21
0.25
 31
0.0
  0
LINE
  5
B6
330
8A
100
AcDbEntity
  8
0
  6
CONTINUOUS
 62
     0
100
AcDbLine
 10
-1.0
 20
0.125
 30
0.0
 11
0.0
 21
0.125
 31
0.0
  0
ENDBLK
  5
8C
330
8A
100
AcDbEntity
  8
0
100
AcDbBlockEnd
  0
BLOCK
  5
8E
330
8D
100
AcDbEntity
  8
0
100
AcDbBlockBegin
  2
EX_WCIR
 70
     0
 10
0.0
 20
0.0
 30
0.0
  3
EX_WCIR
  1

  0
LINE
  5
B7
330
8D
100
AcDbEntity
  8
0
  6
CONTINUOUS
 62
     0
100
AcDbLine
 10
0.0
 20
0.0
 30
0.0
 11
-1.0
 21
0.0
 31
0.0
  0
CIRCLE
  5
B8
330
8D
100
AcDbEntity
  8
0
  6
CONTINUOUS
 62
     0
100
AcDbCircle
 10
0.0
 20
0.0
 30
0.0
 40
0.5
  0
ENDBLK
  5
8F
330
8D
100
AcDbEntity
  8
0
100
AcDbBlockEnd
  0
BLOCK
  5
91
330
90
100
AcDbEntity
  8
0
100
AcDbBlockBegin
  2
EX_WCIR2
 70
     0
 10
0.0
 20
0.0
 30
0.0
  3
EX_WCIR2
  1

  0
LINE
  5
B9
330
90
100
AcDbEntity
  8
0
  6
CONTINUOUS
 62
     0
100
AcDbLine
 10
-0.5
 20
0.0
 30
0.0
 11
-1.0
 21
0.0
 31
0.0
  0
CIRCLE
  5
BA
330
90
100
AcDbEntity
  8
0
  6
CONTINUOUS
 62
     0
100
AcDbCircle
 10
0.0
 20
0.0
 30
0.0
 40
0.5
  0
ENDBLK
  5
92
330
90
100
AcDbEntity
  8
0
100
AcDbBlockEnd
  0
BLOCK
  5
94
330
93
100
AcDbEntity
  8
0
100
AcDbBlockBegin
  2
EX_WNORM
 70
     0
 10
0.0
 20
0.0
 30
0.0
  3
EX_WNORM
  1

  0
LINE
  5
BB
330
93
100
AcDbEntity
  8
0
  6
CONTINUOUS
 62
     0
100
AcDbLine
 10
-1.0
 20
0.0
 30
0.0
 11
-1.0
 21
0.0
 31
0.0
  0
LINE
  5
BC
330
93
100
AcDbEntity
  8
0
  6
CONTINUOUS
 62
     0
100
AcDbLine
 10
0.0
 20
0.0
 30
0.0
 11
-1.0
 21
0.166666667
 31
0.0
  0
LINE
  5
BD
330
93
100
AcDbEntity
  8
0
  6
CONTINUOUS
 62
     0
100
AcDbLine
 10
0.0
 20
0.0
 30
0.0
 11
-1.0
 21
-0.166666667
 31
0.0
  0
LINE
  5
BE
330
93
100
AcDbEntity
  8
0
  6
CONTINUOUS
 62
     0
100
AcDbLine
 10
-1.0
 20
0.166666667
 30
0.0
 11
-1.0
 21
-0.166666667
 31
0.0
  0
ENDBLK
  5
95
330
93
100
AcDbEntity
  8
0
100
AcDbBlockEnd
  0
BLOCK
  5
97
330
96
100
AcDbEntity
  8
0
100
AcDbBlockBegin
  2
EX_NNORM
 70
     0
 10
0.0
 20
0.0
 30
0.0
  3
EX_NNORM
  1

  0
LINE
  5
BF
330
96
100
AcDbEntity
  8
0
  6
CONTINUOUS
 62
     0
100
AcDbLine
 10
0.0
 20
0.0
 30
0.0
 11
-1.0
 21
0.0
 31
0.0
  0
LINE
  5
C0
330
96
100
AcDbEntity
  8
0
  6
CONTINUOUS
 62
     0
100
AcDbLine
 10
0.0
 20
0.0
 30
0.0
 11
-1.0
 21
0.166666667
 31
0.0
  0
LINE
  5
C1
330
96
100
AcDbEntity
  8
0
  6
CONTINUOUS
 62
     0
100
AcDbLine
 10
0.0
 20
0.0
 30
0.0
 11
-1.0
 21
-0.166666667
 31
0.0
  0
LINE
  5
C2
330
96
100
AcDbEntity
  8
0
  6
CONTINUOUS
 62
     0
100
AcDbLine
 10
-1.0
 20
0.166666667
 30
0.0
 11
-1.0
 21
-0.166666667
 31
0.0
  0
ENDBLK
  5
98
330
96
100
AcDbEntity
  8
0
100
AcDbBlockEnd
  0
BLOCK
  5
9A
330
99
100
AcDbEntity
  8
0
100
AcDbBlockBegin
  2
EX_BBOX
 70
     0
 10
0.0
 20
0.0
 30
0.0
  3
EX_BBOX
  1

  0
LINE
  5
C3
330
99
100
AcDbEntity
  8
0
  6
CONTINUOUS
 62
     0
100
AcDbLine
 10
0.0
 20
0.0
 30
0.0
 11
-1.0
 21
0.0
 31
0.0
  0
LINE
  5
C4
330
99
100
AcDbEntity
  8
0
  6
CONTINUOUS
 62
     0
100
AcDbLine
 10
-0.5
 20
0.5
 30
0.0
 11
0.5
 21
0.5
 31
0.0
  0
LINE
  5
C5
330
99
100
AcDbEntity
  8
0
  6
CONTINUOUS
 62
     0
100
AcDbLine
 10
0.5
 20
0.5
 30
0.0
 11
0.5
 21
-0.5
 31
0.0
  0
LINE
  5
C6
330
99
100
AcDbEntity
  8
0
  6
CONTINUOUS
 62
     0
100
AcDbLine
 10
0.5
 20
-0.5
 30
0.0
 11
-0.5
 21
-0.5
 31
0.0
  0
LINE
  5
C7
330
99
100
AcDbEntity
  8
0
  6
CONTINUOUS
 62
     0
100
AcDbLine
 10
-0.5
 20
-0.5
 30
0.0
 11
-0.5
 21
0.5
 31
0.0
  0
LINE
  5
C8
330
99
100
AcDbEntity
  8
0
  6
CONTINUOUS
 62
     0
100
AcDbLine
 10
-0.25
 20
0.25
 30
0.0
 11
0.25
 21
0.25
 31
0.0
  0
LINE
  5
C9
330
99
100
AcDbEntity
  8
0
  6
CONTINUOUS
 62
     0
100
AcDbLine
 10
0.25
 20
0.25
 30
0.0
 11
0.25
 21
-0.25
 31
0.0
  0
LINE
  5
CA
330
99
100
AcDbEntity
  8
0
  6
CONTINUOUS
 62
     0
100
AcDbLine
 10
0.25
 20
-0.25
 30
0.0
 11
-0.25
 21
-0.25
 31
0.0
  0
LINE
  5
CB
330
99
100
AcDbEntity
  8
0
  6
CONTINUOUS
 62
     0
100
AcDbLine
 10
-0.25
 20
-0.25
 30
0.0
 11
-0.25
 21
0.25
 31
0.0
  0
ENDBLK
  5
9B
330
99
100
AcDbEntity
  8
0
100
AcDbBlockEnd
  0
BLOCK
  5
9D
330
9C
100
AcDbEntity
  8
0
100
AcDbBlockBegin
  2
EX_WBOX
 70
     0
 10
0.0
 20
0.0
 30
0.0
  3
EX_WBOX
  1

  0
LINE
  5
CC
330
9C
100
AcDbEntity
  8
0
  6
CONTINUOUS
 62
     0
100
AcDbLine
 10
-0.5
 20
0.0
 30
0.0
 11
-1.0
 21
0.0
 31
0.0
  0
LINE
  5
CD
330
9C
100
AcDbEntity
  8
0
  6
CONTINUOUS
 62
     0
100
AcDbLine
 10
-0.5
 20
0.5
 30
0.0
 11
0.5
 21
0.5
 31
0.0
  0
LINE
  5
CE
330
9C
100
AcDbEntity
  8
0
  6
CONTINUOUS
 62
     0
100
AcDbLine
 10
0.5
 20
0.5
 30
0.0
 11
0.5
 21
-0.5
 31
0.0
  0
LINE
  5
CF
330
9C
100
AcDbEntity
  8
0
  6
CONTINUOUS
 62
     0
100
AcDbLine
 10
0.5
 20
-0.5
 30
0.0
 11
-0.5
 21
-0.5
 31
0.0
  0
LINE
  5
D0
330
9C
100
AcDbEntity
  8
0
  6
CONTINUOUS
 62
     0
100
AcDbLine
 10
-0.5
 20
-0.5
 30
0.0
 11
-0.5
 21
0.5
 31
0.0
  0
ENDBLK
  5
9E
330
9C
100
AcDbEntity
  8
0
100
AcDbBlockEnd
  0
BLOCK
  5
A0
330
9F
100
AcDbEntity
  8
0
100
AcDbBlockBegin
  2
EX_INTEGRAL
 70
     0
 10
0.0
 20
0.0
 30
0.0
  3
EX_INTEGRAL
  1

  0
LINE
  5
D1
330
9F
100
AcDbEntity
  8
0
  6
CONTINUOUS
 62
     0
100
AcDbLine
 10
0.0
 20
0.0
 30
0.0
 11
-1.0
 21
0.0
 31
0.0
  0
ARC
  5
D2
330
9F
100
AcDbEntity
  8
0
  6
CONTINUOUS
 62
     0
100
AcDbCircle
 10
0.542115
 20
0.164992
 30
0.0
 40
0.56667
100
AcDbArc
 50
73.07249033629006
 51
196.9275130221199
  0
ARC
  5
D3
330
9F
100
AcDbEntity
  8
0
  6
CONTINUOUS
 62
     0
100
AcDbCircle
 10
-0.542115
 20
-0.164992
 30
0.0
 40
0.56667
100
AcDbArc
 50
253.0724869220464
 51
16.9275130559125
  0
ENDBLK
  5
A1
330
9F
100
AcDbEntity
  8
0
100
AcDbBlockEnd
  0
BLOCK
  5
12E
330
12D
100
AcDbEntity
  8
0
100
AcDbBlockBegin
  2
*D15
 70
     1
 10
0.0
 20
0.0
 30
0.0
  3
*D15
  1

  0
LINE
  5
130
330
12D
100
AcDbEntity
  8
Ｓ_１_１
  6
CONTINUOUS
 62
     2
100
AcDbLine
 10
1929.999997
 20
680.9999990000001
 30
0.0
 11
1929.999997
 21
725.0
 31
0.0
  0
LINE
  5
131
330
12D
100
AcDbEntity
  8
Ｓ_１_１
  6
CONTINUOUS
 62
     2
100
AcDbLine
 10
1959.999997
 20
715.0
 30
0.0
 11
2104.999994
 21
715.0
 31
0.0
  0
INSERT
  5
132
330
12D
100
AcDbEntity
  8
Ｓ_１_１
 62
     2
100
AcDbBlockReference
  2
EX_NORM
 10
1929.999997
 20
715.0
 30
0.0
 41
30.0
 42
30.0
 43
30.0
 50
180.0
  0
INSERT
  5
133
330
12D
100
AcDbEntity
  8
Ｓ_１_１
 62
     2
100
AcDbBlockReference
  2
EX_NORM
 10
2134.999994
 20
715.0
 30
0.0
 41
30.0
 42
30.0
 43
30.0
  0
MTEXT
  5
134
330
12D
100
AcDbEntity
  8
Ｓ_１_１
 62
     2
100
AcDbMText
 10
2032.4999955
 20
742.5
 30
0.0
 40
34.6290415704388
 41
0.0
 71
     5
 72
     1
  1
 　205
  7
EXCADDIM1
  0
POINT
  5
135
330
12D
100
AcDbEntity
  8
DEFPOINTS
 62
     0
100
AcDbPoint
 10
1929.999997
 20
665.9999990000001
 30
0.0
  0
POINT
  5
136
330
12D
100
AcDbEntity
  8
DEFPOINTS
 62
     0
100
AcDbPoint
 10
2134.999994
 20
674.9999990000001
 30
0.0
  0
POINT
  5
137
330
12D
100
AcDbEntity
  8
DEFPOINTS
 62
     0
100
AcDbPoint
 10
2134.999994
 20
715.0
 30
0.0
  0
ENDBLK
  5
12F
330
12D
100
AcDbEntity
  8
0
100
AcDbBlockEnd
  0
BLOCK
  5
13A
330
139
100
AcDbEntity
  8
0
100
AcDbBlockBegin
  2
*D16
 70
     1
 10
0.0
 20
0.0
 30
0.0
  3
*D16
  1

  0
LINE
  5
13C
330
139
100
AcDbEntity
  8
Ｓ_１_１
  6
CONTINUOUS
 62
     2
100
AcDbLine
 10
2137.999984999999
 20
1037.499994
 30
0.0
 11
2285.0
 21
1037.499994
 31
0.0
  0
LINE
  5
13D
330
139
100
AcDbEntity
  8
Ｓ_１_１
  6
CONTINUOUS
 62
     2
100
AcDbLine
 10
2137.999984999999
 20
837.4999969999999
 30
0.0
 11
2285.0
 21
837.4999969999999
 31
0.0
  0
LINE
  5
13E
330
139
100
AcDbEntity
  8
Ｓ_１_１
  6
CONTINUOUS
 62
     2
100
AcDbLine
 10
2275.0
 20
1007.499994
 30
0.0
 11
2275.0
 21
867.4999969999999
 31
0.0
  0
INSERT
  5
13F
330
139
100
AcDbEntity
  8
Ｓ_１_１
 62
     2
100
AcDbBlockReference
  2
EX_NORM
 10
2275.0
 20
1037.499994
 30
0.0
 41
30.0
 42
30.0
 43
30.0
 50
90.0
  0
INSERT
  5
140
330
139
100
AcDbEntity
  8
Ｓ_１_１
 62
     2
100
AcDbBlockReference
  2
EX_NORM
 10
2275.0
 20
837.4999969999999
 30
0.0
 41
30.0
 42
30.0
 43
30.0
 50
270.0
  0
MTEXT
  5
141
330
139
100
AcDbEntity
  8
Ｓ_１_１
 62
     2
100
AcDbMText
 10
2247.5
 20
937.4999954999998
 30
0.0
 40
34.6290415704388
 41
0.0
 71
     5
 72
     1
  1
　　200
  7
EXCADDIM1
 11
0.0
 21
1.0
 31
0.0
  0
POINT
  5
142
330
139
100
AcDbEntity
  8
DEFPOINTS
 62
     0
100
AcDbPoint
 10
2122.999984999999
 20
1037.499994
 30
0.0
  0
POINT
  5
143
330
139
100
AcDbEntity
  8
DEFPOINTS
 62
     0
100
AcDbPoint
 10
2122.999984999999
 20
837.4999969999999
 30
0.0
  0
POINT
  5
144
330
139
100
AcDbEntity
  8
DEFPOINTS
 62
     0
100
AcDbPoint
 10
2275.0
 20
837.4999969999999
 30
0.0
  0
ENDBLK
  5
13B
330
139
100
AcDbEntity
  8
0
100
AcDbBlockEnd
  0
BLOCK
  5
147
330
146
100
AcDbEntity
  8
0
100
AcDbBlockBegin
  2
*D17
 70
     1
 10
0.0
 20
0.0
 30
0.0
  3
*D17
  1

  0
LINE
  5
149
330
146
100
AcDbEntity
  8
Ｓ_１_１
  6
CONTINUOUS
 62
     2
100
AcDbLine
 10
2149.999992
 20
1052.499994
 30
0.0
 11
2350.0
 21
1052.499994
 31
0.0
  0
LINE
  5
14A
330
146
100
AcDbEntity
  8
Ｓ_１_１
  6
CONTINUOUS
 62
     2
100
AcDbLine
 10
2149.999992
 20
822.4999969999999
 30
0.0
 11
2350.0
 21
822.4999969999999
 31
0.0
  0
LINE
  5
14B
330
146
100
AcDbEntity
  8
Ｓ_１_１
  6
CONTINUOUS
 62
     2
100
AcDbLine
 10
2340.0
 20
1022.499994
 30
0.0
 11
2340.0
 21
852.4999969999999
 31
0.0
  0
INSERT
  5
14C
330
146
100
AcDbEntity
  8
Ｓ_１_１
 62
     2
100
AcDbBlockReference
  2
EX_NORM
 10
2340.0
 20
1052.499994
 30
0.0
 41
30.0
 42
30.0
 43
30.0
 50
90.0
  0
INSERT
  5
14D
330
146
100
AcDbEntity
  8
Ｓ_１_１
 62
     2
100
AcDbBlockReference
  2
EX_NORM
 10
2340.0
 20
822.4999969999999
 30
0.0
 41
30.0
 42
30.0
 43
30.0
 50
270.0
  0
MTEXT
  5
14E
330
146
100
AcDbEntity
  8
Ｓ_１_１
 62
     2
100
AcDbMText
 10
2312.5
 20
937.4999954999998
 30
0.0
 40
34.6290415704388
 41
0.0
 71
     5
 72
     1
  1
　　230
  7
EXCADDIM1
 11
0.0
 21
1.0
 31
0.0
  0
POINT
  5
14F
330
146
100
AcDbEntity
  8
DEFPOINTS
 62
     0
100
AcDbPoint
 10
2134.999992
 20
1052.499994
 30
0.0
  0
POINT
  5
150
330
146
100
AcDbEntity
  8
DEFPOINTS
 62
     0
100
AcDbPoint
 10
2134.999992
 20
822.4999969999999
 30
0.0
  0
POINT
  5
151
330
146
100
AcDbEntity
  8
DEFPOINTS
 62
     0
100
AcDbPoint
 10
2340.0
 20
822.4999969999999
 30
0.0
  0
ENDBLK
  5
148
330
146
100
AcDbEntity
  8
0
100
AcDbBlockEnd
  0
BLOCK
  5
154
330
153
100
AcDbEntity
  8
0
100
AcDbBlockBegin
  2
*D18
 70
     1
 10
0.0
 20
0.0
 30
0.0
  3
*D18
  1

  0
LINE
  5
156
330
153
100
AcDbEntity
  8
Ｓ_１_１
  6
CONTINUOUS
 62
     2
100
AcDbLine
 10
2034.999996
 20
2443.954135
 30
0.0
 11
2034.999996
 21
2545.0
 31
0.0
  0
LINE
  5
157
330
153
100
AcDbEntity
  8
Ｓ_１_１
  6
CONTINUOUS
 62
     2
100
AcDbLine
 10
2134.999994
 20
2480.585452
 30
0.0
 11
2134.999994
 21
2545.0
 31
0.0
  0
LINE
  5
158
330
153
100
AcDbEntity
  8
Ｓ_１_１
  6
CONTINUOUS
 62
     2
100
AcDbLine
 10
2064.999996
 20
2535.0
 30
0.0
 11
2104.999994
 21
2535.0
 31
0.0
  0
INSERT
  5
159
330
153
100
AcDbEntity
  8
Ｓ_１_１
 62
     2
100
AcDbBlockReference
  2
EX_NORM
 10
2034.999996
 20
2535.0
 30
0.0
 41
30.0
 42
30.0
 43
30.0
 50
180.0
  0
INSERT
  5
15A
330
153
100
AcDbEntity
  8
Ｓ_１_１
 62
     2
100
AcDbBlockReference
  2
EX_NORM
 10
2134.999994
 20
2535.0
 30
0.0
 41
30.0
 42
30.0
 43
30.0
  0
MTEXT
  5
15B
330
153
100
AcDbEntity
  8
Ｓ_１_１
 62
     2
100
AcDbMText
 10
2084.999995
 20
2562.5
 30
0.0
 40
34.6290415704388
 41
0.0
 71
     5
 72
     1
  1
100
  7
EXCADDIM1
  0
POINT
  5
15C
330
153
100
AcDbEntity
  8
DEFPOINTS
 62
     0
100
AcDbPoint
 10
2034.999996
 20
2428.954135
 30
0.0
  0
POINT
  5
15D
330
153
100
AcDbEntity
  8
DEFPOINTS
 62
     0
100
AcDbPoint
 10
2134.999994
 20
2465.585452
 30
0.0
  0
POINT
  5
15E
330
153
100
AcDbEntity
  8
DEFPOINTS
 62
     0
100
AcDbPoint
 10
2134.999994
 20
2535.0
 30
0.0
  0
ENDBLK
  5
155
330
153
100
AcDbEntity
  8
0
100
AcDbBlockEnd
  0
BLOCK
  5
162
330
161
100
AcDbEntity
  8
0
100
AcDbBlockBegin
  2
*D19
 70
     1
 10
0.0
 20
0.0
 30
0.0
  3
*D19
  1

  0
LINE
  5
164
330
161
100
AcDbEntity
  8
Ｓ_１_１
  6
CONTINUOUS
 62
     2
100
AcDbLine
 10
2880.2795380434
 20
2431.25745
 30
0.0
 11
3065.0
 21
2431.25745
 31
0.0
  0
LINE
  5
165
330
161
100
AcDbEntity
  8
Ｓ_１_１
  6
CONTINUOUS
 62
     2
100
AcDbLine
 10
2931.7073030434
 20
842.8250279999997
 30
0.0
 11
3065.0
 21
842.8250279999997
 31
0.0
  0
LINE
  5
166
330
161
100
AcDbEntity
  8
Ｓ_１_１
  6
CONTINUOUS
 62
     2
100
AcDbLine
 10
3055.0
 20
2401.25745
 30
0.0
 11
3055.0
 21
872.8250279999997
 31
0.0
  0
INSERT
  5
167
330
161
100
AcDbEntity
  8
Ｓ_１_１
 62
     2
100
AcDbBlockReference
  2
EX_NORM
 10
3055.0
 20
2431.25745
 30
0.0
 41
30.0
 42
30.0
 43
30.0
 50
90.0
  0
INSERT
  5
168
330
161
100
AcDbEntity
  8
Ｓ_１_１
 62
     2
100
AcDbBlockReference
  2
EX_NORM
 10
3055.0
 20
842.8250279999997
 30
0.0
 41
30.0
 42
30.0
 43
30.0
 50
270.0
  0
MTEXT
  5
169
330
161
100
AcDbEntity
  8
Ｓ_１_１
 62
     2
100
AcDbMText
 10
3027.5
 20
1637.041238999999
 30
0.0
 40
34.6290415704388
 41
0.0
 71
     5
 72
     1
  1
1588
  7
EXCADDIM1
 11
0.0
 21
1.0
 31
0.0
  0
POINT
  5
16A
330
161
100
AcDbEntity
  8
DEFPOINTS
 62
     0
100
AcDbPoint
 10
2865.2795380434
 20
2431.25745
 30
0.0
  0
POINT
  5
16B
330
161
100
AcDbEntity
  8
DEFPOINTS
 62
     0
100
AcDbPoint
 10
2916.7073030434
 20
842.8250279999997
 30
0.0
  0
POINT
  5
16C
330
161
100
AcDbEntity
  8
DEFPOINTS
 62
     0
100
AcDbPoint
 10
3055.0
 20
842.8250279999997
 30
0.0
  0
ENDBLK
  5
163
330
161
100
AcDbEntity
  8
0
100
AcDbBlockEnd
  0
BLOCK
  5
16F
330
16E
100
AcDbEntity
  8
0
100
AcDbBlockBegin
  2
*D20
 70
     1
 10
0.0
 20
0.0
 30
0.0
  3
*D20
  1

  0
LINE
  5
171
330
16E
100
AcDbEntity
  8
Ｓ_１_１
  6
CONTINUOUS
 62
     2
100
AcDbLine
 10
2058.841809
 20
2208.954139
 30
0.0
 11
2480.0
 21
2208.954139
 31
0.0
  0
LINE
  5
172
330
16E
100
AcDbEntity
  8
Ｓ_１_１
  6
CONTINUOUS
 62
     2
100
AcDbLine
 10
2185.833814
 20
650.0
 30
0.0
 11
2480.0
 21
650.0
 31
0.0
  0
LINE
  5
173
330
16E
100
AcDbEntity
  8
Ｓ_１_１
  6
CONTINUOUS
 62
     2
100
AcDbLine
 10
2470.0
 20
2178.954139
 30
0.0
 11
2470.0
 21
680.0
 31
0.0
  0
INSERT
  5
174
330
16E
100
AcDbEntity
  8
Ｓ_１_１
 62
     2
100
AcDbBlockReference
  2
EX_NORM
 10
2470.0
 20
2208.954139
 30
0.0
 41
30.0
 42
30.0
 43
30.0
 50
90.0
  0
INSERT
  5
175
330
16E
100
AcDbEntity
  8
Ｓ_１_１
 62
     2
100
AcDbBlockReference
  2
EX_NORM
 10
2470.0
 20
650.0
 30
0.0
 41
30.0
 42
30.0
 43
30.0
 50
270.0
  0
MTEXT
  5
176
330
16E
100
AcDbEntity
  8
Ｓ_１_１
 62
     2
100
AcDbMText
 10
2442.5
 20
1429.477069499999
 30
0.0
 40
34.6290415704388
 41
0.0
 71
     5
 72
     1
  1
1559
  7
EXCADDIM1
 11
0.0
 21
1.0
 31
0.0
  0
POINT
  5
177
330
16E
100
AcDbEntity
  8
DEFPOINTS
 62
     0
100
AcDbPoint
 10
2043.841809
 20
2208.954139
 30
0.0
  0
POINT
  5
178
330
16E
100
AcDbEntity
  8
DEFPOINTS
 62
     0
100
AcDbPoint
 10
2170.833814
 20
650.0
 30
0.0
  0
POINT
  5
179
330
16E
100
AcDbEntity
  8
DEFPOINTS
 62
     0
100
AcDbPoint
 10
2470.0
 20
650.0
 30
0.0
  0
ENDBLK
  5
170
330
16E
100
AcDbEntity
  8
0
100
AcDbBlockEnd
  0
BLOCK
  5
17C
330
17B
100
AcDbEntity
  8
0
100
AcDbBlockBegin
  2
*D21
 70
     1
 10
0.0
 20
0.0
 30
0.0
  3
*D21
  1

  0
LINE
  5
17E
330
17B
100
AcDbEntity
  8
Ｓ_１_１
  6
CONTINUOUS
 62
     2
100
AcDbLine
 10
2405.0
 20
2178.954139
 30
0.0
 11
2405.0
 21
967.499996
 31
0.0
  0
INSERT
  5
17F
330
17B
100
AcDbEntity
  8
Ｓ_１_１
 62
     2
100
AcDbBlockReference
  2
EX_NORM
 10
2405.0
 20
2208.954139
 30
0.0
 41
30.0
 42
30.0
 43
30.0
 50
90.0
  0
INSERT
  5
180
330
17B
100
AcDbEntity
  8
Ｓ_１_１
 62
     2
100
AcDbBlockReference
  2
EX_NORM
 10
2405.0
 20
937.499996
 30
0.0
 41
30.0
 42
30.0
 43
30.0
 50
270.0
  0
MTEXT
  5
181
330
17B
100
AcDbEntity
  8
Ｓ_１_１
 62
     2
100
AcDbMText
 10
2377.5
 20
1573.2270675
 30
0.0
 40
34.6290415704388
 41
0.0
 71
     5
 72
     1
  1
1271
  7
EXCADDIM1
 11
0.0
 21
1.0
 31
0.0
  0
POINT
  5
182
330
17B
100
AcDbEntity
  8
DEFPOINTS
 62
     0
100
AcDbPoint
 10
2134.999991
 20
2208.954139
 30
0.0
  0
POINT
  5
183
330
17B
100
AcDbEntity
  8
DEFPOINTS
 62
     0
100
AcDbPoint
 10
2152.499991
 20
937.499996
 30
0.0
  0
POINT
  5
184
330
17B
100
AcDbEntity
  8
DEFPOINTS
 62
     0
100
AcDbPoint
 10
2405.0
 20
937.499996
 30
0.0
  0
ENDBLK
  5
17D
330
17B
100
AcDbEntity
  8
0
100
AcDbBlockEnd
  0
BLOCK
  5
187
330
186
100
AcDbEntity
  8
0
100
AcDbBlockBegin
  2
*D22
 70
     1
 10
0.0
 20
0.0
 30
0.0
  3
*D22
  1

  0
LINE
  5
189
330
186
100
AcDbEntity
  8
Ｓ_１_１
  6
CONTINUOUS
 62
     2
100
AcDbLine
 10
2167.499991
 20
937.499996
 30
0.0
 11
2415.0
 21
937.499996
 31
0.0
  0
LINE
  5
18A
330
186
100
AcDbEntity
  8
Ｓ_１_１
  6
CONTINUOUS
 62
     2
100
AcDbLine
 10
2185.833806999999
 20
650.0
 30
0.0
 11
2415.0
 21
650.0
 31
0.0
  0
LINE
  5
18B
330
186
100
AcDbEntity
  8
Ｓ_１_１
  6
CONTINUOUS
 62
     2
100
AcDbLine
 10
2405.0
 20
907.499996
 30
0.0
 11
2405.0
 21
680.0
 31
0.0
  0
INSERT
  5
18C
330
186
100
AcDbEntity
  8
Ｓ_１_１
 62
     2
100
AcDbBlockReference
  2
EX_NORM
 10
2405.0
 20
937.499996
 30
0.0
 41
30.0
 42
30.0
 43
30.0
 50
90.0
  0
INSERT
  5
18D
330
186
100
AcDbEntity
  8
Ｓ_１_１
 62
     2
100
AcDbBlockReference
  2
EX_NORM
 10
2405.0
 20
650.0
 30
0.0
 41
30.0
 42
30.0
 43
30.0
 50
270.0
  0
MTEXT
  5
18E
330
186
100
AcDbEntity
  8
Ｓ_１_１
 62
     2
100
AcDbMText
 10
2377.5
 20
793.7499979999998
 30
0.0
 40
34.6290415704388
 41
0.0
 71
     5
 72
     1
  1
288
  7
EXCADDIM1
 11
0.0
 21
1.0
 31
0.0
  0
POINT
  5
18F
330
186
100
AcDbEntity
  8
DEFPOINTS
 62
     0
100
AcDbPoint
 10
2152.499991
 20
937.499996
 30
0.0
  0
POINT
  5
190
330
186
100
AcDbEntity
  8
DEFPOINTS
 62
     0
100
AcDbPoint
 10
2170.833806999999
 20
650.0
 30
0.0
  0
POINT
  5
191
330
186
100
AcDbEntity
  8
DEFPOINTS
 62
     0
100
AcDbPoint
 10
2405.0
 20
650.0
 30
0.0
  0
ENDBLK
  5
188
330
186
100
AcDbEntity
  8
0
100
AcDbBlockEnd
  0
BLOCK
  5
194
330
193
100
AcDbEntity
  8
0
100
AcDbBlockBegin
  2
*D23
 70
     1
 10
0.0
 20
0.0
 30
0.0
  3
*D23
  1

  0
LINE
  5
196
330
193
100
AcDbEntity
  8
Ｓ_１_１
  6
CONTINUOUS
 62
     2
100
AcDbLine
 10
2929.5000450434
 20
837.8251250000001
 30
0.0
 11
2929.5000450434
 21
705.0
 31
0.0
  0
LINE
  5
197
330
193
100
AcDbEntity
  8
Ｓ_１_１
  6
CONTINUOUS
 62
     2
100
AcDbLine
 10
2691.499942043401
 20
1217.825079
 30
0.0
 11
2691.499942043401
 21
705.0
 31
0.0
  0
LINE
  5
198
330
193
100
AcDbEntity
  8
Ｓ_１_１
  6
CONTINUOUS
 62
     2
100
AcDbLine
 10
2899.5000450434
 20
715.0
 30
0.0
 11
2721.499942043401
 21
715.0
 31
0.0
  0
INSERT
  5
199
330
193
100
AcDbEntity
  8
Ｓ_１_１
 62
     2
100
AcDbBlockReference
  2
EX_NORM
 10
2929.5000450434
 20
715.0
 30
0.0
 41
30.0
 42
30.0
 43
30.0
  0
INSERT
  5
19A
330
193
100
AcDbEntity
  8
Ｓ_１_１
 62
     2
100
AcDbBlockReference
  2
EX_NORM
 10
2691.499942043401
 20
715.0
 30
0.0
 41
30.0
 42
30.0
 43
30.0
 50
180.0
  0
MTEXT
  5
19B
330
193
100
AcDbEntity
  8
Ｓ_１_１
 62
     2
100
AcDbMText
 10
2810.4999935434
 20
742.4999999999997
 30
0.0
 40
34.6290415704388
 41
0.0
 71
     5
 72
     1
  1
238
  7
EXCADDIM1
  0
POINT
  5
19C
330
193
100
AcDbEntity
  8
DEFPOINTS
 62
     0
100
AcDbPoint
 10
2929.5000450434
 20
852.8251250000001
 30
0.0
  0
POINT
  5
19D
330
193
100
AcDbEntity
  8
DEFPOINTS
 62
     0
100
AcDbPoint
 10
2691.499942043401
 20
1232.825079
 30
0.0
  0
POINT
  5
19E
330
193
100
AcDbEntity
  8
DEFPOINTS
 62
     0
100
AcDbPoint
 10
2691.499942043401
 20
715.0
 30
0.0
  0
ENDBLK
  5
195
330
193
100
AcDbEntity
  8
0
100
AcDbBlockEnd
  0
BLOCK
  5
1A1
330
1A0
100
AcDbEntity
  8
0
100
AcDbBlockBegin
  2
*D24
 70
     1
 10
0.0
 20
0.0
 30
0.0
  3
*D24
  1

  0
LINE
  5
1A3
330
1A0
100
AcDbEntity
  8
Ｓ_１_１
  6
CONTINUOUS
 62
     2
100
AcDbLine
 10
1011.99989
 20
873.5244160000002
 30
0.0
 11
1011.99989
 21
445.0000000000001
 31
0.0
  0
LINE
  5
1A4
330
1A0
100
AcDbEntity
  8
Ｓ_１_１
  6
CONTINUOUS
 62
     2
100
AcDbLine
 10
548.0000339999995
 20
873.5244160000002
 30
0.0
 11
548.0000339999995
 21
445.0000000000001
 31
0.0
  0
LINE
  5
1A5
330
1A0
100
AcDbEntity
  8
Ｓ_１_１
  6
CONTINUOUS
 62
     2
100
AcDbLine
 10
981.9998900000002
 20
455.0000000000001
 30
0.0
 11
578.0000339999995
 21
455.0000000000001
 31
0.0
  0
INSERT
  5
1A6
330
1A0
100
AcDbEntity
  8
Ｓ_１_１
 62
     2
100
AcDbBlockReference
  2
EX_NORM
 10
1011.99989
 20
455.0000000000001
 30
0.0
 41
30.0
 42
30.0
 43
30.0
  0
INSERT
  5
1A7
330
1A0
100
AcDbEntity
  8
Ｓ_１_１
 62
     2
100
AcDbBlockReference
  2
EX_NORM
 10
548.0000339999995
 20
455.0000000000001
 30
0.0
 41
30.0
 42
30.0
 43
30.0
 50
180.0
  0
MTEXT
  5
1A8
330
1A0
100
AcDbEntity
  8
Ｓ_１_１
 62
     2
100
AcDbMText
 10
779.9999619999998
 20
482.4999999999998
 30
0.0
 40
34.6290415704388
 41
0.0
 71
     5
 72
     1
  1
464
  7
EXCADDIM1
  0
POINT
  5
1A9
330
1A0
100
AcDbEntity
  8
DEFPOINTS
 62
     0
100
AcDbPoint
 10
1011.99989
 20
888.5244160000002
 30
0.0
  0
POINT
  5
1AA
330
1A0
100
AcDbEntity
  8
DEFPOINTS
 62
     0
100
AcDbPoint
 10
548.0000339999995
 20
888.5244160000002
 30
0.0
  0
POINT
  5
1AB
330
1A0
100
AcDbEntity
  8
DEFPOINTS
 62
     0
100
AcDbPoint
 10
548.0000339999995
 20
455.0000000000001
 30
0.0
  0
ENDBLK
  5
1A2
330
1A0
100
AcDbEntity
  8
0
100
AcDbBlockEnd
  0
BLOCK
  5
1AE
330
1AD
100
AcDbEntity
  8
0
100
AcDbBlockBegin
  2
*D25
 70
     1
 10
0.0
 20
0.0
 30
0.0
  3
*D25
  1

  0
LINE
  5
1B0
330
1AD
100
AcDbEntity
  8
Ｓ_１_１
  6
CONTINUOUS
 62
     2
100
AcDbLine
 10
943.9998609999998
 20
867.4999969999999
 30
0.0
 11
943.9998609999998
 21
510.0
 31
0.0
  0
LINE
  5
1B1
330
1AD
100
AcDbEntity
  8
Ｓ_１_１
  6
CONTINUOUS
 62
     2
100
AcDbLine
 10
615.9999109999999
 20
867.4999969999999
 30
0.0
 11
615.9999109999999
 21
510.0
 31
0.0
  0
LINE
  5
1B2
330
1AD
100
AcDbEntity
  8
Ｓ_１_１
  6
CONTINUOUS
 62
     2
100
AcDbLine
 10
913.9998609999998
 20
520.0
 30
0.0
 11
645.9999109999999
 21
520.0
 31
0.0
  0
INSERT
  5
1B3
330
1AD
100
AcDbEntity
  8
Ｓ_１_１
 62
     2
100
AcDbBlockReference
  2
EX_NORM
 10
943.9998609999998
 20
520.0
 30
0.0
 41
30.0
 42
30.0
 43
30.0
  0
INSERT
  5
1B4
330
1AD
100
AcDbEntity
  8
Ｓ_１_１
 62
     2
100
AcDbBlockReference
  2
EX_NORM
 10
615.9999109999999
 20
520.0
 30
0.0
 41
30.0
 42
30.0
 43
30.0
 50
180.0
  0
MTEXT
  5
1B5
330
1AD
100
AcDbEntity
  8
Ｓ_１_１
 62
     2
100
AcDbMText
 10
779.9998859999997
 20
547.5
 30
0.0
 40
34.6290415704388
 41
0.0
 71
     5
 72
     1
  1
328
  7
EXCADDIM1
  0
POINT
  5
1B6
330
1AD
100
AcDbEntity
  8
DEFPOINTS
 62
     0
100
AcDbPoint
 10
943.9998609999998
 20
882.4999969999999
 30
0.0
  0
POINT
  5
1B7
330
1AD
100
AcDbEntity
  8
DEFPOINTS
 62
     0
100
AcDbPoint
 10
615.9999109999999
 20
882.4999969999999
 30
0.0
  0
POINT
  5
1B8
330
1AD
100
AcDbEntity
  8
DEFPOINTS
 62
     0
100
AcDbPoint
 10
615.9999109999999
 20
520.0
 30
0.0
  0
ENDBLK
  5
1AF
330
1AD
100
AcDbEntity
  8
0
100
AcDbBlockEnd
  0
BLOCK
  5
1BB
330
1BA
100
AcDbEntity
  8
0
100
AcDbBlockBegin
  2
*D26
 70
     1
 10
0.0
 20
0.0
 30
0.0
  3
*D26
  1

  0
LINE
  5
1BD
330
1BA
100
AcDbEntity
  8
Ｓ_１_１
  6
CONTINUOUS
 62
     2
100
AcDbLine
 10
529.9998519999999
 20
2403.954135
 30
0.0
 11
529.9998519999999
 21
2545.0
 31
0.0
  0
LINE
  5
1BE
330
1BA
100
AcDbEntity
  8
Ｓ_１_１
  6
CONTINUOUS
 62
     2
100
AcDbLine
 10
1029.999844
 20
2403.954135
 30
0.0
 11
1029.999844
 21
2545.0
 31
0.0
  0
LINE
  5
1BF
330
1BA
100
AcDbEntity
  8
Ｓ_１_１
  6
CONTINUOUS
 62
     2
100
AcDbLine
 10
559.9998519999999
 20
2535.0
 30
0.0
 11
999.9998439999999
 21
2535.0
 31
0.0
  0
INSERT
  5
1C0
330
1BA
100
AcDbEntity
  8
Ｓ_１_１
 62
     2
100
AcDbBlockReference
  2
EX_NORM
 10
529.9998519999999
 20
2535.0
 30
0.0
 41
30.0
 42
30.0
 43
30.0
 50
180.0
  0
INSERT
  5
1C1
330
1BA
100
AcDbEntity
  8
Ｓ_１_１
 62
     2
100
AcDbBlockReference
  2
EX_NORM
 10
1029.999844
 20
2535.0
 30
0.0
 41
30.0
 42
30.0
 43
30.0
  0
MTEXT
  5
1C2
330
1BA
100
AcDbEntity
  8
Ｓ_１_１
 62
     2
100
AcDbMText
 10
779.999848
 20
2562.5
 30
0.0
 40
34.6290415704388
 41
0.0
 71
     5
 72
     1
  1
500
  7
EXCADDIM1
  0
POINT
  5
1C3
330
1BA
100
AcDbEntity
  8
DEFPOINTS
 62
     0
100
AcDbPoint
 10
529.9998519999999
 20
2388.954135
 30
0.0
  0
POINT
  5
1C4
330
1BA
100
AcDbEntity
  8
DEFPOINTS
 62
     0
100
AcDbPoint
 10
1029.999844
 20
2388.954135
 30
0.0
  0
POINT
  5
1C5
330
1BA
100
AcDbEntity
  8
DEFPOINTS
 62
     0
100
AcDbPoint
 10
1029.999844
 20
2535.0
 30
0.0
  0
ENDBLK
  5
1BC
330
1BA
100
AcDbEntity
  8
0
100
AcDbBlockEnd
  0
BLOCK
  5
1C8
330
1C7
100
AcDbEntity
  8
0
100
AcDbBlockBegin
  2
*D27
 70
     1
 10
0.0
 20
0.0
 30
0.0
  3
*D27
  1

  0
LINE
  5
1CA
330
1C7
100
AcDbEntity
  8
Ｓ_１_１
  6
CONTINUOUS
 62
     2
100
AcDbLine
 10
1518.4641233102
 20
964.6517357481121
 30
0.0
 11
1427.656188755895
 21
988.9347158667968
 31
0.0
  0
LINE
  5
1CB
330
1C7
100
AcDbEntity
  8
Ｓ_１_１
  6
CONTINUOUS
 62
     2
100
AcDbLine
 10
1865.0362683102
 20
2234.348399748112
 30
0.0
 11
1767.656162590508
 21
2260.388846353938
 31
0.0
  0
LINE
  5
1CC
330
1C7
100
AcDbEntity
  8
Ｓ_１_１
  6
CONTINUOUS
 62
     2
100
AcDbLine
 10
1445.066746711986
 20
1015.333058080989
 30
0.0
 11
1769.56672155415
 21
2228.82383780893
 31
0.0
  0
INSERT
  5
1CD
330
1C7
100
AcDbEntity
  8
Ｓ_１_１
 62
     2
100
AcDbBlockReference
  2
EX_NORM
 10
1437.316747215762
 20
986.3513827013887
 30
0.0
 41
30.0
 42
30.0
 43
30.0
 50
255.02881
  0
INSERT
  5
1CE
330
1C7
100
AcDbEntity
  8
Ｓ_１_１
 62
     2
100
AcDbBlockReference
  2
EX_NORM
 10
1777.316721050374
 20
2257.80551318853
 30
0.0
 41
30.0
 42
30.0
 43
30.0
 50
75.02881
  0
MTEXT
  5
1CF
330
1C7
100
AcDbEntity
  8
Ｓ_１_１
 62
     2
100
AcDbMText
 10
1580.750198368435
 20
1629.182614149831
 30
0.0
 40
34.6290415704388
 41
0.0
 71
     5
 72
     1
  1
1315
  7
EXCADDIM1
 11
0.2583333165408012
 21
0.9660558459866749
 31
0.0
  0
POINT
  5
1D0
330
1C7
100
AcDbEntity
  8
DEFPOINTS
 62
     0
100
AcDbPoint
 10
1532.954961
 20
960.776736
 30
0.0
  0
POINT
  5
1D1
330
1C7
100
AcDbEntity
  8
DEFPOINTS
 62
     0
100
AcDbPoint
 10
1879.527106
 20
2230.4734
 30
0.0
  0
POINT
  5
1D2
330
1C7
100
AcDbEntity
  8
DEFPOINTS
 62
     0
100
AcDbPoint
 10
1777.316721050374
 20
2257.80551318853
 30
0.0
  0
ENDBLK
  5
1C9
330
1C7
100
AcDbEntity
  8
0
100
AcDbBlockEnd
  0
BLOCK
  5
1D5
330
1D4
100
AcDbEntity
  8
0
100
AcDbBlockBegin
  2
*D28
 70
     1
 10
0.0
 20
0.0
 30
0.0
  3
*D28
  1

  0
LINE
  5
1D7
330
1D4
100
AcDbEntity
  8
Ｓ_１_１
  6
CONTINUOUS
 62
     2
100
AcDbLine
 10
547.9998819999998
 20
877.499996
 30
0.0
 11
547.9998819999998
 21
510.0
 31
0.0
  0
LINE
  5
1D8
330
1D4
100
AcDbEntity
  8
Ｓ_１_１
  6
CONTINUOUS
 62
     2
100
AcDbLine
 10
577.9998819999998
 20
520.0
 30
0.0
 11
585.9999109999997
 21
520.0
 31
0.0
  0
INSERT
  5
1D9
330
1D4
100
AcDbEntity
  8
Ｓ_１_１
 62
     2
100
AcDbBlockReference
  2
EX_NORM
 10
547.9998819999998
 20
520.0
 30
0.0
 41
30.0
 42
30.0
 43
30.0
 50
180.0
  0
INSERT
  5
1DA
330
1D4
100
AcDbEntity
  8
Ｓ_１_１
 62
     2
100
AcDbBlockReference
  2
EX_NORM
 10
615.9999109999997
 20
520.0
 30
0.0
 41
30.0
 42
30.0
 43
30.0
  0
MTEXT
  5
1DB
330
1D4
100
AcDbEntity
  8
Ｓ_１_１
 62
     2
100
AcDbMText
 10
581.9998964999997
 20
547.5
 30
0.0
 40
34.6290415704388
 41
0.0
 71
     5
 72
     1
  1
68
  7
EXCADDIM1
  0
POINT
  5
1DC
330
1D4
100
AcDbEntity
  8
DEFPOINTS
 62
     0
100
AcDbPoint
 10
547.9998819999998
 20
892.499996
 30
0.0
  0
POINT
  5
1DD
330
1D4
100
AcDbEntity
  8
DEFPOINTS
 62
     0
100
AcDbPoint
 10
615.9999109999997
 20
882.499996
 30
0.0
  0
POINT
  5
1DE
330
1D4
100
AcDbEntity
  8
DEFPOINTS
 62
     0
100
AcDbPoint
 10
615.9999109999997
 20
520.0
 30
0.0
  0
ENDBLK
  5
1D6
330
1D4
100
AcDbEntity
  8
0
100
AcDbBlockEnd
  0
BLOCK
  5
1E1
330
1E0
100
AcDbEntity
  8
0
100
AcDbBlockBegin
  2
*D29
 70
     1
 10
0.0
 20
0.0
 30
0.0
  3
*D29
  1

  0
LINE
  5
1E3
330
1E0
100
AcDbEntity
  8
Ｓ_１_１
  6
CONTINUOUS
 62
     2
100
AcDbLine
 10
1011.99989
 20
877.499996
 30
0.0
 11
1011.99989
 21
510.0
 31
0.0
  0
LINE
  5
1E4
330
1E0
100
AcDbEntity
  8
Ｓ_１_１
  6
CONTINUOUS
 62
     2
100
AcDbLine
 10
973.9998609999998
 20
520.0
 30
0.0
 11
981.9998900000002
 21
520.0
 31
0.0
  0
INSERT
  5
1E5
330
1E0
100
AcDbEntity
  8
Ｓ_１_１
 62
     2
100
AcDbBlockReference
  2
EX_NORM
 10
943.9998609999998
 20
520.0
 30
0.0
 41
30.0
 42
30.0
 43
30.0
 50
180.0
  0
INSERT
  5
1E6
330
1E0
100
AcDbEntity
  8
Ｓ_１_１
 62
     2
100
AcDbBlockReference
  2
EX_NORM
 10
1011.99989
 20
520.0
 30
0.0
 41
30.0
 42
30.0
 43
30.0
  0
MTEXT
  5
1E7
330
1E0
100
AcDbEntity
  8
Ｓ_１_１
 62
     2
100
AcDbMText
 10
977.9998754999999
 20
547.5
 30
0.0
 40
34.6290415704388
 41
0.0
 71
     5
 72
     1
  1
68
  7
EXCADDIM1
  0
POINT
  5
1E8
330
1E0
100
AcDbEntity
  8
DEFPOINTS
 62
     0
100
AcDbPoint
 10
943.9998609999998
 20
882.499996
 30
0.0
  0
POINT
  5
1E9
330
1E0
100
AcDbEntity
  8
DEFPOINTS
 62
     0
100
AcDbPoint
 10
1011.99989
 20
892.499996
 30
0.0
  0
POINT
  5
1EA
330
1E0
100
AcDbEntity
  8
DEFPOINTS
 62
     0
100
AcDbPoint
 10
1011.99989
 20
520.0
 30
0.0
  0
ENDBLK
  5
1E2
330
1E0
100
AcDbEntity
  8
0
100
AcDbBlockEnd
  0
BLOCK
  5
1ED
330
1EC
100
AcDbEntity
  8
0
100
AcDbBlockBegin
  2
*D30
 70
     1
 10
0.0
 20
0.0
 30
0.0
  3
*D30
  1

  0
LINE
  5
1EF
330
1EC
100
AcDbEntity
  8
Ｓ_１_１
  6
CONTINUOUS
 62
     2
100
AcDbLine
 10
780.0000000000001
 20
2228.954139
 30
0.0
 11
780.0000000000001
 21
2188.95414
 31
0.0
  0
LINE
  5
1F0
330
1EC
100
AcDbEntity
  8
Ｓ_１_１
  6
CONTINUOUS
 62
     2
100
AcDbLine
 10
780.0000000000001
 20
2258.954139
 30
0.0
 11
780.0000000000001
 21
2288.954139
 31
0.0
  0
LINE
  5
1F1
330
1EC
100
AcDbEntity
  8
Ｓ_１_１
  6
CONTINUOUS
 62
     2
100
AcDbLine
 10
780.0000000000001
 20
2158.95414
 30
0.0
 11
780.0000000000001
 21
2128.95414
 31
0.0
  0
INSERT
  5
1F2
330
1EC
100
AcDbEntity
  8
Ｓ_１_１
 62
     2
100
AcDbBlockReference
  2
EX_NORM
 10
780.0000000000001
 20
2228.954139
 30
0.0
 41
30.0
 42
30.0
 43
30.0
 50
270.0
  0
INSERT
  5
1F3
330
1EC
100
AcDbEntity
  8
Ｓ_１_１
 62
     2
100
AcDbBlockReference
  2
EX_NORM
 10
780.0000000000001
 20
2188.95414
 30
0.0
 41
30.0
 42
30.0
 43
30.0
 50
90.0
  0
MTEXT
  5
1F4
330
1EC
100
AcDbEntity
  8
Ｓ_１_１
 62
     2
100
AcDbMText
 10
752.5000000000008
 20
2303.954139
 30
0.0
 40
34.6290415704388
 41
0.0
 71
     5
 72
     1
  1
%%c40
  7
EXCADDIM1
 11
0.0
 21
1.0
 31
0.0
  0
POINT
  5
1F5
330
1EC
100
AcDbEntity
  8
DEFPOINTS
 62
     0
100
AcDbPoint
 10
745.6999859999996
 20
2228.954139
 30
0.0
  0
POINT
  5
1F6
330
1EC
100
AcDbEntity
  8
DEFPOINTS
 62
     0
100
AcDbPoint
 10
745.6999859999996
 20
2188.95414
 30
0.0
  0
POINT
  5
1F7
330
1EC
100
AcDbEntity
  8
DEFPOINTS
 62
     0
100
AcDbPoint
 10
780.0000000000001
 20
2188.95414
 30
0.0
  0
ENDBLK
  5
1EE
330
1EC
100
AcDbEntity
  8
0
100
AcDbBlockEnd
  0
BLOCK
  5
1FA
330
1F9
100
AcDbEntity
  8
0
100
AcDbBlockBegin
  2
*D31
 70
     1
 10
0.0
 20
0.0
 30
0.0
  3
*D31
  1

  0
LINE
  5
1FC
330
1F9
100
AcDbEntity
  8
Ｓ_１_１
  6
CONTINUOUS
 62
     2
100
AcDbLine
 10
845.0000000000001
 20
2183.95414
 30
0.0
 11
845.0000000000001
 21
2233.954139
 31
0.0
  0
LINE
  5
1FD
330
1F9
100
AcDbEntity
  8
Ｓ_１_１
  6
CONTINUOUS
 62
     2
100
AcDbLine
 10
845.0000000000001
 20
2153.95414
 30
0.0
 11
845.0000000000001
 21
2123.95414
 31
0.0
  0
LINE
  5
1FE
330
1F9
100
AcDbEntity
  8
Ｓ_１_１
  6
CONTINUOUS
 62
     2
100
AcDbLine
 10
845.0000000000001
 20
2263.954139
 30
0.0
 11
845.0000000000001
 21
2293.954139
 31
0.0
  0
INSERT
  5
1FF
330
1F9
100
AcDbEntity
  8
Ｓ_１_１
 62
     2
100
AcDbBlockReference
  2
EX_NORM
 10
845.0000000000001
 20
2183.95414
 30
0.0
 41
30.0
 42
30.0
 43
30.0
 50
90.0
  0
INSERT
  5
200
330
1F9
100
AcDbEntity
  8
Ｓ_１_１
 62
     2
100
AcDbBlockReference
  2
EX_NORM
 10
845.0000000000001
 20
2233.954139
 30
0.0
 41
30.0
 42
30.0
 43
30.0
 50
270.0
  0
MTEXT
  5
201
330
1F9
100
AcDbEntity
  8
Ｓ_１_１
 62
     2
100
AcDbMText
 10
817.5000000000008
 20
2308.954138999999
 30
0.0
 40
34.6290415704388
 41
0.0
 71
     5
 72
     1
  1
%%c50
  7
EXCADDIM1
 11
0.0
 21
1.0
 31
0.0
  0
POINT
  5
202
330
1F9
100
AcDbEntity
  8
DEFPOINTS
 62
     0
100
AcDbPoint
 10
809.4999859999998
 20
2183.95414
 30
0.0
  0
POINT
  5
203
330
1F9
100
AcDbEntity
  8
DEFPOINTS
 62
     0
100
AcDbPoint
 10
809.4999859999998
 20
2233.954139
 30
0.0
  0
POINT
  5
204
330
1F9
100
AcDbEntity
  8
DEFPOINTS
 62
     0
100
AcDbPoint
 10
845.0000000000001
 20
2233.954139
 30
0.0
  0
ENDBLK
  5
1FB
330
1F9
100
AcDbEntity
  8
0
100
AcDbBlockEnd
  0
BLOCK
  5
207
330
206
100
AcDbEntity
  8
0
100
AcDbBlockBegin
  2
*D32
 70
     1
 10
0.0
 20
0.0
 30
0.0
  3
*D32
  1

  0
LINE
  5
209
330
206
100
AcDbEntity
  8
Ｓ_１_１
  6
CONTINUOUS
 62
     2
100
AcDbLine
 10
2025.999999999999
 20
2443.954136
 30
0.0
 11
2025.999999999999
 21
2545.0
 31
0.0
  0
LINE
  5
20A
330
206
100
AcDbEntity
  8
Ｓ_１_１
  6
CONTINUOUS
 62
     2
100
AcDbLine
 10
2025.999999999999
 20
2535.0
 30
0.0
 11
2034.999995999999
 21
2535.0
 31
0.0
  0
LINE
  5
20B
330
206
100
AcDbEntity
  8
Ｓ_１_１
  6
CONTINUOUS
 62
     2
100
AcDbLine
 10
1995.999999999999
 20
2535.0
 30
0.0
 11
1965.999999999999
 21
2535.0
 31
0.0
  0
LINE
  5
20C
330
206
100
AcDbEntity
  8
Ｓ_１_１
  6
CONTINUOUS
 62
     2
100
AcDbLine
 10
2064.999996
 20
2535.0
 30
0.0
 11
2094.999996
 21
2535.0
 31
0.0
  0
INSERT
  5
20D
330
206
100
AcDbEntity
  8
Ｓ_１_１
 62
     2
100
AcDbBlockReference
  2
EX_NORM
 10
2025.999999999999
 20
2535.0
 30
0.0
 41
30.0
 42
30.0
 43
30.0
  0
INSERT
  5
20E
330
206
100
AcDbEntity
  8
Ｓ_１_１
 62
     2
100
AcDbBlockReference
  2
EX_NORM
 10
2034.999995999999
 20
2535.0
 30
0.0
 41
30.0
 42
30.0
 43
30.0
 50
180.0
  0
MTEXT
  5
20F
330
206
100
AcDbEntity
  8
Ｓ_１_１
 62
     2
100
AcDbMText
 10
1984.75
 20
2562.5
 30
0.0
 40
34.6290415704388
 41
0.0
 71
     5
 72
     1
  1
9
  7
EXCADDIM1
  0
POINT
  5
210
330
206
100
AcDbEntity
  8
DEFPOINTS
 62
     0
100
AcDbPoint
 10
2025.999999999999
 20
2428.954136
 30
0.0
  0
POINT
  5
211
330
206
100
AcDbEntity
  8
DEFPOINTS
 62
     0
100
AcDbPoint
 10
2034.999995999999
 20
2428.954136
 30
0.0
  0
POINT
  5
212
330
206
100
AcDbEntity
  8
DEFPOINTS
 62
     0
100
AcDbPoint
 10
2034.999995999999
 20
2535.0
 30
0.0
  0
ENDBLK
  5
208
330
206
100
AcDbEntity
  8
0
100
AcDbBlockEnd
  0
BLOCK
  5
215
330
214
100
AcDbEntity
  8
0
100
AcDbBlockBegin
  2
*D33
 70
     1
 10
0.0
 20
0.0
 30
0.0
  3
*D33
  1

  0
LINE
  5
217
330
214
100
AcDbEntity
  8
Ｓ_１_１
  6
CONTINUOUS
 62
     2
100
AcDbLine
 10
1884.79529385094
 20
1850.221455831292
 30
0.0
 11
1846.158268150185
 21
1860.574215665746
 31
0.0
  0
INSERT
  5
218
330
214
100
AcDbEntity
  8
Ｓ_１_１
 62
     2
100
AcDbBlockReference
  2
EX_NORM
 10
1913.773068639612
 20
1842.456884478219
 30
0.0
 41
30.0
 42
30.0
 43
30.0
 50
345.0000000000048
  0
INSERT
  5
219
330
214
100
AcDbEntity
  8
Ｓ_１_１
 62
     2
100
AcDbBlockReference
  2
EX_NORM
 10
1817.180493361512
 20
1868.33878701882
 30
0.0
 41
30.0
 42
30.0
 43
30.0
 50
165.0000000000048
  0
MTEXT
  5
21A
330
214
100
AcDbEntity
  8
Ｓ_１_１
 62
     2
100
AcDbMText
 10
1762.7202456759
 20
1911.401461367049
 30
0.0
 40
34.6290415704388
 41
0.0
 71
     5
 72
     1
  1
100
  7
EXCADDIM1
 11
0.96592582628909
 21
-0.2588190451024396
 31
0.0
  0
POINT
  5
21B
330
214
100
AcDbEntity
  8
DEFPOINTS
 62
     0
100
AcDbPoint
 10
1903.1226395995
 20
1802.7089421781
 30
0.0
  0
POINT
  5
21C
330
214
100
AcDbEntity
  8
DEFPOINTS
 62
     0
100
AcDbPoint
 10
1806.5300643214
 20
1828.5908447187
 30
0.0
  0
POINT
  5
21D
330
214
100
AcDbEntity
  8
DEFPOINTS
 62
     0
100
AcDbPoint
 10
1817.180493361512
 20
1868.33878701882
 30
0.0
  0
ENDBLK
  5
216
330
214
100
AcDbEntity
  8
0
100
AcDbBlockEnd
  0
BLOCK
  5
220
330
21F
100
AcDbEntity
  8
0
100
AcDbBlockBegin
  2
*D34
 70
     1
 10
0.0
 20
0.0
 30
0.0
  3
*D34
  1

  0
LINE
  5
222
330
21F
100
AcDbEntity
  8
Ｓ_１_１
  6
CONTINUOUS
 62
     2
100
AcDbLine
 10
2149.999994
 20
1037.5
 30
0.0
 11
2285.0
 21
1037.5
 31
0.0
  0
LINE
  5
223
330
21F
100
AcDbEntity
  8
Ｓ_１_１
  6
CONTINUOUS
 62
     2
100
AcDbLine
 10
2275.0
 20
1052.499994
 30
0.0
 11
2275.0
 21
1037.5
 31
0.0
  0
LINE
  5
224
330
21F
100
AcDbEntity
  8
Ｓ_１_１
  6
CONTINUOUS
 62
     2
100
AcDbLine
 10
2275.0
 20
1082.499994
 30
0.0
 11
2275.0
 21
1112.499994
 31
0.0
  0
LINE
  5
225
330
21F
100
AcDbEntity
  8
Ｓ_１_１
  6
CONTINUOUS
 62
     2
100
AcDbLine
 10
2275.0
 20
1007.5
 30
0.0
 11
2275.0
 21
977.5
 31
0.0
  0
INSERT
  5
226
330
21F
100
AcDbEntity
  8
Ｓ_１_１
 62
     2
100
AcDbBlockReference
  2
EX_NORM
 10
2275.0
 20
1052.499994
 30
0.0
 41
30.0
 42
30.0
 43
30.0
 50
270.0
  0
INSERT
  5
227
330
21F
100
AcDbEntity
  8
Ｓ_１_１
 62
     2
100
AcDbBlockReference
  2
EX_NORM
 10
2275.0
 20
1037.5
 30
0.0
 41
30.0
 42
30.0
 43
30.0
 50
90.0
  0
MTEXT
  5
228
330
21F
100
AcDbEntity
  8
Ｓ_１_１
 62
     2
100
AcDbMText
 10
2247.5
 20
1104.999993999998
 30
0.0
 40
34.6290415704388
 41
0.0
 71
     5
 72
     1
  1
15
  7
EXCADDIM1
 11
0.0
 21
1.0
 31
0.0
  0
POINT
  5
229
330
21F
100
AcDbEntity
  8
DEFPOINTS
 62
     0
100
AcDbPoint
 10
2134.999994
 20
1052.499994
 30
0.0
  0
POINT
  5
22A
330
21F
100
AcDbEntity
  8
DEFPOINTS
 62
     0
100
AcDbPoint
 10
2134.999994
 20
1037.5
 30
0.0
  0
POINT
  5
22B
330
21F
100
AcDbEntity
  8
DEFPOINTS
 62
     0
100
AcDbPoint
 10
2275.0
 20
1037.5
 30
0.0
  0
ENDBLK
  5
221
330
21F
100
AcDbEntity
  8
0
100
AcDbBlockEnd
  0
BLOCK
  5
22E
330
22D
100
AcDbEntity
  8
0
100
AcDbBlockBegin
  2
*D35
 70
     1
 10
0.0
 20
0.0
 30
0.0
  3
*D35
  1

  0
LINE
  5
230
330
22D
100
AcDbEntity
  8
Ｓ_１_１
  6
CONTINUOUS
 62
     2
100
AcDbLine
 10
2275.0
 20
837.4999969999999
 30
0.0
 11
2275.0
 21
822.4999969999999
 31
0.0
  0
LINE
  5
231
330
22D
100
AcDbEntity
  8
Ｓ_１_１
  6
CONTINUOUS
 62
     2
100
AcDbLine
 10
2275.0
 20
867.4999969999999
 30
0.0
 11
2275.0
 21
897.4999969999999
 31
0.0
  0
LINE
  5
232
330
22D
100
AcDbEntity
  8
Ｓ_１_１
  6
CONTINUOUS
 62
     2
100
AcDbLine
 10
2275.0
 20
792.4999969999999
 30
0.0
 11
2275.0
 21
762.4999969999999
 31
0.0
  0
INSERT
  5
233
330
22D
100
AcDbEntity
  8
Ｓ_１_１
 62
     2
100
AcDbBlockReference
  2
EX_NORM
 10
2275.0
 20
837.4999969999999
 30
0.0
 41
30.0
 42
30.0
 43
30.0
 50
270.0
  0
INSERT
  5
234
330
22D
100
AcDbEntity
  8
Ｓ_１_１
 62
     2
100
AcDbBlockReference
  2
EX_NORM
 10
2275.0
 20
822.4999969999999
 30
0.0
 41
30.0
 42
30.0
 43
30.0
 50
90.0
  0
MTEXT
  5
235
330
22D
100
AcDbEntity
  8
Ｓ_１_１
 62
     2
100
AcDbMText
 10
2247.5
 20
769.9999969999991
 30
0.0
 40
34.6290415704388
 41
0.0
 71
     5
 72
     1
  1
15
  7
EXCADDIM1
 11
0.0
 21
1.0
 31
0.0
  0
POINT
  5
236
330
22D
100
AcDbEntity
  8
DEFPOINTS
 62
     0
100
AcDbPoint
 10
2137.999984999999
 20
837.4999969999999
 30
0.0
  0
POINT
  5
237
330
22D
100
AcDbEntity
  8
DEFPOINTS
 62
     0
100
AcDbPoint
 10
2134.999994
 20
822.4999969999999
 30
0.0
  0
POINT
  5
238
330
22D
100
AcDbEntity
  8
DEFPOINTS
 62
     0
100
AcDbPoint
 10
2275.0
 20
822.4999969999999
 30
0.0
  0
ENDBLK
  5
22F
330
22D
100
AcDbEntity
  8
0
100
AcDbBlockEnd
  0
BLOCK
  5
5B0
330
5AF
100
AcDbEntity
  8
0
100
AcDbBlockBegin
  2
*D36
 70
     1
 10
0.0
 20
0.0
 30
0.0
  3
*D36
  1

  0
LINE
  5
5B2
330
5AF
100
AcDbEntity
  8
Ｓ_１_１
  6
CONTINUOUS
 62
     2
100
AcDbLine
 10
1565.000002
 20
650.0
 30
0.0
 11
1355.0
 21
650.0
 31
0.0
  0
LINE
  5
5B3
330
5AF
100
AcDbEntity
  8
Ｓ_１_１
  6
CONTINUOUS
 62
     2
100
AcDbLine
 10
1652.000018
 20
766.0000019999999
 30
0.0
 11
1355.0
 21
766.0000019999999
 31
0.0
  0
LINE
  5
5B4
330
5AF
100
AcDbEntity
  8
Ｓ_１_１
  6
CONTINUOUS
 62
     2
100
AcDbLine
 10
1365.0
 20
680.0
 30
0.0
 11
1365.0
 21
736.0000019999999
 31
0.0
  0
INSERT
  5
5B5
330
5AF
100
AcDbEntity
  8
Ｓ_１_１
 62
     2
100
AcDbBlockReference
  2
EX_NORM
 10
1365.0
 20
650.0
 30
0.0
 41
30.0
 42
30.0
 43
30.0
 50
270.0
  0
INSERT
  5
5B6
330
5AF
100
AcDbEntity
  8
Ｓ_１_１
 62
     2
100
AcDbBlockReference
  2
EX_NORM
 10
1365.0
 20
766.0000019999999
 30
0.0
 41
30.0
 42
30.0
 43
30.0
 50
90.0
  0
MTEXT
  5
5B7
330
5AF
100
AcDbEntity
  8
Ｓ_１_１
 62
     2
100
AcDbMText
 10
1337.5
 20
708.000001
 30
0.0
 40
34.6290415704388
 41
0.0
 71
     5
 72
     1
  1
116
  7
EXCADDIM1
 11
0.0
 21
1.0
 31
0.0
  0
POINT
  5
5B8
330
5AF
100
AcDbEntity
  8
DEFPOINTS
 62
     0
100
AcDbPoint
 10
1580.000002
 20
650.0
 30
0.0
  0
POINT
  5
5B9
330
5AF
100
AcDbEntity
  8
DEFPOINTS
 62
     0
100
AcDbPoint
 10
1667.000018
 20
766.0000019999999
 30
0.0
  0
POINT
  5
5BA
330
5AF
100
AcDbEntity
  8
DEFPOINTS
 62
     0
100
AcDbPoint
 10
1365.0
 20
766.0000019999999
 30
0.0
  0
ENDBLK
  5
5B1
330
5AF
100
AcDbEntity
  8
0
100
AcDbBlockEnd
  0
BLOCK
  5
5BD
330
5BC
100
AcDbEntity
  8
0
100
AcDbBlockBegin
  2
*D37
 70
     1
 10
0.0
 20
0.0
 30
0.0
  3
*D37
  1

  0
LINE
  5
5BF
330
5BC
100
AcDbEntity
  8
Ｓ_１_１
  6
CONTINUOUS
 62
     2
100
AcDbLine
 10
1676.499998
 20
771.0000020000001
 30
0.0
 11
1355.0
 21
771.0000020000001
 31
0.0
  0
LINE
  5
5C0
330
5BC
100
AcDbEntity
  8
Ｓ_１_１
  6
CONTINUOUS
 62
     2
100
AcDbLine
 10
1365.0
 20
766.0000019999999
 30
0.0
 11
1365.0
 21
771.0000020000001
 31
0.0
  0
MTEXT
  5
5C1
330
5BC
100
AcDbEntity
  8
Ｓ_１_１
 62
     2
100
AcDbMText
 10
1337.5
 20
768.5000020000001
 30
0.0
 40
34.6290415704388
 41
0.0
 71
     5
 72
     1
  1
5
  7
EXCADDIM1
 11
0.0
 21
1.0
 31
0.0
  0
POINT
  5
5C2
330
5BC
100
AcDbEntity
  8
DEFPOINTS
 62
     0
100
AcDbPoint
 10
1667.000018
 20
766.0000019999999
 30
0.0
  0
POINT
  5
5C3
330
5BC
100
AcDbEntity
  8
DEFPOINTS
 62
     0
100
AcDbPoint
 10
1691.499998
 20
771.0000020000001
 30
0.0
  0
POINT
  5
5C4
330
5BC
100
AcDbEntity
  8
DEFPOINTS
 62
     0
100
AcDbPoint
 10
1365.0
 20
771.0000020000001
 30
0.0
  0
ENDBLK
  5
5BE
330
5BC
100
AcDbEntity
  8
0
100
AcDbBlockEnd
  0
BLOCK
  5
5C7
330
5C6
100
AcDbEntity
  8
0
100
AcDbBlockBegin
  2
*D38
 70
     1
 10
0.0
 20
0.0
 30
0.0
  3
*D38
  1

  0
LINE
  5
5C9
330
5C6
100
AcDbEntity
  8
Ｓ_１_１
  6
CONTINUOUS
 62
     2
100
AcDbLine
 10
1660.499998
 20
816.000001
 30
0.0
 11
1355.0
 21
816.000001
 31
0.0
  0
LINE
  5
5CA
330
5C6
100
AcDbEntity
  8
Ｓ_１_１
  6
CONTINUOUS
 62
     2
100
AcDbLine
 10
1365.0
 20
781.0000020000001
 30
0.0
 11
1365.0
 21
806.000001
 31
0.0
  0
INSERT
  5
5CB
330
5C6
100
AcDbEntity
  8
Ｓ_１_１
 62
     2
100
AcDbBlockReference
  2
EX_BCIR
 10
1365.0
 20
771.0000020000001
 30
0.0
 41
10.0
 42
10.0
 43
10.0
 50
270.0
  0
INSERT
  5
5CC
330
5C6
100
AcDbEntity
  8
Ｓ_１_１
 62
     2
100
AcDbBlockReference
  2
EX_NONE
 10
1365.0
 20
816.000001
 30
0.0
 41
10.0
 42
10.0
 43
10.0
 50
90.0
  0
MTEXT
  5
5CD
330
5C6
100
AcDbEntity
  8
Ｓ_１_１
 62
     2
100
AcDbMText
 10
1287.5
 20
793.5000014999999
 30
0.0
 40
34.6290415704388
 41
0.0
 71
     5
 72
     1
  1
45
  7
EXCADDIM1
 11
0.0
 21
1.0
 31
0.0
  0
POINT
  5
5CE
330
5C6
100
AcDbEntity
  8
DEFPOINTS
 62
     0
100
AcDbPoint
 10
1691.499998
 20
771.0000020000001
 30
0.0
  0
POINT
  5
5CF
330
5C6
100
AcDbEntity
  8
DEFPOINTS
 62
     0
100
AcDbPoint
 10
1675.499998
 20
816.000001
 30
0.0
  0
POINT
  5
5D0
330
5C6
100
AcDbEntity
  8
DEFPOINTS
 62
     0
100
AcDbPoint
 10
1365.0
 20
816.000001
 30
0.0
  0
ENDBLK
  5
5C8
330
5C6
100
AcDbEntity
  8
0
100
AcDbBlockEnd
  0
BLOCK
  5
5D3
330
5D2
100
AcDbEntity
  8
0
100
AcDbBlockBegin
  2
*D39
 70
     1
 10
0.0
 20
0.0
 30
0.0
  3
*D39
  1

  0
LINE
  5
5D5
330
5D2
100
AcDbEntity
  8
Ｓ_１_１
  6
CONTINUOUS
 62
     2
100
AcDbLine
 10
1565.000002
 20
866.0
 30
0.0
 11
1355.0
 21
866.0
 31
0.0
  0
LINE
  5
5D6
330
5D2
100
AcDbEntity
  8
Ｓ_１_１
  6
CONTINUOUS
 62
     2
100
AcDbLine
 10
1365.0
 20
826.000001
 30
0.0
 11
1365.0
 21
856.0
 31
0.0
  0
INSERT
  5
5D7
330
5D2
100
AcDbEntity
  8
Ｓ_１_１
 62
     2
100
AcDbBlockReference
  2
EX_BCIR
 10
1365.0
 20
816.000001
 30
0.0
 41
10.0
 42
10.0
 43
10.0
 50
270.0
  0
INSERT
  5
5D8
330
5D2
100
AcDbEntity
  8
Ｓ_１_１
 62
     2
100
AcDbBlockReference
  2
EX_NONE
 10
1365.0
 20
866.0
 30
0.0
 41
10.0
 42
10.0
 43
10.0
 50
90.0
  0
MTEXT
  5
5D9
330
5D2
100
AcDbEntity
  8
Ｓ_１_１
 62
     2
100
AcDbMText
 10
1337.5
 20
841.0000005
 30
0.0
 40
34.6290415704388
 41
0.0
 71
     5
 72
     1
  1
50
  7
EXCADDIM1
 11
0.0
 21
1.0
 31
0.0
  0
POINT
  5
5DA
330
5D2
100
AcDbEntity
  8
DEFPOINTS
 62
     0
100
AcDbPoint
 10
1675.499998
 20
816.000001
 30
0.0
  0
POINT
  5
5DB
330
5D2
100
AcDbEntity
  8
DEFPOINTS
 62
     0
100
AcDbPoint
 10
1580.000002
 20
866.0
 30
0.0
  0
POINT
  5
5DC
330
5D2
100
AcDbEntity
  8
DEFPOINTS
 62
     0
100
AcDbPoint
 10
1365.0
 20
866.0
 30
0.0
  0
ENDBLK
  5
5D4
330
5D2
100
AcDbEntity
  8
0
100
AcDbBlockEnd
  0
BLOCK
  5
5DF
330
5DE
100
AcDbEntity
  8
0
100
AcDbBlockBegin
  2
*D40
 70
     1
 10
0.0
 20
0.0
 30
0.0
  3
*D40
  1

  0
LINE
  5
5E1
330
5DE
100
AcDbEntity
  8
Ｓ_１_１
  6
CONTINUOUS
 62
     2
100
AcDbLine
 10
1555.000003
 20
874.999996
 30
0.0
 11
1355.0
 21
874.999996
 31
0.0
  0
LINE
  5
5E2
330
5DE
100
AcDbEntity
  8
Ｓ_１_１
  6
CONTINUOUS
 62
     2
100
AcDbLine
 10
1365.0
 20
866.0
 30
0.0
 11
1365.0
 21
874.999996
 31
0.0
  0
LINE
  5
5E3
330
5DE
100
AcDbEntity
  8
Ｓ_１_１
  6
CONTINUOUS
 62
     2
100
AcDbLine
 10
1365.0
 20
856.0
 30
0.0
 11
1365.0
 21
846.0
 31
0.0
  0
LINE
  5
5E4
330
5DE
100
AcDbEntity
  8
Ｓ_１_１
  6
CONTINUOUS
 62
     2
100
AcDbLine
 10
1365.0
 20
884.999996
 30
0.0
 11
1365.0
 21
894.999996
 31
0.0
  0
INSERT
  5
5E5
330
5DE
100
AcDbEntity
  8
Ｓ_１_１
 62
     2
100
AcDbBlockReference
  2
EX_BCIR
 10
1365.0
 20
866.0
 30
0.0
 41
10.0
 42
10.0
 43
10.0
 50
90.0
  0
INSERT
  5
5E6
330
5DE
100
AcDbEntity
  8
Ｓ_１_１
 62
     2
100
AcDbBlockReference
  2
EX_NONE
 10
1365.0
 20
874.999996
 30
0.0
 41
10.0
 42
10.0
 43
10.0
 50
270.0
  0
MTEXT
  5
5E7
330
5DE
100
AcDbEntity
  8
Ｓ_１_１
 62
     2
100
AcDbMText
 10
1287.5
 20
870.499998
 30
0.0
 40
34.6290415704388
 41
0.0
 71
     5
 72
     1
  1
9
  7
EXCADDIM1
 11
0.0
 21
1.0
 31
0.0
  0
POINT
  5
5E8
330
5DE
100
AcDbEntity
  8
DEFPOINTS
 62
     0
100
AcDbPoint
 10
1580.000002
 20
866.0
 30
0.0
  0
POINT
  5
5E9
330
5DE
100
AcDbEntity
  8
DEFPOINTS
 62
     0
100
AcDbPoint
 10
1570.000003
 20
874.999996
 30
0.0
  0
POINT
  5
5EA
330
5DE
100
AcDbEntity
  8
DEFPOINTS
 62
     0
100
AcDbPoint
 10
1365.0
 20
874.999996
 30
0.0
  0
ENDBLK
  5
5E0
330
5DE
100
AcDbEntity
  8
0
100
AcDbBlockEnd
  0
BLOCK
  5
5ED
330
5EC
100
AcDbEntity
  8
0
100
AcDbBlockBegin
  2
*D41
 70
     1
 10
0.0
 20
0.0
 30
0.0
  3
*D41
  1

  0
LINE
  5
5EF
330
5EC
100
AcDbEntity
  8
Ｓ_１_１
  6
CONTINUOUS
 62
     2
100
AcDbLine
 10
1555.000003
 20
999.999995
 30
0.0
 11
1355.0
 21
999.999995
 31
0.0
  0
LINE
  5
5F0
330
5EC
100
AcDbEntity
  8
Ｓ_１_１
  6
CONTINUOUS
 62
     2
100
AcDbLine
 10
1365.0
 20
904.999996
 30
0.0
 11
1365.0
 21
969.999995
 31
0.0
  0
INSERT
  5
5F1
330
5EC
100
AcDbEntity
  8
Ｓ_１_１
 62
     2
100
AcDbBlockReference
  2
EX_NORM
 10
1365.0
 20
874.999996
 30
0.0
 41
30.0
 42
30.0
 43
30.0
 50
270.0
  0
INSERT
  5
5F2
330
5EC
100
AcDbEntity
  8
Ｓ_１_１
 62
     2
100
AcDbBlockReference
  2
EX_NORM
 10
1365.0
 20
999.999995
 30
0.0
 41
30.0
 42
30.0
 43
30.0
 50
90.0
  0
MTEXT
  5
5F3
330
5EC
100
AcDbEntity
  8
Ｓ_１_１
 62
     2
100
AcDbMText
 10
1337.5
 20
937.4999955000001
 30
0.0
 40
34.6290415704388
 41
0.0
 71
     5
 72
     1
  1
125
  7
EXCADDIM1
 11
0.0
 21
1.0
 31
0.0
  0
POINT
  5
5F4
330
5EC
100
AcDbEntity
  8
DEFPOINTS
 62
     0
100
AcDbPoint
 10
1570.000003
 20
874.999996
 30
0.0
  0
POINT
  5
5F5
330
5EC
100
AcDbEntity
  8
DEFPOINTS
 62
     0
100
AcDbPoint
 10
1570.000003
 20
999.999995
 30
0.0
  0
POINT
  5
5F6
330
5EC
100
AcDbEntity
  8
DEFPOINTS
 62
     0
100
AcDbPoint
 10
1365.0
 20
999.999995
 30
0.0
  0
ENDBLK
  5
5EE
330
5EC
100
AcDbEntity
  8
0
100
AcDbBlockEnd
  0
BLOCK
  5
5F9
330
5F8
100
AcDbEntity
  8
0
100
AcDbBlockBegin
  2
*D42
 70
     1
 10
0.0
 20
0.0
 30
0.0
  3
*D42
  1

  0
LINE
  5
5FB
330
5F8
100
AcDbEntity
  8
Ｓ_１_１
  6
CONTINUOUS
 62
     2
100
AcDbLine
 10
1565.000002
 20
1009.00001
 30
0.0
 11
1355.0
 21
1009.00001
 31
0.0
  0
LINE
  5
5FC
330
5F8
100
AcDbEntity
  8
Ｓ_１_１
  6
CONTINUOUS
 62
     2
100
AcDbLine
 10
1365.0
 20
999.999995
 30
0.0
 11
1365.0
 21
1009.00001
 31
0.0
  0
MTEXT
  5
5FD
330
5F8
100
AcDbEntity
  8
Ｓ_１_１
 62
     2
100
AcDbMText
 10
1337.5
 20
1004.5000025
 30
0.0
 40
34.6290415704388
 41
0.0
 71
     5
 72
     1
  1
9
  7
EXCADDIM1
 11
0.0
 21
1.0
 31
0.0
  0
POINT
  5
5FE
330
5F8
100
AcDbEntity
  8
DEFPOINTS
 62
     0
100
AcDbPoint
 10
1570.000003
 20
999.999995
 30
0.0
  0
POINT
  5
5FF
330
5F8
100
AcDbEntity
  8
DEFPOINTS
 62
     0
100
AcDbPoint
 10
1580.000002
 20
1009.00001
 30
0.0
  0
POINT
  5
600
330
5F8
100
AcDbEntity
  8
DEFPOINTS
 62
     0
100
AcDbPoint
 10
1365.0
 20
1009.00001
 30
0.0
  0
ENDBLK
  5
5FA
330
5F8
100
AcDbEntity
  8
0
100
AcDbBlockEnd
  0
BLOCK
  5
603
330
602
100
AcDbEntity
  8
0
100
AcDbBlockBegin
  2
*D43
 70
     1
 10
0.0
 20
0.0
 30
0.0
  3
*D43
  1

  0
LINE
  5
605
330
602
100
AcDbEntity
  8
Ｓ_１_１
  6
CONTINUOUS
 62
     2
100
AcDbLine
 10
1663.000021
 20
1039.000009
 30
0.0
 11
1355.0
 21
1039.000009
 31
0.0
  0
LINE
  5
606
330
602
100
AcDbEntity
  8
Ｓ_１_１
  6
CONTINUOUS
 62
     2
100
AcDbLine
 10
1365.0
 20
1019.00001
 30
0.0
 11
1365.0
 21
1029.000009
 31
0.0
  0
INSERT
  5
607
330
602
100
AcDbEntity
  8
Ｓ_１_１
 62
     2
100
AcDbBlockReference
  2
EX_BCIR
 10
1365.0
 20
1009.00001
 30
0.0
 41
10.0
 42
10.0
 43
10.0
 50
270.0
  0
INSERT
  5
608
330
602
100
AcDbEntity
  8
Ｓ_１_１
 62
     2
100
AcDbBlockReference
  2
EX_NORM
 10
1365.0
 20
1039.000009
 30
0.0
 41
10.0
 42
10.0
 43
10.0
 50
90.0
  0
MTEXT
  5
609
330
602
100
AcDbEntity
  8
Ｓ_１_１
 62
     2
100
AcDbMText
 10
1337.5
 20
1091.500008999999
 30
0.0
 40
34.6290415704388
 41
0.0
 71
     5
 72
     1
  1
30
  7
EXCADDIM1
 11
0.0
 21
1.0
 31
0.0
  0
POINT
  5
60A
330
602
100
AcDbEntity
  8
DEFPOINTS
 62
     0
100
AcDbPoint
 10
1580.000002
 20
1009.00001
 30
0.0
  0
POINT
  5
60B
330
602
100
AcDbEntity
  8
DEFPOINTS
 62
     0
100
AcDbPoint
 10
1678.000021
 20
1039.000009
 30
0.0
  0
POINT
  5
60C
330
602
100
AcDbEntity
  8
DEFPOINTS
 62
     0
100
AcDbPoint
 10
1365.0
 20
1039.000009
 30
0.0
  0
ENDBLK
  5
604
330
602
100
AcDbEntity
  8
0
100
AcDbBlockEnd
  0
BLOCK
  5
612
330
611
100
AcDbEntity
  8
0
100
AcDbBlockBegin
  2
*D44
 70
     1
 10
0.0
 20
0.0
 30
0.0
  3
*D44
  1

  0
LINE
  5
614
330
611
100
AcDbEntity
  8
Ｓ_１_１
  6
CONTINUOUS
 62
     2
100
AcDbLine
 10
1620.000002
 20
872.499996
 30
0.0
 11
1620.000002
 21
445.0
 31
0.0
  0
LINE
  5
615
330
611
100
AcDbEntity
  8
Ｓ_１_１
  6
CONTINUOUS
 62
     2
100
AcDbLine
 10
1570.000003
 20
455.0
 30
0.0
 11
1620.000002
 21
455.0
 31
0.0
  0
LINE
  5
616
330
611
100
AcDbEntity
  8
Ｓ_１_１
  6
CONTINUOUS
 62
     2
100
AcDbLine
 10
1540.000003
 20
455.0
 30
0.0
 11
1510.000003
 21
455.0
 31
0.0
  0
LINE
  5
617
330
611
100
AcDbEntity
  8
Ｓ_１_１
  6
CONTINUOUS
 62
     2
100
AcDbLine
 10
1650.000002
 20
455.0
 30
0.0
 11
1680.000002
 21
455.0
 31
0.0
  0
INSERT
  5
618
330
611
100
AcDbEntity
  8
Ｓ_１_１
 62
     2
100
AcDbBlockReference
  2
EX_NORM
 10
1570.000003
 20
455.0
 30
0.0
 41
30.0
 42
30.0
 43
30.0
  0
INSERT
  5
619
330
611
100
AcDbEntity
  8
Ｓ_１_１
 62
     2
100
AcDbBlockReference
  2
EX_NONE
 10
1620.000002
 20
455.0
 30
0.0
 41
30.0
 42
30.0
 43
30.0
 50
180.0
  0
MTEXT
  5
61A
330
611
100
AcDbEntity
  8
Ｓ_１_１
 62
     2
100
AcDbMText
 10
1595.0000025
 20
482.5
 30
0.0
 40
34.6290415704388
 41
0.0
 71
     5
 72
     1
  1
50
  7
EXCADDIM1
  0
POINT
  5
61B
330
611
100
AcDbEntity
  8
DEFPOINTS
 62
     0
100
AcDbPoint
 10
1570.000003
 20
874.999996
 30
0.0
  0
POINT
  5
61C
330
611
100
AcDbEntity
  8
DEFPOINTS
 62
     0
100
AcDbPoint
 10
1620.000002
 20
887.499996
 30
0.0
  0
POINT
  5
61D
330
611
100
AcDbEntity
  8
DEFPOINTS
 62
     0
100
AcDbPoint
 10
1620.000002
 20
455.0
 30
0.0
  0
ENDBLK
  5
613
330
611
100
AcDbEntity
  8
0
100
AcDbBlockEnd
  0
BLOCK
  5
620
330
61F
100
AcDbEntity
  8
0
100
AcDbBlockBegin
  2
*D45
 70
     1
 10
0.0
 20
0.0
 30
0.0
  3
*D45
  1

  0
LINE
  5
622
330
61F
100
AcDbEntity
  8
Ｓ_１_１
  6
CONTINUOUS
 62
     2
100
AcDbLine
 10
1755.0
 20
616.000862
 30
0.0
 11
1755.0
 21
445.0
 31
0.0
  0
LINE
  5
623
330
61F
100
AcDbEntity
  8
Ｓ_１_１
  6
CONTINUOUS
 62
     2
100
AcDbLine
 10
1650.000002
 20
455.0
 30
0.0
 11
1725.0
 21
455.0
 31
0.0
  0
INSERT
  5
624
330
61F
100
AcDbEntity
  8
Ｓ_１_１
 62
     2
100
AcDbBlockReference
  2
EX_NORM
 10
1620.000002
 20
455.0
 30
0.0
 41
30.0
 42
30.0
 43
30.0
 50
180.0
  0
INSERT
  5
625
330
61F
100
AcDbEntity
  8
Ｓ_１_１
 62
     2
100
AcDbBlockReference
  2
EX_NORM
 10
1755.0
 20
455.0
 30
0.0
 41
30.0
 42
30.0
 43
30.0
  0
MTEXT
  5
626
330
61F
100
AcDbEntity
  8
Ｓ_１_１
 62
     2
100
AcDbMText
 10
1687.500001
 20
482.5
 30
0.0
 40
34.6290415704388
 41
0.0
 71
     5
 72
     1
  1
135
  7
EXCADDIM1
  0
POINT
  5
627
330
61F
100
AcDbEntity
  8
DEFPOINTS
 62
     0
100
AcDbPoint
 10
1620.000002
 20
887.499996
 30
0.0
  0
POINT
  5
628
330
61F
100
AcDbEntity
  8
DEFPOINTS
 62
     0
100
AcDbPoint
 10
1755.0
 20
631.000862
 30
0.0
  0
POINT
  5
629
330
61F
100
AcDbEntity
  8
DEFPOINTS
 62
     0
100
AcDbPoint
 10
1755.0
 20
455.0
 30
0.0
  0
ENDBLK
  5
621
330
61F
100
AcDbEntity
  8
0
100
AcDbBlockEnd
  0
BLOCK
  5
62C
330
62B
100
AcDbEntity
  8
0
100
AcDbBlockBegin
  2
*D46
 70
     1
 10
0.0
 20
0.0
 30
0.0
  3
*D46
  1

  0
LINE
  5
62E
330
62B
100
AcDbEntity
  8
Ｓ_１_１
  6
CONTINUOUS
 62
     2
100
AcDbLine
 10
1959.999997
 20
876.397163
 30
0.0
 11
1959.999997
 21
445.0
 31
0.0
  0
LINE
  5
62F
330
62B
100
AcDbEntity
  8
Ｓ_１_１
  6
CONTINUOUS
 62
     2
100
AcDbLine
 10
1785.0
 20
455.0
 30
0.0
 11
1929.999997
 21
455.0
 31
0.0
  0
INSERT
  5
630
330
62B
100
AcDbEntity
  8
Ｓ_１_１
 62
     2
100
AcDbBlockReference
  2
EX_NORM
 10
1755.0
 20
455.0
 30
0.0
 41
30.0
 42
30.0
 43
30.0
 50
180.0
  0
INSERT
  5
631
330
62B
100
AcDbEntity
  8
Ｓ_１_１
 62
     2
100
AcDbBlockReference
  2
EX_NORM
 10
1959.999997
 20
455.0
 30
0.0
 41
30.0
 42
30.0
 43
30.0
  0
MTEXT
  5
632
330
62B
100
AcDbEntity
  8
Ｓ_１_１
 62
     2
100
AcDbMText
 10
1857.4999985
 20
482.5
 30
0.0
 40
34.6290415704388
 41
0.0
 71
     5
 72
     1
  1
205
  7
EXCADDIM1
  0
POINT
  5
633
330
62B
100
AcDbEntity
  8
DEFPOINTS
 62
     0
100
AcDbPoint
 10
1755.0
 20
631.000862
 30
0.0
  0
POINT
  5
634
330
62B
100
AcDbEntity
  8
DEFPOINTS
 62
     0
100
AcDbPoint
 10
1959.999997
 20
891.397163
 30
0.0
  0
POINT
  5
635
330
62B
100
AcDbEntity
  8
DEFPOINTS
 62
     0
100
AcDbPoint
 10
1959.999997
 20
455.0
 30
0.0
  0
ENDBLK
  5
62D
330
62B
100
AcDbEntity
  8
0
100
AcDbBlockEnd
  0
BLOCK
  5
638
330
637
100
AcDbEntity
  8
0
100
AcDbBlockBegin
  2
*D47
 70
     1
 10
0.0
 20
0.0
 30
0.0
  3
*D47
  1

  0
LINE
  5
63A
330
637
100
AcDbEntity
  8
Ｓ_１_１
  6
CONTINUOUS
 62
     2
100
AcDbLine
 10
1959.999997
 20
455.0
 30
0.0
 11
1999.999996
 21
455.0
 31
0.0
  0
LINE
  5
63B
330
637
100
AcDbEntity
  8
Ｓ_１_１
  6
CONTINUOUS
 62
     2
100
AcDbLine
 10
1929.999997
 20
455.0
 30
0.0
 11
1899.999997
 21
455.0
 31
0.0
  0
LINE
  5
63C
330
637
100
AcDbEntity
  8
Ｓ_１_１
  6
CONTINUOUS
 62
     2
100
AcDbLine
 10
2029.999996
 20
455.0
 30
0.0
 11
2059.999996
 21
455.0
 31
0.0
  0
INSERT
  5
63D
330
637
100
AcDbEntity
  8
Ｓ_１_１
 62
     2
100
AcDbBlockReference
  2
EX_NONE
 10
1959.999997
 20
455.0
 30
0.0
 41
30.0
 42
30.0
 43
30.0
  0
INSERT
  5
63E
330
637
100
AcDbEntity
  8
Ｓ_１_１
 62
     2
100
AcDbBlockReference
  2
EX_NONE
 10
1999.999996
 20
455.0
 30
0.0
 41
30.0
 42
30.0
 43
30.0
 50
180.0
  0
MTEXT
  5
63F
330
637
100
AcDbEntity
  8
Ｓ_１_１
 62
     2
100
AcDbMText
 10
1979.9999965
 20
427.5
 30
0.0
 40
34.6290415704388
 41
0.0
 71
     5
 72
     1
  1
40
  7
EXCADDIM1
  0
POINT
  5
640
330
637
100
AcDbEntity
  8
DEFPOINTS
 62
     0
100
AcDbPoint
 10
1959.999997
 20
891.397163
 30
0.0
  0
POINT
  5
641
330
637
100
AcDbEntity
  8
DEFPOINTS
 62
     0
100
AcDbPoint
 10
1999.999996
 20
866.0000020000001
 30
0.0
  0
POINT
  5
642
330
637
100
AcDbEntity
  8
DEFPOINTS
 62
     0
100
AcDbPoint
 10
1999.999996
 20
455.0
 30
0.0
  0
ENDBLK
  5
639
330
637
100
AcDbEntity
  8
0
100
AcDbBlockEnd
  0
BLOCK
  5
645
330
644
100
AcDbEntity
  8
0
100
AcDbBlockBegin
  2
*D48
 70
     1
 10
0.0
 20
0.0
 30
0.0
  3
*D48
  1

  0
LINE
  5
647
330
644
100
AcDbEntity
  8
Ｓ_１_１
  6
CONTINUOUS
 62
     2
100
AcDbLine
 10
2122.999987
 20
807.499997
 30
0.0
 11
2122.999987
 21
445.0
 31
0.0
  0
LINE
  5
648
330
644
100
AcDbEntity
  8
Ｓ_１_１
  6
CONTINUOUS
 62
     2
100
AcDbLine
 10
2052.999988
 20
455.0
 30
0.0
 11
2092.999987
 21
455.0
 31
0.0
  0
INSERT
  5
649
330
644
100
AcDbEntity
  8
Ｓ_１_１
 62
     2
100
AcDbBlockReference
  2
EX_NORM
 10
2022.999988
 20
455.0
 30
0.0
 41
30.0
 42
30.0
 43
30.0
 50
180.0
  0
INSERT
  5
64A
330
644
100
AcDbEntity
  8
Ｓ_１_１
 62
     2
100
AcDbBlockReference
  2
EX_NORM
 10
2122.999987
 20
455.0
 30
0.0
 41
30.0
 42
30.0
 43
30.0
  0
MTEXT
  5
64B
330
644
100
AcDbEntity
  8
Ｓ_１_１
 62
     2
100
AcDbMText
 10
2072.9999875
 20
482.5
 30
0.0
 40
34.6290415704388
 41
0.0
 71
     5
 72
     1
  1
100
  7
EXCADDIM1
  0
POINT
  5
64C
330
644
100
AcDbEntity
  8
DEFPOINTS
 62
     0
100
AcDbPoint
 10
2022.999988
 20
837.500007
 30
0.0
  0
POINT
  5
64D
330
644
100
AcDbEntity
  8
DEFPOINTS
 62
     0
100
AcDbPoint
 10
2122.999987
 20
822.499997
 30
0.0
  0
POINT
  5
64E
330
644
100
AcDbEntity
  8
DEFPOINTS
 62
     0
100
AcDbPoint
 10
2122.999987
 20
455.0
 30
0.0
  0
ENDBLK
  5
646
330
644
100
AcDbEntity
  8
0
100
AcDbBlockEnd
  0
BLOCK
  5
651
330
650
100
AcDbEntity
  8
0
100
AcDbBlockBegin
  2
*D49
 70
     1
 10
0.0
 20
0.0
 30
0.0
  3
*D49
  1

  0
LINE
  5
653
330
650
100
AcDbEntity
  8
Ｓ_１_１
  6
CONTINUOUS
 62
     2
100
AcDbLine
 10
2122.999987
 20
455.0
 30
0.0
 11
2134.999994
 21
455.0
 31
0.0
  0
LINE
  5
654
330
650
100
AcDbEntity
  8
Ｓ_１_１
  6
CONTINUOUS
 62
     2
100
AcDbLine
 10
2092.999987
 20
455.0
 30
0.0
 11
2062.999987
 21
455.0
 31
0.0
  0
LINE
  5
655
330
650
100
AcDbEntity
  8
Ｓ_１_１
  6
CONTINUOUS
 62
     2
100
AcDbLine
 10
2164.999994
 20
455.0
 30
0.0
 11
2194.999994
 21
455.0
 31
0.0
  0
INSERT
  5
656
330
650
100
AcDbEntity
  8
Ｓ_１_１
 62
     2
100
AcDbBlockReference
  2
EX_NONE
 10
2122.999987
 20
455.0
 30
0.0
 41
30.0
 42
30.0
 43
30.0
  0
INSERT
  5
657
330
650
100
AcDbEntity
  8
Ｓ_１_１
 62
     2
100
AcDbBlockReference
  2
EX_NORM
 10
2134.999994
 20
455.0
 30
0.0
 41
30.0
 42
30.0
 43
30.0
 50
180.0
  0
MTEXT
  5
658
330
650
100
AcDbEntity
  8
Ｓ_１_１
 62
     2
100
AcDbMText
 10
2187.499994
 20
482.5
 30
0.0
 40
34.6290415704388
 41
0.0
 71
     5
 72
     1
  1
12
  7
EXCADDIM1
  0
POINT
  5
659
330
650
100
AcDbEntity
  8
DEFPOINTS
 62
     0
100
AcDbPoint
 10
2122.999987
 20
822.499997
 30
0.0
  0
POINT
  5
65A
330
650
100
AcDbEntity
  8
DEFPOINTS
 62
     0
100
AcDbPoint
 10
2134.999994
 20
672.0
 30
0.0
  0
POINT
  5
65B
330
650
100
AcDbEntity
  8
DEFPOINTS
 62
     0
100
AcDbPoint
 10
2134.999994
 20
455.0
 30
0.0
  0
ENDBLK
  5
652
330
650
100
AcDbEntity
  8
0
100
AcDbBlockEnd
  0
BLOCK
  5
65E
330
65D
100
AcDbEntity
  8
0
100
AcDbBlockBegin
  2
*D50
 70
     1
 10
0.0
 20
0.0
 30
0.0
  3
*D50
  1

  0
LINE
  5
660
330
65D
100
AcDbEntity
  8
Ｓ_１_１
  6
CONTINUOUS
 62
     2
100
AcDbLine
 10
2134.999994
 20
657.0
 30
0.0
 11
2134.999994
 21
380.0000000000006
 31
0.0
  0
LINE
  5
661
330
65D
100
AcDbEntity
  8
Ｓ_１_１
  6
CONTINUOUS
 62
     2
100
AcDbLine
 10
2022.999988
 20
822.500007
 30
0.0
 11
2022.999988
 21
380.0000000000006
 31
0.0
  0
LINE
  5
662
330
65D
100
AcDbEntity
  8
Ｓ_１_１
  6
CONTINUOUS
 62
     2
100
AcDbLine
 10
2104.999994
 20
390.0
 30
0.0
 11
2052.999988
 21
390.0
 31
0.0
  0
INSERT
  5
663
330
65D
100
AcDbEntity
  8
Ｓ_１_１
 62
     2
100
AcDbBlockReference
  2
EX_NORM
 10
2134.999994
 20
390.0
 30
0.0
 41
30.0
 42
30.0
 43
30.0
  0
INSERT
  5
664
330
65D
100
AcDbEntity
  8
Ｓ_１_１
 62
     2
100
AcDbBlockReference
  2
EX_NORM
 10
2022.999988
 20
390.0
 30
0.0
 41
30.0
 42
30.0
 43
30.0
 50
180.0
  0
MTEXT
  5
665
330
65D
100
AcDbEntity
  8
Ｓ_１_１
 62
     2
100
AcDbMText
 10
2078.999991
 20
417.5
 30
0.0
 40
34.6290415704388
 41
0.0
 71
     5
 72
     1
  1
112
  7
EXCADDIM1
  0
POINT
  5
666
330
65D
100
AcDbEntity
  8
DEFPOINTS
 62
     0
100
AcDbPoint
 10
2134.999994
 20
672.0
 30
0.0
  0
POINT
  5
667
330
65D
100
AcDbEntity
  8
DEFPOINTS
 62
     0
100
AcDbPoint
 10
2022.999988
 20
837.500007
 30
0.0
  0
POINT
  5
668
330
65D
100
AcDbEntity
  8
DEFPOINTS
 62
     0
100
AcDbPoint
 10
2022.999988
 20
390.0
 30
0.0
  0
ENDBLK
  5
65F
330
65D
100
AcDbEntity
  8
0
100
AcDbBlockEnd
  0
BLOCK
  5
66E
330
66D
100
AcDbEntity
  8
0
100
AcDbBlockBegin
  2
*D51
 70
     1
 10
0.0
 20
0.0
 30
0.0
  3
*D51
  1

  0
LINE
  5
670
330
66D
100
AcDbEntity
  8
Ｓ_１_１
  6
CONTINUOUS
 62
     2
100
AcDbLine
 10
2022.999988
 20
455.0
 30
0.0
 11
1999.999996
 21
455.0
 31
0.0
  0
LINE
  5
671
330
66D
100
AcDbEntity
  8
Ｓ_１_１
  6
CONTINUOUS
 62
     2
100
AcDbLine
 10
2052.999988
 20
455.0
 30
0.0
 11
2082.999988
 21
455.0
 31
0.0
  0
LINE
  5
672
330
66D
100
AcDbEntity
  8
Ｓ_１_１
  6
CONTINUOUS
 62
     2
100
AcDbLine
 10
1969.999996
 20
455.0
 30
0.0
 11
1939.999996
 21
455.0
 31
0.0
  0
INSERT
  5
673
330
66D
100
AcDbEntity
  8
Ｓ_１_１
 62
     2
100
AcDbBlockReference
  2
EX_NONE
 10
2022.999988
 20
455.0
 30
0.0
 41
30.0
 42
30.0
 43
30.0
 50
180.0
  0
INSERT
  5
674
330
66D
100
AcDbEntity
  8
Ｓ_１_１
 62
     2
100
AcDbBlockReference
  2
EX_BCIR
 10
1999.999996
 20
455.0
 30
0.0
 41
30.0
 42
30.0
 43
30.0
  0
MTEXT
  5
675
330
66D
100
AcDbEntity
  8
Ｓ_１_１
 62
     2
100
AcDbMText
 10
2072.5
 20
547.5
 30
0.0
 40
34.6290415704388
 41
0.0
 71
     5
 72
     1
  1
23
  7
EXCADDIM1
  0
POINT
  5
676
330
66D
100
AcDbEntity
  8
DEFPOINTS
 62
     0
100
AcDbPoint
 10
2022.999988
 20
837.499997
 30
0.0
  0
POINT
  5
677
330
66D
100
AcDbEntity
  8
DEFPOINTS
 62
     0
100
AcDbPoint
 10
1999.999996
 20
866.0000020000001
 30
0.0
  0
POINT
  5
678
330
66D
100
AcDbEntity
  8
DEFPOINTS
 62
     0
100
AcDbPoint
 10
1999.999996
 20
455.0
 30
0.0
  0
ENDBLK
  5
66F
330
66D
100
AcDbEntity
  8
0
100
AcDbBlockEnd
  0
BLOCK
  5
680
330
67F
100
AcDbEntity
  8
0
100
AcDbBlockBegin
  2
*D52
 70
     1
 10
0.0
 20
0.0
 30
0.0
  3
*D52
  1

  0
LINE
  5
682
330
67F
100
AcDbEntity
  8
Ｓ_１_１
  6
CONTINUOUS
 62
     2
100
AcDbLine
 10
390.0
 20
2038.954142
 30
0.0
 11
390.0
 21
2178.954139
 31
0.0
  0
INSERT
  5
683
330
67F
100
AcDbEntity
  8
Ｓ_１_１
 62
     2
100
AcDbBlockReference
  2
EX_NORM
 10
390.0
 20
2008.954142
 30
0.0
 41
30.0
 42
30.0
 43
30.0
 50
270.0
  0
INSERT
  5
684
330
67F
100
AcDbEntity
  8
Ｓ_１_１
 62
     2
100
AcDbBlockReference
  2
EX_NORM
 10
390.0
 20
2208.954139
 30
0.0
 41
30.0
 42
30.0
 43
30.0
 50
90.0
  0
MTEXT
  5
685
330
67F
100
AcDbEntity
  8
Ｓ_１_１
 62
     2
100
AcDbMText
 10
362.5000000000001
 20
2108.9541405
 30
0.0
 40
34.6290415704388
 41
0.0
 71
     5
 72
     1
  1
200
  7
EXCADDIM1
 11
0.0
 21
1.0
 31
0.0
  0
POINT
  5
686
330
67F
100
AcDbEntity
  8
DEFPOINTS
 62
     0
100
AcDbPoint
 10
549.99985200001
 20
2008.954142
 30
0.0
  0
POINT
  5
687
330
67F
100
AcDbEntity
  8
DEFPOINTS
 62
     0
100
AcDbPoint
 10
502.798009
 20
2208.954139
 30
0.0
  0
POINT
  5
688
330
67F
100
AcDbEntity
  8
DEFPOINTS
 62
     0
100
AcDbPoint
 10
390.0
 20
2208.954139
 30
0.0
  0
ENDBLK
  5
681
330
67F
100
AcDbEntity
  8
0
100
AcDbBlockEnd
  0
BLOCK
  5
68B
330
68A
100
AcDbEntity
  8
0
100
AcDbBlockBegin
  2
*D53
 70
     1
 10
0.0
 20
0.0
 30
0.0
  3
*D53
  1

  0
LINE
  5
68D
330
68A
100
AcDbEntity
  8
Ｓ_１_１
  6
CONTINUOUS
 62
     2
100
AcDbLine
 10
487.798009
 20
2208.954139
 30
0.0
 11
380.0
 21
2208.954139
 31
0.0
  0
LINE
  5
68E
330
68A
100
AcDbEntity
  8
Ｓ_１_１
  6
CONTINUOUS
 62
     2
100
AcDbLine
 10
390.0
 20
2238.954139
 30
0.0
 11
390.0
 21
2378.954136
 31
0.0
  0
INSERT
  5
68F
330
68A
100
AcDbEntity
  8
Ｓ_１_１
 62
     2
100
AcDbBlockReference
  2
EX_NORM
 10
390.0
 20
2208.954139
 30
0.0
 41
30.0
 42
30.0
 43
30.0
 50
270.0
  0
INSERT
  5
690
330
68A
100
AcDbEntity
  8
Ｓ_１_１
 62
     2
100
AcDbBlockReference
  2
EX_NORM
 10
390.0
 20
2408.954136
 30
0.0
 41
30.0
 42
30.0
 43
30.0
 50
90.0
  0
MTEXT
  5
691
330
68A
100
AcDbEntity
  8
Ｓ_１_１
 62
     2
100
AcDbMText
 10
362.5000000000001
 20
2308.9541375
 30
0.0
 40
34.6290415704388
 41
0.0
 71
     5
 72
     1
  1
200
  7
EXCADDIM1
 11
0.0
 21
1.0
 31
0.0
  0
POINT
  5
692
330
68A
100
AcDbEntity
  8
DEFPOINTS
 62
     0
100
AcDbPoint
 10
502.798009
 20
2208.954139
 30
0.0
  0
POINT
  5
693
330
68A
100
AcDbEntity
  8
DEFPOINTS
 62
     0
100
AcDbPoint
 10
549.99995100001
 20
2408.954136
 30
0.0
  0
POINT
  5
694
330
68A
100
AcDbEntity
  8
DEFPOINTS
 62
     0
100
AcDbPoint
 10
390.0
 20
2408.954136
 30
0.0
  0
ENDBLK
  5
68C
330
68A
100
AcDbEntity
  8
0
100
AcDbBlockEnd
  0
BLOCK
  5
697
330
696
100
AcDbEntity
  8
0
100
AcDbBlockBegin
  2
*D54
 70
     1
 10
0.0
 20
0.0
 30
0.0
  3
*D54
  1

  0
LINE
  5
699
330
696
100
AcDbEntity
  8
Ｓ_１_１
  6
CONTINUOUS
 62
     2
100
AcDbLine
 10
534.99985200001
 20
2008.954142
 30
0.0
 11
315.0
 21
2008.954142
 31
0.0
  0
LINE
  5
69A
330
696
100
AcDbEntity
  8
Ｓ_１_１
  6
CONTINUOUS
 62
     2
100
AcDbLine
 10
534.99995100001
 20
2408.954136
 30
0.0
 11
315.0
 21
2408.954136
 31
0.0
  0
LINE
  5
69B
330
696
100
AcDbEntity
  8
Ｓ_１_１
  6
CONTINUOUS
 62
     2
100
AcDbLine
 10
325.0
 20
2038.954142
 30
0.0
 11
325.0
 21
2378.954136
 31
0.0
  0
INSERT
  5
69C
330
696
100
AcDbEntity
  8
Ｓ_１_１
 62
     2
100
AcDbBlockReference
  2
EX_NORM
 10
325.0
 20
2008.954142
 30
0.0
 41
30.0
 42
30.0
 43
30.0
 50
270.0
  0
INSERT
  5
69D
330
696
100
AcDbEntity
  8
Ｓ_１_１
 62
     2
100
AcDbBlockReference
  2
EX_NORM
 10
325.0
 20
2408.954136
 30
0.0
 41
30.0
 42
30.0
 43
30.0
 50
90.0
  0
MTEXT
  5
69E
330
696
100
AcDbEntity
  8
Ｓ_１_１
 62
     2
100
AcDbMText
 10
297.5000000000001
 20
2208.954139
 30
0.0
 40
34.6290415704388
 41
0.0
 71
     5
 72
     1
  1
400
  7
EXCADDIM1
 11
0.0
 21
1.0
 31
0.0
  0
POINT
  5
69F
330
696
100
AcDbEntity
  8
DEFPOINTS
 62
     0
100
AcDbPoint
 10
549.99985200001
 20
2008.954142
 30
0.0
  0
POINT
  5
6A0
330
696
100
AcDbEntity
  8
DEFPOINTS
 62
     0
100
AcDbPoint
 10
549.99995100001
 20
2408.954136
 30
0.0
  0
POINT
  5
6A1
330
696
100
AcDbEntity
  8
DEFPOINTS
 62
     0
100
AcDbPoint
 10
325.0
 20
2408.954136
 30
0.0
  0
ENDBLK
  5
698
330
696
100
AcDbEntity
  8
0
100
AcDbBlockEnd
  0
BLOCK
  5
6A4
330
6A3
100
AcDbEntity
  8
0
100
AcDbBlockBegin
  2
*D55
 70
     1
 10
0.0
 20
0.0
 30
0.0
  3
*D55
  1

  0
LINE
  5
6A6
330
6A3
100
AcDbEntity
  8
Ｓ_１_１
  6
CONTINUOUS
 62
     2
100
AcDbLine
 10
430.000006
 20
635.0
 30
0.0
 11
430.000006
 21
386.0
 31
0.0
  0
LINE
  5
6A7
330
6A3
100
AcDbEntity
  8
Ｓ_１_１
  6
CONTINUOUS
 62
     2
100
AcDbLine
 10
1129.999995
 20
635.0
 30
0.0
 11
1129.999995
 21
386.0
 31
0.0
  0
LINE
  5
6A8
330
6A3
100
AcDbEntity
  8
Ｓ_１_１
  6
CONTINUOUS
 62
     2
100
AcDbLine
 10
460.000006
 20
396.0
 30
0.0
 11
1099.999995
 21
396.0
 31
0.0
  0
INSERT
  5
6A9
330
6A3
100
AcDbEntity
  8
Ｓ_１_１
 62
     2
100
AcDbBlockReference
  2
EX_NORM
 10
430.000006
 20
396.0
 30
0.0
 41
30.0
 42
30.0
 43
30.0
 50
180.0
  0
INSERT
  5
6AA
330
6A3
100
AcDbEntity
  8
Ｓ_１_１
 62
     2
100
AcDbBlockReference
  2
EX_NORM
 10
1129.999995
 20
396.0
 30
0.0
 41
30.0
 42
30.0
 43
30.0
  0
MTEXT
  5
6AB
330
6A3
100
AcDbEntity
  8
Ｓ_１_１
 62
     2
100
AcDbMText
 10
780.0000004999999
 20
423.5
 30
0.0
 40
34.6290415704388
 41
0.0
 71
     5
 72
     1
  1
700
  7
EXCADDIM1
  0
POINT
  5
6AC
330
6A3
100
AcDbEntity
  8
DEFPOINTS
 62
     0
100
AcDbPoint
 10
430.000006
 20
650.0
 30
0.0
  0
POINT
  5
6AD
330
6A3
100
AcDbEntity
  8
DEFPOINTS
 62
     0
100
AcDbPoint
 10
1129.999995
 20
650.0
 30
0.0
  0
POINT
  5
6AE
330
6A3
100
AcDbEntity
  8
DEFPOINTS
 62
     0
100
AcDbPoint
 10
1129.999995
 20
396.0
 30
0.0
  0
ENDBLK
  5
6A5
330
6A3
100
AcDbEntity
  8
0
100
AcDbBlockEnd
  0
BLOCK
  5
6B1
330
6B0
100
AcDbEntity
  8
0
100
AcDbBlockBegin
  2
*D56
 70
     1
 10
0.0
 20
0.0
 30
0.0
  3
*D56
  1

  0
LINE
  5
6B3
330
6B0
100
AcDbEntity
  8
Ｓ_１_１
  6
CONTINUOUS
 62
     2
100
AcDbLine
 10
1144.999995
 20
650.0
 30
0.0
 11
1245.0
 21
650.0000000000001
 31
0.0
  0
LINE
  5
6B4
330
6B0
100
AcDbEntity
  8
Ｓ_１_１
  6
CONTINUOUS
 62
     2
100
AcDbLine
 10
854.499995
 20
1569.000001
 30
0.0
 11
1245.0
 21
1569.000001
 31
0.0
  0
LINE
  5
6B5
330
6B0
100
AcDbEntity
  8
Ｓ_１_１
  6
CONTINUOUS
 62
     2
100
AcDbLine
 10
1235.0
 20
680.0000000000001
 30
0.0
 11
1235.0
 21
1539.000001
 31
0.0
  0
INSERT
  5
6B6
330
6B0
100
AcDbEntity
  8
Ｓ_１_１
 62
     2
100
AcDbBlockReference
  2
EX_NORM
 10
1235.0
 20
650.0000000000001
 30
0.0
 41
30.0
 42
30.0
 43
30.0
 50
270.0
  0
INSERT
  5
6B7
330
6B0
100
AcDbEntity
  8
Ｓ_１_１
 62
     2
100
AcDbBlockReference
  2
EX_NORM
 10
1235.0
 20
1569.000001
 30
0.0
 41
30.0
 42
30.0
 43
30.0
 50
90.0
  0
MTEXT
  5
6B8
330
6B0
100
AcDbEntity
  8
Ｓ_１_１
 62
     2
100
AcDbMText
 10
1207.5
 20
1109.5000005
 30
0.0
 40
34.6290415704388
 41
0.0
 71
     5
 72
     1
  1
919
  7
EXCADDIM1
 11
0.0
 21
1.0
 31
0.0
  0
POINT
  5
6B9
330
6B0
100
AcDbEntity
  8
DEFPOINTS
 62
     0
100
AcDbPoint
 10
1129.999995
 20
650.0
 30
0.0
  0
POINT
  5
6BA
330
6B0
100
AcDbEntity
  8
DEFPOINTS
 62
     0
100
AcDbPoint
 10
839.499995
 20
1569.000001
 30
0.0
  0
POINT
  5
6BB
330
6B0
100
AcDbEntity
  8
DEFPOINTS
 62
     0
100
AcDbPoint
 10
1235.0
 20
1569.000001
 30
0.0
  0
ENDBLK
  5
6B2
330
6B0
100
AcDbEntity
  8
0
100
AcDbBlockEnd
  0
BLOCK
  5
6BE
330
6BD
100
AcDbEntity
  8
0
100
AcDbBlockBegin
  2
*D57
 70
     1
 10
0.0
 20
0.0
 30
0.0
  3
*D57
  1

  0
LINE
  5
6C0
330
6BD
100
AcDbEntity
  8
Ｓ_１_１
  6
CONTINUOUS
 62
     2
100
AcDbLine
 10
1570.000003
 20
859.999996
 30
0.0
 11
1570.000003
 21
380.0
 31
0.0
  0
LINE
  5
6C1
330
6BD
100
AcDbEntity
  8
Ｓ_１_１
  6
CONTINUOUS
 62
     2
100
AcDbLine
 10
1999.999996
 20
851.0
 30
0.0
 11
1999.999996
 21
380.0
 31
0.0
  0
LINE
  5
6C2
330
6BD
100
AcDbEntity
  8
Ｓ_１_１
  6
CONTINUOUS
 62
     2
100
AcDbLine
 10
1600.000003
 20
390.0
 30
0.0
 11
1969.999996
 21
390.0
 31
0.0
  0
INSERT
  5
6C3
330
6BD
100
AcDbEntity
  8
Ｓ_１_１
 62
     2
100
AcDbBlockReference
  2
EX_NORM
 10
1570.000003
 20
390.0
 30
0.0
 41
30.0
 42
30.0
 43
30.0
 50
180.0
  0
INSERT
  5
6C4
330
6BD
100
AcDbEntity
  8
Ｓ_１_１
 62
     2
100
AcDbBlockReference
  2
EX_NORM
 10
1999.999996
 20
390.0
 30
0.0
 41
30.0
 42
30.0
 43
30.0
  0
MTEXT
  5
6C5
330
6BD
100
AcDbEntity
  8
Ｓ_１_１
 62
     2
100
AcDbMText
 10
1784.9999995
 20
417.5
 30
0.0
 40
34.6290415704388
 41
0.0
 71
     5
 72
     1
  1
430
  7
EXCADDIM1
  0
POINT
  5
6C6
330
6BD
100
AcDbEntity
  8
DEFPOINTS
 62
     0
100
AcDbPoint
 10
1570.000003
 20
874.999996
 30
0.0
  0
POINT
  5
6C7
330
6BD
100
AcDbEntity
  8
DEFPOINTS
 62
     0
100
AcDbPoint
 10
1999.999996
 20
866.0
 30
0.0
  0
POINT
  5
6C8
330
6BD
100
AcDbEntity
  8
DEFPOINTS
 62
     0
100
AcDbPoint
 10
1999.999996
 20
390.0
 30
0.0
  0
ENDBLK
  5
6BF
330
6BD
100
AcDbEntity
  8
0
100
AcDbBlockEnd
  0
ENDSEC
  0
SECTION
  2
ENTITIES
  0
LINE
  5
D4
330
1F
100
AcDbEntity
  8
図面枠
  6
CONTINUOUS
 62
     3
100
AcDbLine
 10
149.9999999999994
 20
2820.0
 30
0.0
 11
149.9999999999994
 21
2730.0
 31
0.0
  0
TEXT
  5
D6
330
1F
100
AcDbEntity
  8
図面枠
  6
CONTINUOUS
 62
     4
100
AcDbText
 10
3870.0
 20
2713.828125
 30
0.0
 40
34.6290415704388
  1
kN
 41
0.999230769230769
  7
EXCADTTF1
 72
     5
 11
3915.0
 21
2713.828125
 31
0.0
100
AcDbText
  0
LINE
  5
D7
330
1F
100
AcDbEntity
  8
図面枠
  6
CONTINUOUS
 62
     3
100
AcDbLine
 10
3250.0
 20
2760.0
 30
0.0
 11
4050.0
 21
2760.0
 31
0.0
  0
LINE
  5
D8
330
1F
100
AcDbEntity
  8
図面枠
  6
CONTINUOUS
 62
     3
100
AcDbLine
 10
3250.0
 20
2820.0
 30
0.0
 11
4050.0
 21
2820.0
 31
0.0
  0
TEXT
  5
D9
330
1F
100
AcDbEntity
  8
図面枠
  6
CONTINUOUS
 62
     4
100
AcDbText
 10
3537.5
 20
2773.828125
 30
0.0
 40
34.6290415704388
  1
仕　　　様
 41
0.9992307692307691
  7
EXCADTTF1
 72
     5
 11
3762.5
 21
2773.828125
 31
0.0
100
AcDbText
  0
TEXT
  5
DA
330
1F
100
AcDbEntity
  8
図面枠
  6
CONTINUOUS
 62
     4
100
AcDbText
 10
3762.5
 20
2713.828125
 30
0.0
 40
34.6290415704388
  1
300
 41
0.9992307692307689
  7
EXCADTTF1
 72
     5
 11
3830.0
 21
2713.828125
 31
0.0
100
AcDbText
  0
TEXT
  5
DB
330
1F
100
AcDbEntity
  8
図面枠
  6
CONTINUOUS
 62
     4
100
AcDbText
 10
182.999999999999
 20
2751.4375
 30
0.0
 40
46.17205542725173
  1
タンクリフティングサポート3型　ジャッキ能力　300kN400ストローク
 41
0.9992307692307688
  7
EXCADTTF1
 72
     5
 11
2072.999999999999
 21
2751.4375
 31
0.0
100
AcDbText
  0
LINE
  5
DC
330
1F
100
AcDbEntity
  8
図面枠
  6
CONTINUOUS
 62
     3
100
AcDbLine
 10
2100.0
 20
2820.0
 30
0.0
 11
2100.0
 21
2730.0
 31
0.0
  0
LINE
  5
DD
330
1F
100
AcDbEntity
  8
図面枠
  6
CONTINUOUS
 62
     3
100
AcDbLine
 10
149.9999999999994
 20
2820.0
 30
0.0
 11
2100.0
 21
2820.0
 31
0.0
  0
LINE
  5
DE
330
1F
100
AcDbEntity
  8
図面枠
  6
CONTINUOUS
 62
     3
100
AcDbLine
 10
149.9999999999994
 20
2730.0
 30
0.0
 11
2100.0
 21
2730.0
 31
0.0
  0
LINE
  5
DF
330
1F
100
AcDbEntity
  8
図面枠
  6
CONTINUOUS
 62
     3
100
AcDbLine
 10
4050.0
 20
240.0
 30
0.0
 11
4050.0
 21
150.0
 31
0.0
  0
TEXT
  5
E0
330
1F
100
AcDbEntity
  8
図面枠
  6
CONTINUOUS
 62
     4
100
AcDbText
 10
3930.0
 20
173.4375
 30
0.0
 40
46.17205542725173
  1
LS3
 41
0.999230769230769
  7
EXCADTTF1
 72
     5
 11
4020.0
 21
173.4375
 31
0.0
100
AcDbText
  0
LINE
  5
E1
330
1F
100
AcDbEntity
  8
図面枠
  6
CONTINUOUS
 62
     3
100
AcDbLine
 10
3900.0
 20
240.0
 30
0.0
 11
3900.0
 21
150.0
 31
0.0
  0
LINE
  5
E2
330
1F
100
AcDbEntity
  8
図面枠
  6
CONTINUOUS
 62
     3
100
AcDbLine
 10
3900.0
 20
240.0
 30
0.0
 11
4050.0
 21
240.0
 31
0.0
  0
LINE
  5
E3
330
1F
100
AcDbEntity
  8
図面枠
  6
CONTINUOUS
 62
     3
100
AcDbLine
 10
3900.0
 20
150.0
 30
0.0
 11
4050.0
 21
150.0
 31
0.0
  0
TEXT
  5
E4
330
1F
100
AcDbEntity
  8
図面枠
  6
CONTINUOUS
 62
     4
100
AcDbText
 10
3270.0
 20
2713.828125
 30
0.0
 40
34.6290415704388
  1
能力
 41
0.999230769230769
  7
EXCADTTF1
 72
     5
 11
3360.0
 21
2713.828125
 31
0.0
100
AcDbText
  0
TEXT
  5
E5
330
1F
100
AcDbEntity
  8
図面枠
  6
CONTINUOUS
 62
     4
100
AcDbText
 10
3870.0
 20
2653.828125
 30
0.0
 40
34.6290415704388
  1
mm
 41
0.999230769230769
  7
EXCADTTF1
 72
     5
 11
3915.0
 21
2653.828125
 31
0.0
100
AcDbText
  0
TEXT
  5
E6
330
1F
100
AcDbEntity
  8
図面枠
  6
CONTINUOUS
 62
     4
100
AcDbText
 10
3870.0
 20
2593.828125
 30
0.0
 40
34.6290415704388
  1
mm
 41
0.999230769230769
  7
EXCADTTF1
 72
     5
 11
3915.0
 21
2593.828125
 31
0.0
100
AcDbText
  0
LINE
  5
E7
330
1F
100
AcDbEntity
  8
図面枠
  6
CONTINUOUS
 62
     2
100
AcDbLine
 10
3250.0
 20
2700.0
 30
0.0
 11
4050.0
 21
2700.0
 31
0.0
  0
LINE
  5
E8
330
1F
100
AcDbEntity
  8
図面枠
  6
CONTINUOUS
 62
     2
100
AcDbLine
 10
3250.0
 20
2640.0
 30
0.0
 11
4050.0
 21
2640.0
 31
0.0
  0
LINE
  5
E9
330
1F
100
AcDbEntity
  8
図面枠
  6
CONTINUOUS
 62
     2
100
AcDbLine
 10
3250.0
 20
2580.0
 30
0.0
 11
4050.0
 21
2580.0
 31
0.0
  0
TEXT
  5
EA
330
1F
100
AcDbEntity
  8
図面枠
  6
CONTINUOUS
 62
     4
100
AcDbText
 10
3270.0
 20
2593.828125
 30
0.0
 40
34.6290415704388
  1
機械高
 41
0.9992307692307689
  7
EXCADTTF1
 72
     5
 11
3405.0
 21
2593.828125
 31
0.0
100
AcDbText
  0
TEXT
  5
EB
330
1F
100
AcDbEntity
  8
図面枠
  6
CONTINUOUS
 62
     4
100
AcDbText
 10
3270.0
 20
2533.828125
 30
0.0
 40
34.6290415704388
  1
総重量
 41
0.9992307692307689
  7
EXCADTTF1
 72
     5
 11
3405.0
 21
2533.828125
 31
0.0
100
AcDbText
  0
TEXT
  5
EC
330
1F
100
AcDbEntity
  8
図面枠
  6
CONTINUOUS
 62
     4
100
AcDbText
 10
3870.0
 20
2533.828125
 30
0.0
 40
34.6290415704388
  1
kg
 41
0.999230769230769
  7
EXCADTTF1
 72
     5
 11
3915.0
 21
2533.828125
 31
0.0
100
AcDbText
  0
LINE
  5
ED
330
1F
100
AcDbEntity
  8
図面枠
  6
CONTINUOUS
 62
     3
100
AcDbLine
 10
3250.0
 20
2520.0
 30
0.0
 11
4050.0
 21
2520.0
 31
0.0
  0
TEXT
  5
EE
330
1F
100
AcDbEntity
  8
図面枠
  6
CONTINUOUS
 62
     4
100
AcDbText
 10
3740.0
 20
2593.828125
 30
0.0
 40
34.6290415704388
  1
1588
 41
0.999230769230769
  7
EXCADTTF1
 72
     5
 11
3830.0
 21
2593.828125
 31
0.0
100
AcDbText
  0
TEXT
  5
EF
330
1F
100
AcDbEntity
  8
図面枠
  6
CONTINUOUS
 62
     4
100
AcDbText
 10
3270.0
 20
2653.828125
 30
0.0
 40
34.6290415704388
  1
ストローク
 41
0.9992307692307691
  7
EXCADTTF1
 72
     5
 11
3495.0
 21
2653.828125
 31
0.0
100
AcDbText
  0
TEXT
  5
F0
330
1F
100
AcDbEntity
  8
図面枠
  6
CONTINUOUS
 62
     4
100
AcDbText
 10
3762.5
 20
2653.828125
 30
0.0
 40
34.6290415704388
  1
400
 41
0.9992307692307689
  7
EXCADTTF1
 72
     5
 11
3830.0
 21
2653.828125
 31
0.0
100
AcDbText
  0
LINE
  5
F1
330
1F
100
AcDbEntity
  8
図面枠
  6
CONTINUOUS
 62
     3
100
AcDbLine
 10
3250.0
 20
2820.0
 30
0.0
 11
3250.0
 21
2520.0
 31
0.0
  0
LINE
  5
F2
330
1F
100
AcDbEntity
  8
図面枠
  6
CONTINUOUS
 62
     2
100
AcDbLine
 10
3650.0
 20
2760.0
 30
0.0
 11
3650.0
 21
2520.0
 31
0.0
  0
LINE
  5
F3
330
1F
100
AcDbEntity
  8
図面枠
  6
CONTINUOUS
 62
     2
100
AcDbLine
 10
3850.0
 20
2760.0
 30
0.0
 11
3850.0
 21
2520.0
 31
0.0
  0
LINE
  5
F4
330
1F
100
AcDbEntity
  8
図面枠
  6
CONTINUOUS
 62
     3
100
AcDbLine
 10
4050.0
 20
2820.0
 30
0.0
 11
4050.0
 21
2520.0
 31
0.0
  0
TEXT
  5
F5
330
1F
100
AcDbEntity
  8
図面枠
  6
CONTINUOUS
 62
     4
100
AcDbText
 10
3391.25
 20
2423.828125
 30
0.0
 40
34.6290415704388
  1
油 圧 ジ ャ ッ キ 仕 様
 41
0.999230769230769
  7
EXCADTTF1
 72
     5
 11
3908.75
 21
2423.828125
 31
0.0
100
AcDbText
  0
LINE
  5
F6
330
1F
100
AcDbEntity
  8
図面枠
  6
CONTINUOUS
 62
     3
100
AcDbLine
 10
3250.0
 20
2470.0
 30
0.0
 11
4050.0
 21
2470.0
 31
0.0
  0
LINE
  5
F7
330
1F
100
AcDbEntity
  8
図面枠
  6
CONTINUOUS
 62
     3
100
AcDbLine
 10
3250.0
 20
2410.0
 30
0.0
 11
4050.0
 21
2410.0
 31
0.0
  0
TEXT
  5
F8
330
1F
100
AcDbEntity
  8
図面枠
  6
CONTINUOUS
 62
     4
100
AcDbText
 10
3870.0
 20
2363.828125
 30
0.0
 40
34.6290415704388
  1
kN
 41
0.999230769230769
  7
EXCADTTF1
 72
     5
 11
3915.0
 21
2363.828125
 31
0.0
100
AcDbText
  0
TEXT
  5
F9
330
1F
100
AcDbEntity
  8
図面枠
  6
CONTINUOUS
 62
     4
100
AcDbText
 10
3762.5
 20
2363.828125
 30
0.0
 40
34.6290415704388
  1
300
 41
0.9992307692307689
  7
EXCADTTF1
 72
     5
 11
3830.0
 21
2363.828125
 31
0.0
100
AcDbText
  0
TEXT
  5
FA
330
1F
100
AcDbEntity
  8
図面枠
  6
CONTINUOUS
 62
     4
100
AcDbText
 10
3870.0
 20
2303.828125
 30
0.0
 40
34.6290415704388
  1
mm
 41
0.999230769230769
  7
EXCADTTF1
 72
     5
 11
3915.0
 21
2303.828125
 31
0.0
100
AcDbText
  0
TEXT
  5
FB
330
1F
100
AcDbEntity
  8
図面枠
  6
CONTINUOUS
 62
     4
100
AcDbText
 10
3270.0
 20
1943.828125
 30
0.0
 40
34.6290415704388
  1
作動圧力
 41
0.999230769230769
  7
EXCADTTF1
 72
     5
 11
3450.0
 21
1943.828125
 31
0.0
100
AcDbText
  0
TEXT
  5
FC
330
1F
100
AcDbEntity
  8
図面枠
  6
CONTINUOUS
 62
     4
100
AcDbText
 10
3870.0
 20
2123.828125
 30
0.0
 40
34.6290415704388
  1
mm
 41
0.999230769230769
  7
EXCADTTF1
 72
     5
 11
3915.0
 21
2123.828125
 31
0.0
100
AcDbText
  0
TEXT
  5
FD
330
1F
100
AcDbEntity
  8
図面枠
  6
CONTINUOUS
 62
     4
100
AcDbText
 10
3870.0
 20
2063.828125
 30
0.0
 40
34.6290415704388
  1
mm
 41
0.999230769230769
  7
EXCADTTF1
 72
     5
 11
3915.0
 21
2063.828125
 31
0.0
100
AcDbText
  0
TEXT
  5
FE
330
1F
100
AcDbEntity
  8
図面枠
  6
CONTINUOUS
 62
     4
100
AcDbText
 10
3870.0
 20
1943.828125
 30
0.0
 40
34.6290415704388
  1
MPa
 41
0.9992307692307689
  7
EXCADTTF1
 72
     5
 11
3937.5
 21
1943.828125
 31
0.0
100
AcDbText
  0
TEXT
  5
FF
330
1F
100
AcDbEntity
  8
図面枠
  6
CONTINUOUS
 62
     4
100
AcDbText
 10
3270.0
 20
2063.828125
 30
0.0
 40
34.6290415704388
  1
ピストン径
 41
0.9992307692307691
  7
EXCADTTF1
 72
     5
 11
3495.0
 21
2063.828125
 31
0.0
100
AcDbText
  0
TEXT
  5
100
330
1F
100
AcDbEntity
  8
図面枠
  6
CONTINUOUS
 62
     4
100
AcDbText
 10
3270.0
 20
2003.828125
 30
0.0
 40
34.6290415704388
  1
受圧面積
 41
0.999230769230769
  7
EXCADTTF1
 72
     5
 11
3450.0
 21
2003.828125
 31
0.0
100
AcDbText
  0
LINE
  5
101
330
1F
100
AcDbEntity
  8
図面枠
  6
CONTINUOUS
 62
     2
100
AcDbLine
 10
3250.0
 20
2110.0
 30
0.0
 11
4050.0
 21
2110.0
 31
0.0
  0
LINE
  5
102
330
1F
100
AcDbEntity
  8
図面枠
  6
CONTINUOUS
 62
     2
100
AcDbLine
 10
3250.0
 20
2050.0
 30
0.0
 11
4050.0
 21
2050.0
 31
0.0
  0
LINE
  5
103
330
1F
100
AcDbEntity
  8
図面枠
  6
CONTINUOUS
 62
     2
100
AcDbLine
 10
3250.0
 20
1990.0
 30
0.0
 11
4050.0
 21
1990.0
 31
0.0
  0
LINE
  5
104
330
1F
100
AcDbEntity
  8
図面枠
  6
CONTINUOUS
 62
     2
100
AcDbLine
 10
3250.0
 20
2170.0
 30
0.0
 11
4050.0
 21
2170.0
 31
0.0
  0
TEXT
  5
105
330
1F
100
AcDbEntity
  8
図面枠
  6
CONTINUOUS
 62
     4
100
AcDbText
 10
3870.0
 20
2183.828125
 30
0.0
 40
34.6290415704388
  1
mm
 41
0.999230769230769
  7
EXCADTTF1
 72
     5
 11
3915.0
 21
2183.828125
 31
0.0
100
AcDbText
  0
LINE
  5
106
330
1F
100
AcDbEntity
  8
図面枠
  6
CONTINUOUS
 62
     2
100
AcDbLine
 10
3250.0
 20
2230.0
 30
0.0
 11
4050.0
 21
2230.0
 31
0.0
  0
LINE
  5
107
330
1F
100
AcDbEntity
  8
図面枠
  6
CONTINUOUS
 62
     2
100
AcDbLine
 10
3250.0
 20
2290.0
 30
0.0
 11
4050.0
 21
2290.0
 31
0.0
  0
LINE
  5
108
330
1F
100
AcDbEntity
  8
図面枠
  6
CONTINUOUS
 62
     2
100
AcDbLine
 10
3250.0
 20
2350.0
 30
0.0
 11
4050.0
 21
2350.0
 31
0.0
  0
TEXT
  5
109
330
1F
100
AcDbEntity
  8
図面枠
  6
CONTINUOUS
 62
     4
100
AcDbText
 10
3270.0
 20
2243.828125
 30
0.0
 40
34.6290415704388
  1
最低機械高
 41
0.9992307692307691
  7
EXCADTTF1
 72
     5
 11
3495.0
 21
2243.828125
 31
0.0
100
AcDbText
  0
TEXT
  5
10A
330
1F
100
AcDbEntity
  8
図面枠
  6
CONTINUOUS
 62
     4
100
AcDbText
 10
3270.0
 20
2303.828125
 30
0.0
 40
34.6290415704388
  1
ストローク
 41
0.9992307692307691
  7
EXCADTTF1
 72
     5
 11
3495.0
 21
2303.828125
 31
0.0
100
AcDbText
  0
TEXT
  5
10B
330
1F
100
AcDbEntity
  8
図面枠
  6
CONTINUOUS
 62
     4
100
AcDbText
 10
3870.0
 20
2243.828125
 30
0.0
 40
34.6290415704388
  1
mm
 41
0.999230769230769
  7
EXCADTTF1
 72
     5
 11
3915.0
 21
2243.828125
 31
0.0
100
AcDbText
  0
TEXT
  5
10C
330
1F
100
AcDbEntity
  8
図面枠
  6
CONTINUOUS
 62
     4
100
AcDbText
 10
3762.5
 20
2303.828125
 30
0.0
 40
34.6290415704388
  1
400
 41
0.9992307692307689
  7
EXCADTTF1
 72
     5
 11
3830.0
 21
2303.828125
 31
0.0
100
AcDbText
  0
TEXT
  5
10D
330
1F
100
AcDbEntity
  8
図面枠
  6
CONTINUOUS
 62
     4
100
AcDbText
 10
3762.5
 20
2243.828125
 30
0.0
 40
34.6290415704388
  1
660
 41
0.9992307692307689
  7
EXCADTTF1
 72
     5
 11
3830.0
 21
2243.828125
 31
0.0
100
AcDbText
  0
TEXT
  5
10E
330
1F
100
AcDbEntity
  8
図面枠
  6
CONTINUOUS
 62
     4
100
AcDbText
 10
3762.5
 20
2183.828125
 30
0.0
 40
34.6290415704388
  1
120
 41
0.9992307692307689
  7
EXCADTTF1
 72
     5
 11
3830.0
 21
2183.828125
 31
0.0
100
AcDbText
  0
TEXT
  5
10F
330
1F
100
AcDbEntity
  8
図面枠
  6
CONTINUOUS
 62
     4
100
AcDbText
 10
3270.0
 20
2123.828125
 30
0.0
 40
34.6290415704388
  1
ロッド径
 41
0.999230769230769
  7
EXCADTTF1
 72
     5
 11
3450.0
 21
2123.828125
 31
0.0
100
AcDbText
  0
TEXT
  5
110
330
1F
100
AcDbEntity
  8
図面枠
  6
CONTINUOUS
 62
     4
100
AcDbText
 10
3785.0
 20
2123.828125
 30
0.0
 40
34.6290415704388
  1
80
 41
0.999230769230769
  7
EXCADTTF1
 72
     5
 11
3830.0
 21
2123.828125
 31
0.0
100
AcDbText
  0
TEXT
  5
111
330
1F
100
AcDbEntity
  8
図面枠
  6
CONTINUOUS
 62
     4
100
AcDbText
 10
3785.0
 20
2063.828125
 30
0.0
 40
34.6290415704388
  1
90
 41
0.999230769230769
  7
EXCADTTF1
 72
     5
 11
3830.0
 21
2063.828125
 31
0.0
100
AcDbText
  0
TEXT
  5
112
330
1F
100
AcDbEntity
  8
図面枠
  6
CONTINUOUS
 62
     4
100
AcDbText
 10
3740.0
 20
2003.828125
 30
0.0
 40
34.6290415704388
  1
58.7
 41
0.999230769230769
  7
EXCADTTF1
 72
     5
 11
3830.0
 21
2003.828125
 31
0.0
100
AcDbText
  0
TEXT
  5
113
330
1F
100
AcDbEntity
  8
図面枠
  6
CONTINUOUS
 62
     4
100
AcDbText
 10
3270.0
 20
2183.828125
 30
0.0
 40
34.6290415704388
  1
シリンダー外径
 41
0.9992307692307693
  7
EXCADTTF1
 72
     5
 11
3585.0
 21
2183.828125
 31
0.0
100
AcDbText
  0
LINE
  5
114
330
1F
100
AcDbEntity
  8
図面枠
  6
CONTINUOUS
 62
     5
100
AcDbLine
 10
100.0
 20
100.0
 30
0.0
 11
4100.0
 21
100.0
 31
0.0
  0
LINE
  5
115
330
1F
100
AcDbEntity
  8
図面枠
  6
CONTINUOUS
 62
     5
100
AcDbLine
 10
100.0000000000005
 20
2870.0
 30
0.0
 11
100.0
 21
100.0
 31
0.0
  0
LINE
  5
116
330
1F
100
AcDbEntity
  8
図面枠
  6
CONTINUOUS
 62
     5
100
AcDbLine
 10
4100.0
 20
100.0
 30
0.0
 11
4100.0
 21
2870.0
 31
0.0
  0
LINE
  5
117
330
1F
100
AcDbEntity
  8
図面枠
  6
CONTINUOUS
 62
     5
100
AcDbLine
 10
4100.0
 20
2870.0
 30
0.0
 11
100.0000000000005
 21
2870.0
 31
0.0
  0
TEXT
  5
118
330
1F
100
AcDbEntity
  8
図面枠
  6
CONTINUOUS
 62
     4
100
AcDbText
 10
3870.0
 20
2003.828125
 30
0.0
 40
34.6290415704388
  1
cm
 41
0.999230769230769
  7
EXCADTTF1
 72
     5
 11
3915.0
 21
2003.828125
 31
0.0
100
AcDbText
  0
TEXT
  5
119
330
1F
100
AcDbEntity
  8
図面枠
  6
CONTINUOUS
 62
     4
100
AcDbText
 10
3901.5
 20
2025.097656518221
 30
0.0
 40
15.58306723892735
  1
2
 41
0.9992308633483801
  7
EXCADTTF1
 72
     5
 11
3911.625
 21
2025.097656518221
 31
0.0
100
AcDbText
  0
TEXT
  5
11A
330
1F
100
AcDbEntity
  8
図面枠
  6
CONTINUOUS
 62
     4
100
AcDbText
 10
3270.0
 20
1883.828125
 30
0.0
 40
34.6290415704388
  1
所要油量
 41
0.999230769230769
  7
EXCADTTF1
 72
     5
 11
3450.0
 21
1883.828125
 31
0.0
100
AcDbText
  0
LINE
  5
11B
330
1F
100
AcDbEntity
  8
図面枠
  6
CONTINUOUS
 62
     2
100
AcDbLine
 10
3250.0
 20
1930.0
 30
0.0
 11
4050.0
 21
1930.0
 31
0.0
  0
LINE
  5
11C
330
1F
100
AcDbEntity
  8
図面枠
  6
CONTINUOUS
 62
     3
100
AcDbLine
 10
3250.0
 20
1810.0
 30
0.0
 11
4050.0
 21
1810.0
 31
0.0
  0
LINE
  5
11D
330
1F
100
AcDbEntity
  8
図面枠
  6
CONTINUOUS
 62
     2
100
AcDbLine
 10
3250.0
 20
1870.0
 30
0.0
 11
4050.0
 21
1870.0
 31
0.0
  0
TEXT
  5
11E
330
1F
100
AcDbEntity
  8
図面枠
  6
CONTINUOUS
 62
     4
100
AcDbText
 10
3270.0
 20
1823.828125
 30
0.0
 40
34.6290415704388
  1
重量
 41
0.999230769230769
  7
EXCADTTF1
 72
     5
 11
3360.0
 21
1823.828125
 31
0.0
100
AcDbText
  0
TEXT
  5
11F
330
1F
100
AcDbEntity
  8
図面枠
  6
CONTINUOUS
 62
     4
100
AcDbText
 10
3870.0
 20
1823.828125
 30
0.0
 40
34.6290415704388
  1
kg
 41
0.999230769230769
  7
EXCADTTF1
 72
     5
 11
3915.0
 21
1823.828125
 31
0.0
100
AcDbText
  0
LINE
  5
120
330
1F
100
AcDbEntity
  8
図面枠
  6
CONTINUOUS
 62
     3
100
AcDbLine
 10
3250.0
 20
2470.0
 30
0.0
 11
3250.0
 21
1810.0
 31
0.0
  0
LINE
  5
121
330
1F
100
AcDbEntity
  8
図面枠
  6
CONTINUOUS
 62
     2
100
AcDbLine
 10
3650.0
 20
2410.0
 30
0.0
 11
3650.0
 21
1810.0
 31
0.0
  0
LINE
  5
122
330
1F
100
AcDbEntity
  8
図面枠
  6
CONTINUOUS
 62
     2
100
AcDbLine
 10
3850.0
 20
2410.0
 30
0.0
 11
3850.0
 21
1810.0
 31
0.0
  0
LINE
  5
123
330
1F
100
AcDbEntity
  8
図面枠
  6
CONTINUOUS
 62
     3
100
AcDbLine
 10
4050.0
 20
2470.0
 30
0.0
 11
4050.0
 21
1810.0
 31
0.0
  0
TEXT
  5
124
330
1F
100
AcDbEntity
  8
図面枠
  6
CONTINUOUS
 62
     4
100
AcDbText
 10
3740.0
 20
1943.828125
 30
0.0
 40
34.6290415704388
  1
51.1
 41
0.999230769230769
  7
EXCADTTF1
 72
     5
 11
3830.0
 21
1943.828125
 31
0.0
100
AcDbText
  0
TEXT
  5
125
330
1F
100
AcDbEntity
  8
図面枠
  6
CONTINUOUS
 62
     4
100
AcDbText
 10
3870.0
 20
1883.828125
 30
0.0
 40
34.6290415704388
  1
L
 41
0.999230769230769
  7
EXCADTTF1
 72
     5
 11
3892.5
 21
1883.828125
 31
0.0
100
AcDbText
  0
TEXT
  5
126
330
1F
100
AcDbEntity
  8
図面枠
  6
CONTINUOUS
 62
     4
100
AcDbText
 10
3762.5
 20
1883.828125
 30
0.0
 40
34.6290415704388
  1
2.3
 41
0.9992307692307689
  7
EXCADTTF1
 72
     5
 11
3830.0
 21
1883.828125
 31
0.0
100
AcDbText
  0
TEXT
  5
127
330
1F
100
AcDbEntity
  8
図面枠
  6
CONTINUOUS
 62
     4
100
AcDbText
 10
3270.0
 20
2363.828125
 30
0.0
 40
34.6290415704388
  1
能力
 41
0.999230769230769
  7
EXCADTTF1
 72
     5
 11
3360.0
 21
2363.828125
 31
0.0
100
AcDbText
  0
TEXT
  5
128
330
1F
100
AcDbEntity
  8
図面枠
  6
CONTINUOUS
 62
     4
100
AcDbText
 10
3740.0
 20
1823.828125
 30
0.0
 40
34.6290415704388
  1
約56
 41
0.999230769230769
  7
EXCADTTF1
 72
     5
 11
3830.0
 21
1823.828125
 31
0.0
100
AcDbText
  0
TEXT
  5
129
330
1F
100
AcDbEntity
  8
図面枠
  6
CONTINUOUS
 62
     4
100
AcDbText
 10
3717.5
 20
2533.828125
 30
0.0
 40
34.6290415704388
  1
約188
 41
0.9992307692307691
  7
EXCADTTF1
 72
     5
 11
3830.0
 21
2533.828125
 31
0.0
100
AcDbText
  0
DIMENSION
  5
12B
330
1F
100
AcDbEntity
  8
Ｓ_１_１
  6
CONTINUOUS
 62
     2
100
AcDbDimension
  2
*D15
 10
2134.999994
 20
715.0
 30
0.0
 11
2032.4999955
 21
742.5
 31
0.0
 70
   160
  1
 　205
  3
ISO-25
100
AcDbAlignedDimension
 13
1929.999997
 23
665.9999990000001
 33
0.0
 14
2134.999994
 24
674.9999990000001
 34
0.0
100
AcDbRotatedDimension
1001
ACAD
1000
DSTYLE
1002
{
1070
   270
1070
     2
1070
     6
1000
EX_NORM
1070
     7
1000
EX_NORM
1070
    41
1040
30.0
1070
    42
1040
15.0
1070
    44
1040
10.0
1070
    73
1070
     0
1070
    74
1070
     0
1070
    75
1070
     0
1070
    76
1070
     1
1070
    77
1070
     1
1070
    78
1070
     8
1070
   140
1040
34.6290415704388
1070
   147
1040
0.0
1070
   173
1070
     1
1070
   176
1070
     2
1070
   177
1070
     2
1070
   178
1070
     2
1070
   271
1070
     2
1070
   277
1070
     2
1070
   279
1070
     2
1070
   280
1070
     0
1070
   287
1070
     5
1070
   340
1005
12A
1002
}
  0
DIMENSION
  5
138
330
1F
100
AcDbEntity
  8
Ｓ_１_１
  6
CONTINUOUS
 62
     2
100
AcDbDimension
  2
*D16
 10
2275.0
 20
837.4999969999999
 30
0.0
 11
2247.5
 21
937.4999954999998
 31
0.0
 70
   160
  1
　　200
  3
ISO-25
100
AcDbAlignedDimension
 13
2122.999984999999
 23
1037.499994
 33
0.0
 14
2122.999984999999
 24
837.4999969999999
 34
0.0
 50
90.0
100
AcDbRotatedDimension
1001
ACAD
1000
DSTYLE
1002
{
1070
   270
1070
     2
1070
     6
1000
EX_NORM
1070
     7
1000
EX_NORM
1070
    41
1040
30.0
1070
    42
1040
15.0
1070
    44
1040
10.0
1070
    73
1070
     0
1070
    74
1070
     0
1070
    75
1070
     0
1070
    76
1070
     0
1070
    77
1070
     1
1070
    78
1070
     8
1070
   140
1040
34.6290415704388
1070
   147
1040
0.0
1070
   173
1070
     1
1070
   176
1070
     2
1070
   177
1070
     2
1070
   178
1070
     2
1070
   271
1070
     2
1070
   277
1070
     2
1070
   279
1070
     2
1070
   280
1070
     0
1070
   287
1070
     5
1070
   340
1005
12A
1002
}
  0
DIMENSION
  5
145
330
1F
100
AcDbEntity
  8
Ｓ_１_１
  6
CONTINUOUS
 62
     2
100
AcDbDimension
  2
*D17
 10
2340.0
 20
822.4999969999999
 30
0.0
 11
2312.5
 21
937.4999954999998
 31
0.0
 70
   160
  1
　　230
  3
ISO-25
100
AcDbAlignedDimension
 13
2134.999992
 23
1052.499994
 33
0.0
 14
2134.999992
 24
822.4999969999999
 34
0.0
 50
90.0
100
AcDbRotatedDimension
1001
ACAD
1000
DSTYLE
1002
{
1070
   270
1070
     2
1070
     6
1000
EX_NORM
1070
     7
1000
EX_NORM
1070
    41
1040
30.0
1070
    42
1040
15.0
1070
    44
1040
10.0
1070
    73
1070
     0
1070
    74
1070
     0
1070
    75
1070
     0
1070
    76
1070
     0
1070
    77
1070
     1
1070
    78
1070
     8
1070
   140
1040
34.6290415704388
1070
   147
1040
0.0
1070
   173
1070
     1
1070
   176
1070
     2
1070
   177
1070
     2
1070
   178
1070
     2
1070
   271
1070
     2
1070
   277
1070
     2
1070
   279
1070
     2
1070
   280
1070
     0
1070
   287
1070
     5
1070
   340
1005
12A
1002
}
  0
DIMENSION
  5
152
330
1F
100
AcDbEntity
  8
Ｓ_１_１
  6
CONTINUOUS
 62
     2
100
AcDbDimension
  2
*D18
 10
2134.999994
 20
2535.0
 30
0.0
 11
2084.999995
 21
2562.5
 31
0.0
 70
   160
  3
ISO-25
100
AcDbAlignedDimension
 13
2034.999996
 23
2428.954135
 33
0.0
 14
2134.999994
 24
2465.585452
 34
0.0
100
AcDbRotatedDimension
1001
ACAD
1000
DSTYLE
1002
{
1070
   270
1070
     2
1070
     6
1000
EX_NORM
1070
     7
1000
EX_NORM
1070
    41
1040
30.0
1070
    42
1040
15.0
1070
    44
1040
10.0
1070
    73
1070
     0
1070
    74
1070
     0
1070
    75
1070
     0
1070
    76
1070
     0
1070
    77
1070
     1
1070
    78
1070
     8
1070
   140
1040
34.6290415704388
1070
   147
1040
0.0
1070
   173
1070
     1
1070
   176
1070
     2
1070
   177
1070
     2
1070
   178
1070
     2
1070
   271
1070
     2
1070
   277
1070
     2
1070
   279
1070
     2
1070
   280
1070
     0
1070
   287
1070
     5
1070
   340
1005
12A
1002
}
  0
LINE
  5
15F
330
1F
100
AcDbEntity
  8
Ｓ_１_１
  6
CONTINUOUS
 62
     2
100
AcDbLine
 10
2025.999999999999
 20
2443.954135
 30
0.0
 11
2025.999999999999
 21
2525.572482
 31
0.0
  0
DIMENSION
  5
160
330
1F
100
AcDbEntity
  8
Ｓ_１_１
  6
CONTINUOUS
 62
     2
100
AcDbDimension
  2
*D19
 10
3055.0
 20
842.8250279999997
 30
0.0
 11
3027.5
 21
1637.041238999999
 31
0.0
 70
   160
  1
1588
  3
ISO-25
100
AcDbAlignedDimension
 13
2865.2795380434
 23
2431.25745
 33
0.0
 14
2916.7073030434
 24
842.8250279999997
 34
0.0
 50
90.0
100
AcDbRotatedDimension
1001
ACAD
1000
DSTYLE
1002
{
1070
   270
1070
     2
1070
     6
1000
EX_NORM
1070
     7
1000
EX_NORM
1070
    41
1040
30.0
1070
    42
1040
15.0
1070
    44
1040
10.0
1070
    73
1070
     0
1070
    74
1070
     0
1070
    75
1070
     0
1070
    76
1070
     0
1070
    77
1070
     1
1070
    78
1070
     8
1070
   140
1040
34.6290415704388
1070
   147
1040
0.0
1070
   173
1070
     1
1070
   176
1070
     2
1070
   177
1070
     2
1070
   178
1070
     2
1070
   271
1070
     2
1070
   277
1070
     2
1070
   279
1070
     2
1070
   280
1070
     0
1070
   287
1070
     5
1070
   340
1005
12A
1002
}
  0
DIMENSION
  5
16D
330
1F
100
AcDbEntity
  8
Ｓ_１_１
  6
CONTINUOUS
 62
     2
100
AcDbDimension
  2
*D20
 10
2470.0
 20
650.0
 30
0.0
 11
2442.5
 21
1429.477069499999
 31
0.0
 70
   160
  1
1559
  3
ISO-25
100
AcDbAlignedDimension
 13
2043.841809
 23
2208.954139
 33
0.0
 14
2170.833814
 24
650.0
 34
0.0
 50
90.0
100
AcDbRotatedDimension
1001
ACAD
1000
DSTYLE
1002
{
1070
   270
1070
     2
1070
     6
1000
EX_NORM
1070
     7
1000
EX_NORM
1070
    41
1040
30.0
1070
    42
1040
14.99999999999977
1070
    44
1040
10.0
1070
    73
1070
     0
1070
    74
1070
     0
1070
    75
1070
     0
1070
    76
1070
     0
1070
    77
1070
     1
1070
    78
1070
     8
1070
   140
1040
34.6290415704388
1070
   147
1040
0.0
1070
   173
1070
     1
1070
   176
1070
     2
1070
   177
1070
     2
1070
   178
1070
     2
1070
   271
1070
     2
1070
   277
1070
     2
1070
   279
1070
     2
1070
   280
1070
     0
1070
   287
1070
     5
1070
   340
1005
12A
1002
}
  0
DIMENSION
  5
17A
330
1F
100
AcDbEntity
  8
Ｓ_１_１
  6
CONTINUOUS
 62
     2
100
AcDbDimension
  2
*D21
 10
2405.0
 20
937.499996
 30
0.0
 11
2377.5
 21
1573.2270675
 31
0.0
 70
   160
  1
1271
  3
ISO-25
100
AcDbAlignedDimension
 13
2134.999991
 23
2208.954139
 33
0.0
 14
2152.499991
 24
937.499996
 34
0.0
 50
90.0
100
AcDbRotatedDimension
1001
ACAD
1000
DSTYLE
1002
{
1070
   270
1070
     2
1070
     6
1000
EX_NORM
1070
     7
1000
EX_NORM
1070
    41
1040
30.0
1070
    42
1040
0.0
1070
    44
1040
0.0
1070
    73
1070
     0
1070
    74
1070
     0
1070
    75
1070
     1
1070
    76
1070
     1
1070
    77
1070
     1
1070
    78
1070
     8
1070
   140
1040
34.6290415704388
1070
   147
1040
0.0
1070
   173
1070
     1
1070
   176
1070
     2
1070
   177
1070
     2
1070
   178
1070
     2
1070
   271
1070
     2
1070
   277
1070
     2
1070
   279
1070
     2
1070
   280
1070
     0
1070
   287
1070
     5
1070
   340
1005
12A
1002
}
  0
DIMENSION
  5
185
330
1F
100
AcDbEntity
  8
Ｓ_１_１
  6
CONTINUOUS
 62
     2
100
AcDbDimension
  2
*D22
 10
2405.0
 20
650.0
 30
0.0
 11
2377.5
 21
793.7499979999998
 31
0.0
 70
   160
  1
288
  3
ISO-25
100
AcDbAlignedDimension
 13
2152.499991
 23
937.499996
 33
0.0
 14
2170.833806999999
 24
650.0
 34
0.0
 50
90.0
100
AcDbRotatedDimension
1001
ACAD
1000
DSTYLE
1002
{
1070
   270
1070
     2
1070
     6
1000
EX_NORM
1070
     7
1000
EX_NORM
1070
    41
1040
30.0
1070
    42
1040
15.0
1070
    44
1040
10.0
1070
    73
1070
     0
1070
    74
1070
     0
1070
    75
1070
     0
1070
    76
1070
     0
1070
    77
1070
     1
1070
    78
1070
     8
1070
   140
1040
34.6290415704388
1070
   147
1040
0.0
1070
   173
1070
     1
1070
   176
1070
     2
1070
   177
1070
     2
1070
   178
1070
     2
1070
   271
1070
     2
1070
   277
1070
     2
1070
   279
1070
     2
1070
   280
1070
     0
1070
   287
1070
     5
1070
   340
1005
12A
1002
}
  0
DIMENSION
  5
192
330
1F
100
AcDbEntity
  8
Ｓ_１_１
  6
CONTINUOUS
 62
     2
100
AcDbDimension
  2
*D23
 10
2691.499942043401
 20
715.0
 30
0.0
 11
2810.4999935434
 21
742.4999999999997
 31
0.0
 70
   160
  3
ISO-25
100
AcDbAlignedDimension
 13
2929.5000450434
 23
852.8251250000001
 33
0.0
 14
2691.499942043401
 24
1232.825079
 34
0.0
100
AcDbRotatedDimension
1001
ACAD
1000
DSTYLE
1002
{
1070
   270
1070
     2
1070
     6
1000
EX_NORM
1070
     7
1000
EX_NORM
1070
    41
1040
30.0
1070
    42
1040
15.0
1070
    44
1040
10.0
1070
    73
1070
     0
1070
    74
1070
     0
1070
    75
1070
     0
1070
    76
1070
     0
1070
    77
1070
     1
1070
    78
1070
     8
1070
   140
1040
34.6290415704388
1070
   147
1040
0.0
1070
   173
1070
     1
1070
   176
1070
     2
1070
   177
1070
     2
1070
   178
1070
     2
1070
   271
1070
     2
1070
   277
1070
     2
1070
   279
1070
     2
1070
   280
1070
     0
1070
   287
1070
     5
1070
   340
1005
12A
1002
}
  0
DIMENSION
  5
19F
330
1F
100
AcDbEntity
  8
Ｓ_１_１
  6
CONTINUOUS
 62
     2
100
AcDbDimension
  2
*D24
 10
548.0000339999995
 20
455.0000000000001
 30
0.0
 11
779.9999619999998
 21
482.4999999999998
 31
0.0
 70
   160
  3
ISO-25
100
AcDbAlignedDimension
 13
1011.99989
 23
888.5244160000002
 33
0.0
 14
548.0000339999995
 24
888.5244160000002
 34
0.0
100
AcDbRotatedDimension
1001
ACAD
1000
DSTYLE
1002
{
1070
   270
1070
     2
1070
     6
1000
EX_NORM
1070
     7
1000
EX_NORM
1070
    41
1040
30.0
1070
    42
1040
15.0
1070
    44
1040
10.0
1070
    73
1070
     0
1070
    74
1070
     0
1070
    75
1070
     0
1070
    76
1070
     0
1070
    77
1070
     1
1070
    78
1070
     8
1070
   140
1040
34.6290415704388
1070
   147
1040
0.0
1070
   173
1070
     1
1070
   176
1070
     2
1070
   177
1070
     2
1070
   178
1070
     2
1070
   271
1070
     2
1070
   277
1070
     2
1070
   279
1070
     2
1070
   280
1070
     0
1070
   287
1070
     5
1070
   340
1005
12A
1002
}
  0
DIMENSION
  5
1AC
330
1F
100
AcDbEntity
  8
Ｓ_１_１
  6
CONTINUOUS
 62
     2
100
AcDbDimension
  2
*D25
 10
615.9999109999999
 20
520.0
 30
0.0
 11
779.9998859999997
 21
547.5
 31
0.0
 70
   160
  3
ISO-25
100
AcDbAlignedDimension
 13
943.9998609999998
 23
882.4999969999999
 33
0.0
 14
615.9999109999999
 24
882.4999969999999
 34
0.0
100
AcDbRotatedDimension
1001
ACAD
1000
DSTYLE
1002
{
1070
   270
1070
     2
1070
     6
1000
EX_NORM
1070
     7
1000
EX_NORM
1070
    41
1040
30.0
1070
    42
1040
15.0
1070
    44
1040
10.0
1070
    73
1070
     0
1070
    74
1070
     0
1070
    75
1070
     0
1070
    76
1070
     0
1070
    77
1070
     1
1070
    78
1070
     8
1070
   140
1040
34.6290415704388
1070
   147
1040
0.0
1070
   173
1070
     1
1070
   176
1070
     2
1070
   177
1070
     2
1070
   178
1070
     2
1070
   271
1070
     2
1070
   277
1070
     2
1070
   279
1070
     2
1070
   280
1070
     0
1070
   287
1070
     5
1070
   340
1005
12A
1002
}
  0
DIMENSION
  5
1B9
330
1F
100
AcDbEntity
  8
Ｓ_１_１
  6
CONTINUOUS
 62
     2
100
AcDbDimension
  2
*D26
 10
1029.999844
 20
2535.0
 30
0.0
 11
779.999848
 21
2562.5
 31
0.0
 70
   160
  3
ISO-25
100
AcDbAlignedDimension
 13
529.9998519999999
 23
2388.954135
 33
0.0
 14
1029.999844
 24
2388.954135
 34
0.0
100
AcDbRotatedDimension
1001
ACAD
1000
DSTYLE
1002
{
1070
   270
1070
     2
1070
     6
1000
EX_NORM
1070
     7
1000
EX_NORM
1070
    41
1040
30.0
1070
    42
1040
15.0
1070
    44
1040
10.0
1070
    73
1070
     0
1070
    74
1070
     0
1070
    75
1070
     0
1070
    76
1070
     0
1070
    77
1070
     1
1070
    78
1070
     8
1070
   140
1040
34.6290415704388
1070
   147
1040
0.0
1070
   173
1070
     1
1070
   176
1070
     2
1070
   177
1070
     2
1070
   178
1070
     2
1070
   271
1070
     2
1070
   277
1070
     2
1070
   279
1070
     2
1070
   280
1070
     0
1070
   287
1070
     5
1070
   340
1005
12A
1002
}
  0
DIMENSION
  5
1C6
330
1F
100
AcDbEntity
  8
Ｓ_１_１
  6
CONTINUOUS
 62
     2
100
AcDbDimension
  2
*D27
 10
1777.316721050374
 20
2257.80551318853
 30
0.0
 11
1580.750198368435
 21
1629.182614149831
 31
0.0
 70
   160
  1
1315
  3
ISO-25
100
AcDbAlignedDimension
 13
1532.954961
 23
960.776736
 33
0.0
 14
1879.527106
 24
2230.4734
 34
0.0
 50
255.02881
100
AcDbRotatedDimension
1001
ACAD
1000
DSTYLE
1002
{
1070
   270
1070
     2
1070
     6
1000
EX_NORM
1070
     7
1000
EX_NORM
1070
    41
1040
30.0
1070
    42
1040
15.00000000000008
1070
    44
1040
9.999999999999961
1070
    73
1070
     0
1070
    74
1070
     0
1070
    75
1070
     0
1070
    76
1070
     0
1070
    77
1070
     1
1070
    78
1070
     8
1070
   140
1040
34.6290415704388
1070
   147
1040
0.0
1070
   173
1070
     1
1070
   176
1070
     2
1070
   177
1070
     2
1070
   178
1070
     2
1070
   271
1070
     2
1070
   277
1070
     2
1070
   279
1070
     2
1070
   280
1070
     0
1070
   287
1070
     5
1070
   340
1005
12A
1002
}
  0
DIMENSION
  5
1D3
330
1F
100
AcDbEntity
  8
Ｓ_１_１
  6
CONTINUOUS
 62
     2
100
AcDbDimension
  2
*D28
 10
615.9999109999997
 20
520.0
 30
0.0
 11
581.9998964999997
 21
547.5
 31
0.0
 70
   160
  3
ISO-25
100
AcDbAlignedDimension
 13
547.9998819999998
 23
892.499996
 33
0.0
 14
615.9999109999997
 24
882.499996
 34
0.0
100
AcDbRotatedDimension
1001
ACAD
1000
DSTYLE
1002
{
1070
   270
1070
     2
1070
     6
1000
EX_NORM
1070
     7
1000
EX_NORM
1070
    41
1040
30.0
1070
    42
1040
15.0
1070
    44
1040
10.0
1070
    73
1070
     0
1070
    74
1070
     0
1070
    75
1070
     0
1070
    76
1070
     1
1070
    77
1070
     1
1070
    78
1070
     8
1070
   140
1040
34.6290415704388
1070
   147
1040
0.0
1070
   173
1070
     1
1070
   176
1070
     2
1070
   177
1070
     2
1070
   178
1070
     2
1070
   271
1070
     2
1070
   277
1070
     2
1070
   279
1070
     2
1070
   280
1070
     0
1070
   287
1070
     5
1070
   340
1005
12A
1002
}
  0
DIMENSION
  5
1DF
330
1F
100
AcDbEntity
  8
Ｓ_１_１
  6
CONTINUOUS
 62
     2
100
AcDbDimension
  2
*D29
 10
1011.99989
 20
520.0
 30
0.0
 11
977.9998754999999
 21
547.5
 31
0.0
 70
   160
  3
ISO-25
100
AcDbAlignedDimension
 13
943.9998609999998
 23
882.499996
 33
0.0
 14
1011.99989
 24
892.499996
 34
0.0
100
AcDbRotatedDimension
1001
ACAD
1000
DSTYLE
1002
{
1070
   270
1070
     2
1070
     6
1000
EX_NORM
1070
     7
1000
EX_NORM
1070
    41
1040
30.0
1070
    42
1040
15.0
1070
    44
1040
10.0
1070
    73
1070
     0
1070
    74
1070
     0
1070
    75
1070
     1
1070
    76
1070
     0
1070
    77
1070
     1
1070
    78
1070
     8
1070
   140
1040
34.6290415704388
1070
   147
1040
0.0
1070
   173
1070
     1
1070
   176
1070
     2
1070
   177
1070
     2
1070
   178
1070
     2
1070
   271
1070
     2
1070
   277
1070
     2
1070
   279
1070
     2
1070
   280
1070
     0
1070
   287
1070
     5
1070
   340
1005
12A
1002
}
  0
DIMENSION
  5
1EB
330
1F
100
AcDbEntity
  8
Ｓ_１_１
  6
CONTINUOUS
 62
     2
100
AcDbDimension
  2
*D30
 10
780.0000000000001
 20
2188.95414
 30
0.0
 11
752.5000000000008
 21
2303.954139
 31
0.0
 70
   160
  1
%%c40
  3
ISO-25
100
AcDbAlignedDimension
 13
745.6999859999996
 23
2228.954139
 33
0.0
 14
745.6999859999996
 24
2188.95414
 34
0.0
 50
90.0
100
AcDbRotatedDimension
1001
ACAD
1000
DSTYLE
1002
{
1070
   270
1070
     2
1070
     6
1000
EX_NORM
1070
     7
1000
EX_NORM
1070
    41
1040
30.0
1070
    42
1040
0.0
1070
    44
1040
0.0
1070
    73
1070
     0
1070
    74
1070
     0
1070
    75
1070
     1
1070
    76
1070
     1
1070
    77
1070
     1
1070
    78
1070
     8
1070
   140
1040
34.6290415704388
1070
   147
1040
0.0
1070
   173
1070
     1
1070
   176
1070
     2
1070
   177
1070
     2
1070
   178
1070
     2
1070
   271
1070
     2
1070
   277
1070
     2
1070
   279
1070
     2
1070
   280
1070
     1
1070
   287
1070
     5
1070
   340
1005
12A
1002
}
  0
DIMENSION
  5
1F8
330
1F
100
AcDbEntity
  8
Ｓ_１_１
  6
CONTINUOUS
 62
     2
100
AcDbDimension
  2
*D31
 10
845.0000000000001
 20
2233.954139
 30
0.0
 11
817.5000000000008
 21
2308.954138999999
 31
0.0
 70
   160
  1
%%c50
  3
ISO-25
100
AcDbAlignedDimension
 13
809.4999859999998
 23
2183.95414
 33
0.0
 14
809.4999859999998
 24
2233.954139
 34
0.0
 50
90.0
100
AcDbRotatedDimension
1001
ACAD
1000
DSTYLE
1002
{
1070
   270
1070
     2
1070
     6
1000
EX_NORM
1070
     7
1000
EX_NORM
1070
    41
1040
30.0
1070
    42
1040
0.0
1070
    44
1040
0.0
1070
    73
1070
     0
1070
    74
1070
     0
1070
    75
1070
     1
1070
    76
1070
     1
1070
    77
1070
     1
1070
    78
1070
     8
1070
   140
1040
34.6290415704388
1070
   147
1040
0.0
1070
   173
1070
     1
1070
   176
1070
     2
1070
   177
1070
     2
1070
   178
1070
     2
1070
   271
1070
     2
1070
   277
1070
     2
1070
   279
1070
     2
1070
   280
1070
     2
1070
   287
1070
     5
1070
   340
1005
12A
1002
}
  0
DIMENSION
  5
205
330
1F
100
AcDbEntity
  8
Ｓ_１_１
  6
CONTINUOUS
 62
     2
100
AcDbDimension
  2
*D32
 10
2034.999995999999
 20
2535.0
 30
0.0
 11
1984.75
 21
2562.5
 31
0.0
 70
   160
  3
ISO-25
100
AcDbAlignedDimension
 13
2025.999999999999
 23
2428.954136
 33
0.0
 14
2034.999995999999
 24
2428.954136
 34
0.0
100
AcDbRotatedDimension
1001
ACAD
1000
DSTYLE
1002
{
1070
   270
1070
     2
1070
     6
1000
EX_NORM
1070
     7
1000
EX_NORM
1070
    41
1040
30.0
1070
    42
1040
15.0
1070
    44
1040
10.0
1070
    73
1070
     0
1070
    74
1070
     0
1070
    75
1070
     0
1070
    76
1070
     1
1070
    77
1070
     1
1070
    78
1070
     8
1070
   140
1040
34.6290415704388
1070
   147
1040
0.0
1070
   173
1070
     1
1070
   176
1070
     2
1070
   177
1070
     2
1070
   178
1070
     2
1070
   271
1070
     2
1070
   277
1070
     2
1070
   279
1070
     2
1070
   280
1070
     1
1070
   287
1070
     5
1070
   340
1005
12A
1002
}
  0
DIMENSION
  5
213
330
1F
100
AcDbEntity
  8
Ｓ_１_１
  6
CONTINUOUS
 62
     2
100
AcDbDimension
  2
*D33
 10
1817.180493361512
 20
1868.33878701882
 30
0.0
 11
1762.7202456759
 21
1911.401461367049
 31
0.0
 70
   160
  3
ISO-25
100
AcDbAlignedDimension
 13
1903.1226395995
 23
1802.7089421781
 33
0.0
 14
1806.5300643214
 24
1828.5908447187
 34
0.0
 50
345.0000000000048
100
AcDbRotatedDimension
1001
ACAD
1000
DSTYLE
1002
{
1070
   270
1070
     2
1070
     6
1000
EX_NORM
1070
     7
1000
EX_NORM
1070
    41
1040
30.0
1070
    42
1040
0.0
1070
    44
1040
0.0
1070
    73
1070
     0
1070
    74
1070
     0
1070
    75
1070
     1
1070
    76
1070
     1
1070
    77
1070
     1
1070
    78
1070
     8
1070
   140
1040
34.6290415704388
1070
   147
1040
0.0
1070
   173
1070
     1
1070
   176
1070
     2
1070
   177
1070
     2
1070
   178
1070
     2
1070
   271
1070
     2
1070
   277
1070
     2
1070
   279
1070
     2
1070
   280
1070
     2
1070
   287
1070
     5
1070
   340
1005
12A
1002
}
  0
DIMENSION
  5
21E
330
1F
100
AcDbEntity
  8
Ｓ_１_１
  6
CONTINUOUS
 62
     2
100
AcDbDimension
  2
*D34
 10
2275.0
 20
1037.5
 30
0.0
 11
2247.5
 21
1104.999993999998
 31
0.0
 70
   160
  3
ISO-25
100
AcDbAlignedDimension
 13
2134.999994
 23
1052.499994
 33
0.0
 14
2134.999994
 24
1037.5
 34
0.0
 50
90.0
100
AcDbRotatedDimension
1001
ACAD
1000
DSTYLE
1002
{
1070
   270
1070
     2
1070
     6
1000
EX_NORM
1070
     7
1000
EX_NORM
1070
    41
1040
30.0
1070
    42
1040
15.0
1070
    44
1040
10.0
1070
    73
1070
     0
1070
    74
1070
     0
1070
    75
1070
     1
1070
    76
1070
     0
1070
    77
1070
     1
1070
    78
1070
     8
1070
   140
1040
34.6290415704388
1070
   147
1040
0.0
1070
   173
1070
     1
1070
   176
1070
     2
1070
   177
1070
     2
1070
   178
1070
     2
1070
   271
1070
     2
1070
   277
1070
     2
1070
   279
1070
     2
1070
   280
1070
     1
1070
   287
1070
     5
1070
   340
1005
12A
1002
}
  0
DIMENSION
  5
22C
330
1F
100
AcDbEntity
  8
Ｓ_１_１
  6
CONTINUOUS
 62
     2
100
AcDbDimension
  2
*D35
 10
2275.0
 20
822.4999969999999
 30
0.0
 11
2247.5
 21
769.9999969999991
 31
0.0
 70
   160
  3
ISO-25
100
AcDbAlignedDimension
 13
2137.999984999999
 23
837.4999969999999
 33
0.0
 14
2134.999994
 24
822.4999969999999
 34
0.0
 50
90.0
100
AcDbRotatedDimension
1001
ACAD
1000
DSTYLE
1002
{
1070
   270
1070
     2
1070
     6
1000
EX_NORM
1070
     7
1000
EX_NORM
1070
    41
1040
30.0
1070
    42
1040
0.0
1070
    44
1040
0.0
1070
    73
1070
     0
1070
    74
1070
     0
1070
    75
1070
     1
1070
    76
1070
     1
1070
    77
1070
     1
1070
    78
1070
     8
1070
   140
1040
34.6290415704388
1070
   147
1040
0.0
1070
   173
1070
     1
1070
   176
1070
     2
1070
   177
1070
     2
1070
   178
1070
     2
1070
   271
1070
     2
1070
   277
1070
     2
1070
   279
1070
     2
1070
   280
1070
     2
1070
   287
1070
     5
1070
   340
1005
12A
1002
}
  0
ARC
  5
239
330
1F
100
AcDbEntity
  8
Ｓ_１_１
  6
EXLTYPE2
 62
     1
100
AcDbCircle
 10
1754.548788
 20
1750.332396
 30
0.0
 40
30.00000000000002
100
AcDbArc
 50
75.02880200000003
 51
165.0288040000001
  0
ARC
  5
23A
330
1F
100
AcDbEntity
  8
Ｓ_１_１
  6
EXLTYPE2
 62
     1
100
AcDbCircle
 10
1731.298776
 20
1663.38736
 30
0.0
 40
30.00000000000002
100
AcDbArc
 50
165.0288040000001
 51
255.0288000000002
  0
ARC
  5
23B
330
1F
100
AcDbEntity
  8
Ｓ_１_１
  6
EXLTYPE2
 62
     1
100
AcDbCircle
 10
1576.298869
 20
1083.753732
 30
0.0
 40
30.00000000000002
100
AcDbArc
 50
165.0288040000001
 51
255.0288000000002
  0
ARC
  5
23C
330
1F
100
AcDbEntity
  8
Ｓ_１_１
  6
EXLTYPE2
 62
     1
100
AcDbCircle
 10
1599.548895
 20
1170.698768
 30
0.0
 40
30.00000000000002
100
AcDbArc
 50
75.02880200000003
 51
165.0288040000001
  0
LINE
  5
23D
330
1F
100
AcDbEntity
  8
Ｓ_１_１
  6
EXLTYPE2
 62
     1
100
AcDbLine
 10
1935.43637
 20
2008.954142
 30
0.0
 11
1999.999996
 21
2008.954142
 31
0.0
  0
LINE
  5
23E
330
1F
100
AcDbEntity
  8
Ｓ_１_１
  6
EXLTYPE2
 62
     1
100
AcDbLine
 10
1762.298783
 20
1779.31407
 30
0.0
 11
1839.583247
 21
1758.647392
 31
0.0
  0
LINE
  5
23F
330
1F
100
AcDbEntity
  8
Ｓ_１_１
  6
EXLTYPE2
 62
     1
100
AcDbLine
 10
1723.548763
 20
1634.405701
 30
0.0
 11
1800.833226
 21
1613.739024
 31
0.0
  0
LINE
  5
240
330
1F
100
AcDbEntity
  8
Ｓ_１_１
  6
EXLTYPE2
 62
     1
100
AcDbLine
 10
1702.317093
 20
1671.137379
 30
0.0
 11
1725.567106
 21
1758.0824
 31
0.0
  0
LINE
  5
241
330
1F
100
AcDbEntity
  8
Ｓ_１_１
  6
EXLTYPE2
 62
     1
100
AcDbLine
 10
1547.317214
 20
1091.503772
 30
0.0
 11
1570.567226
 21
1178.448793
 31
0.0
  0
LINE
  5
242
330
1F
100
AcDbEntity
  8
Ｓ_１_１
  6
EXLTYPE2
 62
     1
100
AcDbLine
 10
1568.548883
 20
1054.772094
 30
0.0
 11
1645.833328
 21
1034.105422
 31
0.0
  0
LINE
  5
243
330
1F
100
AcDbEntity
  8
Ｓ_１_１
  6
EXLTYPE2
 62
     1
100
AcDbLine
 10
1607.298904
 20
1199.680463
 30
0.0
 11
1684.583348
 21
1179.01379
 31
0.0
  0
LINE
  5
244
330
1F
100
AcDbEntity
  8
Ｓ_１_１
  6
EXLTYPE2
 62
     1
100
AcDbLine
 10
1959.999997
 20
2017.521952
 30
0.0
 11
1959.999997
 21
891.397148
 31
0.0
  0
LINE
  5
245
330
1F
100
AcDbEntity
  8
Ｓ_１_１
  6
EXLTYPE2
 62
     1
100
AcDbLine
 10
1627.213867
 20
1287.517492
 30
0.0
 11
1776.031826
 21
1247.722032
 31
0.0
  0
LINE
  5
246
330
1F
100
AcDbEntity
  8
Ｓ_１_１
  6
EXLTYPE2
 62
     1
100
AcDbLine
 10
1984.099671
 20
1064.000009
 30
0.0
 11
1936.983792
 21
1064.000009
 31
0.0
  0
LINE
  5
247
330
1F
100
AcDbEntity
  8
Ｓ_１_１
  6
EXLTYPE2
 62
     1
100
AcDbLine
 10
1742.5
 20
793.5000019999998
 30
0.0
 11
1767.5
 21
793.5000019999998
 31
0.0
  0
LINE
  5
248
330
1F
100
AcDbEntity
  8
Ｓ_１_１
  6
EXLTYPE2
 62
     1
100
AcDbLine
 10
1747.500014
 20
761.0000019999998
 30
0.0
 11
1762.500014
 21
761.0000019999998
 31
0.0
  0
LINE
  5
249
330
1F
100
AcDbEntity
  8
Ｓ_１_１
  6
EXLTYPE2
 62
     1
100
AcDbLine
 10
1742.5
 20
1024.00001
 30
0.0
 11
1767.5
 21
1024.00001
 31
0.0
  0
LINE
  5
24A
330
1F
100
AcDbEntity
  8
Ｓ_１_１
  6
EXLTYPE2
 62
     1
100
AcDbLine
 10
1884.999998
 20
2208.954139
 30
0.0
 11
2034.999996
 21
2208.954139
 31
0.0
  0
LINE
  5
24B
330
1F
100
AcDbEntity
  8
Ｓ_１_１
  6
EXLTYPE2
 62
     1
100
AcDbLine
 10
1887.555559
 20
2228.365624
 30
0.0
 11
2032.444449
 21
2189.542763
 31
0.0
  0
LINE
  5
24C
330
1F
100
AcDbEntity
  8
Ｓ_１_１
  6
EXLTYPE2
 62
     1
100
AcDbLine
 10
1608.222506
 20
836.0000009999999
 30
0.0
 11
1681.722489
 21
836.0000009999999
 31
0.0
  0
LINE
  5
24D
330
1F
100
AcDbEntity
  8
Ｓ_１_１
  6
EXLTYPE2
 62
     1
100
AcDbLine
 10
1742.5
 20
836.0000009999999
 30
0.0
 11
1767.5
 21
836.0000009999999
 31
0.0
  0
LINE
  5
24E
330
1F
100
AcDbEntity
  8
Ｓ_１_１
  6
EXLTYPE2
 62
     1
100
AcDbLine
 10
1830.39749
 20
836.0000009999999
 30
0.0
 11
1902.147491
 21
836.0000009999999
 31
0.0
  0
LINE
  5
24F
330
1F
100
AcDbEntity
  8
Ｓ_１_１
  6
EXLTYPE2
 62
     1
100
AcDbLine
 10
1539.38053
 20
959.058473
 30
0.0
 11
1688.198489
 21
919.2630119999999
 31
0.0
  0
LINE
  5
250
330
1F
100
AcDbEntity
  8
Ｓ_１_１
  6
EXLTYPE2
 62
     1
100
AcDbLine
 10
1604.097132
 20
878.0301520000003
 30
0.0
 11
1976.159983
 21
2269.385684
 31
0.0
  0
LINE
  5
251
330
1F
100
AcDbEntity
  8
Ｓ_１_１
  6
EXLTYPE2
 62
     1
100
AcDbLine
 10
1620.000002
 20
987.4999950000001
 30
0.0
 11
1620.000002
 21
887.499996
 31
0.0
  0
LINE
  5
252
330
1F
100
AcDbEntity
  8
Ｓ_１_１
  6
EXLTYPE2
 62
     1
100
AcDbLine
 10
1755.0
 20
1579.596086
 30
0.0
 11
1755.0
 21
631.0008619999999
 31
0.0
  0
LINE
  5
253
330
1F
100
AcDbEntity
  8
Ｓ_１_１
  6
EXLTYPE2
 62
     1
100
AcDbLine
 10
1574.311106
 20
937.499996
 30
0.0
 11
2142.917856
 21
937.499996
 31
0.0
  0
ARC
  5
254
330
1F
100
AcDbEntity
  8
Ｓ_１_１
  6
EXLTYPE0
 62
     2
100
AcDbCircle
 10
1959.999997
 20
2208.954139
 30
0.0
 40
49.999999
100
AcDbArc
 50
132.1379050000001
 51
223.7162760000001
  0
CIRCLE
  5
255
330
1F
100
AcDbEntity
  8
Ｓ_１_１
  6
EXLTYPE0
 62
     2
100
AcDbCircle
 10
1959.999997
 20
1064.000009
 30
0.0
 40
15.00000000000001
  0
LINE
  5
256
330
1F
100
AcDbEntity
  8
Ｓ_１_１
  6
EXLTYPE0
 62
     2
100
AcDbLine
 10
1974.187504
 20
1009.00001
 30
0.0
 11
1999.999996
 21
1009.00001
 31
0.0
  0
LINE
  5
257
330
1F
100
AcDbEntity
  8
Ｓ_１_１
  6
EXLTYPE0
 62
     2
100
AcDbLine
 10
1974.187504
 20
866.0
 30
0.0
 11
1999.999996
 21
866.0
 31
0.0
  0
LINE
  5
258
330
1F
100
AcDbEntity
  8
Ｓ_１_１
  6
EXLTYPE0
 62
     2
100
AcDbLine
 10
1999.999996
 20
1009.00001
 30
0.0
 11
1999.999996
 21
866.0
 31
0.0
  0
LINE
  5
259
330
1F
100
AcDbEntity
  8
Ｓ_１_１
  6
EXLTYPE0
 62
     2
100
AcDbLine
 10
1736.310554
 20
1565.999971
 30
0.0
 11
1814.999999
 21
1565.999971
 31
0.0
  0
LINE
  5
25A
330
1F
100
AcDbEntity
  8
Ｓ_１_１
  6
EXLTYPE0
 62
     2
100
AcDbLine
 10
1812.000056
 20
1568.999985
 30
0.0
 11
1815.000049
 21
1565.999992
 31
0.0
  0
LINE
  5
25B
330
1F
100
AcDbEntity
  8
Ｓ_１_１
  6
EXLTYPE0
 62
     2
100
AcDbLine
 10
1717.057009
 20
1494.000003
 30
0.0
 11
1814.999999
 21
1494.000003
 31
0.0
  0
LINE
  5
25C
330
1F
100
AcDbEntity
  8
Ｓ_１_１
  6
EXLTYPE0
 62
     2
100
AcDbLine
 10
1810.000024
 20
1494.00001
 30
0.0
 11
1815.000024
 21
1502.660264
 31
0.0
  0
LINE
  5
25D
330
1F
100
AcDbEntity
  8
Ｓ_１_１
  6
EXLTYPE0
 62
     2
100
AcDbLine
 10
1946.642998
 20
2264.296992
 30
0.0
 11
1926.454193
 21
2246.030731
 31
0.0
  0
LINE
  5
25E
330
1F
100
AcDbEntity
  8
Ｓ_１_１
  6
EXLTYPE0
 62
     2
100
AcDbLine
 10
1987.155656
 20
2116.956223
 30
0.0
 11
1926.454025
 21
2171.877567
 31
0.0
  0
LINE
  5
25F
330
1F
100
AcDbEntity
  8
Ｓ_１_１
  6
EXLTYPE0
 62
     2
100
AcDbLine
 10
1588.165228
 20
1009.00001
 30
0.0
 11
1677.999984
 21
1009.00001
 31
0.0
  0
LINE
  5
260
330
1F
100
AcDbEntity
  8
Ｓ_１_１
  6
EXLTYPE0
 62
     2
100
AcDbLine
 10
1584.956305
 20
999.9999950000001
 30
0.0
 11
1688.469973
 21
999.9999950000001
 31
0.0
  0
LINE
  5
261
330
1F
100
AcDbEntity
  8
Ｓ_１_１
  6
EXLTYPE0
 62
     2
100
AcDbLine
 10
1691.678906
 20
1009.00001
 30
0.0
 11
1677.999984
 21
1009.00001
 31
0.0
  0
LINE
  5
262
330
1F
100
AcDbEntity
  8
Ｓ_１_１
  6
EXLTYPE0
 62
     2
100
AcDbLine
 10
1695.000001
 20
1411.516254
 30
0.0
 11
1695.000001
 21
1039.000009
 31
0.0
  0
LINE
  5
263
330
1F
100
AcDbEntity
  8
Ｓ_１_１
  6
EXLTYPE0
 62
     2
100
AcDbLine
 10
1700.000001
 20
1430.214145
 30
0.0
 11
1700.000001
 21
1039.000009
 31
0.0
  0
LINE
  5
264
330
1F
100
AcDbEntity
  8
Ｓ_１_１
  6
EXLTYPE0
 62
     2
100
AcDbLine
 10
1737.112761
 20
1569.000001
 30
0.0
 11
1811.999999
 21
1569.000001
 31
0.0
  0
LINE
  5
265
330
1F
100
AcDbEntity
  8
Ｓ_１_１
  6
EXLTYPE0
 62
     2
100
AcDbLine
 10
1570.000003
 20
944.0698199999997
 30
0.0
 11
1570.000003
 21
899.1136699999998
 31
0.0
  0
LINE
  5
266
330
1F
100
AcDbEntity
  8
Ｓ_１_１
  6
EXLTYPE0
 62
     2
100
AcDbLine
 10
1834.999999
 20
999.9999950000001
 30
0.0
 11
1834.999999
 21
874.999996
 31
0.0
  0
LINE
  5
267
330
1F
100
AcDbEntity
  8
Ｓ_１_１
  6
EXLTYPE0
 62
     2
100
AcDbLine
 10
1675.000001
 20
999.9999950000001
 30
0.0
 11
1675.000001
 21
874.999996
 31
0.0
  0
LINE
  5
268
330
1F
100
AcDbEntity
  8
Ｓ_１_１
  6
EXLTYPE0
 62
     2
100
AcDbLine
 10
1675.000012
 20
1036.000001
 30
0.0
 11
1678.000018
 21
1039.000006
 31
0.0
  0
LINE
  5
269
330
1F
100
AcDbEntity
  8
Ｓ_１_１
  6
EXLTYPE0
 62
     2
100
AcDbLine
 10
1675.000001
 20
1012.000002
 30
0.0
 11
1675.000001
 21
1035.999979
 31
0.0
  0
LINE
  5
26A
330
1F
100
AcDbEntity
  8
Ｓ_１_１
  6
EXLTYPE0
 62
     2
100
AcDbLine
 10
1678.000003
 20
1039.000009
 30
0.0
 11
1699.701214
 21
1039.000009
 31
0.0
  0
LINE
  5
26B
330
1F
100
AcDbEntity
  8
Ｓ_１_１
  6
EXLTYPE0
 62
     2
100
AcDbLine
 10
1675.000034
 20
1011.999996
 30
0.0
 11
1678.000026
 21
1009.000004
 31
0.0
  0
LINE
  5
26C
330
1F
100
AcDbEntity
  8
Ｓ_１_１
  6
EXLTYPE0
 62
     2
100
AcDbLine
 10
1675.000001
 20
1012.000002
 30
0.0
 11
1692.481137
 21
1012.000002
 31
0.0
  0
LINE
  5
26D
330
1F
100
AcDbEntity
  8
Ｓ_１_１
  6
EXLTYPE0
 62
     2
100
AcDbLine
 10
1675.000001
 20
1035.999979
 30
0.0
 11
1698.898974
 21
1035.999979
 31
0.0
  0
LINE
  5
26E
330
1F
100
AcDbEntity
  8
Ｓ_１_１
  6
EXLTYPE0
 62
     2
100
AcDbLine
 10
1809.999999
 20
1494.000003
 30
0.0
 11
1809.999999
 21
1454.470203
 31
0.0
  0
LINE
  5
26F
330
1F
100
AcDbEntity
  8
Ｓ_１_１
  6
EXLTYPE0
 62
     2
100
AcDbLine
 10
1814.999999
 20
1565.999971
 30
0.0
 11
1814.999999
 21
1473.168017
 31
0.0
  0
ARC
  5
270
330
1F
100
AcDbEntity
  8
Ｓ_１_１
  6
CONTINUOUS
 62
     3
100
AcDbCircle
 10
1959.999997
 20
2008.954142
 30
0.0
 40
20.0
100
AcDbArc
 50
250.248497
 51
0.0
  0
ARC
  5
271
330
1F
100
AcDbEntity
  8
Ｓ_１_１
  6
CONTINUOUS
 62
     3
100
AcDbCircle
 10
1959.999997
 20
937.499996
 30
0.0
 40
52.499999
100
AcDbArc
 50
122.703802
 51
170.7931010000001
  0
ARC
  5
272
330
1F
100
AcDbEntity
  8
Ｓ_１_１
  6
CONTINUOUS
 62
     3
100
AcDbCircle
 10
1959.999997
 20
937.499996
 30
0.0
 40
52.499999
100
AcDbArc
 50
189.206899
 51
237.2961980000002
  0
CIRCLE
  5
273
330
1F
100
AcDbEntity
  8
Ｓ_１_１
  6
CONTINUOUS
 62
     3
100
AcDbCircle
 10
1707.833319
 20
1265.959044
 30
0.0
 40
44.999999
  0
CIRCLE
  5
274
330
1F
100
AcDbEntity
  8
Ｓ_１_１
  6
CONTINUOUS
 62
     3
100
AcDbCircle
 10
1619.999983
 20
937.499996
 30
0.0
 40
44.999999
  0
CIRCLE
  5
275
330
1F
100
AcDbEntity
  8
Ｓ_１_１
  6
CONTINUOUS
 62
     3
100
AcDbCircle
 10
1959.999949
 20
2208.954139
 30
0.0
 40
30.00000000000002
  0
ARC
  5
276
330
1F
100
AcDbEntity
  8
Ｓ_１_１
  6
CONTINUOUS
 62
     3
100
AcDbCircle
 10
1731.298776
 20
1663.38736
 30
0.0
 40
20.0
100
AcDbArc
 50
165.0288040000001
 51
255.0288000000002
  0
ARC
  5
277
330
1F
100
AcDbEntity
  8
Ｓ_１_１
  6
CONTINUOUS
 62
     3
100
AcDbCircle
 10
1754.548788
 20
1750.332396
 30
0.0
 40
20.0
100
AcDbArc
 50
75.02880200000003
 51
165.0288040000001
  0
ARC
  5
278
330
1F
100
AcDbEntity
  8
Ｓ_１_１
  6
CONTINUOUS
 62
     3
100
AcDbCircle
 10
1731.298776
 20
1663.38736
 30
0.0
 40
39.999999
100
AcDbArc
 50
165.0288040000001
 51
255.0288000000002
  0
ARC
  5
279
330
1F
100
AcDbEntity
  8
Ｓ_１_１
  6
CONTINUOUS
 62
     3
100
AcDbCircle
 10
1754.548788
 20
1750.332396
 30
0.0
 40
39.999999
100
AcDbArc
 50
75.02880200000003
 51
165.0288040000001
  0
ARC
  5
27A
330
1F
100
AcDbEntity
  8
Ｓ_１_１
  6
CONTINUOUS
 62
     3
100
AcDbCircle
 10
1959.999997
 20
937.499996
 30
0.0
 40
20.0
100
AcDbArc
 50
17.45760300000002
 51
162.542397
  0
ARC
  5
27B
330
1F
100
AcDbEntity
  8
Ｓ_１_１
  6
CONTINUOUS
 62
     3
100
AcDbCircle
 10
1959.999997
 20
937.499996
 30
0.0
 40
20.0
100
AcDbArc
 50
197.457603
 51
342.5423970000001
  0
ARC
  5
27C
330
1F
100
AcDbEntity
  8
Ｓ_１_１
  6
CONTINUOUS
 62
     3
100
AcDbCircle
 10
1599.548895
 20
1170.698768
 30
0.0
 40
39.999999
100
AcDbArc
 50
75.02880200000003
 51
165.0288040000001
  0
ARC
  5
27D
330
1F
100
AcDbEntity
  8
Ｓ_１_１
  6
CONTINUOUS
 62
     3
100
AcDbCircle
 10
1576.298869
 20
1083.753732
 30
0.0
 40
39.999999
100
AcDbArc
 50
165.0288040000001
 51
255.0288000000002
  0
ARC
  5
27E
330
1F
100
AcDbEntity
  8
Ｓ_１_１
  6
CONTINUOUS
 62
     3
100
AcDbCircle
 10
1599.548895
 20
1170.698768
 30
0.0
 40
20.0
100
AcDbArc
 50
75.02880200000003
 51
165.0288040000001
  0
ARC
  5
27F
330
1F
100
AcDbEntity
  8
Ｓ_１_１
  6
CONTINUOUS
 62
     3
100
AcDbCircle
 10
1576.298869
 20
1083.753732
 30
0.0
 40
20.0
100
AcDbArc
 50
165.0288040000001
 51
255.0288000000002
  0
CIRCLE
  5
280
330
1F
100
AcDbEntity
  8
Ｓ_１_１
  6
CONTINUOUS
 62
     3
100
AcDbCircle
 10
1959.999997
 20
1064.000009
 30
0.0
 40
25.00000000000002
  0
ARC
  5
281
330
1F
100
AcDbEntity
  8
Ｓ_１_１
  6
CONTINUOUS
 62
     3
100
AcDbCircle
 10
1959.999997
 20
937.499996
 30
0.0
 40
25.00000000000002
100
AcDbArc
 50
13.88653999999998
 51
166.113465
  0
ARC
  5
282
330
1F
100
AcDbEntity
  8
Ｓ_１_１
  6
CONTINUOUS
 62
     3
100
AcDbCircle
 10
1959.999997
 20
937.499996
 30
0.0
 40
25.00000000000002
100
AcDbArc
 50
193.886535
 51
346.11346
  0
ARC
  5
283
330
1F
100
AcDbEntity
  8
Ｓ_１_１
  6
CONTINUOUS
 62
     3
100
AcDbCircle
 10
1959.999997
 20
1064.000009
 30
0.0
 40
39.999999
100
AcDbArc
 50
346.3625070000001
 51
120.778235
  0
CIRCLE
  5
284
330
1F
100
AcDbEntity
  8
Ｓ_１_１
  6
CONTINUOUS
 62
     3
100
AcDbCircle
 10
1707.83331
 20
1265.958967
 30
0.0
 40
20.0
  0
ARC
  5
285
330
1F
100
AcDbEntity
  8
Ｓ_１_１
  6
CONTINUOUS
 62
     3
100
AcDbCircle
 10
1959.999997
 20
2208.954139
 30
0.0
 40
44.999999
100
AcDbArc
 50
0.0
 51
180.000005
  0
ARC
  5
286
330
1F
100
AcDbEntity
  8
Ｓ_１_１
  6
CONTINUOUS
 62
     3
100
AcDbCircle
 10
1959.999997
 20
2208.954139
 30
0.0
 40
20.0
100
AcDbArc
 50
0.0
 51
180.000005
  0
ARC
  5
287
330
1F
100
AcDbEntity
  8
Ｓ_１_１
  6
CONTINUOUS
 62
     3
100
AcDbCircle
 10
1909.999997
 20
937.499996
 30
0.0
 40
6.000000000000005
100
AcDbArc
 50
90.000003
 51
270.0000010000001
  0
ARC
  5
288
330
1F
100
AcDbEntity
  8
Ｓ_１_１
  6
CONTINUOUS
 62
     3
100
AcDbCircle
 10
2009.999996
 20
937.499996
 30
0.0
 40
6.000000000000005
100
AcDbArc
 50
269.999997
 51
90.000003
  0
ARC
  5
289
330
1F
100
AcDbEntity
  8
Ｓ_１_１
  6
CONTINUOUS
 62
     3
100
AcDbCircle
 10
1620.000002
 20
937.499996
 30
0.0
 40
30.00000000000002
100
AcDbArc
 50
0.0
 51
180.000005
  0
ARC
  5
28A
330
1F
100
AcDbEntity
  8
Ｓ_１_１
  6
CONTINUOUS
 62
     3
100
AcDbCircle
 10
1620.000002
 20
937.499996
 30
0.0
 40
30.00000000000002
100
AcDbArc
 50
179.999991
 51
0.0
  0
ARC
  5
28B
330
1F
100
AcDbEntity
  8
Ｓ_１_１
  6
CONTINUOUS
 62
     3
100
AcDbCircle
 10
1620.000002
 20
937.499996
 30
0.0
 40
20.0
100
AcDbArc
 50
0.0
 51
180.000005
  0
CIRCLE
  5
28C
330
1F
100
AcDbEntity
  8
Ｓ_１_１
  6
CONTINUOUS
 62
     3
100
AcDbCircle
 10
1755.0
 20
793.5000019999998
 30
0.0
 40
8.0
  0
CIRCLE
  5
28D
330
1F
100
AcDbEntity
  8
Ｓ_１_１
  6
CONTINUOUS
 62
     3
100
AcDbCircle
 10
1755.0
 20
793.5000019999998
 30
0.0
 40
10.0
  0
ARC
  5
28E
330
1F
100
AcDbEntity
  8
Ｓ_１_１
  6
CONTINUOUS
 62
     3
100
AcDbCircle
 10
1755.000014
 20
761.0000019999998
 30
0.0
 40
4.0
100
AcDbArc
 50
269.9989050000001
 51
90.001095
  0
ARC
  5
28F
330
1F
100
AcDbEntity
  8
Ｓ_１_１
  6
CONTINUOUS
 62
     3
100
AcDbCircle
 10
1755.000014
 20
761.0000019999998
 30
0.0
 40
5.0
100
AcDbArc
 50
269.999123
 51
90.00087700000002
  0
CIRCLE
  5
290
330
1F
100
AcDbEntity
  8
Ｓ_１_１
  6
CONTINUOUS
 62
     3
100
AcDbCircle
 10
1755.0
 20
1024.00001
 30
0.0
 40
8.0
  0
CIRCLE
  5
291
330
1F
100
AcDbEntity
  8
Ｓ_１_１
  6
CONTINUOUS
 62
     3
100
AcDbCircle
 10
1755.0
 20
1024.00001
 30
0.0
 40
10.0
  0
ARC
  5
292
330
1F
100
AcDbEntity
  8
Ｓ_１_１
  6
CONTINUOUS
 62
     3
100
AcDbCircle
 10
1959.999997
 20
2208.954139
 30
0.0
 40
44.999999
100
AcDbArc
 50
179.999991
 51
0.0
  0
ARC
  5
293
330
1F
100
AcDbEntity
  8
Ｓ_１_１
  6
CONTINUOUS
 62
     3
100
AcDbCircle
 10
1959.999997
 20
2208.954139
 30
0.0
 40
20.0
100
AcDbArc
 50
179.999991
 51
0.0
  0
CIRCLE
  5
294
330
1F
100
AcDbEntity
  8
Ｓ_１_１
  6
CONTINUOUS
 62
     3
100
AcDbCircle
 10
1755.0
 20
836.0000009999999
 30
0.0
 40
10.0
  0
CIRCLE
  5
295
330
1F
100
AcDbEntity
  8
Ｓ_１_１
  6
CONTINUOUS
 62
     3
100
AcDbCircle
 10
1755.0
 20
836.0000009999999
 30
0.0
 40
8.0
  0
ARC
  5
296
330
1F
100
AcDbEntity
  8
Ｓ_１_１
  6
CONTINUOUS
 62
     3
100
AcDbCircle
 10
1620.000002
 20
937.499996
 30
0.0
 40
20.0
100
AcDbArc
 50
179.999991
 51
0.0
  0
LINE
  5
297
330
1F
100
AcDbEntity
  8
Ｓ_１_１
  6
CONTINUOUS
 62
     3
100
AcDbLine
 10
1979.999996
 20
2008.954142
 30
0.0
 11
1979.999996
 21
2090.197275
 31
0.0
  0
LINE
  5
298
330
1F
100
AcDbEntity
  8
Ｓ_１_１
  6
CONTINUOUS
 62
     3
100
AcDbLine
 10
1979.999969
 20
1948.954048
 30
0.0
 11
1999.999991
 21
1968.954069
 31
0.0
  0
LINE
  5
299
330
1F
100
AcDbEntity
  8
Ｓ_１_１
  6
CONTINUOUS
 62
     3
100
AcDbLine
 10
1999.999996
 20
1089.000009
 30
0.0
 11
1999.999996
 21
1044.000009
 31
0.0
  0
LINE
  5
29A
330
1F
100
AcDbEntity
  8
Ｓ_１_１
  6
CONTINUOUS
 62
     3
100
AcDbLine
 10
1919.999997
 20
1089.000009
 30
0.0
 11
1919.999997
 21
1086.716569
 31
0.0
  0
LINE
  5
29B
330
1F
100
AcDbEntity
  8
Ｓ_１_１
  6
CONTINUOUS
 62
     3
100
AcDbLine
 10
1980.00001
 20
1108.999995
 30
0.0
 11
2000.000004
 21
1089.0
 31
0.0
  0
LINE
  5
29C
330
1F
100
AcDbEntity
  8
Ｓ_１_１
  6
CONTINUOUS
 62
     3
100
AcDbLine
 10
1940.000008
 20
1109.000008
 30
0.0
 11
1919.999986
 21
1088.999987
 31
0.0
  0
LINE
  5
29D
330
1F
100
AcDbEntity
  8
Ｓ_１_１
  6
CONTINUOUS
 62
     3
100
AcDbLine
 10
1979.999996
 20
1948.954143
 30
0.0
 11
1979.999996
 21
1109.000008
 31
0.0
  0
LINE
  5
29E
330
1F
100
AcDbEntity
  8
Ｓ_１_１
  6
CONTINUOUS
 62
     3
100
AcDbLine
 10
1939.999997
 20
1940.614452
 30
0.0
 11
1939.999997
 21
1109.000008
 31
0.0
  0
LINE
  5
29F
330
1F
100
AcDbEntity
  8
Ｓ_１_１
  6
CONTINUOUS
 62
     3
100
AcDbLine
 10
2034.999996
 20
2428.954136
 30
0.0
 11
2134.999994
 21
2428.954136
 31
0.0
  0
LINE
  5
2A0
330
1F
100
AcDbEntity
  8
Ｓ_１_１
  6
CONTINUOUS
 62
     3
100
AcDbLine
 10
2034.999996
 20
1988.954142
 30
0.0
 11
2134.999994
 21
1988.954142
 31
0.0
  0
LINE
  5
2A1
330
1F
100
AcDbEntity
  8
Ｓ_１_１
  6
CONTINUOUS
 62
     3
100
AcDbLine
 10
2002.999977
 20
1027.499969
 30
0.0
 11
1931.634455
 21
981.6774190000001
 31
0.0
  0
LINE
  5
2A2
330
1F
100
AcDbEntity
  8
Ｓ_１_１
  6
CONTINUOUS
 62
     3
100
AcDbLine
 10
2002.999988
 20
847.4999889999999
 30
0.0
 11
1931.634437
 21
893.322557
 31
0.0
  0
LINE
  5
2A3
330
1F
100
AcDbEntity
  8
Ｓ_１_１
  6
CONTINUOUS
 62
     3
100
AcDbLine
 10
2002.999988
 20
847.4999969999999
 30
0.0
 11
2022.999988
 21
847.4999969999999
 31
0.0
  0
LINE
  5
2A4
330
1F
100
AcDbEntity
  8
Ｓ_１_１
  6
CONTINUOUS
 62
     3
100
AcDbLine
 10
2002.999988
 20
1027.499994
 30
0.0
 11
2022.999988
 21
1027.499994
 31
0.0
  0
LINE
  5
2A5
330
1F
100
AcDbEntity
  8
Ｓ_１_１
  6
CONTINUOUS
 62
     3
100
AcDbLine
 10
2022.999988
 20
1031.500009
 30
0.0
 11
2122.999987
 21
1031.500009
 31
0.0
  0
LINE
  5
2A6
330
1F
100
AcDbEntity
  8
Ｓ_１_１
  6
CONTINUOUS
 62
     3
100
AcDbLine
 10
2022.999988
 20
843.5000009999999
 30
0.0
 11
2122.999987
 21
843.5000009999999
 31
0.0
  0
LINE
  5
2A7
330
1F
100
AcDbEntity
  8
Ｓ_１_１
  6
CONTINUOUS
 62
     3
100
AcDbLine
 10
2022.999988
 20
852.4999969999999
 30
0.0
 11
2122.999987
 21
852.4999969999999
 31
0.0
  0
LINE
  5
2A8
330
1F
100
AcDbEntity
  8
Ｓ_１_１
  6
CONTINUOUS
 62
     3
100
AcDbLine
 10
2022.999988
 20
1022.499994
 30
0.0
 11
2122.999987
 21
1022.499994
 31
0.0
  0
LINE
  5
2A9
330
1F
100
AcDbEntity
  8
Ｓ_１_１
  6
CONTINUOUS
 62
     3
100
AcDbLine
 10
2122.999987
 20
822.4999969999999
 30
0.0
 11
2134.999994
 21
822.4999969999999
 31
0.0
  0
LINE
  5
2AA
330
1F
100
AcDbEntity
  8
Ｓ_１_１
  6
CONTINUOUS
 62
     3
100
AcDbLine
 10
2122.999987
 20
1052.499994
 30
0.0
 11
2134.999994
 21
1052.499994
 31
0.0
  0
LINE
  5
2AB
330
1F
100
AcDbEntity
  8
Ｓ_１_１
  6
CONTINUOUS
 62
     3
100
AcDbLine
 10
2122.999987
 20
1052.499994
 30
0.0
 11
2122.999987
 21
822.4999969999999
 31
0.0
  0
LINE
  5
2AC
330
1F
100
AcDbEntity
  8
Ｓ_１_１
  6
CONTINUOUS
 62
     3
100
AcDbLine
 10
2022.999988
 20
1037.499994
 30
0.0
 11
2122.999987
 21
1037.499994
 31
0.0
  0
LINE
  5
2AD
330
1F
100
AcDbEntity
  8
Ｓ_１_１
  6
CONTINUOUS
 62
     3
100
AcDbLine
 10
2022.999988
 20
837.4999969999999
 30
0.0
 11
2122.999987
 21
837.4999969999999
 31
0.0
  0
LINE
  5
2AE
330
1F
100
AcDbEntity
  8
Ｓ_１_１
  6
CONTINUOUS
 62
     3
100
AcDbLine
 10
2034.999996
 20
2428.954136
 30
0.0
 11
2034.999996
 21
1988.954142
 31
0.0
  0
LINE
  5
2AF
330
1F
100
AcDbEntity
  8
Ｓ_１_１
  6
CONTINUOUS
 62
     3
100
AcDbLine
 10
1695.000001
 20
1565.999971
 30
0.0
 11
1736.310554
 21
1565.999971
 31
0.0
  0
LINE
  5
2B0
330
1F
100
AcDbEntity
  8
Ｓ_１_１
  6
CONTINUOUS
 62
     3
100
AcDbLine
 10
1695.000002
 20
1565.99997
 30
0.0
 11
1698.000021
 21
1568.999989
 31
0.0
  0
LINE
  5
2B1
330
1F
100
AcDbEntity
  8
Ｓ_１_１
  6
CONTINUOUS
 62
     3
100
AcDbLine
 10
1699.999963
 20
1494.000002
 30
0.0
 11
1694.999963
 21
1502.660256
 31
0.0
  0
LINE
  5
2B2
330
1F
100
AcDbEntity
  8
Ｓ_１_１
  6
CONTINUOUS
 62
     3
100
AcDbLine
 10
1695.000001
 20
1494.000003
 30
0.0
 11
1717.057009
 21
1494.000003
 31
0.0
  0
LINE
  5
2B3
330
1F
100
AcDbEntity
  8
Ｓ_１_１
  6
CONTINUOUS
 62
     3
100
AcDbLine
 10
1657.049257
 20
882.499996
 30
0.0
 11
1948.489863
 21
882.499996
 31
0.0
  0
LINE
  5
2B4
330
1F
100
AcDbEntity
  8
Ｓ_１_１
  6
CONTINUOUS
 62
     3
100
AcDbLine
 10
1570.000003
 20
899.1136699999998
 30
0.0
 11
1570.000003
 21
874.999996
 31
0.0
  0
LINE
  5
2B5
330
1F
100
AcDbEntity
  8
Ｓ_１_１
  6
CONTINUOUS
 62
     3
100
AcDbLine
 10
1558.780544
 20
902.113867
 30
0.0
 11
1655.386109
 21
876.2805399999997
 31
0.0
  0
LINE
  5
2B6
330
1F
100
AcDbEntity
  8
Ｓ_１_１
  6
CONTINUOUS
 62
     3
100
AcDbLine
 10
1924.620374
 20
2270.197945
 30
0.0
 11
2021.212955
 21
2244.316041
 31
0.0
  0
LINE
  5
2B7
330
1F
100
AcDbEntity
  8
Ｓ_１_１
  6
CONTINUOUS
 62
     3
100
AcDbLine
 10
1995.999974
 20
2108.954101
 30
0.0
 11
1987.155656
 21
2116.956223
 31
0.0
  0
LINE
  5
2B8
330
1F
100
AcDbEntity
  8
Ｓ_１_１
  6
CONTINUOUS
 62
     3
100
AcDbLine
 10
1996.000056
 20
2308.954014
 30
0.0
 11
1946.642988
 21
2264.296953
 31
0.0
  0
LINE
  5
2B9
330
1F
100
AcDbEntity
  8
Ｓ_１_１
  6
CONTINUOUS
 62
     3
100
AcDbLine
 10
1996.0
 20
2108.954141
 30
0.0
 11
2026.0
 21
2108.954141
 31
0.0
  0
LINE
  5
2BA
330
1F
100
AcDbEntity
  8
Ｓ_１_１
  6
CONTINUOUS
 62
     3
100
AcDbLine
 10
1996.0
 20
2308.954138
 30
0.0
 11
2026.0
 21
2308.954138
 31
0.0
  0
LINE
  5
2BB
330
1F
100
AcDbEntity
  8
Ｓ_１_１
  6
CONTINUOUS
 62
     3
100
AcDbLine
 10
1755.113834
 20
1636.316188
 30
0.0
 11
1788.697165
 21
1761.903446
 31
0.0
  0
LINE
  5
2BC
330
1F
100
AcDbEntity
  8
Ｓ_１_１
  6
CONTINUOUS
 62
     3
100
AcDbLine
 10
1759.715449
 20
1769.653512
 30
0.0
 11
1827.339336
 21
1751.570174
 31
0.0
  0
LINE
  5
2BD
330
1F
100
AcDbEntity
  8
Ｓ_１_１
  6
CONTINUOUS
 62
     3
100
AcDbLine
 10
1720.965428
 20
1624.745143
 30
0.0
 11
1788.589315
 21
1606.661805
 31
0.0
  0
LINE
  5
2BE
330
1F
100
AcDbEntity
  8
Ｓ_１_１
  6
CONTINUOUS
 62
     3
100
AcDbLine
 10
1788.589315
 20
1606.661805
 30
0.0
 11
1793.755985
 21
1625.982921
 31
0.0
  0
LINE
  5
2BF
330
1F
100
AcDbEntity
  8
Ｓ_１_１
  6
CONTINUOUS
 62
     3
100
AcDbLine
 10
1711.977651
 20
1668.554044
 30
0.0
 11
1735.227664
 21
1755.499065
 31
0.0
  0
LINE
  5
2C0
330
1F
100
AcDbEntity
  8
Ｓ_１_１
  6
CONTINUOUS
 62
     3
100
AcDbLine
 10
1726.132098
 20
1644.066259
 30
0.0
 11
1793.755985
 21
1625.982921
 31
0.0
  0
LINE
  5
2C1
330
1F
100
AcDbEntity
  8
Ｓ_１_１
  6
CONTINUOUS
 62
     3
100
AcDbLine
 10
1692.656536
 20
1673.720714
 30
0.0
 11
1715.906548
 21
1760.665735
 31
0.0
  0
LINE
  5
2C2
330
1F
100
AcDbEntity
  8
Ｓ_１_１
  6
CONTINUOUS
 62
     3
100
AcDbLine
 10
1764.882118
 20
1788.974628
 30
0.0
 11
1832.506005
 21
1770.89129
 31
0.0
  0
LINE
  5
2C3
330
1F
100
AcDbEntity
  8
Ｓ_１_１
  6
CONTINUOUS
 62
     3
100
AcDbLine
 10
1827.339336
 20
1751.570174
 30
0.0
 11
1832.506005
 21
1770.89129
 31
0.0
  0
LINE
  5
2C4
330
1F
100
AcDbEntity
  8
Ｓ_１_１
  6
CONTINUOUS
 62
     3
100
AcDbLine
 10
1638.863832
 20
1201.591027
 30
0.0
 11
1695.000015
 21
1411.516281
 31
0.0
  0
LINE
  5
2C5
330
1F
100
AcDbEntity
  8
Ｓ_１_１
  6
CONTINUOUS
 62
     3
100
AcDbLine
 10
1600.113835
 20
1056.682653
 30
0.0
 11
1633.697166
 21
1182.269911
 31
0.0
  0
LINE
  5
2C6
330
1F
100
AcDbEntity
  8
Ｓ_１_１
  6
CONTINUOUS
 62
     3
100
AcDbLine
 10
1793.863831
 20
1781.224563
 30
0.0
 11
1924.620356
 21
2270.197902
 31
0.0
  0
LINE
  5
2C7
330
1F
100
AcDbEntity
  8
Ｓ_１_１
  6
CONTINUOUS
 62
     3
100
AcDbLine
 10
1672.339474
 20
1171.936562
 30
0.0
 11
1677.506143
 21
1191.257678
 31
0.0
  0
LINE
  5
2C8
330
1F
100
AcDbEntity
  8
Ｓ_１_１
  6
CONTINUOUS
 62
     3
100
AcDbLine
 10
1609.882238
 20
1209.341021
 30
0.0
 11
1677.506143
 21
1191.257678
 31
0.0
  0
LINE
  5
2C9
330
1F
100
AcDbEntity
  8
Ｓ_１_１
  6
CONTINUOUS
 62
     3
100
AcDbLine
 10
1537.656656
 20
1094.087107
 30
0.0
 11
1560.906668
 21
1181.032128
 31
0.0
  0
LINE
  5
2CA
330
1F
100
AcDbEntity
  8
Ｓ_１_１
  6
CONTINUOUS
 62
     3
100
AcDbLine
 10
1571.132218
 20
1064.432652
 30
0.0
 11
1638.756123
 21
1046.34931
 31
0.0
  0
LINE
  5
2CB
330
1F
100
AcDbEntity
  8
Ｓ_１_１
  6
CONTINUOUS
 62
     3
100
AcDbLine
 10
1556.977771
 20
1088.920438
 30
0.0
 11
1580.227784
 21
1175.865459
 31
0.0
  0
LINE
  5
2CC
330
1F
100
AcDbEntity
  8
Ｓ_１_１
  6
CONTINUOUS
 62
     3
100
AcDbLine
 10
1633.589454
 20
1027.028194
 30
0.0
 11
1638.756123
 21
1046.34931
 31
0.0
  0
LINE
  5
2CD
330
1F
100
AcDbEntity
  8
Ｓ_１_１
  6
CONTINUOUS
 62
     3
100
AcDbLine
 10
1565.965548
 20
1045.111537
 30
0.0
 11
1633.589454
 21
1027.028194
 31
0.0
  0
LINE
  5
2CE
330
1F
100
AcDbEntity
  8
Ｓ_１_１
  6
CONTINUOUS
 62
     3
100
AcDbLine
 10
1604.715569
 20
1190.019905
 30
0.0
 11
1672.339474
 21
1171.936562
 31
0.0
  0
LINE
  5
2CF
330
1F
100
AcDbEntity
  8
Ｓ_１_１
  6
CONTINUOUS
 62
     3
100
AcDbLine
 10
1996.079056
 20
1040.079069
 30
0.0
 11
1999.999994
 21
1044.000008
 31
0.0
  0
LINE
  5
2D0
330
1F
100
AcDbEntity
  8
Ｓ_１_１
  6
CONTINUOUS
 62
     3
100
AcDbLine
 10
1992.271159
 20
1020.611209
 30
0.0
 11
1999.256099
 21
1056.321517
 31
0.0
  0
LINE
  5
2D1
330
1F
100
AcDbEntity
  8
Ｓ_１_１
  6
CONTINUOUS
 62
     3
100
AcDbLine
 10
1840.000015
 20
1038.999975
 30
0.0
 11
1939.509757
 21
1098.353276
 31
0.0
  0
LINE
  5
2D2
330
1F
100
AcDbEntity
  8
Ｓ_１_１
  6
CONTINUOUS
 62
     3
100
AcDbLine
 10
1999.999996
 20
2164.988686
 30
0.0
 11
1999.999996
 21
1968.954143
 31
0.0
  0
LINE
  5
2D3
330
1F
100
AcDbEntity
  8
Ｓ_１_１
  6
CONTINUOUS
 62
     3
100
AcDbLine
 10
2026.0
 20
1988.954142
 30
0.0
 11
2034.999996
 21
1988.954142
 31
0.0
  0
LINE
  5
2D4
330
1F
100
AcDbEntity
  8
Ｓ_１_１
  6
CONTINUOUS
 62
     3
100
AcDbLine
 10
2026.0
 20
2428.954136
 30
0.0
 11
2034.999996
 21
2428.954136
 31
0.0
  0
LINE
  5
2D5
330
1F
100
AcDbEntity
  8
Ｓ_１_１
  6
CONTINUOUS
 62
     3
100
AcDbLine
 10
1839.999998
 20
1039.000009
 30
0.0
 11
1839.999998
 21
1009.00001
 31
0.0
  0
LINE
  5
2D6
330
1F
100
AcDbEntity
  8
Ｓ_１_１
  6
CONTINUOUS
 62
     3
100
AcDbLine
 10
2022.999988
 20
1037.499994
 30
0.0
 11
2022.999988
 21
837.4999969999999
 31
0.0
  0
LINE
  5
2D7
330
1F
100
AcDbEntity
  8
Ｓ_１_１
  6
CONTINUOUS
 62
     3
100
AcDbLine
 10
1844.999998
 20
726.0000030000001
 30
0.0
 11
1856.999996
 21
726.0000030000001
 31
0.0
  0
LINE
  5
2D8
330
1F
100
AcDbEntity
  8
Ｓ_１_１
  6
CONTINUOUS
 62
     3
100
AcDbLine
 10
1653.000003
 20
726.0000030000001
 30
0.0
 11
1665.000001
 21
726.0000030000001
 31
0.0
  0
LINE
  5
2D9
330
1F
100
AcDbEntity
  8
Ｓ_１_１
  6
CONTINUOUS
 62
     3
100
AcDbLine
 10
1856.999996
 20
726.0000030000001
 30
0.0
 11
1856.999996
 21
665.9999990000001
 31
0.0
  0
LINE
  5
2DA
330
1F
100
AcDbEntity
  8
Ｓ_１_１
  6
CONTINUOUS
 62
     3
100
AcDbLine
 10
1653.000003
 20
726.0000030000001
 30
0.0
 11
1653.000003
 21
665.9999990000001
 31
0.0
  0
LINE
  5
2DB
330
1F
100
AcDbEntity
  8
Ｓ_１_１
  6
CONTINUOUS
 62
     3
100
AcDbLine
 10
1909.999997
 20
931.499992
 30
0.0
 11
2009.999996
 21
931.499992
 31
0.0
  0
LINE
  5
2DC
330
1F
100
AcDbEntity
  8
Ｓ_１_１
  6
CONTINUOUS
 62
     3
100
AcDbLine
 10
1909.999997
 20
943.4999990000001
 30
0.0
 11
2009.999996
 21
943.4999990000001
 31
0.0
  0
LINE
  5
2DD
330
1F
100
AcDbEntity
  8
Ｓ_１_１
  6
CONTINUOUS
 62
     3
100
AcDbLine
 10
1699.701214
 20
1039.000009
 30
0.0
 11
1831.999999
 21
1039.000009
 31
0.0
  0
LINE
  5
2DE
330
1F
100
AcDbEntity
  8
Ｓ_１_１
  6
CONTINUOUS
 62
     3
100
AcDbLine
 10
1698.898974
 20
1035.999979
 30
0.0
 11
1834.999999
 21
1035.999979
 31
0.0
  0
LINE
  5
2DF
330
1F
100
AcDbEntity
  8
Ｓ_１_１
  6
CONTINUOUS
 62
     3
100
AcDbLine
 10
1692.481137
 20
1012.000002
 30
0.0
 11
1834.999999
 21
1012.000002
 31
0.0
  0
LINE
  5
2E0
330
1F
100
AcDbEntity
  8
Ｓ_１_１
  6
CONTINUOUS
 62
     3
100
AcDbLine
 10
1814.999999
 20
1473.168017
 30
0.0
 11
1814.999999
 21
1039.000009
 31
0.0
  0
LINE
  5
2E1
330
1F
100
AcDbEntity
  8
Ｓ_１_１
  6
CONTINUOUS
 62
     3
100
AcDbLine
 10
1809.999999
 20
1454.470203
 30
0.0
 11
1809.999999
 21
1039.000009
 31
0.0
  0
LINE
  5
2E2
330
1F
100
AcDbEntity
  8
Ｓ_１_１
  6
CONTINUOUS
 62
     3
100
AcDbLine
 10
1695.000015
 20
1411.516281
 30
0.0
 11
1749.947168
 21
1616.995071
 31
0.0
  0
LINE
  5
2E3
330
1F
100
AcDbEntity
  8
Ｓ_１_１
  6
CONTINUOUS
 62
     3
100
AcDbLine
 10
1691.678906
 20
1009.00001
 30
0.0
 11
1974.187504
 21
1009.00001
 31
0.0
  0
LINE
  5
2E4
330
1F
100
AcDbEntity
  8
Ｓ_１_１
  6
CONTINUOUS
 62
     3
100
AcDbLine
 10
1688.469973
 20
999.9999950000001
 30
0.0
 11
1960.170609
 21
999.9999950000001
 31
0.0
  0
LINE
  5
2E5
330
1F
100
AcDbEntity
  8
Ｓ_１_１
  6
CONTINUOUS
 62
     3
100
AcDbLine
 10
1686.464406
 20
992.4999950000001
 30
0.0
 11
1948.489863
 21
992.4999950000001
 31
0.0
  0
LINE
  5
2E6
330
1F
100
AcDbEntity
  8
Ｓ_１_１
  6
CONTINUOUS
 62
     3
100
AcDbLine
 10
1580.000002
 20
882.499996
 30
0.0
 11
1632.127973
 21
882.499996
 31
0.0
  0
LINE
  5
2E7
330
1F
100
AcDbEntity
  8
Ｓ_１_１
  6
CONTINUOUS
 62
     3
100
AcDbLine
 10
1655.386109
 20
876.2805399999997
 30
0.0
 11
2021.212913
 21
2244.315931
 31
0.0
  0
LINE
  5
2E8
330
1F
100
AcDbEntity
  8
Ｓ_１_１
  6
CONTINUOUS
 62
     3
100
AcDbLine
 10
1580.000002
 20
896.4395679999998
 30
0.0
 11
1580.000002
 21
882.499996
 31
0.0
  0
LINE
  5
2E9
330
1F
100
AcDbEntity
  8
Ｓ_１_１
  6
CONTINUOUS
 62
     3
100
AcDbLine
 10
1558.780544
 20
902.113867
 30
0.0
 11
1594.947169
 21
1037.361536
 31
0.0
  0
LINE
  5
2EA
330
1F
100
AcDbEntity
  8
Ｓ_１_１
  6
CONTINUOUS
 62
     3
100
AcDbLine
 10
1580.000002
 20
866.0
 30
0.0
 11
1974.187504
 21
866.0
 31
0.0
  0
LINE
  5
2EB
330
1F
100
AcDbEntity
  8
Ｓ_１_１
  6
CONTINUOUS
 62
     3
100
AcDbLine
 10
1818.499986
 20
815.9999900000003
 30
0.0
 11
1822.499984
 21
811.9999910000001
 31
0.0
  0
LINE
  5
2EC
330
1F
100
AcDbEntity
  8
Ｓ_１_１
  6
CONTINUOUS
 62
     3
100
AcDbLine
 10
1687.50002
 20
812.0000049999999
 30
0.0
 11
1822.499999
 21
812.0000049999999
 31
0.0
  0
LINE
  5
2ED
330
1F
100
AcDbEntity
  8
Ｓ_１_１
  6
CONTINUOUS
 62
     3
100
AcDbLine
 10
1691.500021
 20
816.0000190000001
 30
0.0
 11
1687.499997
 21
811.9999950000001
 31
0.0
  0
LINE
  5
2EE
330
1F
100
AcDbEntity
  8
Ｓ_１_１
  6
CONTINUOUS
 62
     3
100
AcDbLine
 10
1691.500025
 20
770.999973
 30
0.0
 11
1687.499999
 21
774.9999990000001
 31
0.0
  0
LINE
  5
2EF
330
1F
100
AcDbEntity
  8
Ｓ_１_１
  6
CONTINUOUS
 62
     3
100
AcDbLine
 10
1687.50002
 20
774.9999980000002
 30
0.0
 11
1822.499999
 21
774.9999980000002
 31
0.0
  0
LINE
  5
2F0
330
1F
100
AcDbEntity
  8
Ｓ_１_１
  6
CONTINUOUS
 62
     3
100
AcDbLine
 10
1818.49998
 20
770.9999900000003
 30
0.0
 11
1822.499978
 21
774.9999889999999
 31
0.0
  0
LINE
  5
2F1
330
1F
100
AcDbEntity
  8
Ｓ_１_１
  6
CONTINUOUS
 62
     3
100
AcDbLine
 10
1691.499997
 20
771.0000019999998
 30
0.0
 11
1818.499999
 21
771.0000019999998
 31
0.0
  0
LINE
  5
2F2
330
1F
100
AcDbEntity
  8
Ｓ_１_１
  6
CONTINUOUS
 62
     3
100
AcDbLine
 10
1822.499999
 20
812.0000049999999
 30
0.0
 11
1822.499999
 21
774.9999980000002
 31
0.0
  0
LINE
  5
2F3
330
1F
100
AcDbEntity
  8
Ｓ_１_１
  6
CONTINUOUS
 62
     3
100
AcDbLine
 10
1687.50002
 20
812.0000049999999
 30
0.0
 11
1687.50002
 21
774.9999980000002
 31
0.0
  0
LINE
  5
2F4
330
1F
100
AcDbEntity
  8
Ｓ_１_１
  6
CONTINUOUS
 62
     3
100
AcDbLine
 10
1698.000003
 20
1569.000001
 30
0.0
 11
1737.112761
 21
1569.000001
 31
0.0
  0
LINE
  5
2F5
330
1F
100
AcDbEntity
  8
Ｓ_１_１
  6
CONTINUOUS
 62
     3
100
AcDbLine
 10
2026.0
 20
2428.954136
 30
0.0
 11
2026.0
 21
1988.954142
 31
0.0
  0
LINE
  5
2F6
330
1F
100
AcDbEntity
  8
Ｓ_１_１
  6
CONTINUOUS
 62
     3
100
AcDbLine
 10
1580.000002
 20
992.4999950000001
 30
0.0
 11
1580.000002
 21
981.4656020000001
 31
0.0
  0
LINE
  5
2F7
330
1F
100
AcDbEntity
  8
Ｓ_１_１
  6
CONTINUOUS
 62
     3
100
AcDbLine
 10
1580.000002
 20
874.999996
 30
0.0
 11
1580.000002
 21
866.0
 31
0.0
  0
LINE
  5
2F8
330
1F
100
AcDbEntity
  8
Ｓ_１_１
  6
CONTINUOUS
 62
     3
100
AcDbLine
 10
1580.000002
 20
1009.00001
 30
0.0
 11
1580.000002
 21
999.9999950000001
 31
0.0
  0
LINE
  5
2F9
330
1F
100
AcDbEntity
  8
Ｓ_１_１
  6
CONTINUOUS
 62
     3
100
AcDbLine
 10
1570.000003
 20
999.9999950000001
 30
0.0
 11
1570.000003
 21
944.069877
 31
0.0
  0
LINE
  5
2FA
330
1F
100
AcDbEntity
  8
Ｓ_１_１
  6
CONTINUOUS
 62
     3
100
AcDbLine
 10
1580.000002
 20
992.4999950000001
 30
0.0
 11
1582.950709
 21
992.4999950000001
 31
0.0
  0
LINE
  5
2FB
330
1F
100
AcDbEntity
  8
Ｓ_１_１
  6
CONTINUOUS
 62
     3
100
AcDbLine
 10
1570.000003
 20
874.999996
 30
0.0
 11
1960.170609
 21
874.999996
 31
0.0
  0
LINE
  5
2FC
330
1F
100
AcDbEntity
  8
Ｓ_１_１
  6
CONTINUOUS
 62
     3
100
AcDbLine
 10
1570.000003
 20
999.9999950000001
 30
0.0
 11
1584.956305
 21
999.9999950000001
 31
0.0
  0
LINE
  5
2FD
330
1F
100
AcDbEntity
  8
Ｓ_１_１
  6
CONTINUOUS
 62
     3
100
AcDbLine
 10
1837.499999
 20
862.9999889999999
 30
0.0
 11
1837.499999
 21
818.9999939999998
 31
0.0
  0
LINE
  5
2FE
330
1F
100
AcDbEntity
  8
Ｓ_１_１
  6
CONTINUOUS
 62
     3
100
AcDbLine
 10
1672.500001
 20
862.9999889999999
 30
0.0
 11
1672.500001
 21
818.9999939999998
 31
0.0
  0
LINE
  5
2FF
330
1F
100
AcDbEntity
  8
Ｓ_１_１
  6
CONTINUOUS
 62
     3
100
AcDbLine
 10
1675.500003
 20
816.0000009999999
 30
0.0
 11
1834.499999
 21
816.0000009999999
 31
0.0
  0
LINE
  5
300
330
1F
100
AcDbEntity
  8
Ｓ_１_１
  6
CONTINUOUS
 62
     3
100
AcDbLine
 10
1672.499989
 20
863.0000030000002
 30
0.0
 11
1675.499991
 21
866.0000049999999
 31
0.0
  0
LINE
  5
301
330
1F
100
AcDbEntity
  8
Ｓ_１_１
  6
CONTINUOUS
 62
     3
100
AcDbLine
 10
1672.500001
 20
862.9999889999999
 30
0.0
 11
1837.499999
 21
862.9999889999999
 31
0.0
  0
LINE
  5
302
330
1F
100
AcDbEntity
  8
Ｓ_１_１
  6
CONTINUOUS
 62
     3
100
AcDbLine
 10
1672.500012
 20
818.9999910000001
 30
0.0
 11
1675.500005
 21
815.9999980000003
 31
0.0
  0
LINE
  5
303
330
1F
100
AcDbEntity
  8
Ｓ_１_１
  6
CONTINUOUS
 62
     3
100
AcDbLine
 10
1837.499997
 20
862.9999849999999
 30
0.0
 11
1834.500005
 21
865.999977
 31
0.0
  0
LINE
  5
304
330
1F
100
AcDbEntity
  8
Ｓ_１_１
  6
CONTINUOUS
 62
     3
100
AcDbLine
 10
1837.499987
 20
818.9999680000001
 30
0.0
 11
1834.500008
 21
815.999989
 31
0.0
  0
LINE
  5
305
330
1F
100
AcDbEntity
  8
Ｓ_１_１
  6
CONTINUOUS
 62
     3
100
AcDbLine
 10
1897.499998
 20
843.9999929999999
 30
0.0
 11
1897.499998
 21
827.9999900000003
 31
0.0
  0
LINE
  5
306
330
1F
100
AcDbEntity
  8
Ｓ_１_１
  6
CONTINUOUS
 62
     3
100
AcDbLine
 10
1895.5
 20
846.0000009999999
 30
0.0
 11
1895.5
 21
826.0000009999999
 31
0.0
  0
LINE
  5
307
330
1F
100
AcDbEntity
  8
Ｓ_１_１
  6
CONTINUOUS
 62
     3
100
AcDbLine
 10
1614.500004
 20
825.999996
 30
0.0
 11
1612.499991
 21
828.0000089999999
 31
0.0
  0
LINE
  5
308
330
1F
100
AcDbEntity
  8
Ｓ_１_１
  6
CONTINUOUS
 62
     3
100
AcDbLine
 10
1612.500002
 20
843.9999929999999
 30
0.0
 11
1612.500002
 21
827.9999900000003
 31
0.0
  0
LINE
  5
309
330
1F
100
AcDbEntity
  8
Ｓ_１_１
  6
CONTINUOUS
 62
     3
100
AcDbLine
 10
1614.500009
 20
846.0000009999999
 30
0.0
 11
1614.500009
 21
826.0000009999999
 31
0.0
  0
LINE
  5
30A
330
1F
100
AcDbEntity
  8
Ｓ_１_１
  6
CONTINUOUS
 62
     3
100
AcDbLine
 10
1895.499999
 20
845.9999910000001
 30
0.0
 11
1897.499995
 21
843.9999950000001
 31
0.0
  0
LINE
  5
30B
330
1F
100
AcDbEntity
  8
Ｓ_１_１
  6
CONTINUOUS
 62
     3
100
AcDbLine
 10
1614.500009
 20
826.0000009999999
 30
0.0
 11
1672.500001
 21
826.0000009999999
 31
0.0
  0
LINE
  5
30C
330
1F
100
AcDbEntity
  8
Ｓ_１_１
  6
CONTINUOUS
 62
     3
100
AcDbLine
 10
1614.500009
 20
846.0000009999999
 30
0.0
 11
1672.500001
 21
846.0000009999999
 31
0.0
  0
LINE
  5
30D
330
1F
100
AcDbEntity
  8
Ｓ_１_１
  6
CONTINUOUS
 62
     3
100
AcDbLine
 10
1895.5
 20
826.0000009999999
 30
0.0
 11
1837.499999
 21
826.0000009999999
 31
0.0
  0
LINE
  5
30E
330
1F
100
AcDbEntity
  8
Ｓ_１_１
  6
CONTINUOUS
 62
     3
100
AcDbLine
 10
1895.499989
 20
825.9999980000003
 30
0.0
 11
1897.499988
 21
827.9999980000002
 31
0.0
  0
LINE
  5
30F
330
1F
100
AcDbEntity
  8
Ｓ_１_１
  6
CONTINUOUS
 62
     3
100
AcDbLine
 10
1895.5
 20
846.0000009999999
 30
0.0
 11
1837.499999
 21
846.0000009999999
 31
0.0
  0
LINE
  5
310
330
1F
100
AcDbEntity
  8
Ｓ_１_１
  6
CONTINUOUS
 62
     3
100
AcDbLine
 10
1672.500001
 20
818.9999939999998
 30
0.0
 11
1837.499999
 21
818.9999939999998
 31
0.0
  0
LINE
  5
311
330
1F
100
AcDbEntity
  8
Ｓ_１_１
  6
CONTINUOUS
 62
     3
100
AcDbLine
 10
1614.5
 20
845.9999859999999
 30
0.0
 11
1612.500009
 21
843.9999950000001
 31
0.0
  0
LINE
  5
312
330
1F
100
AcDbEntity
  8
Ｓ_１_１
  6
CONTINUOUS
 62
     3
100
AcDbLine
 10
1834.999999
 20
1012.000002
 30
0.0
 11
1834.999999
 21
1035.999979
 31
0.0
  0
LINE
  5
313
330
1F
100
AcDbEntity
  8
Ｓ_１_１
  6
CONTINUOUS
 62
     3
100
AcDbLine
 10
1835.00002
 20
1012.000028
 30
0.0
 11
1832.000014
 21
1009.000022
 31
0.0
  0
LINE
  5
314
330
1F
100
AcDbEntity
  8
Ｓ_１_１
  6
CONTINUOUS
 62
     3
100
AcDbLine
 10
1834.99996
 20
1035.999969
 30
0.0
 11
1831.999968
 21
1038.999962
 31
0.0
  0
LINE
  5
315
330
1F
100
AcDbEntity
  8
Ｓ_１_１
  6
CONTINUOUS
 62
     3
100
AcDbLine
 10
1824.282042
 20
766.0000019999998
 30
0.0
 11
1842.999998
 21
766.0000019999998
 31
0.0
  0
LINE
  5
316
330
1F
100
AcDbEntity
  8
Ｓ_１_１
  6
CONTINUOUS
 62
     3
100
AcDbLine
 10
1755.0
 20
746.0000019999998
 30
0.0
 11
1829.999999
 21
746.0000019999998
 31
0.0
  0
LINE
  5
317
330
1F
100
AcDbEntity
  8
Ｓ_１_１
  6
CONTINUOUS
 62
     3
100
AcDbLine
 10
1829.999999
 20
766.0000019999998
 30
0.0
 11
1829.999999
 21
746.0000019999998
 31
0.0
  0
LINE
  5
318
330
1F
100
AcDbEntity
  8
Ｓ_１_１
  6
CONTINUOUS
 62
     3
100
AcDbLine
 10
1665.000001
 20
763.9999939999998
 30
0.0
 11
1755.0
 21
763.9999939999998
 31
0.0
  0
LINE
  5
319
330
1F
100
AcDbEntity
  8
Ｓ_１_１
  6
CONTINUOUS
 62
     3
100
AcDbLine
 10
1842.99999
 20
765.9999929999999
 30
0.0
 11
1844.999986
 21
763.9999969999999
 31
0.0
  0
LINE
  5
31A
330
1F
100
AcDbEntity
  8
Ｓ_１_１
  6
CONTINUOUS
 62
     3
100
AcDbLine
 10
1665.000004
 20
764.000012
 30
0.0
 11
1667.000007
 21
766.0000140000002
 31
0.0
  0
LINE
  5
31B
330
1F
100
AcDbEntity
  8
Ｓ_１_１
  6
CONTINUOUS
 62
     3
100
AcDbLine
 10
1844.999998
 20
763.9999939999998
 30
0.0
 11
1844.999998
 21
665.9999990000001
 31
0.0
  0
LINE
  5
31C
330
1F
100
AcDbEntity
  8
Ｓ_１_１
  6
CONTINUOUS
 62
     3
100
AcDbLine
 10
1665.000001
 20
763.9999939999998
 30
0.0
 11
1665.000001
 21
665.9999990000001
 31
0.0
  0
LINE
  5
31D
330
1F
100
AcDbEntity
  8
Ｓ_１_１
  6
CONTINUOUS
 62
     3
100
AcDbLine
 10
1667.000018
 20
766.0000019999998
 30
0.0
 11
1824.282042
 21
766.0000019999998
 31
0.0
  0
LINE
  5
31E
330
1F
100
AcDbEntity
  8
Ｓ_１_１
  6
CONTINUOUS
 62
     3
100
AcDbLine
 10
1929.999997
 20
665.9999990000001
 30
0.0
 11
1929.999997
 21
650.0
 31
0.0
  0
LINE
  5
31F
330
1F
100
AcDbEntity
  8
Ｓ_１_１
  6
CONTINUOUS
 62
     3
100
AcDbLine
 10
1580.000002
 20
665.9999990000001
 30
0.0
 11
1580.000002
 21
650.0
 31
0.0
  0
LINE
  5
320
330
1F
100
AcDbEntity
  8
Ｓ_１_１
  6
CONTINUOUS
 62
     3
100
AcDbLine
 10
1700.000001
 20
1494.000003
 30
0.0
 11
1700.000001
 21
1430.214145
 31
0.0
  0
LINE
  5
321
330
1F
100
AcDbEntity
  8
Ｓ_１_１
  6
CONTINUOUS
 62
     3
100
AcDbLine
 10
1695.000001
 20
1565.999971
 30
0.0
 11
1695.000001
 21
1411.516254
 31
0.0
  0
LINE
  5
322
330
1F
100
AcDbEntity
  8
Ｓ_１_１
  6
CONTINUOUS
 62
     3
100
AcDbLine
 10
1580.000002
 20
665.9999990000001
 30
0.0
 11
1929.999997
 21
665.9999990000001
 31
0.0
  0
LINE
  5
323
330
1F
100
AcDbEntity
  8
Ｓ_１_１
  6
CONTINUOUS
 62
     3
100
AcDbLine
 10
2093.999991
 20
672.0
 30
0.0
 11
2093.999991
 21
650.0
 31
0.0
  0
LINE
  5
324
330
1F
100
AcDbEntity
  8
Ｓ_１_１
  6
CONTINUOUS
 62
     3
100
AcDbLine
 10
1580.000002
 20
1009.00001
 30
0.0
 11
1588.165228
 21
1009.00001
 31
0.0
  0
LINE
  5
325
330
1F
100
AcDbEntity
  8
Ｓ_１_１
  6
CONTINUOUS
 62
     3
100
AcDbLine
 10
1580.000002
 20
650.0
 30
0.0
 11
1929.999997
 21
650.0
 31
0.0
  0
LINE
  5
326
330
1F
100
AcDbEntity
  8
Ｓ_１_１
  6
EXLTYPE2
 62
     1
100
AcDbLine
 10
546.999973
 20
1213.398849
 30
0.0
 11
546.999973
 21
1023.936533
 31
0.0
  0
LINE
  5
327
330
1F
100
AcDbEntity
  8
Ｓ_１_１
  6
EXLTYPE2
 62
     1
100
AcDbLine
 10
546.999973
 20
1786.398909
 30
0.0
 11
546.999973
 21
1596.936555
 31
0.0
  0
LINE
  5
328
330
1F
100
AcDbEntity
  8
Ｓ_１_１
  6
EXLTYPE2
 62
     1
100
AcDbLine
 10
1012.999875
 20
1213.398849
 30
0.0
 11
1012.999875
 21
1023.936533
 31
0.0
  0
LINE
  5
329
330
1F
100
AcDbEntity
  8
Ｓ_１_１
  6
EXLTYPE2
 62
     1
100
AcDbLine
 10
1012.999875
 20
1786.398909
 30
0.0
 11
1012.999875
 21
1596.936555
 31
0.0
  0
LINE
  5
32A
330
1F
100
AcDbEntity
  8
Ｓ_１_１
  6
EXLTYPE2
 62
     1
100
AcDbLine
 10
693.4828969999999
 20
1064.000009
 30
0.0
 11
621.7020439999997
 21
1064.000009
 31
0.0
  0
LINE
  5
32B
330
1F
100
AcDbEntity
  8
Ｓ_１_１
  6
EXLTYPE2
 62
     1
100
AcDbLine
 10
866.5170279999998
 20
1064.000009
 30
0.0
 11
938.2978800000001
 21
1064.000009
 31
0.0
  0
LINE
  5
32C
330
1F
100
AcDbEntity
  8
Ｓ_１_１
  6
EXLTYPE2
 62
     1
100
AcDbLine
 10
618.7125429999996
 20
1265.958967
 30
0.0
 11
547.0275919999999
 21
1265.958967
 31
0.0
  0
LINE
  5
32D
330
1F
100
AcDbEntity
  8
Ｓ_１_１
  6
EXLTYPE2
 62
     1
100
AcDbLine
 10
941.2874579999999
 20
1265.958967
 30
0.0
 11
1012.972485
 21
1265.958967
 31
0.0
  0
LINE
  5
32E
330
1F
100
AcDbEntity
  8
Ｓ_１_１
  6
EXLTYPE2
 62
     1
100
AcDbLine
 10
520.4998820000001
 20
2233.954139
 30
0.0
 11
535.4998820000001
 21
2233.954139
 31
0.0
  0
LINE
  5
32F
330
1F
100
AcDbEntity
  8
Ｓ_１_１
  6
EXLTYPE2
 62
     1
100
AcDbLine
 10
527.9998820000001
 20
2241.469398
 30
0.0
 11
527.9998820000001
 21
2170.963417
 31
0.0
  0
LINE
  5
330
330
1F
100
AcDbEntity
  8
Ｓ_１_１
  6
EXLTYPE2
 62
     1
100
AcDbLine
 10
520.4998820000001
 20
962.4999950000001
 30
0.0
 11
535.4998820000001
 21
962.4999950000001
 31
0.0
  0
LINE
  5
331
330
1F
100
AcDbEntity
  8
Ｓ_１_１
  6
EXLTYPE2
 62
     1
100
AcDbLine
 10
527.9998820000001
 20
970.0151780000001
 30
0.0
 11
527.9998820000001
 21
899.5093120000001
 31
0.0
  0
LINE
  5
332
330
1F
100
AcDbEntity
  8
Ｓ_１_１
  6
EXLTYPE2
 62
     1
100
AcDbLine
 10
780.0
 20
1583.981691
 30
0.0
 11
780.0
 21
630.7576770000001
 31
0.0
  0
LINE
  5
333
330
1F
100
AcDbEntity
  8
Ｓ_１_１
  6
EXLTYPE2
 62
     1
100
AcDbLine
 10
719.6022809999995
 20
793.5000019999998
 30
0.0
 11
647.8523279999999
 21
793.5000019999998
 31
0.0
  0
LINE
  5
334
330
1F
100
AcDbEntity
  8
Ｓ_１_１
  6
EXLTYPE2
 62
     1
100
AcDbLine
 10
840.3974909999997
 20
793.5000019999998
 30
0.0
 11
912.1475199999995
 21
793.5000019999998
 31
0.0
  0
LINE
  5
335
330
1F
100
AcDbEntity
  8
Ｓ_１_１
  6
EXLTYPE2
 62
     1
100
AcDbLine
 10
502.7980090000001
 20
2208.954139
 30
0.0
 11
1031.346585
 21
2208.954139
 31
0.0
  0
LINE
  5
336
330
1F
100
AcDbEntity
  8
Ｓ_１_１
  6
EXLTYPE2
 62
     1
100
AcDbLine
 10
633.2225060000001
 20
1024.00001
 30
0.0
 11
703.3132189999995
 21
1024.00001
 31
0.0
  0
LINE
  5
337
330
1F
100
AcDbEntity
  8
Ｓ_１_１
  6
EXLTYPE2
 62
     1
100
AcDbLine
 10
858.233108
 20
1024.00001
 30
0.0
 11
887.762831
 21
1024.00001
 31
0.0
  0
LINE
  5
338
330
1F
100
AcDbEntity
  8
Ｓ_１_１
  6
EXLTYPE2
 62
     1
100
AcDbLine
 10
481.7765089999998
 20
937.499996
 30
0.0
 11
1074.3782
 21
937.499996
 31
0.0
  0
LINE
  5
339
330
1F
100
AcDbEntity
  8
Ｓ_１_１
  6
EXLTYPE2
 62
     1
100
AcDbLine
 10
633.2225060000001
 20
836.0000009999999
 30
0.0
 11
706.7224139999998
 21
836.0000009999999
 31
0.0
  0
LINE
  5
33A
330
1F
100
AcDbEntity
  8
Ｓ_１_１
  6
EXLTYPE2
 62
     1
100
AcDbLine
 10
855.3974909999997
 20
836.0000009999999
 30
0.0
 11
927.1475199999995
 21
836.0000009999999
 31
0.0
  0
LINE
  5
33B
330
1F
100
AcDbEntity
  8
Ｓ_１_１
  6
EXLTYPE2
 62
     1
100
AcDbLine
 10
767.5000009999999
 20
836.0000009999999
 30
0.0
 11
792.5
 21
836.0000009999999
 31
0.0
  0
LINE
  5
33C
330
1F
100
AcDbEntity
  8
Ｓ_１_１
  6
EXLTYPE0
 62
     2
100
AcDbLine
 10
607.0001249999996
 20
1245.958968
 30
0.0
 11
557.0001259999999
 21
1245.958968
 31
0.0
  0
LINE
  5
33D
330
1F
100
AcDbEntity
  8
Ｓ_１_１
  6
EXLTYPE0
 62
     2
100
AcDbLine
 10
607.0001249999996
 20
1285.959005
 30
0.0
 11
557.0001259999999
 21
1285.959005
 31
0.0
  0
LINE
  5
33E
330
1F
100
AcDbEntity
  8
Ｓ_１_１
  6
EXLTYPE0
 62
     2
100
AcDbLine
 10
952.9998759999999
 20
1245.958968
 30
0.0
 11
1002.999875
 21
1245.958968
 31
0.0
  0
LINE
  5
33F
330
1F
100
AcDbEntity
  8
Ｓ_１_１
  6
EXLTYPE0
 62
     2
100
AcDbLine
 10
952.9998759999999
 20
1285.959005
 30
0.0
 11
1002.999875
 21
1285.959005
 31
0.0
  0
LINE
  5
340
330
1F
100
AcDbEntity
  8
Ｓ_１_１
  6
EXLTYPE0
 62
     2
100
AcDbLine
 10
661.9999719999996
 20
2188.95414
 30
0.0
 11
897.9998769999997
 21
2188.95414
 31
0.0
  0
LINE
  5
341
330
1F
100
AcDbEntity
  8
Ｓ_１_１
  6
EXLTYPE0
 62
     2
100
AcDbLine
 10
661.9999719999996
 20
2228.954139
 30
0.0
 11
897.9998769999997
 21
2228.954139
 31
0.0
  0
LINE
  5
342
330
1F
100
AcDbEntity
  8
Ｓ_１_１
  6
EXLTYPE0
 62
     2
100
AcDbLine
 10
843.499832
 20
874.999996
 30
0.0
 11
843.499832
 21
999.9999950000001
 31
0.0
  0
LINE
  5
343
330
1F
100
AcDbEntity
  8
Ｓ_１_１
  6
EXLTYPE0
 62
     2
100
AcDbLine
 10
716.5000169999998
 20
874.999996
 30
0.0
 11
716.5000169999998
 21
999.9999950000001
 31
0.0
  0
LINE
  5
344
330
1F
100
AcDbEntity
  8
Ｓ_１_１
  6
EXLTYPE0
 62
     2
100
AcDbLine
 10
837.5
 20
874.999996
 30
0.0
 11
837.5
 21
999.9999950000001
 31
0.0
  0
LINE
  5
345
330
1F
100
AcDbEntity
  8
Ｓ_１_１
  6
EXLTYPE0
 62
     2
100
AcDbLine
 10
842.5
 20
874.999996
 30
0.0
 11
842.5
 21
999.9999950000001
 31
0.0
  0
LINE
  5
346
330
1F
100
AcDbEntity
  8
Ｓ_１_１
  6
EXLTYPE0
 62
     2
100
AcDbLine
 10
722.5000009999999
 20
874.999996
 30
0.0
 11
722.5000009999999
 21
999.9999950000001
 31
0.0
  0
LINE
  5
347
330
1F
100
AcDbEntity
  8
Ｓ_１_１
  6
EXLTYPE0
 62
     2
100
AcDbLine
 10
717.5000009999999
 20
874.999996
 30
0.0
 11
717.5000009999999
 21
999.9999950000001
 31
0.0
  0
POLYLINE
  5
348
330
1F
100
AcDbEntity
  8
Ｓ_１_１
  6
CONTINUOUS
 62
     3
100
AcDb2dPolyline
 66
     1
 10
0.0
 20
0.0
 30
0.0
 70
   128
  0
VERTEX
  5
349
330
348
100
AcDbEntity
  8
Ｓ_１_１
  6
CONTINUOUS
 62
     3
100
AcDbVertex
100
AcDb2dVertex
 10
872.5617210000001
 20
1033.940958
 30
0.0
  0
VERTEX
  5
34A
330
348
100
AcDbEntity
  8
Ｓ_１_１
  6
CONTINUOUS
 62
     3
100
AcDbVertex
100
AcDb2dVertex
 10
872.7009799999996
 20
1033.752266
 30
0.0
  0
VERTEX
  5
34B
330
348
100
AcDbEntity
  8
Ｓ_１_１
  6
CONTINUOUS
 62
     3
100
AcDbVertex
100
AcDb2dVertex
 10
872.8380429999999
 20
1033.561503
 30
0.0
  0
VERTEX
  5
34C
330
348
100
AcDbEntity
  8
Ｓ_１_１
  6
CONTINUOUS
 62
     3
100
AcDbVertex
100
AcDb2dVertex
 10
872.9727209999996
 20
1033.368692
 30
0.0
  0
VERTEX
  5
34D
330
348
100
AcDbEntity
  8
Ｓ_１_１
  6
CONTINUOUS
 62
     3
100
AcDbVertex
100
AcDb2dVertex
 10
873.1048289999999
 20
1033.173855
 30
0.0
  0
VERTEX
  5
34E
330
348
100
AcDbEntity
  8
Ｓ_１_１
  6
CONTINUOUS
 62
     3
100
AcDbVertex
100
AcDb2dVertex
 10
873.2341779999997
 20
1032.977016
 30
0.0
  0
VERTEX
  5
34F
330
348
100
AcDbEntity
  8
Ｓ_１_１
  6
CONTINUOUS
 62
     3
100
AcDbVertex
100
AcDb2dVertex
 10
873.3605829999997
 20
1032.778197
 30
0.0
  0
VERTEX
  5
350
330
348
100
AcDbEntity
  8
Ｓ_１_１
  6
CONTINUOUS
 62
     3
100
AcDbVertex
100
AcDb2dVertex
 10
873.4838569999997
 20
1032.577421
 30
0.0
  0
VERTEX
  5
351
330
348
100
AcDbEntity
  8
Ｓ_１_１
  6
CONTINUOUS
 62
     3
100
AcDbVertex
100
AcDb2dVertex
 10
873.603811
 20
1032.37471
 30
0.0
  0
VERTEX
  5
352
330
348
100
AcDbEntity
  8
Ｓ_１_１
  6
CONTINUOUS
 62
     3
100
AcDbVertex
100
AcDb2dVertex
 10
873.72026
 20
1032.170088
 30
0.0
  0
VERTEX
  5
353
330
348
100
AcDbEntity
  8
Ｓ_１_１
  6
CONTINUOUS
 62
     3
100
AcDbVertex
100
AcDb2dVertex
 10
873.8330159999996
 20
1031.963576
 30
0.0
  0
VERTEX
  5
354
330
348
100
AcDbEntity
  8
Ｓ_１_１
  6
CONTINUOUS
 62
     3
100
AcDbVertex
100
AcDb2dVertex
 10
873.9418919999998
 20
1031.755198
 30
0.0
  0
VERTEX
  5
355
330
348
100
AcDbEntity
  8
Ｓ_１_１
  6
CONTINUOUS
 62
     3
100
AcDbVertex
100
AcDb2dVertex
 10
874.0467019999996
 20
1031.544976
 30
0.0
  0
VERTEX
  5
356
330
348
100
AcDbEntity
  8
Ｓ_１_１
  6
CONTINUOUS
 62
     3
100
AcDbVertex
100
AcDb2dVertex
 10
874.1472589999998
 20
1031.332933
 30
0.0
  0
VERTEX
  5
357
330
348
100
AcDbEntity
  8
Ｓ_１_１
  6
CONTINUOUS
 62
     3
100
AcDbVertex
100
AcDb2dVertex
 10
874.243375
 20
1031.119092
 30
0.0
  0
VERTEX
  5
358
330
348
100
AcDbEntity
  8
Ｓ_１_１
  6
CONTINUOUS
 62
     3
100
AcDbVertex
100
AcDb2dVertex
 10
874.3348639999999
 20
1030.903475
 30
0.0
  0
VERTEX
  5
359
330
348
100
AcDbEntity
  8
Ｓ_１_１
  6
CONTINUOUS
 62
     3
100
AcDbVertex
100
AcDb2dVertex
 10
874.4215379999997
 20
1030.686106
 30
0.0
  0
VERTEX
  5
35A
330
348
100
AcDbEntity
  8
Ｓ_１_１
  6
CONTINUOUS
 62
     3
100
AcDbVertex
100
AcDb2dVertex
 10
874.4955929999998
 20
1030.488351
 30
0.0
  0
VERTEX
  5
35B
330
348
100
AcDbEntity
  8
Ｓ_１_１
  6
CONTINUOUS
 62
     3
100
AcDbVertex
100
AcDb2dVertex
 10
874.5659149999997
 20
1030.289302
 30
0.0
  0
VERTEX
  5
35C
330
348
100
AcDbEntity
  8
Ｓ_１_１
  6
CONTINUOUS
 62
     3
100
AcDbVertex
100
AcDb2dVertex
 10
874.6328489999996
 20
1030.089072
 30
0.0
  0
VERTEX
  5
35D
330
348
100
AcDbEntity
  8
Ｓ_１_１
  6
CONTINUOUS
 62
     3
100
AcDbVertex
100
AcDb2dVertex
 10
874.69674
 20
1029.887778
 30
0.0
  0
VERTEX
  5
35E
330
348
100
AcDbEntity
  8
Ｓ_１_１
  6
CONTINUOUS
 62
     3
100
AcDbVertex
100
AcDb2dVertex
 10
874.7579319999995
 20
1029.685536
 30
0.0
  0
VERTEX
  5
35F
330
348
100
AcDbEntity
  8
Ｓ_１_１
  6
CONTINUOUS
 62
     3
100
AcDbVertex
100
AcDb2dVertex
 10
874.8167699999999
 20
1029.48246
 30
0.0
  0
VERTEX
  5
360
330
348
100
AcDbEntity
  8
Ｓ_１_１
  6
CONTINUOUS
 62
     3
100
AcDbVertex
100
AcDb2dVertex
 10
874.8735989999996
 20
1029.278666
 30
0.0
  0
VERTEX
  5
361
330
348
100
AcDbEntity
  8
Ｓ_１_１
  6
CONTINUOUS
 62
     3
100
AcDbVertex
100
AcDb2dVertex
 10
874.9287649999997
 20
1029.07427
 30
0.0
  0
VERTEX
  5
362
330
348
100
AcDbEntity
  8
Ｓ_１_１
  6
CONTINUOUS
 62
     3
100
AcDbVertex
100
AcDb2dVertex
 10
874.9826109999999
 20
1028.869388
 30
0.0
  0
VERTEX
  5
363
330
348
100
AcDbEntity
  8
Ｓ_１_１
  6
CONTINUOUS
 62
     3
100
AcDbVertex
100
AcDb2dVertex
 10
875.0354829999998
 20
1028.664134
 30
0.0
  0
VERTEX
  5
364
330
348
100
AcDbEntity
  8
Ｓ_１_１
  6
CONTINUOUS
 62
     3
100
AcDbVertex
100
AcDb2dVertex
 10
875.0877249999999
 20
1028.458625
 30
0.0
  0
VERTEX
  5
365
330
348
100
AcDbEntity
  8
Ｓ_１_１
  6
CONTINUOUS
 62
     3
100
AcDbVertex
100
AcDb2dVertex
 10
875.139682
 20
1028.252976
 30
0.0
  0
VERTEX
  5
366
330
348
100
AcDbEntity
  8
Ｓ_１_１
  6
CONTINUOUS
 62
     3
100
AcDbVertex
100
AcDb2dVertex
 10
875.1916999999999
 20
1028.047303
 30
0.0
  0
VERTEX
  5
367
330
348
100
AcDbEntity
  8
Ｓ_１_１
  6
CONTINUOUS
 62
     3
100
AcDbVertex
100
AcDb2dVertex
 10
875.244123
 20
1027.84172
 30
0.0
  0
VERTEX
  5
368
330
348
100
AcDbEntity
  8
Ｓ_１_１
  6
CONTINUOUS
 62
     3
100
AcDbVertex
100
AcDb2dVertex
 10
875.2972949999998
 20
1027.636345
 30
0.0
  0
VERTEX
  5
369
330
348
100
AcDbEntity
  8
Ｓ_１_１
  6
CONTINUOUS
 62
     3
100
AcDbVertex
100
AcDb2dVertex
 10
875.3515619999998
 20
1027.431292
 30
0.0
  0
VERTEX
  5
36A
330
348
100
AcDbEntity
  8
Ｓ_１_１
  6
CONTINUOUS
 62
     3
100
AcDbVertex
100
AcDb2dVertex
 10
875.4071779999999
 20
1027.22665
 30
0.0
  0
VERTEX
  5
36B
330
348
100
AcDbEntity
  8
Ｓ_１_１
  6
CONTINUOUS
 62
     3
100
AcDbVertex
100
AcDb2dVertex
 10
875.46404
 20
1027.022399
 30
0.0
  0
VERTEX
  5
36C
330
348
100
AcDbEntity
  8
Ｓ_１_１
  6
CONTINUOUS
 62
     3
100
AcDbVertex
100
AcDb2dVertex
 10
875.5219529999999
 20
1026.818489
 30
0.0
  0
VERTEX
  5
36D
330
348
100
AcDbEntity
  8
Ｓ_１_１
  6
CONTINUOUS
 62
     3
100
AcDbVertex
100
AcDb2dVertex
 10
875.5807199999999
 20
1026.614872
 30
0.0
  0
VERTEX
  5
36E
330
348
100
AcDbEntity
  8
Ｓ_１_１
  6
CONTINUOUS
 62
     3
100
AcDbVertex
100
AcDb2dVertex
 10
875.6401470000001
 20
1026.411498
 30
0.0
  0
VERTEX
  5
36F
330
348
100
AcDbEntity
  8
Ｓ_１_１
  6
CONTINUOUS
 62
     3
100
AcDbVertex
100
AcDb2dVertex
 10
875.700038
 20
1026.208318
 30
0.0
  0
VERTEX
  5
370
330
348
100
AcDbEntity
  8
Ｓ_１_１
  6
CONTINUOUS
 62
     3
100
AcDbVertex
100
AcDb2dVertex
 10
875.760198
 20
1026.005284
 30
0.0
  0
VERTEX
  5
371
330
348
100
AcDbEntity
  8
Ｓ_１_１
  6
CONTINUOUS
 62
     3
100
AcDbVertex
100
AcDb2dVertex
 10
875.8204309999996
 20
1025.802347
 30
0.0
  0
VERTEX
  5
372
330
348
100
AcDbEntity
  8
Ｓ_１_１
  6
CONTINUOUS
 62
     3
100
AcDbVertex
100
AcDb2dVertex
 10
875.8805429999998
 20
1025.599458
 30
0.0
  0
VERTEX
  5
373
330
348
100
AcDbEntity
  8
Ｓ_１_１
  6
CONTINUOUS
 62
     3
100
AcDbVertex
100
AcDb2dVertex
 10
875.9403379999999
 20
1025.396569
 30
0.0
  0
VERTEX
  5
374
330
348
100
AcDbEntity
  8
Ｓ_１_１
  6
CONTINUOUS
 62
     3
100
AcDbVertex
100
AcDb2dVertex
 10
875.9996199999996
 20
1025.193629
 30
0.0
  0
VERTEX
  5
375
330
348
100
AcDbEntity
  8
Ｓ_１_１
  6
CONTINUOUS
 62
     3
100
AcDbVertex
100
AcDb2dVertex
 10
876.0581939999997
 20
1024.990591
 30
0.0
  0
VERTEX
  5
376
330
348
100
AcDbEntity
  8
Ｓ_１_１
  6
CONTINUOUS
 62
     3
100
AcDbVertex
100
AcDb2dVertex
 10
876.1158659999996
 20
1024.787406
 30
0.0
  0
VERTEX
  5
377
330
348
100
AcDbEntity
  8
Ｓ_１_１
  6
CONTINUOUS
 62
     3
100
AcDbVertex
100
AcDb2dVertex
 10
876.172439
 20
1024.584025
 30
0.0
  0
VERTEX
  5
378
330
348
100
AcDbEntity
  8
Ｓ_１_１
  6
CONTINUOUS
 62
     3
100
AcDbVertex
100
AcDb2dVertex
 10
876.2277179999996
 20
1024.380398
 30
0.0
  0
VERTEX
  5
379
330
348
100
AcDbEntity
  8
Ｓ_１_１
  6
CONTINUOUS
 62
     3
100
AcDbVertex
100
AcDb2dVertex
 10
876.2815080000001
 20
1024.176477
 30
0.0
  0
VERTEX
  5
37A
330
348
100
AcDbEntity
  8
Ｓ_１_１
  6
CONTINUOUS
 62
     3
100
AcDbVertex
100
AcDb2dVertex
 10
876.3251639999999
 20
1024.005832
 30
0.0
  0
VERTEX
  5
37B
330
348
100
AcDbEntity
  8
Ｓ_１_１
  6
CONTINUOUS
 62
     3
100
AcDbVertex
100
AcDb2dVertex
 10
876.3675069999999
 20
1023.834903
 30
0.0
  0
VERTEX
  5
37C
330
348
100
AcDbEntity
  8
Ｓ_１_１
  6
CONTINUOUS
 62
     3
100
AcDbVertex
100
AcDb2dVertex
 10
876.4084020000001
 20
1023.663643
 30
0.0
  0
VERTEX
  5
37D
330
348
100
AcDbEntity
  8
Ｓ_１_１
  6
CONTINUOUS
 62
     3
100
AcDbVertex
100
AcDb2dVertex
 10
876.4477119999998
 20
1023.492009
 30
0.0
  0
VERTEX
  5
37E
330
348
100
AcDbEntity
  8
Ｓ_１_１
  6
CONTINUOUS
 62
     3
100
AcDbVertex
100
AcDb2dVertex
 10
876.485303
 20
1023.319954
 30
0.0
  0
VERTEX
  5
37F
330
348
100
AcDbEntity
  8
Ｓ_１_１
  6
CONTINUOUS
 62
     3
100
AcDbVertex
100
AcDb2dVertex
 10
876.521037
 20
1023.147434
 30
0.0
  0
VERTEX
  5
380
330
348
100
AcDbEntity
  8
Ｓ_１_１
  6
CONTINUOUS
 62
     3
100
AcDbVertex
100
AcDb2dVertex
 10
876.5547799999999
 20
1022.974402
 30
0.0
  0
VERTEX
  5
381
330
348
100
AcDbEntity
  8
Ｓ_１_１
  6
CONTINUOUS
 62
     3
100
AcDbVertex
100
AcDb2dVertex
 10
876.5863959999997
 20
1022.800814
 30
0.0
  0
VERTEX
  5
382
330
348
100
AcDbEntity
  8
Ｓ_１_１
  6
CONTINUOUS
 62
     3
100
AcDbVertex
100
AcDb2dVertex
 10
876.6157479999998
 20
1022.626624
 30
0.0
  0
VERTEX
  5
383
330
348
100
AcDbEntity
  8
Ｓ_１_１
  6
CONTINUOUS
 62
     3
100
AcDbVertex
100
AcDb2dVertex
 10
876.6427019999998
 20
1022.451788
 30
0.0
  0
VERTEX
  5
384
330
348
100
AcDbEntity
  8
Ｓ_１_１
  6
CONTINUOUS
 62
     3
100
AcDbVertex
100
AcDb2dVertex
 10
876.667121
 20
1022.276258
 30
0.0
  0
VERTEX
  5
385
330
348
100
AcDbEntity
  8
Ｓ_１_１
  6
CONTINUOUS
 62
     3
100
AcDbVertex
100
AcDb2dVertex
 10
876.68887
 20
1022.099991
 30
0.0
  0
VERTEX
  5
386
330
348
100
AcDbEntity
  8
Ｓ_１_１
  6
CONTINUOUS
 62
     3
100
AcDbVertex
100
AcDb2dVertex
 10
876.7078119999996
 20
1021.92294
 30
0.0
  0
VERTEX
  5
387
330
348
100
AcDbEntity
  8
Ｓ_１_１
  6
CONTINUOUS
 62
     3
100
AcDbVertex
100
AcDb2dVertex
 10
876.7238119999997
 20
1021.745062
 30
0.0
  0
VERTEX
  5
388
330
348
100
AcDbEntity
  8
Ｓ_１_１
  6
CONTINUOUS
 62
     3
100
AcDbVertex
100
AcDb2dVertex
 10
876.7367350000001
 20
1021.566309
 30
0.0
  0
VERTEX
  5
389
330
348
100
AcDbEntity
  8
Ｓ_１_１
  6
CONTINUOUS
 62
     3
100
AcDbVertex
100
AcDb2dVertex
 10
876.7464439999999
 20
1021.386637
 30
0.0
  0
VERTEX
  5
38A
330
348
100
AcDbEntity
  8
Ｓ_１_１
  6
CONTINUOUS
 62
     3
100
AcDbVertex
100
AcDb2dVertex
 10
876.7529059999998
 20
1021.207894
 30
0.0
  0
VERTEX
  5
38B
330
348
100
AcDbEntity
  8
Ｓ_１_１
  6
CONTINUOUS
 62
     3
100
AcDbVertex
100
AcDb2dVertex
 10
876.7568539999997
 20
1021.028476
 30
0.0
  0
VERTEX
  5
38C
330
348
100
AcDbEntity
  8
Ｓ_１_１
  6
CONTINUOUS
 62
     3
100
AcDbVertex
100
AcDb2dVertex
 10
876.7590569999999
 20
1020.848651
 30
0.0
  0
VERTEX
  5
38D
330
348
100
AcDbEntity
  8
Ｓ_１_１
  6
CONTINUOUS
 62
     3
100
AcDbVertex
100
AcDb2dVertex
 10
876.7602859999997
 20
1020.668689
 30
0.0
  0
VERTEX
  5
38E
330
348
100
AcDbEntity
  8
Ｓ_１_１
  6
CONTINUOUS
 62
     3
100
AcDbVertex
100
AcDb2dVertex
 10
876.7613079999996
 20
1020.488862
 30
0.0
  0
VERTEX
  5
38F
330
348
100
AcDbEntity
  8
Ｓ_１_１
  6
CONTINUOUS
 62
     3
100
AcDbVertex
100
AcDb2dVertex
 10
876.7628930000001
 20
1020.309437
 30
0.0
  0
VERTEX
  5
390
330
348
100
AcDbEntity
  8
Ｓ_１_１
  6
CONTINUOUS
 62
     3
100
AcDbVertex
100
AcDb2dVertex
 10
876.76581
 20
1020.130686
 30
0.0
  0
VERTEX
  5
391
330
348
100
AcDbEntity
  8
Ｓ_１_１
  6
CONTINUOUS
 62
     3
100
AcDbVertex
100
AcDb2dVertex
 10
876.7708279999997
 20
1019.952878
 30
0.0
  0
VERTEX
  5
392
330
348
100
AcDbEntity
  8
Ｓ_１_１
  6
CONTINUOUS
 62
     3
100
AcDbVertex
100
AcDb2dVertex
 10
876.7787169999997
 20
1019.776283
 30
0.0
  0
VERTEX
  5
393
330
348
100
AcDbEntity
  8
Ｓ_１_１
  6
CONTINUOUS
 62
     3
100
AcDbVertex
100
AcDb2dVertex
 10
876.7902449999997
 20
1019.601171
 30
0.0
  0
VERTEX
  5
394
330
348
100
AcDbEntity
  8
Ｓ_１_１
  6
CONTINUOUS
 62
     3
100
AcDbVertex
100
AcDb2dVertex
 10
876.806181
 20
1019.427812
 30
0.0
  0
VERTEX
  5
395
330
348
100
AcDbEntity
  8
Ｓ_１_１
  6
CONTINUOUS
 62
     3
100
AcDbVertex
100
AcDb2dVertex
 10
876.8272959999999
 20
1019.256476
 30
0.0
  0
VERTEX
  5
396
330
348
100
AcDbEntity
  8
Ｓ_１_１
  6
CONTINUOUS
 62
     3
100
AcDbVertex
100
AcDb2dVertex
 10
876.8543559999998
 20
1019.087433
 30
0.0
  0
VERTEX
  5
397
330
348
100
AcDbEntity
  8
Ｓ_１_１
  6
CONTINUOUS
 62
     3
100
AcDbVertex
100
AcDb2dVertex
 10
876.8881329999999
 20
1018.920952
 30
0.0
  0
VERTEX
  5
398
330
348
100
AcDbEntity
  8
Ｓ_１_１
  6
CONTINUOUS
 62
     3
100
AcDbVertex
100
AcDb2dVertex
 10
876.9293949999997
 20
1018.757304
 30
0.0
  0
VERTEX
  5
399
330
348
100
AcDbEntity
  8
Ｓ_１_１
  6
CONTINUOUS
 62
     3
100
AcDbVertex
100
AcDb2dVertex
 10
876.9789109999997
 20
1018.596758
 30
0.0
  0
VERTEX
  5
39A
330
348
100
AcDbEntity
  8
Ｓ_１_１
  6
CONTINUOUS
 62
     3
100
AcDbVertex
100
AcDb2dVertex
 10
877.0424020000002
 20
1018.426598
 30
0.0
  0
VERTEX
  5
39B
330
348
100
AcDbEntity
  8
Ｓ_１_１
  6
CONTINUOUS
 62
     3
100
AcDbVertex
100
AcDb2dVertex
 10
877.1155059999996
 20
1018.259938
 30
0.0
  0
VERTEX
  5
39C
330
348
100
AcDbEntity
  8
Ｓ_１_１
  6
CONTINUOUS
 62
     3
100
AcDbVertex
100
AcDb2dVertex
 10
877.1972539999997
 20
1018.09632
 30
0.0
  0
VERTEX
  5
39D
330
348
100
AcDbEntity
  8
Ｓ_１_１
  6
CONTINUOUS
 62
     3
100
AcDbVertex
100
AcDb2dVertex
 10
877.2866799999997
 20
1017.935292
 30
0.0
  0
VERTEX
  5
39E
330
348
100
AcDbEntity
  8
Ｓ_１_１
  6
CONTINUOUS
 62
     3
100
AcDbVertex
100
AcDb2dVertex
 10
877.3828149999999
 20
1017.776399
 30
0.0
  0
VERTEX
  5
39F
330
348
100
AcDbEntity
  8
Ｓ_１_１
  6
CONTINUOUS
 62
     3
100
AcDbVertex
100
AcDb2dVertex
 10
877.4846929999999
 20
1017.619185
 30
0.0
  0
VERTEX
  5
3A0
330
348
100
AcDbEntity
  8
Ｓ_１_１
  6
CONTINUOUS
 62
     3
100
AcDbVertex
100
AcDb2dVertex
 10
877.5913449999998
 20
1017.463196
 30
0.0
  0
VERTEX
  5
3A1
330
348
100
AcDbEntity
  8
Ｓ_１_１
  6
CONTINUOUS
 62
     3
100
AcDbVertex
100
AcDb2dVertex
 10
877.7018049999998
 20
1017.307977
 30
0.0
  0
VERTEX
  5
3A2
330
348
100
AcDbEntity
  8
Ｓ_１_１
  6
CONTINUOUS
 62
     3
100
AcDbVertex
100
AcDb2dVertex
 10
877.8151029999999
 20
1017.153073
 30
0.0
  0
VERTEX
  5
3A3
330
348
100
AcDbEntity
  8
Ｓ_１_１
  6
CONTINUOUS
 62
     3
100
AcDbVertex
100
AcDb2dVertex
 10
877.930273
 20
1016.99803
 30
0.0
  0
VERTEX
  5
3A4
330
348
100
AcDbEntity
  8
Ｓ_１_１
  6
CONTINUOUS
 62
     3
100
AcDbVertex
100
AcDb2dVertex
 10
878.0463479999999
 20
1016.842394
 30
0.0
  0
VERTEX
  5
3A5
330
348
100
AcDbEntity
  8
Ｓ_１_１
  6
CONTINUOUS
 62
     3
100
AcDbVertex
100
AcDb2dVertex
 10
878.1623579999996
 20
1016.685708
 30
0.0
  0
VERTEX
  5
3A6
330
348
100
AcDbEntity
  8
Ｓ_１_１
  6
CONTINUOUS
 62
     3
100
AcDbVertex
100
AcDb2dVertex
 10
878.2773379999999
 20
1016.527519
 30
0.0
  0
VERTEX
  5
3A7
330
348
100
AcDbEntity
  8
Ｓ_１_１
  6
CONTINUOUS
 62
     3
100
AcDbVertex
100
AcDb2dVertex
 10
878.3903190000001
 20
1016.367372
 30
0.0
  0
VERTEX
  5
3A8
330
348
100
AcDbEntity
  8
Ｓ_１_１
  6
CONTINUOUS
 62
     3
100
AcDbVertex
100
AcDb2dVertex
 10
878.5003330000001
 20
1016.204812
 30
0.0
  0
VERTEX
  5
3A9
330
348
100
AcDbEntity
  8
Ｓ_１_１
  6
CONTINUOUS
 62
     3
100
AcDbVertex
100
AcDb2dVertex
 10
878.6064139999999
 20
1016.039385
 30
0.0
  0
VERTEX
  5
3AA
330
348
100
AcDbEntity
  8
Ｓ_１_１
  6
CONTINUOUS
 62
     3
100
AcDbVertex
100
AcDb2dVertex
 10
878.6739049999996
 20
1015.928555
 30
0.0
  0
VERTEX
  5
3AB
330
348
100
AcDbEntity
  8
Ｓ_１_１
  6
CONTINUOUS
 62
     3
100
AcDbVertex
100
AcDb2dVertex
 10
878.7397609999999
 20
1015.816749
 30
0.0
  0
VERTEX
  5
3AC
330
348
100
AcDbEntity
  8
Ｓ_１_１
  6
CONTINUOUS
 62
     3
100
AcDbVertex
100
AcDb2dVertex
 10
878.8044789999999
 20
1015.704438
 30
0.0
  0
VERTEX
  5
3AD
330
348
100
AcDbEntity
  8
Ｓ_１_１
  6
CONTINUOUS
 62
     3
100
AcDbVertex
100
AcDb2dVertex
 10
878.8685569999998
 20
1015.59209
 30
0.0
  0
VERTEX
  5
3AE
330
348
100
AcDbEntity
  8
Ｓ_１_１
  6
CONTINUOUS
 62
     3
100
AcDbVertex
100
AcDb2dVertex
 10
878.9324929999998
 20
1015.480175
 30
0.0
  0
VERTEX
  5
3AF
330
348
100
AcDbEntity
  8
Ｓ_１_１
  6
CONTINUOUS
 62
     3
100
AcDbVertex
100
AcDb2dVertex
 10
878.9967859999997
 20
1015.369164
 30
0.0
  0
VERTEX
  5
3B0
330
348
100
AcDbEntity
  8
Ｓ_１_１
  6
CONTINUOUS
 62
     3
100
AcDbVertex
100
AcDb2dVertex
 10
879.0619309999997
 20
1015.259524
 30
0.0
  0
VERTEX
  5
3B1
330
348
100
AcDbEntity
  8
Ｓ_１_１
  6
CONTINUOUS
 62
     3
100
AcDbVertex
100
AcDb2dVertex
 10
879.1284289999999
 20
1015.151726
 30
0.0
  0
VERTEX
  5
3B2
330
348
100
AcDbEntity
  8
Ｓ_１_１
  6
CONTINUOUS
 62
     3
100
AcDbVertex
100
AcDb2dVertex
 10
879.1967769999997
 20
1015.04624
 30
0.0
  0
VERTEX
  5
3B3
330
348
100
AcDbEntity
  8
Ｓ_１_１
  6
CONTINUOUS
 62
     3
100
AcDbVertex
100
AcDb2dVertex
 10
879.2674719999997
 20
1014.943535
 30
0.0
  0
VERTEX
  5
3B4
330
348
100
AcDbEntity
  8
Ｓ_１_１
  6
CONTINUOUS
 62
     3
100
AcDbVertex
100
AcDb2dVertex
 10
879.3410129999997
 20
1014.84408
 30
0.0
  0
VERTEX
  5
3B5
330
348
100
AcDbEntity
  8
Ｓ_１_１
  6
CONTINUOUS
 62
     3
100
AcDbVertex
100
AcDb2dVertex
 10
879.4178969999998
 20
1014.748345
 30
0.0
  0
VERTEX
  5
3B6
330
348
100
AcDbEntity
  8
Ｓ_１_１
  6
CONTINUOUS
 62
     3
100
AcDbVertex
100
AcDb2dVertex
 10
879.4986230000001
 20
1014.6568
 30
0.0
  0
VERTEX
  5
3B7
330
348
100
AcDbEntity
  8
Ｓ_１_１
  6
CONTINUOUS
 62
     3
100
AcDbVertex
100
AcDb2dVertex
 10
879.5836879999997
 20
1014.569914
 30
0.0
  0
VERTEX
  5
3B8
330
348
100
AcDbEntity
  8
Ｓ_１_１
  6
CONTINUOUS
 62
     3
100
AcDbVertex
100
AcDb2dVertex
 10
879.6735899999999
 20
1014.488156
 30
0.0
  0
VERTEX
  5
3B9
330
348
100
AcDbEntity
  8
Ｓ_１_１
  6
CONTINUOUS
 62
     3
100
AcDbVertex
100
AcDb2dVertex
 10
879.7688279999998
 20
1014.411997
 30
0.0
  0
VERTEX
  5
3BA
330
348
100
AcDbEntity
  8
Ｓ_１_１
  6
CONTINUOUS
 62
     3
100
AcDbVertex
100
AcDb2dVertex
 10
879.8313369999996
 20
1014.367351
 30
0.0
  0
VERTEX
  5
3BB
330
348
100
AcDbEntity
  8
Ｓ_１_１
  6
CONTINUOUS
 62
     3
100
AcDbVertex
100
AcDb2dVertex
 10
879.8959669999999
 20
1014.32503
 30
0.0
  0
VERTEX
  5
3BC
330
348
100
AcDbEntity
  8
Ｓ_１_１
  6
CONTINUOUS
 62
     3
100
AcDbVertex
100
AcDb2dVertex
 10
879.9625529999998
 20
1014.284982
 30
0.0
  0
VERTEX
  5
3BD
330
348
100
AcDbEntity
  8
Ｓ_１_１
  6
CONTINUOUS
 62
     3
100
AcDbVertex
100
AcDb2dVertex
 10
880.0309289999996
 20
1014.247152
 30
0.0
  0
VERTEX
  5
3BE
330
348
100
AcDbEntity
  8
Ｓ_１_１
  6
CONTINUOUS
 62
     3
100
AcDbVertex
100
AcDb2dVertex
 10
880.1009329999997
 20
1014.211489
 30
0.0
  0
VERTEX
  5
3BF
330
348
100
AcDbEntity
  8
Ｓ_１_１
  6
CONTINUOUS
 62
     3
100
AcDbVertex
100
AcDb2dVertex
 10
880.1723979999997
 20
1014.17794
 30
0.0
  0
VERTEX
  5
3C0
330
348
100
AcDbEntity
  8
Ｓ_１_１
  6
CONTINUOUS
 62
     3
100
AcDbVertex
100
AcDb2dVertex
 10
880.2451609999998
 20
1014.146451
 30
0.0
  0
VERTEX
  5
3C1
330
348
100
AcDbEntity
  8
Ｓ_１_１
  6
CONTINUOUS
 62
     3
100
AcDbVertex
100
AcDb2dVertex
 10
880.3190569999998
 20
1014.116969
 30
0.0
  0
VERTEX
  5
3C2
330
348
100
AcDbEntity
  8
Ｓ_１_１
  6
CONTINUOUS
 62
     3
100
AcDbVertex
100
AcDb2dVertex
 10
880.3939199999996
 20
1014.089441
 30
0.0
  0
VERTEX
  5
3C3
330
348
100
AcDbEntity
  8
Ｓ_１_１
  6
CONTINUOUS
 62
     3
100
AcDbVertex
100
AcDb2dVertex
 10
880.4695869999996
 20
1014.063815
 30
0.0
  0
VERTEX
  5
3C4
330
348
100
AcDbEntity
  8
Ｓ_１_１
  6
CONTINUOUS
 62
     3
100
AcDbVertex
100
AcDb2dVertex
 10
880.545893
 20
1014.040038
 30
0.0
  0
VERTEX
  5
3C5
330
348
100
AcDbEntity
  8
Ｓ_１_１
  6
CONTINUOUS
 62
     3
100
AcDbVertex
100
AcDb2dVertex
 10
880.6226729999998
 20
1014.018056
 30
0.0
  0
VERTEX
  5
3C6
330
348
100
AcDbEntity
  8
Ｓ_１_１
  6
CONTINUOUS
 62
     3
100
AcDbVertex
100
AcDb2dVertex
 10
880.6997629999996
 20
1013.997817
 30
0.0
  0
VERTEX
  5
3C7
330
348
100
AcDbEntity
  8
Ｓ_１_１
  6
CONTINUOUS
 62
     3
100
AcDbVertex
100
AcDb2dVertex
 10
880.7769979999998
 20
1013.979267
 30
0.0
  0
VERTEX
  5
3C8
330
348
100
AcDbEntity
  8
Ｓ_１_１
  6
CONTINUOUS
 62
     3
100
AcDbVertex
100
AcDb2dVertex
 10
880.8542119999998
 20
1013.962353
 30
0.0
  0
VERTEX
  5
3C9
330
348
100
AcDbEntity
  8
Ｓ_１_１
  6
CONTINUOUS
 62
     3
100
AcDbVertex
100
AcDb2dVertex
 10
880.931243
 20
1013.947024
 30
0.0
  0
SEQEND
  5
3CA
330
348
100
AcDbEntity
  8
Ｓ_１_１
  6
CONTINUOUS
 62
     3
  0
ARC
  5
3CB
330
1F
100
AcDbEntity
  8
Ｓ_１_１
  6
CONTINUOUS
 62
     3
100
AcDbCircle
 10
546.999973
 20
1609.942002
 30
0.0
 40
10.0
100
AcDbArc
 50
179.999991
 51
0.0
  0
ARC
  5
3CC
330
1F
100
AcDbEntity
  8
Ｓ_１_１
  6
CONTINUOUS
 62
     3
100
AcDbCircle
 10
546.999973
 20
1036.94198
 30
0.0
 40
10.0
100
AcDbArc
 50
179.999991
 51
0.0
  0
ARC
  5
3CD
330
1F
100
AcDbEntity
  8
Ｓ_１_１
  6
CONTINUOUS
 62
     3
100
AcDbCircle
 10
546.999973
 20
1773.809035
 30
0.0
 40
10.0
100
AcDbArc
 50
0.0
 51
180.000005
  0
ARC
  5
3CE
330
1F
100
AcDbEntity
  8
Ｓ_１_１
  6
CONTINUOUS
 62
     3
100
AcDbCircle
 10
546.999973
 20
1200.809127
 30
0.0
 40
10.0
100
AcDbArc
 50
0.0
 51
180.000005
  0
ARC
  5
3CF
330
1F
100
AcDbEntity
  8
Ｓ_１_１
  6
CONTINUOUS
 62
     3
100
AcDbCircle
 10
1012.999875
 20
1036.94198
 30
0.0
 40
10.0
100
AcDbArc
 50
179.999991
 51
0.0
  0
ARC
  5
3D0
330
1F
100
AcDbEntity
  8
Ｓ_１_１
  6
CONTINUOUS
 62
     3
100
AcDbCircle
 10
1012.999875
 20
1200.809127
 30
0.0
 40
10.0
100
AcDbArc
 50
0.0
 51
180.000005
  0
ARC
  5
3D1
330
1F
100
AcDbEntity
  8
Ｓ_１_１
  6
CONTINUOUS
 62
     3
100
AcDbCircle
 10
1012.999875
 20
1609.942002
 30
0.0
 40
10.0
100
AcDbArc
 50
179.999991
 51
0.0
  0
ARC
  5
3D2
330
1F
100
AcDbEntity
  8
Ｓ_１_１
  6
CONTINUOUS
 62
     3
100
AcDbCircle
 10
1012.999875
 20
1773.809035
 30
0.0
 40
10.0
100
AcDbArc
 50
0.0
 51
180.000005
  0
CIRCLE
  5
3D3
330
1F
100
AcDbEntity
  8
Ｓ_１_１
  6
CONTINUOUS
 62
     3
100
AcDbCircle
 10
527.9998820000001
 20
2233.954139
 30
0.0
 40
5.0
  0
CIRCLE
  5
3D4
330
1F
100
AcDbEntity
  8
Ｓ_１_１
  6
CONTINUOUS
 62
     3
100
AcDbCircle
 10
527.9998820000001
 20
962.4999950000001
 30
0.0
 40
5.0
  0
ARC
  5
3D5
330
1F
100
AcDbEntity
  8
Ｓ_１_１
  6
CONTINUOUS
 62
     3
100
AcDbCircle
 10
694.2999279999999
 20
880.6999740000001
 30
0.0
 40
5.7
100
AcDbArc
 50
269.999997
 51
0.0
  0
ARC
  5
3D6
330
1F
100
AcDbEntity
  8
Ｓ_１_１
  6
CONTINUOUS
 62
     3
100
AcDbCircle
 10
631.4998649999998
 20
993.499979
 30
0.0
 40
2.0
100
AcDbArc
 50
90.000003
 51
180.000005
  0
ARC
  5
3D7
330
1F
100
AcDbEntity
  8
Ｓ_１_１
  6
CONTINUOUS
 62
     3
100
AcDbCircle
 10
693.4999859999997
 20
993.499979
 30
0.0
 40
2.0
100
AcDbArc
 50
0.0
 51
90.000003
  0
ARC
  5
3D8
330
1F
100
AcDbEntity
  8
Ｓ_１_１
  6
CONTINUOUS
 62
     3
100
AcDbCircle
 10
631.4998649999998
 20
881.4999929999999
 30
0.0
 40
2.0
100
AcDbArc
 50
179.999991
 51
270.0000010000001
  0
ARC
  5
3D9
330
1F
100
AcDbEntity
  8
Ｓ_１_１
  6
CONTINUOUS
 62
     3
100
AcDbCircle
 10
630.6999230000001
 20
994.299998
 30
0.0
 40
5.7
100
AcDbArc
 50
90.000003
 51
180.000005
  0
ARC
  5
3DA
330
1F
100
AcDbEntity
  8
Ｓ_１_１
  6
CONTINUOUS
 62
     3
100
AcDbCircle
 10
630.6999230000001
 20
880.6999740000001
 30
0.0
 40
5.7
100
AcDbArc
 50
179.999991
 51
270.0000010000001
  0
ARC
  5
3DB
330
1F
100
AcDbEntity
  8
Ｓ_１_１
  6
CONTINUOUS
 62
     3
100
AcDbCircle
 10
694.2999279999999
 20
994.299998
 30
0.0
 40
5.7
100
AcDbArc
 50
0.0
 51
90.000003
  0
ARC
  5
3DC
330
1F
100
AcDbEntity
  8
Ｓ_１_１
  6
CONTINUOUS
 62
     3
100
AcDbCircle
 10
693.4999859999997
 20
881.4999929999999
 30
0.0
 40
2.0
100
AcDbArc
 50
269.999997
 51
0.0
  0
ARC
  5
3DD
330
1F
100
AcDbEntity
  8
Ｓ_１_１
  6
CONTINUOUS
 62
     3
100
AcDbCircle
 10
928.4999069999999
 20
881.4999929999999
 30
0.0
 40
2.0
100
AcDbArc
 50
269.999997
 51
0.0
  0
ARC
  5
3DE
330
1F
100
AcDbEntity
  8
Ｓ_１_１
  6
CONTINUOUS
 62
     3
100
AcDbCircle
 10
866.499938
 20
993.499979
 30
0.0
 40
2.0
100
AcDbArc
 50
90.000003
 51
180.000005
  0
ARC
  5
3DF
330
1F
100
AcDbEntity
  8
Ｓ_１_１
  6
CONTINUOUS
 62
     3
100
AcDbCircle
 10
928.4999069999999
 20
993.499979
 30
0.0
 40
2.0
100
AcDbArc
 50
0.0
 51
90.000003
  0
ARC
  5
3E0
330
1F
100
AcDbEntity
  8
Ｓ_１_１
  6
CONTINUOUS
 62
     3
100
AcDbCircle
 10
865.6999200000001
 20
880.6999740000001
 30
0.0
 40
5.7
100
AcDbArc
 50
179.999991
 51
270.0000010000001
  0
ARC
  5
3E1
330
1F
100
AcDbEntity
  8
Ｓ_１_１
  6
CONTINUOUS
 62
     3
100
AcDbCircle
 10
866.499938
 20
881.4999929999999
 30
0.0
 40
2.0
100
AcDbArc
 50
179.999991
 51
270.0000010000001
  0
ARC
  5
3E2
330
1F
100
AcDbEntity
  8
Ｓ_１_１
  6
CONTINUOUS
 62
     3
100
AcDbCircle
 10
865.6999200000001
 20
994.299998
 30
0.0
 40
5.7
100
AcDbArc
 50
90.000003
 51
180.000005
  0
ARC
  5
3E3
330
1F
100
AcDbEntity
  8
Ｓ_１_１
  6
CONTINUOUS
 62
     3
100
AcDbCircle
 10
929.2999249999998
 20
880.6999740000001
 30
0.0
 40
5.7
100
AcDbArc
 50
269.999997
 51
0.0
  0
ARC
  5
3E4
330
1F
100
AcDbEntity
  8
Ｓ_１_１
  6
CONTINUOUS
 62
     3
100
AcDbCircle
 10
929.2999249999998
 20
994.299998
 30
0.0
 40
5.7
100
AcDbArc
 50
0.0
 51
90.000003
  0
CIRCLE
  5
3E5
330
1F
100
AcDbEntity
  8
Ｓ_１_１
  6
CONTINUOUS
 62
     3
100
AcDbCircle
 10
780.0
 20
836.0000009999999
 30
0.0
 40
8.0
  0
CIRCLE
  5
3E6
330
1F
100
AcDbEntity
  8
Ｓ_１_１
  6
CONTINUOUS
 62
     3
100
AcDbCircle
 10
780.0
 20
836.0000009999999
 30
0.0
 40
10.0
  0
LINE
  5
3E7
330
1F
100
AcDbEntity
  8
Ｓ_１_１
  6
CONTINUOUS
 62
     3
100
AcDbLine
 10
661.9999719999996
 20
2183.95414
 30
0.0
 11
897.9998769999997
 21
2183.95414
 31
0.0
  0
LINE
  5
3E8
330
1F
100
AcDbEntity
  8
Ｓ_１_１
  6
CONTINUOUS
 62
     3
100
AcDbLine
 10
661.9999719999996
 20
2233.954139
 30
0.0
 11
897.9998769999997
 21
2233.954139
 31
0.0
  0
LINE
  5
3E9
330
1F
100
AcDbEntity
  8
Ｓ_１_１
  6
CONTINUOUS
 62
     3
100
AcDbLine
 10
722.499973
 20
1494.000001
 30
0.0
 11
717.499973
 21
1502.660254
 31
0.0
  0
LINE
  5
3EA
330
1F
100
AcDbEntity
  8
Ｓ_１_１
  6
CONTINUOUS
 62
     3
100
AcDbLine
 10
837.5000249999999
 20
1493.999973
 30
0.0
 11
842.5000249999999
 21
1502.660227
 31
0.0
  0
LINE
  5
3EB
330
1F
100
AcDbEntity
  8
Ｓ_１_１
  6
CONTINUOUS
 62
     3
100
AcDbLine
 10
717.5000009999999
 20
1565.999971
 30
0.0
 11
842.5
 21
1565.999971
 31
0.0
  0
LINE
  5
3EC
330
1F
100
AcDbEntity
  8
Ｓ_１_１
  6
CONTINUOUS
 62
     3
100
AcDbLine
 10
839.4999789999997
 20
1569.000017
 30
0.0
 11
842.5000249999999
 21
1565.999971
 31
0.0
  0
LINE
  5
3ED
330
1F
100
AcDbEntity
  8
Ｓ_１_１
  6
CONTINUOUS
 62
     3
100
AcDbLine
 10
720.5000069999996
 20
1568.999975
 30
0.0
 11
717.5000019999997
 21
1565.999969
 31
0.0
  0
LINE
  5
3EE
330
1F
100
AcDbEntity
  8
Ｓ_１_１
  6
CONTINUOUS
 62
     3
100
AcDbLine
 10
717.5000009999999
 20
1494.000003
 30
0.0
 11
842.5
 21
1494.000003
 31
0.0
  0
LINE
  5
3EF
330
1F
100
AcDbEntity
  8
Ｓ_１_１
  6
CONTINUOUS
 62
     3
100
AcDbLine
 10
924.9999979999998
 20
1084.000009
 30
0.0
 11
930.9999829999998
 21
1084.000009
 31
0.0
  0
LINE
  5
3F0
330
1F
100
AcDbEntity
  8
Ｓ_１_１
  6
CONTINUOUS
 62
     3
100
AcDbLine
 10
924.9999979999998
 20
1044.000009
 30
0.0
 11
930.9999829999998
 21
1044.000009
 31
0.0
  0
LINE
  5
3F1
330
1F
100
AcDbEntity
  8
Ｓ_１_１
  6
CONTINUOUS
 62
     3
100
AcDbLine
 10
930.9999829999998
 20
1084.000009
 30
0.0
 11
930.9999829999998
 21
1044.000009
 31
0.0
  0
LINE
  5
3F2
330
1F
100
AcDbEntity
  8
Ｓ_１_１
  6
CONTINUOUS
 62
     3
100
AcDbLine
 10
871.999969
 20
1084.000009
 30
0.0
 11
871.999969
 21
1044.000009
 31
0.0
  0
LINE
  5
3F3
330
1F
100
AcDbEntity
  8
Ｓ_１_１
  6
CONTINUOUS
 62
     3
100
AcDbLine
 10
871.999969
 20
1084.000009
 30
0.0
 11
886.9999680000001
 21
1084.000009
 31
0.0
  0
LINE
  5
3F4
330
1F
100
AcDbEntity
  8
Ｓ_１_１
  6
CONTINUOUS
 62
     3
100
AcDbLine
 10
871.999969
 20
1044.000009
 30
0.0
 11
886.9999680000001
 21
1044.000009
 31
0.0
  0
LINE
  5
3F5
330
1F
100
AcDbEntity
  8
Ｓ_１_１
  6
CONTINUOUS
 62
     3
100
AcDbLine
 10
688.0000319999999
 20
1084.000009
 30
0.0
 11
673.0000329999998
 21
1084.000009
 31
0.0
  0
LINE
  5
3F6
330
1F
100
AcDbEntity
  8
Ｓ_１_１
  6
CONTINUOUS
 62
     3
100
AcDbLine
 10
688.0000319999999
 20
1044.000009
 30
0.0
 11
673.0000329999998
 21
1044.000009
 31
0.0
  0
LINE
  5
3F7
330
1F
100
AcDbEntity
  8
Ｓ_１_１
  6
CONTINUOUS
 62
     3
100
AcDbLine
 10
635.0000030000001
 20
1084.000009
 30
0.0
 11
629.0000179999997
 21
1084.000009
 31
0.0
  0
LINE
  5
3F8
330
1F
100
AcDbEntity
  8
Ｓ_１_１
  6
CONTINUOUS
 62
     3
100
AcDbLine
 10
635.0000030000001
 20
1044.000009
 30
0.0
 11
629.0000179999997
 21
1044.000009
 31
0.0
  0
LINE
  5
3F9
330
1F
100
AcDbEntity
  8
Ｓ_１_１
  6
CONTINUOUS
 62
     3
100
AcDbLine
 10
952.9998759999999
 20
2270.198035
 30
0.0
 11
1002.999875
 21
2270.198035
 31
0.0
  0
LINE
  5
3FA
330
1F
100
AcDbEntity
  8
Ｓ_１_１
  6
CONTINUOUS
 62
     3
100
AcDbLine
 10
556.999973
 20
2270.198035
 30
0.0
 11
606.999973
 21
2270.198035
 31
0.0
  0
LINE
  5
3FB
330
1F
100
AcDbEntity
  8
Ｓ_１_１
  6
CONTINUOUS
 62
     3
100
AcDbLine
 10
607.0001249999996
 20
876.2805330000001
 30
0.0
 11
557.0001259999999
 21
876.2805330000001
 31
0.0
  0
LINE
  5
3FC
330
1F
100
AcDbEntity
  8
Ｓ_１_１
  6
CONTINUOUS
 62
     3
100
AcDbLine
 10
607.0001249999996
 20
902.1138529999998
 30
0.0
 11
557.0001259999999
 21
902.1138529999998
 31
0.0
  0
LINE
  5
3FD
330
1F
100
AcDbEntity
  8
Ｓ_１_１
  6
CONTINUOUS
 62
     3
100
AcDbLine
 10
561.5000949999999
 20
897.6138650000003
 30
0.0
 11
561.5000949999999
 21
880.780522
 31
0.0
  0
LINE
  5
3FE
330
1F
100
AcDbEntity
  8
Ｓ_１_１
  6
CONTINUOUS
 62
     3
100
AcDbLine
 10
602.5001560000001
 20
897.6138650000003
 30
0.0
 11
561.5000949999999
 21
897.6138650000003
 31
0.0
  0
LINE
  5
3FF
330
1F
100
AcDbEntity
  8
Ｓ_１_１
  6
CONTINUOUS
 62
     3
100
AcDbLine
 10
602.5001560000001
 20
897.6138650000003
 30
0.0
 11
602.5001560000001
 21
880.780522
 31
0.0
  0
LINE
  5
400
330
1F
100
AcDbEntity
  8
Ｓ_１_１
  6
CONTINUOUS
 62
     3
100
AcDbLine
 10
602.5001560000001
 20
880.780522
 30
0.0
 11
561.5000949999999
 21
880.780522
 31
0.0
  0
LINE
  5
401
330
1F
100
AcDbEntity
  8
Ｓ_１_１
  6
CONTINUOUS
 62
     3
100
AcDbLine
 10
957.4998449999998
 20
897.6138650000003
 30
0.0
 11
998.4999060000001
 21
897.6138650000003
 31
0.0
  0
LINE
  5
402
330
1F
100
AcDbEntity
  8
Ｓ_１_１
  6
CONTINUOUS
 62
     3
100
AcDbLine
 10
957.4998449999998
 20
880.780522
 30
0.0
 11
998.4999060000001
 21
880.780522
 31
0.0
  0
LINE
  5
403
330
1F
100
AcDbEntity
  8
Ｓ_１_１
  6
CONTINUOUS
 62
     3
100
AcDbLine
 10
952.9998759999999
 20
876.2805330000001
 30
0.0
 11
1002.999875
 21
876.2805330000001
 31
0.0
  0
LINE
  5
404
330
1F
100
AcDbEntity
  8
Ｓ_１_１
  6
CONTINUOUS
 62
     3
100
AcDbLine
 10
952.9998759999999
 20
902.1138529999998
 30
0.0
 11
1002.999875
 21
902.1138529999998
 31
0.0
  0
LINE
  5
405
330
1F
100
AcDbEntity
  8
Ｓ_１_１
  6
CONTINUOUS
 62
     3
100
AcDbLine
 10
661.9999719999996
 20
2248.954139
 30
0.0
 11
646.8634059999995
 21
2248.954139
 31
0.0
  0
LINE
  5
406
330
1F
100
AcDbEntity
  8
Ｓ_１_１
  6
CONTINUOUS
 62
     3
100
AcDbLine
 10
897.9998769999997
 20
2248.954139
 30
0.0
 11
913.9998609999998
 21
2248.954139
 31
0.0
  0
LINE
  5
407
330
1F
100
AcDbEntity
  8
Ｓ_１_１
  6
CONTINUOUS
 62
     3
100
AcDbLine
 10
661.9999719999996
 20
2268.954138
 30
0.0
 11
646.8634059999995
 21
2268.954138
 31
0.0
  0
LINE
  5
408
330
1F
100
AcDbEntity
  8
Ｓ_１_１
  6
CONTINUOUS
 62
     3
100
AcDbLine
 10
897.9998769999997
 20
2268.954138
 30
0.0
 11
913.9998609999998
 21
2268.954138
 31
0.0
  0
LINE
  5
409
330
1F
100
AcDbEntity
  8
Ｓ_１_１
  6
CONTINUOUS
 62
     3
100
AcDbLine
 10
897.9998769999997
 20
1039.000009
 30
0.0
 11
913.9998609999998
 21
1039.000009
 31
0.0
  0
LINE
  5
40A
330
1F
100
AcDbEntity
  8
Ｓ_１_１
  6
CONTINUOUS
 62
     3
100
AcDbLine
 10
897.9998769999997
 20
1019.00001
 30
0.0
 11
913.9998609999998
 21
1019.00001
 31
0.0
  0
LINE
  5
40B
330
1F
100
AcDbEntity
  8
Ｓ_１_１
  6
CONTINUOUS
 62
     3
100
AcDbLine
 10
998.4999060000001
 20
897.6138650000003
 30
0.0
 11
998.4999060000001
 21
880.780522
 31
0.0
  0
LINE
  5
40C
330
1F
100
AcDbEntity
  8
Ｓ_１_１
  6
CONTINUOUS
 62
     3
100
AcDbLine
 10
957.4998449999998
 20
897.6138650000003
 30
0.0
 11
957.4998449999998
 21
880.780522
 31
0.0
  0
LINE
  5
40D
330
1F
100
AcDbEntity
  8
Ｓ_１_１
  6
CONTINUOUS
 62
     3
100
AcDbLine
 10
629.4998959999998
 20
917.499996
 30
0.0
 11
695.4998799999998
 21
917.499996
 31
0.0
  0
LINE
  5
40E
330
1F
100
AcDbEntity
  8
Ｓ_１_１
  6
CONTINUOUS
 62
     3
100
AcDbLine
 10
616.0001400000001
 20
892.499996
 30
0.0
 11
607.0001249999996
 21
892.499996
 31
0.0
  0
LINE
  5
40F
330
1F
100
AcDbEntity
  8
Ｓ_１_１
  6
CONTINUOUS
 62
     3
100
AcDbLine
 10
616.0001400000001
 20
982.4999950000001
 30
0.0
 11
607.0001249999996
 21
982.4999950000001
 31
0.0
  0
LINE
  5
410
330
1F
100
AcDbEntity
  8
Ｓ_１_１
  6
CONTINUOUS
 62
     3
100
AcDbLine
 10
557.0001259999999
 20
982.4999950000001
 30
0.0
 11
548.0001109999998
 21
982.4999950000001
 31
0.0
  0
LINE
  5
411
330
1F
100
AcDbEntity
  8
Ｓ_１_１
  6
CONTINUOUS
 62
     3
100
AcDbLine
 10
557.0001259999999
 20
892.499996
 30
0.0
 11
548.0001109999998
 21
892.499996
 31
0.0
  0
LINE
  5
412
330
1F
100
AcDbEntity
  8
Ｓ_１_１
  6
CONTINUOUS
 62
     3
100
AcDbLine
 10
943.9998609999998
 20
982.4999950000001
 30
0.0
 11
952.9998759999999
 21
982.4999950000001
 31
0.0
  0
LINE
  5
413
330
1F
100
AcDbEntity
  8
Ｓ_１_１
  6
CONTINUOUS
 62
     3
100
AcDbLine
 10
1002.999875
 20
982.4999950000001
 30
0.0
 11
1011.99989
 21
982.4999950000001
 31
0.0
  0
LINE
  5
414
330
1F
100
AcDbEntity
  8
Ｓ_１_１
  6
CONTINUOUS
 62
     3
100
AcDbLine
 10
1002.999875
 20
892.499996
 30
0.0
 11
1011.99989
 21
892.499996
 31
0.0
  0
LINE
  5
415
330
1F
100
AcDbEntity
  8
Ｓ_１_１
  6
CONTINUOUS
 62
     3
100
AcDbLine
 10
943.9998609999998
 20
892.499996
 30
0.0
 11
952.9998759999999
 21
892.499996
 31
0.0
  0
LINE
  5
416
330
1F
100
AcDbEntity
  8
Ｓ_１_１
  6
CONTINUOUS
 62
     3
100
AcDbLine
 10
644.0000179999996
 20
1014.00001
 30
0.0
 11
644.0000179999996
 21
1009.00001
 31
0.0
  0
LINE
  5
417
330
1F
100
AcDbEntity
  8
Ｓ_１_１
  6
CONTINUOUS
 62
     3
100
AcDbLine
 10
664.0000169999998
 20
1014.00001
 30
0.0
 11
664.0000169999998
 21
1009.00001
 31
0.0
  0
LINE
  5
418
330
1F
100
AcDbEntity
  8
Ｓ_１_１
  6
CONTINUOUS
 62
     3
100
AcDbLine
 10
673.0000329999998
 20
1014.00001
 30
0.0
 11
673.0000329999998
 21
1009.00001
 31
0.0
  0
LINE
  5
419
330
1F
100
AcDbEntity
  8
Ｓ_１_１
  6
CONTINUOUS
 62
     3
100
AcDbLine
 10
1017.999875
 20
2228.954139
 30
0.0
 11
1022.999875
 21
2228.954139
 31
0.0
  0
LINE
  5
41A
330
1F
100
AcDbEntity
  8
Ｓ_１_１
  6
CONTINUOUS
 62
     3
100
AcDbLine
 10
536.9999739999998
 20
1200.809127
 30
0.0
 11
536.9999739999998
 21
1036.94198
 31
0.0
  0
LINE
  5
41B
330
1F
100
AcDbEntity
  8
Ｓ_１_１
  6
CONTINUOUS
 62
     3
100
AcDbLine
 10
536.9999739999998
 20
1773.809035
 30
0.0
 11
536.9999739999998
 21
1609.942002
 31
0.0
  0
LINE
  5
41C
330
1F
100
AcDbEntity
  8
Ｓ_１_１
  6
CONTINUOUS
 62
     3
100
AcDbLine
 10
1022.999875
 20
1200.809127
 30
0.0
 11
1022.999875
 21
1036.94198
 31
0.0
  0
LINE
  5
41D
330
1F
100
AcDbEntity
  8
Ｓ_１_１
  6
CONTINUOUS
 62
     3
100
AcDbLine
 10
1022.999875
 20
1773.809035
 30
0.0
 11
1022.999875
 21
1609.942002
 31
0.0
  0
LINE
  5
41E
330
1F
100
AcDbEntity
  8
Ｓ_１_１
  6
CONTINUOUS
 62
     3
100
AcDbLine
 10
664.0000169999998
 20
1049.000009
 30
0.0
 11
661.9999719999996
 21
1049.000009
 31
0.0
  0
LINE
  5
41F
330
1F
100
AcDbEntity
  8
Ｓ_１_１
  6
CONTINUOUS
 62
     3
100
AcDbLine
 10
664.0000169999998
 20
1079.000009
 30
0.0
 11
661.9999719999996
 21
1079.000009
 31
0.0
  0
LINE
  5
420
330
1F
100
AcDbEntity
  8
Ｓ_１_１
  6
CONTINUOUS
 62
     3
100
AcDbLine
 10
629.0000179999997
 20
1084.000009
 30
0.0
 11
629.0000179999997
 21
1044.000009
 31
0.0
  0
LINE
  5
421
330
1F
100
AcDbEntity
  8
Ｓ_１_１
  6
CONTINUOUS
 62
     3
100
AcDbLine
 10
688.0000319999999
 20
1084.000009
 30
0.0
 11
688.0000319999999
 21
1044.000009
 31
0.0
  0
LINE
  5
422
330
1F
100
AcDbEntity
  8
Ｓ_１_１
  6
CONTINUOUS
 62
     3
100
AcDbLine
 10
673.0000329999998
 20
1104.000008
 30
0.0
 11
664.0000169999998
 21
1104.000008
 31
0.0
  0
LINE
  5
423
330
1F
100
AcDbEntity
  8
Ｓ_１_１
  6
CONTINUOUS
 62
     3
100
AcDbLine
 10
645.9999870000001
 20
2268.954138
 30
0.0
 11
645.9999870000001
 21
1034.000009
 31
0.0
  0
LINE
  5
424
330
1F
100
AcDbEntity
  8
Ｓ_１_１
  6
CONTINUOUS
 62
     3
100
AcDbLine
 10
645.9999870000001
 20
1079.000009
 30
0.0
 11
644.0000179999996
 21
1079.000009
 31
0.0
  0
LINE
  5
425
330
1F
100
AcDbEntity
  8
Ｓ_１_１
  6
CONTINUOUS
 62
     3
100
AcDbLine
 10
645.9999870000001
 20
1049.000009
 30
0.0
 11
644.0000179999996
 21
1049.000009
 31
0.0
  0
LINE
  5
426
330
1F
100
AcDbEntity
  8
Ｓ_１_１
  6
CONTINUOUS
 62
     3
100
AcDbLine
 10
644.0000179999996
 20
1104.000008
 30
0.0
 11
644.0000179999996
 21
1034.000009
 31
0.0
  0
LINE
  5
427
330
1F
100
AcDbEntity
  8
Ｓ_１_１
  6
CONTINUOUS
 62
     3
100
AcDbLine
 10
673.0000329999998
 20
1104.000008
 30
0.0
 11
673.0000329999998
 21
1034.000009
 31
0.0
  0
LINE
  5
428
330
1F
100
AcDbEntity
  8
Ｓ_１_１
  6
CONTINUOUS
 62
     3
100
AcDbLine
 10
664.0000169999998
 20
1104.000008
 30
0.0
 11
664.0000169999998
 21
1034.000009
 31
0.0
  0
LINE
  5
429
330
1F
100
AcDbEntity
  8
Ｓ_１_１
  6
CONTINUOUS
 62
     3
100
AcDbLine
 10
635.0000030000001
 20
1104.000008
 30
0.0
 11
635.0000030000001
 21
1009.00001
 31
0.0
  0
LINE
  5
42A
330
1F
100
AcDbEntity
  8
Ｓ_１_１
  6
CONTINUOUS
 62
     3
100
AcDbLine
 10
644.0000179999996
 20
1104.000008
 30
0.0
 11
635.0000030000001
 21
1104.000008
 31
0.0
  0
LINE
  5
42B
330
1F
100
AcDbEntity
  8
Ｓ_１_１
  6
CONTINUOUS
 62
     3
100
AcDbLine
 10
661.9999719999996
 20
2268.954138
 30
0.0
 11
661.9999719999996
 21
1034.000009
 31
0.0
  0
LINE
  5
42C
330
1F
100
AcDbEntity
  8
Ｓ_１_１
  6
CONTINUOUS
 62
     3
100
AcDbLine
 10
512.9998820000001
 20
957.4999950000001
 30
0.0
 11
512.9998820000001
 21
917.499996
 31
0.0
  0
LINE
  5
42D
330
1F
100
AcDbEntity
  8
Ｓ_１_１
  6
CONTINUOUS
 62
     3
100
AcDbLine
 10
507.9998829999995
 20
922.4999779999998
 30
0.0
 11
512.9998879999998
 21
917.499973
 31
0.0
  0
LINE
  5
42E
330
1F
100
AcDbEntity
  8
Ｓ_１_１
  6
CONTINUOUS
 62
     3
100
AcDbLine
 10
507.9999079999998
 20
952.5000070000001
 30
0.0
 11
512.9999129999997
 21
957.500012
 31
0.0
  0
LINE
  5
42F
330
1F
100
AcDbEntity
  8
Ｓ_１_１
  6
CONTINUOUS
 62
     3
100
AcDbLine
 10
541.999973
 20
967.4999950000001
 30
0.0
 11
541.999973
 21
907.499996
 31
0.0
  0
LINE
  5
430
330
1F
100
AcDbEntity
  8
Ｓ_１_１
  6
CONTINUOUS
 62
     3
100
AcDbLine
 10
541.999973
 20
907.499996
 30
0.0
 11
548.0000339999997
 21
907.499996
 31
0.0
  0
LINE
  5
431
330
1F
100
AcDbEntity
  8
Ｓ_１_１
  6
CONTINUOUS
 62
     3
100
AcDbLine
 10
541.999973
 20
967.4999950000001
 30
0.0
 11
548.0000339999997
 21
967.4999950000001
 31
0.0
  0
LINE
  5
432
330
1F
100
AcDbEntity
  8
Ｓ_１_１
  6
CONTINUOUS
 62
     3
100
AcDbLine
 10
512.9998820000001
 20
2228.954139
 30
0.0
 11
512.9998820000001
 21
2188.95414
 31
0.0
  0
LINE
  5
433
330
1F
100
AcDbEntity
  8
Ｓ_１_１
  6
CONTINUOUS
 62
     3
100
AcDbLine
 10
507.9998159999996
 20
2193.954135
 30
0.0
 11
512.9998209999999
 21
2188.95413
 31
0.0
  0
LINE
  5
434
330
1F
100
AcDbEntity
  8
Ｓ_１_１
  6
CONTINUOUS
 62
     3
100
AcDbLine
 10
507.9999349999998
 20
2223.954042
 30
0.0
 11
512.9999399999997
 21
2228.954047
 31
0.0
  0
LINE
  5
435
330
1F
100
AcDbEntity
  8
Ｓ_１_１
  6
CONTINUOUS
 62
     3
100
AcDbLine
 10
541.999973
 20
2238.954139
 30
0.0
 11
541.999973
 21
2178.95414
 31
0.0
  0
LINE
  5
436
330
1F
100
AcDbEntity
  8
Ｓ_１_１
  6
CONTINUOUS
 62
     3
100
AcDbLine
 10
541.999973
 20
2238.954139
 30
0.0
 11
548.0000339999997
 21
2238.954139
 31
0.0
  0
LINE
  5
437
330
1F
100
AcDbEntity
  8
Ｓ_１_１
  6
CONTINUOUS
 62
     3
100
AcDbLine
 10
541.999973
 20
2178.95414
 30
0.0
 11
548.0000339999997
 21
2178.95414
 31
0.0
  0
LINE
  5
438
330
1F
100
AcDbEntity
  8
Ｓ_１_１
  6
CONTINUOUS
 62
     3
100
AcDbLine
 10
913.9998609999998
 20
1049.000009
 30
0.0
 11
915.9999069999999
 21
1049.000009
 31
0.0
  0
LINE
  5
439
330
1F
100
AcDbEntity
  8
Ｓ_１_１
  6
CONTINUOUS
 62
     3
100
AcDbLine
 10
913.9998609999998
 20
1079.000009
 30
0.0
 11
915.9999069999999
 21
1079.000009
 31
0.0
  0
LINE
  5
43A
330
1F
100
AcDbEntity
  8
Ｓ_１_１
  6
CONTINUOUS
 62
     3
100
AcDbLine
 10
895.9999069999999
 20
1079.000009
 30
0.0
 11
897.9998769999997
 21
1079.000009
 31
0.0
  0
LINE
  5
43B
330
1F
100
AcDbEntity
  8
Ｓ_１_１
  6
CONTINUOUS
 62
     3
100
AcDbLine
 10
895.9999069999999
 20
1049.000009
 30
0.0
 11
897.9998769999997
 21
1049.000009
 31
0.0
  0
LINE
  5
43C
330
1F
100
AcDbEntity
  8
Ｓ_１_１
  6
CONTINUOUS
 62
     3
100
AcDbLine
 10
915.9999069999999
 20
1104.000008
 30
0.0
 11
924.9998459999997
 21
1104.000008
 31
0.0
  0
LINE
  5
43D
330
1F
100
AcDbEntity
  8
Ｓ_１_１
  6
CONTINUOUS
 62
     3
100
AcDbLine
 10
886.9998919999998
 20
1104.000008
 30
0.0
 11
895.9999069999999
 21
1104.000008
 31
0.0
  0
LINE
  5
43E
330
1F
100
AcDbEntity
  8
Ｓ_１_１
  6
CONTINUOUS
 62
     3
100
AcDbLine
 10
886.9998919999998
 20
1104.000008
 30
0.0
 11
886.9998919999998
 21
1009.00001
 31
0.0
  0
LINE
  5
43F
330
1F
100
AcDbEntity
  8
Ｓ_１_１
  6
CONTINUOUS
 62
     3
100
AcDbLine
 10
924.9998459999997
 20
1104.000008
 30
0.0
 11
924.9998459999997
 21
1009.00001
 31
0.0
  0
LINE
  5
440
330
1F
100
AcDbEntity
  8
Ｓ_１_１
  6
CONTINUOUS
 62
     3
100
AcDbLine
 10
915.9999069999999
 20
1104.000008
 30
0.0
 11
915.9999069999999
 21
1009.00001
 31
0.0
  0
LINE
  5
441
330
1F
100
AcDbEntity
  8
Ｓ_１_１
  6
CONTINUOUS
 62
     3
100
AcDbLine
 10
895.9999069999999
 20
1104.000008
 30
0.0
 11
895.9999069999999
 21
1009.00001
 31
0.0
  0
LINE
  5
442
330
1F
100
AcDbEntity
  8
Ｓ_１_１
  6
CONTINUOUS
 62
     3
100
AcDbLine
 10
913.9998609999998
 20
2268.954138
 30
0.0
 11
913.9998609999998
 21
1019.00001
 31
0.0
  0
LINE
  5
443
330
1F
100
AcDbEntity
  8
Ｓ_１_１
  6
CONTINUOUS
 62
     3
100
AcDbLine
 10
897.9998769999997
 20
2268.954138
 30
0.0
 11
897.9998769999997
 21
1019.00001
 31
0.0
  0
LINE
  5
444
330
1F
100
AcDbEntity
  8
Ｓ_１_１
  6
CONTINUOUS
 62
     3
100
AcDbLine
 10
636.9999719999996
 20
2098.954141
 30
0.0
 11
628.0000329999998
 21
2098.954141
 31
0.0
  0
LINE
  5
445
330
1F
100
AcDbEntity
  8
Ｓ_１_１
  6
CONTINUOUS
 62
     3
100
AcDbLine
 10
636.9999719999996
 20
2318.954138
 30
0.0
 11
628.0000329999998
 21
2318.954138
 31
0.0
  0
LINE
  5
446
330
1F
100
AcDbEntity
  8
Ｓ_１_１
  6
CONTINUOUS
 62
     3
100
AcDbLine
 10
628.0000329999998
 20
2158.95414
 30
0.0
 11
619.0000179999997
 21
2158.95414
 31
0.0
  0
LINE
  5
447
330
1F
100
AcDbEntity
  8
Ｓ_１_１
  6
CONTINUOUS
 62
     3
100
AcDbLine
 10
628.0000329999998
 20
2258.954138
 30
0.0
 11
619.0000179999997
 21
2258.954138
 31
0.0
  0
LINE
  5
448
330
1F
100
AcDbEntity
  8
Ｓ_１_１
  6
CONTINUOUS
 62
     3
100
AcDbLine
 10
645.9999870000001
 20
2158.95414
 30
0.0
 11
636.9999719999996
 21
2158.95414
 31
0.0
  0
LINE
  5
449
330
1F
100
AcDbEntity
  8
Ｓ_１_１
  6
CONTINUOUS
 62
     3
100
AcDbLine
 10
628.0000329999998
 20
2318.954138
 30
0.0
 11
628.0000329999998
 21
2098.954141
 31
0.0
  0
LINE
  5
44A
330
1F
100
AcDbEntity
  8
Ｓ_１_１
  6
CONTINUOUS
 62
     3
100
AcDbLine
 10
636.9999719999996
 20
2318.954138
 30
0.0
 11
636.9999719999996
 21
2098.954141
 31
0.0
  0
LINE
  5
44B
330
1F
100
AcDbEntity
  8
Ｓ_１_１
  6
CONTINUOUS
 62
     3
100
AcDbLine
 10
645.9999870000001
 20
2258.954138
 30
0.0
 11
636.9999719999996
 21
2258.954138
 31
0.0
  0
LINE
  5
44C
330
1F
100
AcDbEntity
  8
Ｓ_１_１
  6
CONTINUOUS
 62
     3
100
AcDbLine
 10
619.0000179999997
 20
2258.954138
 30
0.0
 11
619.0000179999997
 21
2158.95414
 31
0.0
  0
LINE
  5
44D
330
1F
100
AcDbEntity
  8
Ｓ_１_１
  6
CONTINUOUS
 62
     3
100
AcDbLine
 10
922.9999529999996
 20
2098.954141
 30
0.0
 11
931.9998909999999
 21
2098.954141
 31
0.0
  0
LINE
  5
44E
330
1F
100
AcDbEntity
  8
Ｓ_１_１
  6
CONTINUOUS
 62
     3
100
AcDbLine
 10
922.9999529999996
 20
2318.954138
 30
0.0
 11
931.9998909999999
 21
2318.954138
 31
0.0
  0
LINE
  5
44F
330
1F
100
AcDbEntity
  8
Ｓ_１_１
  6
CONTINUOUS
 62
     3
100
AcDbLine
 10
661.9999719999996
 20
2008.954142
 30
0.0
 11
897.9998769999997
 21
2008.954142
 31
0.0
  0
LINE
  5
450
330
1F
100
AcDbEntity
  8
Ｓ_１_１
  6
CONTINUOUS
 62
     3
100
AcDbLine
 10
913.9998609999998
 20
2008.954142
 30
0.0
 11
952.9998759999999
 21
2008.954142
 31
0.0
  0
LINE
  5
451
330
1F
100
AcDbEntity
  8
Ｓ_１_１
  6
CONTINUOUS
 62
     3
100
AcDbLine
 10
1002.999875
 20
2008.954142
 30
0.0
 11
1009.999844
 21
2008.954142
 31
0.0
  0
LINE
  5
452
330
1F
100
AcDbEntity
  8
Ｓ_１_１
  6
CONTINUOUS
 62
     3
100
AcDbLine
 10
606.999973
 20
2008.954142
 30
0.0
 11
645.9999870000001
 21
2008.954142
 31
0.0
  0
LINE
  5
453
330
1F
100
AcDbEntity
  8
Ｓ_１_１
  6
CONTINUOUS
 62
     3
100
AcDbLine
 10
529.9998519999999
 20
2173.757912
 30
0.0
 11
529.9998519999999
 21
2028.954142
 31
0.0
  0
LINE
  5
454
330
1F
100
AcDbEntity
  8
Ｓ_１_１
  6
CONTINUOUS
 62
     3
100
AcDbLine
 10
549.9998509999996
 20
2008.954142
 30
0.0
 11
556.999973
 21
2008.954142
 31
0.0
  0
LINE
  5
455
330
1F
100
AcDbEntity
  8
Ｓ_１_１
  6
CONTINUOUS
 62
     3
100
AcDbLine
 10
929.9999979999998
 20
1009.00001
 30
0.0
 11
929.9999979999998
 21
999.9999950000001
 31
0.0
  0
LINE
  5
456
330
1F
100
AcDbEntity
  8
Ｓ_１_１
  6
CONTINUOUS
 62
     3
100
AcDbLine
 10
557.0001259999999
 20
1225.958968
 30
0.0
 11
551.0001409999995
 21
1225.958968
 31
0.0
  0
LINE
  5
457
330
1F
100
AcDbEntity
  8
Ｓ_１_１
  6
CONTINUOUS
 62
     3
100
AcDbLine
 10
613.00011
 20
1305.959005
 30
0.0
 11
613.00011
 21
1225.958968
 31
0.0
  0
LINE
  5
458
330
1F
100
AcDbEntity
  8
Ｓ_１_１
  6
CONTINUOUS
 62
     3
100
AcDbLine
 10
551.0001409999995
 20
1305.959005
 30
0.0
 11
551.0001409999995
 21
1225.958968
 31
0.0
  0
LINE
  5
459
330
1F
100
AcDbEntity
  8
Ｓ_１_１
  6
CONTINUOUS
 62
     3
100
AcDbLine
 10
613.00011
 20
1225.958968
 30
0.0
 11
607.0001249999996
 21
1225.958968
 31
0.0
  0
LINE
  5
45A
330
1F
100
AcDbEntity
  8
Ｓ_１_１
  6
CONTINUOUS
 62
     3
100
AcDbLine
 10
613.00011
 20
1305.959005
 30
0.0
 11
607.0001249999996
 21
1305.959005
 31
0.0
  0
LINE
  5
45B
330
1F
100
AcDbEntity
  8
Ｓ_１_１
  6
CONTINUOUS
 62
     3
100
AcDbLine
 10
557.0001259999999
 20
1305.959005
 30
0.0
 11
551.0001409999995
 21
1305.959005
 31
0.0
  0
LINE
  5
45C
330
1F
100
AcDbEntity
  8
Ｓ_１_１
  6
CONTINUOUS
 62
     3
100
AcDbLine
 10
1002.999875
 20
1305.959005
 30
0.0
 11
1008.99986
 21
1305.959005
 31
0.0
  0
LINE
  5
45D
330
1F
100
AcDbEntity
  8
Ｓ_１_１
  6
CONTINUOUS
 62
     3
100
AcDbLine
 10
1002.999875
 20
1225.958968
 30
0.0
 11
1008.99986
 21
1225.958968
 31
0.0
  0
LINE
  5
45E
330
1F
100
AcDbEntity
  8
Ｓ_１_１
  6
CONTINUOUS
 62
     3
100
AcDbLine
 10
946.9998909999999
 20
1305.959005
 30
0.0
 11
946.9998909999999
 21
1225.958968
 31
0.0
  0
LINE
  5
45F
330
1F
100
AcDbEntity
  8
Ｓ_１_１
  6
CONTINUOUS
 62
     3
100
AcDbLine
 10
1008.99986
 20
1305.959005
 30
0.0
 11
1008.99986
 21
1225.958968
 31
0.0
  0
LINE
  5
460
330
1F
100
AcDbEntity
  8
Ｓ_１_１
  6
CONTINUOUS
 62
     3
100
AcDbLine
 10
946.9998909999999
 20
1225.958968
 30
0.0
 11
952.9998759999999
 21
1225.958968
 31
0.0
  0
LINE
  5
461
330
1F
100
AcDbEntity
  8
Ｓ_１_１
  6
CONTINUOUS
 62
     3
100
AcDbLine
 10
946.9998909999999
 20
1305.959005
 30
0.0
 11
952.9998759999999
 21
1305.959005
 31
0.0
  0
LINE
  5
462
330
1F
100
AcDbEntity
  8
Ｓ_１_１
  6
CONTINUOUS
 62
     3
100
AcDbLine
 10
1009.999896
 20
2008.95408
 30
0.0
 11
1029.999863
 21
2028.954049
 31
0.0
  0
LINE
  5
463
330
1F
100
AcDbEntity
  8
Ｓ_１_１
  6
CONTINUOUS
 62
     3
100
AcDbLine
 10
549.9998929999997
 20
2008.954101
 30
0.0
 11
529.9998729999998
 21
2028.954124
 31
0.0
  0
LINE
  5
464
330
1F
100
AcDbEntity
  8
Ｓ_１_１
  6
CONTINUOUS
 62
     3
100
AcDbLine
 10
1009.999813
 20
2408.954137
 30
0.0
 11
1029.999833
 21
2388.954115
 31
0.0
  0
LINE
  5
465
330
1F
100
AcDbEntity
  8
Ｓ_１_１
  6
CONTINUOUS
 62
     3
100
AcDbLine
 10
529.9998949999999
 20
2388.954082
 30
0.0
 11
549.99989
 21
2408.954075
 31
0.0
  0
LINE
  5
466
330
1F
100
AcDbEntity
  8
Ｓ_１_１
  6
CONTINUOUS
 62
     3
100
AcDbLine
 10
1029.999844
 20
2388.954137
 30
0.0
 11
1029.999844
 21
2028.954142
 31
0.0
  0
LINE
  5
467
330
1F
100
AcDbEntity
  8
Ｓ_１_１
  6
CONTINUOUS
 62
     3
100
AcDbLine
 10
529.9998519999999
 20
2388.954137
 30
0.0
 11
529.9998519999999
 21
2238.536658
 31
0.0
  0
LINE
  5
468
330
1F
100
AcDbEntity
  8
Ｓ_１_１
  6
CONTINUOUS
 62
     3
100
AcDbLine
 10
630.0000030000001
 20
1009.00001
 30
0.0
 11
929.9999979999998
 21
1009.00001
 31
0.0
  0
LINE
  5
469
330
1F
100
AcDbEntity
  8
Ｓ_１_１
  6
CONTINUOUS
 62
     3
100
AcDbLine
 10
1100.0
 20
686.0000250000003
 30
0.0
 11
1030.717969
 21
726.0000250000003
 31
0.0
  0
LINE
  5
46A
330
1F
100
AcDbEntity
  8
Ｓ_１_１
  6
CONTINUOUS
 62
     3
100
AcDbLine
 10
460.0000169999998
 20
686.00002
 30
0.0
 11
529.282048
 21
726.00002
 31
0.0
  0
LINE
  5
46B
330
1F
100
AcDbEntity
  8
Ｓ_１_１
  6
CONTINUOUS
 62
     3
100
AcDbLine
 10
1099.999996
 20
685.9999980000001
 30
0.0
 11
1099.999996
 21
665.9999990000001
 31
0.0
  0
LINE
  5
46C
330
1F
100
AcDbEntity
  8
Ｓ_１_１
  6
CONTINUOUS
 62
     3
100
AcDbLine
 10
460.0000049999999
 20
685.9999980000001
 30
0.0
 11
460.0000049999999
 21
665.9999990000001
 31
0.0
  0
LINE
  5
46D
330
1F
100
AcDbEntity
  8
Ｓ_１_１
  6
CONTINUOUS
 62
     3
100
AcDbLine
 10
529.2820779999997
 20
726.0000030000001
 30
0.0
 11
1030.717923
 21
726.0000030000001
 31
0.0
  0
LINE
  5
46E
330
1F
100
AcDbEntity
  8
Ｓ_１_１
  6
CONTINUOUS
 62
     3
100
AcDbLine
 10
430.0000059999998
 20
665.9999990000001
 30
0.0
 11
430.0000059999998
 21
650.0
 31
0.0
  0
LINE
  5
46F
330
1F
100
AcDbEntity
  8
Ｓ_１_１
  6
CONTINUOUS
 62
     3
100
AcDbLine
 10
1129.999995
 20
665.9999990000001
 30
0.0
 11
1129.999995
 21
650.0
 31
0.0
  0
LINE
  5
470
330
1F
100
AcDbEntity
  8
Ｓ_１_１
  6
CONTINUOUS
 62
     3
100
AcDbLine
 10
522.9998669999995
 20
2178.954171
 30
0.0
 11
525.8866769999995
 21
2173.954069
 31
0.0
  0
LINE
  5
471
330
1F
100
AcDbEntity
  8
Ｓ_１_１
  6
CONTINUOUS
 62
     3
100
AcDbLine
 10
532.9999819999998
 20
2178.954141
 30
0.0
 11
530.1132479999997
 21
2173.954172
 31
0.0
  0
LINE
  5
472
330
1F
100
AcDbEntity
  8
Ｓ_１_１
  6
CONTINUOUS
 62
     3
100
AcDbLine
 10
525.886692
 20
2173.95414
 30
0.0
 11
530.1131479999999
 21
2173.95414
 31
0.0
  0
LINE
  5
473
330
1F
100
AcDbEntity
  8
Ｓ_１_１
  6
CONTINUOUS
 62
     3
100
AcDbLine
 10
522.9998820000001
 20
2178.95414
 30
0.0
 11
532.9998820000001
 21
2178.95414
 31
0.0
  0
LINE
  5
474
330
1F
100
AcDbEntity
  8
Ｓ_１_１
  6
CONTINUOUS
 62
     3
100
AcDbLine
 10
532.9998820000001
 20
2188.95414
 30
0.0
 11
532.9998820000001
 21
2178.95414
 31
0.0
  0
LINE
  5
475
330
1F
100
AcDbEntity
  8
Ｓ_１_１
  6
CONTINUOUS
 62
     3
100
AcDbLine
 10
532.9998820000001
 20
2233.954139
 30
0.0
 11
532.9998820000001
 21
2228.954139
 31
0.0
  0
LINE
  5
476
330
1F
100
AcDbEntity
  8
Ｓ_１_１
  6
CONTINUOUS
 62
     3
100
AcDbLine
 10
522.9998820000001
 20
2233.954139
 30
0.0
 11
522.9998820000001
 21
2228.954139
 31
0.0
  0
LINE
  5
477
330
1F
100
AcDbEntity
  8
Ｓ_１_１
  6
CONTINUOUS
 62
     3
100
AcDbLine
 10
522.9998820000001
 20
2188.95414
 30
0.0
 11
522.9998820000001
 21
2178.95414
 31
0.0
  0
LINE
  5
478
330
1F
100
AcDbEntity
  8
Ｓ_１_１
  6
CONTINUOUS
 62
     3
100
AcDbLine
 10
1017.999875
 20
2188.95414
 30
0.0
 11
1022.999875
 21
2188.95414
 31
0.0
  0
LINE
  5
479
330
1F
100
AcDbEntity
  8
Ｓ_１_１
  6
CONTINUOUS
 62
     3
100
AcDbLine
 10
1011.99989
 20
2178.95414
 30
0.0
 11
1017.999875
 21
2178.95414
 31
0.0
  0
LINE
  5
47A
330
1F
100
AcDbEntity
  8
Ｓ_１_１
  6
CONTINUOUS
 62
     3
100
AcDbLine
 10
1011.99989
 20
2238.954139
 30
0.0
 11
1017.999875
 21
2238.954139
 31
0.0
  0
LINE
  5
47B
330
1F
100
AcDbEntity
  8
Ｓ_１_１
  6
CONTINUOUS
 62
     3
100
AcDbLine
 10
1017.999875
 20
2238.954139
 30
0.0
 11
1017.999875
 21
2178.95414
 31
0.0
  0
LINE
  5
47C
330
1F
100
AcDbEntity
  8
Ｓ_１_１
  6
CONTINUOUS
 62
     3
100
AcDbLine
 10
512.9998820000001
 20
2188.95414
 30
0.0
 11
541.999973
 21
2188.95414
 31
0.0
  0
LINE
  5
47D
330
1F
100
AcDbEntity
  8
Ｓ_１_１
  6
CONTINUOUS
 62
     3
100
AcDbLine
 10
512.9998820000001
 20
2228.954139
 30
0.0
 11
541.999973
 21
2228.954139
 31
0.0
  0
LINE
  5
47E
330
1F
100
AcDbEntity
  8
Ｓ_１_１
  6
CONTINUOUS
 62
     3
100
AcDbLine
 10
1022.999875
 20
2228.954139
 30
0.0
 11
1022.999875
 21
2188.95414
 31
0.0
  0
LINE
  5
47F
330
1F
100
AcDbEntity
  8
Ｓ_１_１
  6
CONTINUOUS
 62
     3
100
AcDbLine
 10
507.9998820000001
 20
2223.954139
 30
0.0
 11
507.9998820000001
 21
2193.954139
 31
0.0
  0
LINE
  5
480
330
1F
100
AcDbEntity
  8
Ｓ_１_１
  6
CONTINUOUS
 62
     3
100
AcDbLine
 10
522.9999090000001
 20
907.500048
 30
0.0
 11
525.886681
 21
902.500012
 31
0.0
  0
LINE
  5
481
330
1F
100
AcDbEntity
  8
Ｓ_１_１
  6
CONTINUOUS
 62
     3
100
AcDbLine
 10
532.9998879999998
 20
907.500004
 30
0.0
 11
530.1131349999996
 21
902.5000019999999
 31
0.0
  0
LINE
  5
482
330
1F
100
AcDbEntity
  8
Ｓ_１_１
  6
CONTINUOUS
 62
     3
100
AcDbLine
 10
525.886692
 20
902.499996
 30
0.0
 11
530.1131479999999
 21
902.499996
 31
0.0
  0
LINE
  5
483
330
1F
100
AcDbEntity
  8
Ｓ_１_１
  6
CONTINUOUS
 62
     3
100
AcDbLine
 10
522.9998820000001
 20
907.499996
 30
0.0
 11
532.9998820000001
 21
907.499996
 31
0.0
  0
LINE
  5
484
330
1F
100
AcDbEntity
  8
Ｓ_１_１
  6
CONTINUOUS
 62
     3
100
AcDbLine
 10
532.9998820000001
 20
917.499996
 30
0.0
 11
532.9998820000001
 21
907.499996
 31
0.0
  0
LINE
  5
485
330
1F
100
AcDbEntity
  8
Ｓ_１_１
  6
CONTINUOUS
 62
     3
100
AcDbLine
 10
522.9998820000001
 20
917.499996
 30
0.0
 11
522.9998820000001
 21
907.499996
 31
0.0
  0
LINE
  5
486
330
1F
100
AcDbEntity
  8
Ｓ_１_１
  6
CONTINUOUS
 62
     3
100
AcDbLine
 10
522.9998820000001
 20
962.4999950000001
 30
0.0
 11
522.9998820000001
 21
957.4999950000001
 31
0.0
  0
LINE
  5
487
330
1F
100
AcDbEntity
  8
Ｓ_１_１
  6
CONTINUOUS
 62
     3
100
AcDbLine
 10
532.9998820000001
 20
962.4999950000001
 30
0.0
 11
532.9998820000001
 21
957.4999950000001
 31
0.0
  0
LINE
  5
488
330
1F
100
AcDbEntity
  8
Ｓ_１_１
  6
CONTINUOUS
 62
     3
100
AcDbLine
 10
652.4998499999996
 20
801.4999939999998
 30
0.0
 11
652.4998499999996
 21
785.4999809999999
 31
0.0
  0
LINE
  5
489
330
1F
100
AcDbEntity
  8
Ｓ_１_１
  6
CONTINUOUS
 62
     3
100
AcDbLine
 10
654.4998959999998
 20
803.5000009999999
 30
0.0
 11
654.4998959999998
 21
783.5000019999998
 31
0.0
  0
LINE
  5
48A
330
1F
100
AcDbEntity
  8
Ｓ_１_１
  6
CONTINUOUS
 62
     3
100
AcDbLine
 10
654.4998499999997
 20
803.4999980000003
 30
0.0
 11
652.4998909999995
 21
801.500039
 31
0.0
  0
LINE
  5
48B
330
1F
100
AcDbEntity
  8
Ｓ_１_１
  6
CONTINUOUS
 62
     3
100
AcDbLine
 10
654.4998959999998
 20
803.5000009999999
 30
0.0
 11
712.4998489999998
 21
803.5000009999999
 31
0.0
  0
LINE
  5
48C
330
1F
100
AcDbEntity
  8
Ｓ_１_１
  6
CONTINUOUS
 62
     3
100
AcDbLine
 10
654.4999159999998
 20
783.5000150000002
 30
0.0
 11
652.4998499999996
 21
785.500082
 31
0.0
  0
LINE
  5
48D
330
1F
100
AcDbEntity
  8
Ｓ_１_１
  6
CONTINUOUS
 62
     3
100
AcDbLine
 10
654.4998959999998
 20
783.5000019999998
 30
0.0
 11
712.4998489999998
 21
783.5000019999998
 31
0.0
  0
LINE
  5
48E
330
1F
100
AcDbEntity
  8
Ｓ_１_１
  6
CONTINUOUS
 62
     3
100
AcDbLine
 10
907.4999989999998
 20
801.4999939999998
 30
0.0
 11
907.4999989999998
 21
785.4999809999999
 31
0.0
  0
LINE
  5
48F
330
1F
100
AcDbEntity
  8
Ｓ_１_１
  6
CONTINUOUS
 62
     3
100
AcDbLine
 10
905.5000289999998
 20
803.5000009999999
 30
0.0
 11
905.5000289999998
 21
783.5000019999998
 31
0.0
  0
LINE
  5
490
330
1F
100
AcDbEntity
  8
Ｓ_１_１
  6
CONTINUOUS
 62
     3
100
AcDbLine
 10
905.5000279999999
 20
803.4999990000001
 30
0.0
 11
907.5000409999998
 21
801.4999859999998
 31
0.0
  0
LINE
  5
491
330
1F
100
AcDbEntity
  8
Ｓ_１_１
  6
CONTINUOUS
 62
     3
100
AcDbLine
 10
905.5000289999998
 20
783.5000019999998
 30
0.0
 11
847.4999989999998
 21
783.5000019999998
 31
0.0
  0
LINE
  5
492
330
1F
100
AcDbEntity
  8
Ｓ_１_１
  6
CONTINUOUS
 62
     3
100
AcDbLine
 10
905.4999879999997
 20
783.499988
 30
0.0
 11
907.5000009999999
 21
785.5000009999999
 31
0.0
  0
LINE
  5
493
330
1F
100
AcDbEntity
  8
Ｓ_１_１
  6
CONTINUOUS
 62
     3
100
AcDbLine
 10
905.5000289999998
 20
803.5000009999999
 30
0.0
 11
847.4999989999998
 21
803.5000009999999
 31
0.0
  0
LINE
  5
494
330
1F
100
AcDbEntity
  8
Ｓ_１_１
  6
CONTINUOUS
 62
     3
100
AcDbLine
 10
716.5000339999997
 20
816.0000140000002
 30
0.0
 11
712.500035
 21
812.0000150000001
 31
0.0
  0
LINE
  5
495
330
1F
100
AcDbEntity
  8
Ｓ_１_１
  6
CONTINUOUS
 62
     3
100
AcDbLine
 10
712.5000009999999
 20
812.0000049999999
 30
0.0
 11
847.4999989999998
 21
812.0000049999999
 31
0.0
  0
LINE
  5
496
330
1F
100
AcDbEntity
  8
Ｓ_１_１
  6
CONTINUOUS
 62
     3
100
AcDbLine
 10
843.4999519999997
 20
816.0000150000002
 30
0.0
 11
847.499977
 21
811.9999889999999
 31
0.0
  0
LINE
  5
497
330
1F
100
AcDbEntity
  8
Ｓ_１_１
  6
CONTINUOUS
 62
     3
100
AcDbLine
 10
556.999973
 20
2163.95414
 30
0.0
 11
548.0000339999997
 21
2163.95414
 31
0.0
  0
LINE
  5
498
330
1F
100
AcDbEntity
  8
Ｓ_１_１
  6
CONTINUOUS
 62
     3
100
AcDbLine
 10
615.9999109999999
 20
2253.954139
 30
0.0
 11
606.999973
 21
2253.954139
 31
0.0
  0
LINE
  5
499
330
1F
100
AcDbEntity
  8
Ｓ_１_１
  6
CONTINUOUS
 62
     3
100
AcDbLine
 10
615.9999109999999
 20
2253.954139
 30
0.0
 11
615.9999109999999
 21
2163.95414
 31
0.0
  0
LINE
  5
49A
330
1F
100
AcDbEntity
  8
Ｓ_１_１
  6
CONTINUOUS
 62
     3
100
AcDbLine
 10
548.0000339999997
 20
2253.954139
 30
0.0
 11
548.0000339999997
 21
2163.95414
 31
0.0
  0
LINE
  5
49B
330
1F
100
AcDbEntity
  8
Ｓ_１_１
  6
CONTINUOUS
 62
     3
100
AcDbLine
 10
615.9999109999999
 20
2163.95414
 30
0.0
 11
606.999973
 21
2163.95414
 31
0.0
  0
LINE
  5
49C
330
1F
100
AcDbEntity
  8
Ｓ_１_１
  6
CONTINUOUS
 62
     3
100
AcDbLine
 10
556.999973
 20
2253.954139
 30
0.0
 11
548.0000339999997
 21
2253.954139
 31
0.0
  0
LINE
  5
49D
330
1F
100
AcDbEntity
  8
Ｓ_１_１
  6
CONTINUOUS
 62
     3
100
AcDbLine
 10
940.9999069999999
 20
2188.95414
 30
0.0
 11
943.9998609999998
 21
2188.95414
 31
0.0
  0
LINE
  5
49E
330
1F
100
AcDbEntity
  8
Ｓ_１_１
  6
CONTINUOUS
 62
     3
100
AcDbLine
 10
940.9999069999999
 20
2228.954139
 30
0.0
 11
943.9998609999998
 21
2228.954139
 31
0.0
  0
LINE
  5
49F
330
1F
100
AcDbEntity
  8
Ｓ_１_１
  6
CONTINUOUS
 62
     3
100
AcDbLine
 10
931.9998909999999
 20
2158.95414
 30
0.0
 11
940.9999069999999
 21
2158.95414
 31
0.0
  0
LINE
  5
4A0
330
1F
100
AcDbEntity
  8
Ｓ_１_１
  6
CONTINUOUS
 62
     3
100
AcDbLine
 10
931.9998909999999
 20
2258.954138
 30
0.0
 11
940.9999069999999
 21
2258.954138
 31
0.0
  0
LINE
  5
4A1
330
1F
100
AcDbEntity
  8
Ｓ_１_１
  6
CONTINUOUS
 62
     3
100
AcDbLine
 10
913.9998609999998
 20
2158.95414
 30
0.0
 11
922.9999529999996
 21
2158.95414
 31
0.0
  0
LINE
  5
4A2
330
1F
100
AcDbEntity
  8
Ｓ_１_１
  6
CONTINUOUS
 62
     3
100
AcDbLine
 10
913.9998609999998
 20
2258.954138
 30
0.0
 11
922.9999529999996
 21
2258.954138
 31
0.0
  0
LINE
  5
4A3
330
1F
100
AcDbEntity
  8
Ｓ_１_１
  6
CONTINUOUS
 62
     3
100
AcDbLine
 10
615.9999109999999
 20
2188.95414
 30
0.0
 11
619.0000179999997
 21
2188.95414
 31
0.0
  0
LINE
  5
4A4
330
1F
100
AcDbEntity
  8
Ｓ_１_１
  6
CONTINUOUS
 62
     3
100
AcDbLine
 10
615.9999109999999
 20
2228.954139
 30
0.0
 11
619.0000179999997
 21
2228.954139
 31
0.0
  0
LINE
  5
4A5
330
1F
100
AcDbEntity
  8
Ｓ_１_１
  6
CONTINUOUS
 62
     3
100
AcDbLine
 10
922.9999529999996
 20
2318.954138
 30
0.0
 11
922.9999529999996
 21
2098.954141
 31
0.0
  0
LINE
  5
4A6
330
1F
100
AcDbEntity
  8
Ｓ_１_１
  6
CONTINUOUS
 62
     3
100
AcDbLine
 10
931.9998909999999
 20
2318.954138
 30
0.0
 11
931.9998909999999
 21
2098.954141
 31
0.0
  0
LINE
  5
4A7
330
1F
100
AcDbEntity
  8
Ｓ_１_１
  6
CONTINUOUS
 62
     3
100
AcDbLine
 10
940.9999069999999
 20
2258.954138
 30
0.0
 11
940.9999069999999
 21
2158.95414
 31
0.0
  0
LINE
  5
4A8
330
1F
100
AcDbEntity
  8
Ｓ_１_１
  6
CONTINUOUS
 62
     3
100
AcDbLine
 10
1002.999875
 20
2163.95414
 30
0.0
 11
1011.99989
 21
2163.95414
 31
0.0
  0
LINE
  5
4A9
330
1F
100
AcDbEntity
  8
Ｓ_１_１
  6
CONTINUOUS
 62
     3
100
AcDbLine
 10
1002.999875
 20
2253.954139
 30
0.0
 11
1011.99989
 21
2253.954139
 31
0.0
  0
LINE
  5
4AA
330
1F
100
AcDbEntity
  8
Ｓ_１_１
  6
CONTINUOUS
 62
     3
100
AcDbLine
 10
943.9998609999998
 20
2163.95414
 30
0.0
 11
952.9998759999999
 21
2163.95414
 31
0.0
  0
LINE
  5
4AB
330
1F
100
AcDbEntity
  8
Ｓ_１_１
  6
CONTINUOUS
 62
     3
100
AcDbLine
 10
943.9998609999998
 20
2253.954139
 30
0.0
 11
952.9998759999999
 21
2253.954139
 31
0.0
  0
LINE
  5
4AC
330
1F
100
AcDbEntity
  8
Ｓ_１_１
  6
CONTINUOUS
 62
     3
100
AcDbLine
 10
1011.99989
 20
2253.954139
 30
0.0
 11
1011.99989
 21
2163.95414
 31
0.0
  0
LINE
  5
4AD
330
1F
100
AcDbEntity
  8
Ｓ_１_１
  6
CONTINUOUS
 62
     3
100
AcDbLine
 10
943.9998609999998
 20
2253.954139
 30
0.0
 11
943.9998609999998
 21
2163.95414
 31
0.0
  0
LINE
  5
4AE
330
1F
100
AcDbEntity
  8
Ｓ_１_１
  6
CONTINUOUS
 62
     3
100
AcDbLine
 10
549.9998509999996
 20
2408.954136
 30
0.0
 11
1009.999921
 21
2408.954136
 31
0.0
  0
LINE
  5
4AF
330
1F
100
AcDbEntity
  8
Ｓ_１_１
  6
CONTINUOUS
 62
     3
100
AcDbLine
 10
548.0000339999997
 20
982.4999950000001
 30
0.0
 11
548.0000339999997
 21
892.499996
 31
0.0
  0
LINE
  5
4B0
330
1F
100
AcDbEntity
  8
Ｓ_１_１
  6
CONTINUOUS
 62
     3
100
AcDbLine
 10
615.9999109999999
 20
992.4999950000001
 30
0.0
 11
615.9999109999999
 21
882.499996
 31
0.0
  0
LINE
  5
4B1
330
1F
100
AcDbEntity
  8
Ｓ_１_１
  6
CONTINUOUS
 62
     3
100
AcDbLine
 10
625.0000030000001
 20
992.4999950000001
 30
0.0
 11
615.9999109999999
 21
992.4999950000001
 31
0.0
  0
LINE
  5
4B2
330
1F
100
AcDbEntity
  8
Ｓ_１_１
  6
CONTINUOUS
 62
     3
100
AcDbLine
 10
625.0000030000001
 20
882.499996
 30
0.0
 11
615.9999109999999
 21
882.499996
 31
0.0
  0
LINE
  5
4B3
330
1F
100
AcDbEntity
  8
Ｓ_１_１
  6
CONTINUOUS
 62
     3
100
AcDbLine
 10
556.999973
 20
2270.198035
 30
0.0
 11
556.999973
 21
876.2805330000001
 31
0.0
  0
LINE
  5
4B4
330
1F
100
AcDbEntity
  8
Ｓ_１_１
  6
CONTINUOUS
 62
     3
100
AcDbLine
 10
606.999973
 20
2270.198035
 30
0.0
 11
606.999973
 21
876.2805330000001
 31
0.0
  0
LINE
  5
4B5
330
1F
100
AcDbEntity
  8
Ｓ_１_１
  6
CONTINUOUS
 62
     3
100
AcDbLine
 10
720.5000319999999
 20
1569.000001
 30
0.0
 11
839.499969
 21
1569.000001
 31
0.0
  0
LINE
  5
4B6
330
1F
100
AcDbEntity
  8
Ｓ_１_１
  6
CONTINUOUS
 62
     3
100
AcDbLine
 10
507.9998820000001
 20
952.4999950000001
 30
0.0
 11
507.9998820000001
 21
922.499996
 31
0.0
  0
LINE
  5
4B7
330
1F
100
AcDbEntity
  8
Ｓ_１_１
  6
CONTINUOUS
 62
     3
100
AcDbLine
 10
708.9998639999999
 20
917.499996
 30
0.0
 11
850.9999079999998
 21
917.499996
 31
0.0
  0
LINE
  5
4B8
330
1F
100
AcDbEntity
  8
Ｓ_１_１
  6
CONTINUOUS
 62
     3
100
AcDbLine
 10
864.4998919999998
 20
917.499996
 30
0.0
 11
930.4998759999999
 21
917.499996
 31
0.0
  0
LINE
  5
4B9
330
1F
100
AcDbEntity
  8
Ｓ_１_１
  6
CONTINUOUS
 62
     3
100
AcDbLine
 10
639.5000129999999
 20
1033.999989
 30
0.0
 11
637.5
 21
1031.999976
 31
0.0
  0
LINE
  5
4BA
330
1F
100
AcDbEntity
  8
Ｓ_１_１
  6
CONTINUOUS
 62
     3
100
AcDbLine
 10
637.5000030000001
 20
1015.999979
 30
0.0
 11
637.5000030000001
 21
1032.000002
 31
0.0
  0
LINE
  5
4BB
330
1F
100
AcDbEntity
  8
Ｓ_１_１
  6
CONTINUOUS
 62
     3
100
AcDbLine
 10
639.4999719999996
 20
1014.00001
 30
0.0
 11
639.4999719999996
 21
1034.000009
 31
0.0
  0
LINE
  5
4BC
330
1F
100
AcDbEntity
  8
Ｓ_１_１
  6
CONTINUOUS
 62
     3
100
AcDbLine
 10
639.4999719999996
 20
1034.000009
 30
0.0
 11
697.5000019999997
 21
1034.000009
 31
0.0
  0
LINE
  5
4BD
330
1F
100
AcDbEntity
  8
Ｓ_１_１
  6
CONTINUOUS
 62
     3
100
AcDbLine
 10
639.4999719999996
 20
1014.00001
 30
0.0
 11
697.5000019999997
 21
1014.00001
 31
0.0
  0
LINE
  5
4BE
330
1F
100
AcDbEntity
  8
Ｓ_１_１
  6
CONTINUOUS
 62
     3
100
AcDbLine
 10
872.3292529999999
 20
1034.000009
 30
0.0
 11
862.4999989999998
 21
1034.000009
 31
0.0
  0
LINE
  5
4BF
330
1F
100
AcDbEntity
  8
Ｓ_１_１
  6
CONTINUOUS
 62
     3
100
AcDbLine
 10
880.2337639999996
 20
1014.00001
 30
0.0
 11
862.4999989999998
 21
1014.00001
 31
0.0
  0
LINE
  5
4C0
330
1F
100
AcDbEntity
  8
Ｓ_１_１
  6
CONTINUOUS
 62
     3
100
AcDbLine
 10
639.5000179999997
 20
1013.999927
 30
0.0
 11
637.4999509999998
 21
1015.999994
 31
0.0
  0
LINE
  5
4C1
330
1F
100
AcDbEntity
  8
Ｓ_１_１
  6
CONTINUOUS
 62
     3
100
AcDbLine
 10
1011.99989
 20
982.4999950000001
 30
0.0
 11
1011.99989
 21
892.499996
 31
0.0
  0
LINE
  5
4C2
330
1F
100
AcDbEntity
  8
Ｓ_１_１
  6
CONTINUOUS
 62
     3
100
AcDbLine
 10
1022.999875
 20
957.4999950000001
 30
0.0
 11
1022.999875
 21
917.499996
 31
0.0
  0
LINE
  5
4C3
330
1F
100
AcDbEntity
  8
Ｓ_１_１
  6
CONTINUOUS
 62
     3
100
AcDbLine
 10
1011.99989
 20
967.4999950000001
 30
0.0
 11
1017.999875
 21
967.4999950000001
 31
0.0
  0
LINE
  5
4C4
330
1F
100
AcDbEntity
  8
Ｓ_１_１
  6
CONTINUOUS
 62
     3
100
AcDbLine
 10
1011.99989
 20
907.499996
 30
0.0
 11
1017.999875
 21
907.499996
 31
0.0
  0
LINE
  5
4C5
330
1F
100
AcDbEntity
  8
Ｓ_１_１
  6
CONTINUOUS
 62
     3
100
AcDbLine
 10
1017.999875
 20
967.4999950000001
 30
0.0
 11
1017.999875
 21
907.499996
 31
0.0
  0
LINE
  5
4C6
330
1F
100
AcDbEntity
  8
Ｓ_１_１
  6
CONTINUOUS
 62
     3
100
AcDbLine
 10
1017.999875
 20
917.499996
 30
0.0
 11
1022.999875
 21
917.499996
 31
0.0
  0
LINE
  5
4C7
330
1F
100
AcDbEntity
  8
Ｓ_１_１
  6
CONTINUOUS
 62
     3
100
AcDbLine
 10
1017.999875
 20
957.4999950000001
 30
0.0
 11
1022.999875
 21
957.4999950000001
 31
0.0
  0
LINE
  5
4C8
330
1F
100
AcDbEntity
  8
Ｓ_１_１
  6
CONTINUOUS
 62
     3
100
AcDbLine
 10
864.4998919999998
 20
957.4999950000001
 30
0.0
 11
930.4998759999999
 21
957.4999950000001
 31
0.0
  0
LINE
  5
4C9
330
1F
100
AcDbEntity
  8
Ｓ_１_１
  6
CONTINUOUS
 62
     3
100
AcDbLine
 10
708.9998639999999
 20
957.4999950000001
 30
0.0
 11
850.9999079999998
 21
957.4999950000001
 31
0.0
  0
LINE
  5
4CA
330
1F
100
AcDbEntity
  8
Ｓ_１_１
  6
CONTINUOUS
 62
     3
100
AcDbLine
 10
629.4998959999998
 20
957.4999950000001
 30
0.0
 11
695.4998799999998
 21
957.4999950000001
 31
0.0
  0
LINE
  5
4CB
330
1F
100
AcDbEntity
  8
Ｓ_１_１
  6
CONTINUOUS
 62
     3
100
AcDbLine
 10
850.9999079999998
 20
992.4999950000001
 30
0.0
 11
850.9999079999998
 21
882.499996
 31
0.0
  0
LINE
  5
4CC
330
1F
100
AcDbEntity
  8
Ｓ_１_１
  6
CONTINUOUS
 62
     3
100
AcDbLine
 10
859.9999229999999
 20
992.4999950000001
 30
0.0
 11
850.9999079999998
 21
992.4999950000001
 31
0.0
  0
LINE
  5
4CD
330
1F
100
AcDbEntity
  8
Ｓ_１_１
  6
CONTINUOUS
 62
     3
100
AcDbLine
 10
859.9999229999999
 20
882.499996
 30
0.0
 11
850.9999079999998
 21
882.499996
 31
0.0
  0
LINE
  5
4CE
330
1F
100
AcDbEntity
  8
Ｓ_１_１
  6
CONTINUOUS
 62
     3
100
AcDbLine
 10
700.0000019999997
 20
882.499996
 30
0.0
 11
708.9998639999999
 21
882.499996
 31
0.0
  0
LINE
  5
4CF
330
1F
100
AcDbEntity
  8
Ｓ_１_１
  6
CONTINUOUS
 62
     3
100
AcDbLine
 10
700.0000019999997
 20
992.4999950000001
 30
0.0
 11
708.9998639999999
 21
992.4999950000001
 31
0.0
  0
LINE
  5
4D0
330
1F
100
AcDbEntity
  8
Ｓ_１_１
  6
CONTINUOUS
 62
     3
100
AcDbLine
 10
708.9998639999999
 20
992.4999950000001
 30
0.0
 11
708.9998639999999
 21
882.499996
 31
0.0
  0
LINE
  5
4D1
330
1F
100
AcDbEntity
  8
Ｓ_１_１
  6
CONTINUOUS
 62
     3
100
AcDbLine
 10
630.0000030000001
 20
874.999996
 30
0.0
 11
630.0000030000001
 21
866.0
 31
0.0
  0
LINE
  5
4D2
330
1F
100
AcDbEntity
  8
Ｓ_１_１
  6
CONTINUOUS
 62
     3
100
AcDbLine
 10
630.0000030000001
 20
1009.00001
 30
0.0
 11
630.0000030000001
 21
999.9999950000001
 31
0.0
  0
LINE
  5
4D3
330
1F
100
AcDbEntity
  8
Ｓ_１_１
  6
CONTINUOUS
 62
     3
100
AcDbLine
 10
629.4998959999998
 20
993.499979
 30
0.0
 11
629.4998959999998
 21
881.4999929999999
 31
0.0
  0
LINE
  5
4D4
330
1F
100
AcDbEntity
  8
Ｓ_１_１
  6
CONTINUOUS
 62
     3
100
AcDbLine
 10
693.4999859999997
 20
995.499987
 30
0.0
 11
631.4998649999998
 21
995.499987
 31
0.0
  0
LINE
  5
4D5
330
1F
100
AcDbEntity
  8
Ｓ_１_１
  6
CONTINUOUS
 62
     3
100
AcDbLine
 10
693.4999859999997
 20
879.500004
 30
0.0
 11
631.4998649999998
 21
879.500004
 31
0.0
  0
LINE
  5
4D6
330
1F
100
AcDbEntity
  8
Ｓ_１_１
  6
CONTINUOUS
 62
     3
100
AcDbLine
 10
625.0000030000001
 20
994.299998
 30
0.0
 11
625.0000030000001
 21
880.6999740000001
 31
0.0
  0
LINE
  5
4D7
330
1F
100
AcDbEntity
  8
Ｓ_１_１
  6
CONTINUOUS
 62
     3
100
AcDbLine
 10
695.4998799999998
 20
993.499979
 30
0.0
 11
695.4998799999998
 21
881.4999929999999
 31
0.0
  0
LINE
  5
4D8
330
1F
100
AcDbEntity
  8
Ｓ_１_１
  6
CONTINUOUS
 62
     3
100
AcDbLine
 10
547.9998820000001
 20
982.4999950000001
 30
0.0
 11
547.9998820000001
 21
892.499996
 31
0.0
  0
LINE
  5
4D9
330
1F
100
AcDbEntity
  8
Ｓ_１_１
  6
CONTINUOUS
 62
     3
100
AcDbLine
 10
700.0000019999997
 20
994.299998
 30
0.0
 11
700.0000019999997
 21
880.6999740000001
 31
0.0
  0
LINE
  5
4DA
330
1F
100
AcDbEntity
  8
Ｓ_１_１
  6
CONTINUOUS
 62
     3
100
AcDbLine
 10
929.9999220000001
 20
874.999996
 30
0.0
 11
929.9999220000001
 21
866.0
 31
0.0
  0
LINE
  5
4DB
330
1F
100
AcDbEntity
  8
Ｓ_１_１
  6
CONTINUOUS
 62
     3
100
AcDbLine
 10
934.9999220000001
 20
992.4999950000001
 30
0.0
 11
943.9998609999998
 21
992.4999950000001
 31
0.0
  0
LINE
  5
4DC
330
1F
100
AcDbEntity
  8
Ｓ_１_１
  6
CONTINUOUS
 62
     3
100
AcDbLine
 10
934.9999220000001
 20
882.499996
 30
0.0
 11
943.9998609999998
 21
882.499996
 31
0.0
  0
LINE
  5
4DD
330
1F
100
AcDbEntity
  8
Ｓ_１_１
  6
CONTINUOUS
 62
     3
100
AcDbLine
 10
943.9998609999998
 20
992.4999950000001
 30
0.0
 11
943.9998609999998
 21
882.499996
 31
0.0
  0
LINE
  5
4DE
330
1F
100
AcDbEntity
  8
Ｓ_１_１
  6
CONTINUOUS
 62
     3
100
AcDbLine
 10
865.6999200000001
 20
999.9999950000001
 30
0.0
 11
929.2999249999998
 21
999.9999950000001
 31
0.0
  0
LINE
  5
4DF
330
1F
100
AcDbEntity
  8
Ｓ_１_１
  6
CONTINUOUS
 62
     3
100
AcDbLine
 10
864.4998919999998
 20
993.499979
 30
0.0
 11
864.4998919999998
 21
881.4999929999999
 31
0.0
  0
LINE
  5
4E0
330
1F
100
AcDbEntity
  8
Ｓ_１_１
  6
CONTINUOUS
 62
     3
100
AcDbLine
 10
865.6999200000001
 20
874.999996
 30
0.0
 11
929.2999249999998
 21
874.999996
 31
0.0
  0
LINE
  5
4E1
330
1F
100
AcDbEntity
  8
Ｓ_１_１
  6
CONTINUOUS
 62
     3
100
AcDbLine
 10
934.9999220000001
 20
994.299998
 30
0.0
 11
934.9999220000001
 21
880.6999740000001
 31
0.0
  0
LINE
  5
4E2
330
1F
100
AcDbEntity
  8
Ｓ_１_１
  6
CONTINUOUS
 62
     3
100
AcDbLine
 10
866.499938
 20
879.500004
 30
0.0
 11
928.4999069999999
 21
879.500004
 31
0.0
  0
LINE
  5
4E3
330
1F
100
AcDbEntity
  8
Ｓ_１_１
  6
CONTINUOUS
 62
     3
100
AcDbLine
 10
866.499938
 20
995.499987
 30
0.0
 11
928.4999069999999
 21
995.499987
 31
0.0
  0
LINE
  5
4E4
330
1F
100
AcDbEntity
  8
Ｓ_１_１
  6
CONTINUOUS
 62
     3
100
AcDbLine
 10
930.4998759999999
 20
993.499979
 30
0.0
 11
930.4998759999999
 21
881.4999929999999
 31
0.0
  0
LINE
  5
4E5
330
1F
100
AcDbEntity
  8
Ｓ_１_１
  6
CONTINUOUS
 62
     3
100
AcDbLine
 10
859.9999229999999
 20
994.299998
 30
0.0
 11
859.9999229999999
 21
880.6999740000001
 31
0.0
  0
LINE
  5
4E6
330
1F
100
AcDbEntity
  8
Ｓ_１_１
  6
CONTINUOUS
 62
     3
100
AcDbLine
 10
512.9998820000001
 20
957.4999950000001
 30
0.0
 11
541.999973
 21
957.4999950000001
 31
0.0
  0
LINE
  5
4E7
330
1F
100
AcDbEntity
  8
Ｓ_１_１
  6
CONTINUOUS
 62
     3
100
AcDbLine
 10
512.9998820000001
 20
917.499996
 30
0.0
 11
541.999973
 21
917.499996
 31
0.0
  0
LINE
  5
4E8
330
1F
100
AcDbEntity
  8
Ｓ_１_１
  6
CONTINUOUS
 62
     3
100
AcDbLine
 10
630.6999230000001
 20
999.9999950000001
 30
0.0
 11
909.9999220000001
 21
999.9999950000001
 31
0.0
  0
LINE
  5
4E9
330
1F
100
AcDbEntity
  8
Ｓ_１_１
  6
CONTINUOUS
 62
     3
100
AcDbLine
 10
630.6999230000001
 20
874.999996
 30
0.0
 11
909.9999220000001
 21
874.999996
 31
0.0
  0
LINE
  5
4EA
330
1F
100
AcDbEntity
  8
Ｓ_１_１
  6
CONTINUOUS
 62
     3
100
AcDbLine
 10
712.5000009999999
 20
774.9999980000002
 30
0.0
 11
847.4999989999998
 21
774.9999980000002
 31
0.0
  0
LINE
  5
4EB
330
1F
100
AcDbEntity
  8
Ｓ_１_１
  6
CONTINUOUS
 62
     3
100
AcDbLine
 10
716.5000739999996
 20
770.999973
 30
0.0
 11
712.4999939999998
 21
775.0000519999999
 31
0.0
  0
LINE
  5
4EC
330
1F
100
AcDbEntity
  8
Ｓ_１_１
  6
CONTINUOUS
 62
     3
100
AcDbLine
 10
843.4999389999998
 20
770.9999990000001
 30
0.0
 11
847.4999369999996
 21
774.9999980000002
 31
0.0
  0
LINE
  5
4ED
330
1F
100
AcDbEntity
  8
Ｓ_１_１
  6
CONTINUOUS
 62
     3
100
AcDbLine
 10
630.0000030000001
 20
866.0
 30
0.0
 11
929.9999220000001
 21
866.0
 31
0.0
  0
LINE
  5
4EE
330
1F
100
AcDbEntity
  8
Ｓ_１_１
  6
CONTINUOUS
 62
     3
100
AcDbLine
 10
837.5
 20
1494.000003
 30
0.0
 11
837.5
 21
1039.000009
 31
0.0
  0
LINE
  5
4EF
330
1F
100
AcDbEntity
  8
Ｓ_１_１
  6
CONTINUOUS
 62
     3
100
AcDbLine
 10
722.5000009999999
 20
1494.000003
 30
0.0
 11
722.5000009999999
 21
1039.000009
 31
0.0
  0
LINE
  5
4F0
330
1F
100
AcDbEntity
  8
Ｓ_１_１
  6
CONTINUOUS
 62
     3
100
AcDbLine
 10
717.5000009999999
 20
1565.999971
 30
0.0
 11
717.5000009999999
 21
1039.000009
 31
0.0
  0
LINE
  5
4F1
330
1F
100
AcDbEntity
  8
Ｓ_１_１
  6
CONTINUOUS
 62
     3
100
AcDbLine
 10
842.5
 20
1565.999971
 30
0.0
 11
842.5
 21
1039.000009
 31
0.0
  0
LINE
  5
4F2
330
1F
100
AcDbEntity
  8
Ｓ_１_１
  6
CONTINUOUS
 62
     3
100
AcDbLine
 10
697.500016
 20
1036.000012
 30
0.0
 11
700.500008
 21
1039.000005
 31
0.0
  0
LINE
  5
4F3
330
1F
100
AcDbEntity
  8
Ｓ_１_１
  6
CONTINUOUS
 62
     3
100
AcDbLine
 10
862.4999989999998
 20
1012.000002
 30
0.0
 11
862.4999989999998
 21
1035.999979
 31
0.0
  0
LINE
  5
4F4
330
1F
100
AcDbEntity
  8
Ｓ_１_１
  6
CONTINUOUS
 62
     3
100
AcDbLine
 10
697.5000019999997
 20
1012.000002
 30
0.0
 11
697.5000019999997
 21
1035.999979
 31
0.0
  0
LINE
  5
4F5
330
1F
100
AcDbEntity
  8
Ｓ_１_１
  6
CONTINUOUS
 62
     3
100
AcDbLine
 10
700.5000319999999
 20
1039.000009
 30
0.0
 11
859.499969
 21
1039.000009
 31
0.0
  0
LINE
  5
4F6
330
1F
100
AcDbEntity
  8
Ｓ_１_１
  6
CONTINUOUS
 62
     3
100
AcDbLine
 10
697.5000639999998
 20
1011.999958
 30
0.0
 11
700.5000569999996
 21
1008.999965
 31
0.0
  0
LINE
  5
4F7
330
1F
100
AcDbEntity
  8
Ｓ_１_１
  6
CONTINUOUS
 62
     3
100
AcDbLine
 10
697.5000019999997
 20
1012.000002
 30
0.0
 11
862.4999989999998
 21
1012.000002
 31
0.0
  0
LINE
  5
4F8
330
1F
100
AcDbEntity
  8
Ｓ_１_１
  6
CONTINUOUS
 62
     3
100
AcDbLine
 10
862.5000289999998
 20
1012.000012
 30
0.0
 11
859.5000089999999
 21
1008.999993
 31
0.0
  0
LINE
  5
4F9
330
1F
100
AcDbEntity
  8
Ｓ_１_１
  6
CONTINUOUS
 62
     3
100
AcDbLine
 10
862.4999959999997
 20
1035.999985
 30
0.0
 11
859.5000039999996
 21
1038.999977
 31
0.0
  0
LINE
  5
4FA
330
1F
100
AcDbEntity
  8
Ｓ_１_１
  6
CONTINUOUS
 62
     3
100
AcDbLine
 10
844.2820869999997
 20
770.9999669999997
 30
0.0
 11
849.2820379999998
 21
766.000016
 31
0.0
  0
LINE
  5
4FB
330
1F
100
AcDbEntity
  8
Ｓ_１_１
  6
CONTINUOUS
 62
     3
100
AcDbLine
 10
715.717952
 20
771.00002
 30
0.0
 11
710.7180009999997
 21
766.0000689999996
 31
0.0
  0
LINE
  5
4FC
330
1F
100
AcDbEntity
  8
Ｓ_１_１
  6
CONTINUOUS
 62
     3
100
AcDbLine
 10
862.4999989999998
 20
862.9999889999999
 30
0.0
 11
862.4999989999998
 21
818.9999939999998
 31
0.0
  0
LINE
  5
4FD
330
1F
100
AcDbEntity
  8
Ｓ_１_１
  6
CONTINUOUS
 62
     3
100
AcDbLine
 10
849.281997
 20
766.0000019999998
 30
0.0
 11
710.7180039999998
 21
766.0000019999998
 31
0.0
  0
LINE
  5
4FE
330
1F
100
AcDbEntity
  8
Ｓ_１_１
  6
CONTINUOUS
 62
     3
100
AcDbLine
 10
849.281997
 20
766.0000019999998
 30
0.0
 11
867.9999529999996
 21
766.0000019999998
 31
0.0
  0
LINE
  5
4FF
330
1F
100
AcDbEntity
  8
Ｓ_１_１
  6
CONTINUOUS
 62
     3
100
AcDbLine
 10
697.5000019999997
 20
862.9999889999999
 30
0.0
 11
697.5000019999997
 21
818.9999939999998
 31
0.0
  0
LINE
  5
500
330
1F
100
AcDbEntity
  8
Ｓ_１_１
  6
CONTINUOUS
 62
     3
100
AcDbLine
 10
700.5000319999999
 20
816.0000009999999
 30
0.0
 11
859.499969
 21
816.0000009999999
 31
0.0
  0
LINE
  5
501
330
1F
100
AcDbEntity
  8
Ｓ_１_１
  6
CONTINUOUS
 62
     3
100
AcDbLine
 10
867.9999049999998
 20
765.999988
 30
0.0
 11
869.9999719999996
 21
763.999921
 31
0.0
  0
LINE
  5
502
330
1F
100
AcDbEntity
  8
Ｓ_１_１
  6
CONTINUOUS
 62
     3
100
AcDbLine
 10
697.4999549999998
 20
863.000055
 30
0.0
 11
700.4999469999998
 21
866.000047
 31
0.0
  0
LINE
  5
503
330
1F
100
AcDbEntity
  8
Ｓ_１_１
  6
CONTINUOUS
 62
     3
100
AcDbLine
 10
869.9999989999998
 20
763.9999939999998
 30
0.0
 11
869.9999989999998
 21
726.0000030000001
 31
0.0
  0
LINE
  5
504
330
1F
100
AcDbEntity
  8
Ｓ_１_１
  6
CONTINUOUS
 62
     3
100
AcDbLine
 10
690.0000019999997
 20
763.9999939999998
 30
0.0
 11
869.9999989999998
 21
763.9999939999998
 31
0.0
  0
LINE
  5
505
330
1F
100
AcDbEntity
  8
Ｓ_１_１
  6
CONTINUOUS
 62
     3
100
AcDbLine
 10
697.5000019999997
 20
862.9999889999999
 30
0.0
 11
862.4999989999998
 21
862.9999889999999
 31
0.0
  0
LINE
  5
506
330
1F
100
AcDbEntity
  8
Ｓ_１_１
  6
CONTINUOUS
 62
     3
100
AcDbLine
 10
697.499992
 20
819.0000599999998
 30
0.0
 11
700.5000380000001
 21
816.0000140000002
 31
0.0
  0
LINE
  5
507
330
1F
100
AcDbEntity
  8
Ｓ_１_１
  6
CONTINUOUS
 62
     3
100
AcDbLine
 10
689.9999969999999
 20
764.0000359999999
 30
0.0
 11
691.9999559999997
 21
765.999995
 31
0.0
  0
LINE
  5
508
330
1F
100
AcDbEntity
  8
Ｓ_１_１
  6
CONTINUOUS
 62
     3
100
AcDbLine
 10
862.4999229999999
 20
863.0000000000001
 30
0.0
 11
859.499984
 21
865.9999390000003
 31
0.0
  0
LINE
  5
509
330
1F
100
AcDbEntity
  8
Ｓ_１_１
  6
CONTINUOUS
 62
     3
100
AcDbLine
 10
862.4999669999997
 20
819.0000340000001
 30
0.0
 11
859.4999469999999
 21
816.0000140000002
 31
0.0
  0
LINE
  5
50A
330
1F
100
AcDbEntity
  8
Ｓ_１_１
  6
CONTINUOUS
 62
     3
100
AcDbLine
 10
712.5000009999999
 20
812.0000049999999
 30
0.0
 11
712.5000009999999
 21
774.9999980000002
 31
0.0
  0
LINE
  5
50B
330
1F
100
AcDbEntity
  8
Ｓ_１_１
  6
CONTINUOUS
 62
     3
100
AcDbLine
 10
847.4999989999998
 20
812.0000049999999
 30
0.0
 11
847.4999989999998
 21
774.9999980000002
 31
0.0
  0
LINE
  5
50C
330
1F
100
AcDbEntity
  8
Ｓ_１_１
  6
CONTINUOUS
 62
     3
100
AcDbLine
 10
637.5000030000001
 20
843.9999929999999
 30
0.0
 11
637.5000030000001
 21
827.9999900000003
 31
0.0
  0
LINE
  5
50D
330
1F
100
AcDbEntity
  8
Ｓ_１_１
  6
CONTINUOUS
 62
     3
100
AcDbLine
 10
639.4999719999996
 20
846.0000009999999
 30
0.0
 11
639.4999719999996
 21
826.0000009999999
 31
0.0
  0
LINE
  5
50E
330
1F
100
AcDbEntity
  8
Ｓ_１_１
  6
CONTINUOUS
 62
     3
100
AcDbLine
 10
920.5000190000001
 20
845.9999630000002
 30
0.0
 11
922.499977
 21
844.0000040000001
 31
0.0
  0
LINE
  5
50F
330
1F
100
AcDbEntity
  8
Ｓ_１_１
  6
CONTINUOUS
 62
     3
100
AcDbLine
 10
639.4999719999996
 20
826.0000009999999
 30
0.0
 11
697.5000019999997
 21
826.0000009999999
 31
0.0
  0
LINE
  5
510
330
1F
100
AcDbEntity
  8
Ｓ_１_１
  6
CONTINUOUS
 62
     3
100
AcDbLine
 10
639.4999719999996
 20
846.0000009999999
 30
0.0
 11
697.5000019999997
 21
846.0000009999999
 31
0.0
  0
LINE
  5
511
330
1F
100
AcDbEntity
  8
Ｓ_１_１
  6
CONTINUOUS
 62
     3
100
AcDbLine
 10
920.4999749999997
 20
825.999953
 30
0.0
 11
922.5000149999996
 21
827.999992
 31
0.0
  0
LINE
  5
512
330
1F
100
AcDbEntity
  8
Ｓ_１_１
  6
CONTINUOUS
 62
     3
100
AcDbLine
 10
920.5000289999998
 20
826.0000009999999
 30
0.0
 11
862.4999989999998
 21
826.0000009999999
 31
0.0
  0
LINE
  5
513
330
1F
100
AcDbEntity
  8
Ｓ_１_１
  6
CONTINUOUS
 62
     3
100
AcDbLine
 10
920.5000289999998
 20
846.0000009999999
 30
0.0
 11
862.4999989999998
 21
846.0000009999999
 31
0.0
  0
LINE
  5
514
330
1F
100
AcDbEntity
  8
Ｓ_１_１
  6
CONTINUOUS
 62
     3
100
AcDbLine
 10
639.4999669999997
 20
846.000016
 30
0.0
 11
637.4999809999999
 21
844.0000300000003
 31
0.0
  0
LINE
  5
515
330
1F
100
AcDbEntity
  8
Ｓ_１_１
  6
CONTINUOUS
 62
     3
100
AcDbLine
 10
844.281997
 20
771.0000019999998
 30
0.0
 11
715.7180039999998
 21
771.0000019999998
 31
0.0
  0
LINE
  5
516
330
1F
100
AcDbEntity
  8
Ｓ_１_１
  6
CONTINUOUS
 62
     3
100
AcDbLine
 10
639.4999559999997
 20
826.0000609999997
 30
0.0
 11
637.4999969999999
 21
828.0000200000001
 31
0.0
  0
LINE
  5
517
330
1F
100
AcDbEntity
  8
Ｓ_１_１
  6
CONTINUOUS
 62
     3
100
AcDbLine
 10
920.5000289999998
 20
846.0000009999999
 30
0.0
 11
920.5000289999998
 21
826.0000009999999
 31
0.0
  0
LINE
  5
518
330
1F
100
AcDbEntity
  8
Ｓ_１_１
  6
CONTINUOUS
 62
     3
100
AcDbLine
 10
922.4999979999998
 20
843.9999929999999
 30
0.0
 11
922.4999979999998
 21
827.9999900000003
 31
0.0
  0
LINE
  5
519
330
1F
100
AcDbEntity
  8
Ｓ_１_１
  6
CONTINUOUS
 62
     3
100
AcDbLine
 10
697.5000019999997
 20
1035.999979
 30
0.0
 11
862.4999989999998
 21
1035.999979
 31
0.0
  0
LINE
  5
51A
330
1F
100
AcDbEntity
  8
Ｓ_１_１
  6
CONTINUOUS
 62
     3
100
AcDbLine
 10
697.5000019999997
 20
818.9999939999998
 30
0.0
 11
862.4999989999998
 21
818.9999939999998
 31
0.0
  0
LINE
  5
51B
330
1F
100
AcDbEntity
  8
Ｓ_１_１
  6
CONTINUOUS
 62
     3
100
AcDbLine
 10
430.0000059999998
 20
665.9999990000001
 30
0.0
 11
1129.999995
 21
665.9999990000001
 31
0.0
  0
LINE
  5
51C
330
1F
100
AcDbEntity
  8
Ｓ_１_１
  6
CONTINUOUS
 62
     3
100
AcDbLine
 10
690.0000019999997
 20
763.9999939999998
 30
0.0
 11
690.0000019999997
 21
726.0000030000001
 31
0.0
  0
LINE
  5
51D
330
1F
100
AcDbEntity
  8
Ｓ_１_１
  6
CONTINUOUS
 62
     3
100
AcDbLine
 10
691.9999709999997
 20
766.0000019999998
 30
0.0
 11
780.0
 21
766.0000019999998
 31
0.0
  0
LINE
  5
51E
330
1F
100
AcDbEntity
  8
Ｓ_１_１
  6
CONTINUOUS
 62
     3
100
AcDbLine
 10
430.0000059999998
 20
650.0
 30
0.0
 11
1129.999995
 21
650.0
 31
0.0
  0
LINE
  5
51F
330
1F
100
AcDbEntity
  8
Ｓ_１_１
  6
CONTINUOUS
 62
     3
100
AcDbLine
 10
1002.999875
 20
2270.198035
 30
0.0
 11
1002.999875
 21
876.2805330000001
 31
0.0
  0
LINE
  5
520
330
1F
100
AcDbEntity
  8
Ｓ_１_１
  6
CONTINUOUS
 62
     3
100
AcDbLine
 10
952.9998759999999
 20
2270.198035
 30
0.0
 11
952.9998759999999
 21
876.2805330000001
 31
0.0
  0
ARC
  5
521
330
1F
100
AcDbEntity
  8
Ｓ_１_１
  6
EXLTYPE2
 62
     1
100
AcDbCircle
 10
2778.0000320434
 20
1622.824998
 30
0.0
 40
30.00000000000002
100
AcDbArc
 50
179.999991
 51
270.0000010000001
  0
ARC
  5
522
330
1F
100
AcDbEntity
  8
Ｓ_１_１
  6
EXLTYPE2
 62
     1
100
AcDbCircle
 10
2778.0000320434
 20
1712.825073
 30
0.0
 40
30.00000000000002
100
AcDbArc
 50
90.000003
 51
180.000005
  0
ARC
  5
523
330
1F
100
AcDbEntity
  8
Ｓ_１_１
  6
EXLTYPE2
 62
     1
100
AcDbCircle
 10
2778.0000320434
 20
1112.825043
 30
0.0
 40
30.00000000000002
100
AcDbArc
 50
90.000003
 51
180.000005
  0
ARC
  5
524
330
1F
100
AcDbEntity
  8
Ｓ_１_１
  6
EXLTYPE2
 62
     1
100
AcDbCircle
 10
2778.0000320434
 20
1022.825045
 30
0.0
 40
30.00000000000002
100
AcDbArc
 50
179.999991
 51
270.0000010000001
  0
LINE
  5
525
330
1F
100
AcDbEntity
  8
Ｓ_１_１
  6
EXLTYPE2
 62
     1
100
AcDbLine
 10
2748.0000320434
 20
1622.824998
 30
0.0
 11
2748.0000320434
 21
1712.825073
 31
0.0
  0
LINE
  5
526
330
1F
100
AcDbEntity
  8
Ｓ_１_１
  6
EXLTYPE2
 62
     1
100
AcDbLine
 10
2778.0000320434
 20
1592.824998
 30
0.0
 11
2858.000031043399
 21
1592.824998
 31
0.0
  0
LINE
  5
527
330
1F
100
AcDbEntity
  8
Ｓ_１_１
  6
EXLTYPE2
 62
     1
100
AcDbLine
 10
2778.0000320434
 20
1742.825072
 30
0.0
 11
2858.000031043399
 21
1742.825072
 31
0.0
  0
LINE
  5
528
330
1F
100
AcDbEntity
  8
Ｓ_１_１
  6
EXLTYPE2
 62
     1
100
AcDbLine
 10
2748.0000320434
 20
1022.825045
 30
0.0
 11
2748.0000320434
 21
1112.825043
 31
0.0
  0
LINE
  5
529
330
1F
100
AcDbEntity
  8
Ｓ_１_１
  6
EXLTYPE2
 62
     1
100
AcDbLine
 10
2778.0000320434
 20
1142.825043
 30
0.0
 11
2858.000031043399
 21
1142.825043
 31
0.0
  0
LINE
  5
52A
330
1F
100
AcDbEntity
  8
Ｓ_１_１
  6
EXLTYPE2
 62
     1
100
AcDbLine
 10
2778.0000320434
 20
992.8250450000002
 30
0.0
 11
2858.000031043399
 21
992.8250450000002
 31
0.0
  0
LINE
  5
52B
330
1F
100
AcDbEntity
  8
Ｓ_１_１
  6
EXLTYPE2
 62
     1
100
AcDbLine
 10
2832.3488830434
 20
2191.967713
 30
0.0
 11
2879.4645270434
 21
2186.153855
 31
0.0
  0
LINE
  5
52C
330
1F
100
AcDbEntity
  8
Ｓ_１_１
  6
EXLTYPE2
 62
     1
100
AcDbLine
 10
2849.1098810434
 20
2372.797521
 30
0.0
 11
2906.9094920434
 21
2365.66531
 31
0.0
  0
LINE
  5
52D
330
1F
100
AcDbEntity
  8
Ｓ_１_１
  6
EXLTYPE2
 62
     1
100
AcDbLine
 10
2695.212357043401
 20
1238.103667
 30
0.0
 11
2782.047578043399
 21
1227.388593
 31
0.0
  0
LINE
  5
52E
330
1F
100
AcDbEntity
  8
Ｓ_１_１
  6
EXLTYPE2
 62
     1
100
AcDbLine
 10
2731.1166560434
 20
1180.687843
 30
0.0
 11
2886.0736550434
 21
2436.46309
 31
0.0
  0
LINE
  5
52F
330
1F
100
AcDbEntity
  8
Ｓ_１_１
  6
EXLTYPE2
 62
     1
100
AcDbLine
 10
2811.1934670434
 20
1232.82508
 30
0.0
 11
2904.5493310434
 21
1232.82508
 31
0.0
  0
LINE
  5
530
330
1F
100
AcDbEntity
  8
Ｓ_１_１
  6
EXLTYPE2
 62
     1
100
AcDbLine
 10
2782.999727043401
 20
2208.954139
 30
0.0
 11
2932.9998010434
 21
2208.954139
 31
0.0
  0
LINE
  5
531
330
1F
100
AcDbEntity
  8
Ｓ_１_１
  6
EXLTYPE2
 62
     1
100
AcDbLine
 10
2858.000031043399
 20
829.0540670000001
 30
0.0
 11
2858.000031043399
 21
2271.50907
 31
0.0
  0
LINE
  5
532
330
1F
100
AcDbEntity
  8
Ｓ_１_１
  6
EXLTYPE2
 62
     1
100
AcDbLine
 10
2807.9999550434
 20
892.8251230000001
 30
0.0
 11
2907.9999540434
 21
892.8251230000001
 31
0.0
  0
LINE
  5
533
330
1F
100
AcDbEntity
  8
Ｓ_１_１
  6
EXLTYPE2
 62
     1
100
AcDbLine
 10
2857.9999540434
 20
847.136227
 30
0.0
 11
2857.9999540434
 21
1325.325155
 31
0.0
  0
ARC
  5
534
330
1F
100
AcDbEntity
  8
Ｓ_１_１
  6
EXLTYPE0
 62
     2
100
AcDbCircle
 10
2855.5506900434
 20
2189.104591
 30
0.0
 40
20.0
100
AcDbArc
 50
172.965525
 51
352.965516
  0
LINE
  5
535
330
1F
100
AcDbEntity
  8
Ｓ_１_１
  6
EXLTYPE0
 62
     2
100
AcDbLine
 10
2888.0823370434
 20
2126.121952
 30
0.0
 11
2901.3730580434
 21
2233.830278
 31
0.0
  0
LINE
  5
536
330
1F
100
AcDbEntity
  8
Ｓ_１_１
  6
EXLTYPE0
 62
     2
100
AcDbLine
 10
2826.0846150434
 20
2113.620535
 30
0.0
 11
2808.6844770434
 21
2135.919345
 31
0.0
  0
LINE
  5
537
330
1F
100
AcDbEntity
  8
Ｓ_１_１
  6
EXLTYPE0
 62
     2
100
AcDbLine
 10
2865.7834390434
 20
2108.721944
 30
0.0
 11
2888.0822480434
 21
2126.122083
 31
0.0
  0
LINE
  5
538
330
1F
100
AcDbEntity
  8
Ｓ_１_１
  6
EXLTYPE0
 62
     2
100
AcDbLine
 10
2865.783519043399
 20
2108.721854
 30
0.0
 11
2808.0000300434
 21
1640.442982
 31
0.0
  0
LINE
  5
539
330
1F
100
AcDbEntity
  8
Ｓ_１_１
  6
EXLTYPE0
 62
     2
100
AcDbLine
 10
2826.084614043401
 20
2113.620519
 30
0.0
 11
2808.0000270434
 21
1967.062558
 31
0.0
  0
LINE
  5
53A
330
1F
100
AcDbEntity
  8
Ｓ_１_１
  6
EXLTYPE0
 62
     2
100
AcDbLine
 10
2808.684527043401
 20
2135.919283
 30
0.0
 11
2821.9752490434
 21
2243.62761
 31
0.0
  0
LINE
  5
53B
330
1F
100
AcDbEntity
  8
Ｓ_１_１
  6
EXLTYPE0
 62
     2
100
AcDbLine
 10
2875.4001990434
 20
2186.655375
 30
0.0
 11
2891.3882290434
 21
2316.222753
 31
0.0
  0
LINE
  5
53C
330
1F
100
AcDbEntity
  8
Ｓ_１_１
  6
EXLTYPE0
 62
     2
100
AcDbLine
 10
2835.7012940434
 20
2191.554041
 30
0.0
 11
2845.1129280434
 21
2267.826143
 31
0.0
  0
LINE
  5
53D
330
1F
100
AcDbEntity
  8
Ｓ_１_１
  6
EXLTYPE0
 62
     2
100
AcDbLine
 10
2774.1939690434
 20
1203.168073
 30
0.0
 11
2751.8952190434
 21
1185.767983
 31
0.0
  0
LINE
  5
53E
330
1F
100
AcDbEntity
  8
Ｓ_１_１
  6
EXLTYPE0
 62
     2
100
AcDbLine
 10
2694.7961150434
 20
1212.965373
 30
0.0
 11
2712.1962330434
 21
1190.666591
 31
0.0
  0
LINE
  5
53F
330
1F
100
AcDbEntity
  8
Ｓ_１_１
  6
EXLTYPE0
 62
     2
100
AcDbLine
 10
2774.1939940434
 20
1203.168079
 30
0.0
 11
2781.6719320434
 21
1263.769469
 31
0.0
  0
LINE
  5
540
330
1F
100
AcDbEntity
  8
Ｓ_１_１
  6
EXLTYPE0
 62
     2
100
AcDbLine
 10
2694.7961840434
 20
1212.96541
 30
0.0
 11
2700.3419600434
 21
1257.908506
 31
0.0
  0
LINE
  5
541
330
1F
100
AcDbEntity
  8
Ｓ_１_１
  6
EXLTYPE0
 62
     2
100
AcDbLine
 10
2712.1963040434
 20
1190.666625
 30
0.0
 11
2751.8952090434
 21
1185.767959
 31
0.0
  0
LINE
  5
542
330
1F
100
AcDbEntity
  8
Ｓ_１_１
  6
EXLTYPE0
 62
     2
100
AcDbLine
 10
2795.4999550434
 20
1107.825082
 30
0.0
 11
2921.2942500434
 21
1107.825082
 31
0.0
  0
LINE
  5
543
330
1F
100
AcDbEntity
  8
Ｓ_１_１
  6
EXLTYPE0
 62
     2
100
AcDbLine
 10
2795.4999550434
 20
947.8251030000001
 30
0.0
 11
2920.5000300434
 21
947.8251030000001
 31
0.0
  0
CIRCLE
  5
544
330
1F
100
AcDbEntity
  8
Ｓ_１_１
  6
CONTINUOUS
 62
     3
100
AcDbCircle
 10
2858.000031043399
 20
2208.954139
 30
0.0
 40
30.00000000000002
  0
ARC
  5
545
330
1F
100
AcDbEntity
  8
Ｓ_１_１
  6
CONTINUOUS
 62
     3
100
AcDbCircle
 10
2858.000031043399
 20
1232.82508
 30
0.0
 40
30.00000000000002
100
AcDbArc
 50
281.5368430000003
 51
0.0
  0
ARC
  5
546
330
1F
100
AcDbEntity
  8
Ｓ_１_１
  6
CONTINUOUS
 62
     3
100
AcDbCircle
 10
2858.000031043399
 20
1232.82508
 30
0.0
 40
30.00000000000002
100
AcDbArc
 50
101.53708
 51
258.4629100000001
  0
ARC
  5
547
330
1F
100
AcDbEntity
  8
Ｓ_１_１
  6
CONTINUOUS
 62
     3
100
AcDbCircle
 10
2858.000031043399
 20
1232.82508
 30
0.0
 40
30.00000000000002
100
AcDbArc
 50
0.0
 51
78.46315699999998
  0
ARC
  5
548
330
1F
100
AcDbEntity
  8
Ｓ_１_１
  6
CONTINUOUS
 62
     3
100
AcDbCircle
 10
2858.000031043399
 20
1232.82508
 30
0.0
 40
44.999999
100
AcDbArc
 50
277.6621790000002
 51
0.0
  0
ARC
  5
549
330
1F
100
AcDbEntity
  8
Ｓ_１_１
  6
CONTINUOUS
 62
     3
100
AcDbCircle
 10
2858.000031043399
 20
1232.82508
 30
0.0
 40
44.999999
100
AcDbArc
 50
97.66233400000002
 51
262.337676
  0
CIRCLE
  5
54A
330
1F
100
AcDbEntity
  8
Ｓ_１_１
  6
CONTINUOUS
 62
     3
100
AcDbCircle
 10
2858.000031043399
 20
892.8251230000001
 30
0.0
 40
44.999999
  0
ARC
  5
54B
330
1F
100
AcDbEntity
  8
Ｓ_１_１
  6
CONTINUOUS
 62
     3
100
AcDbCircle
 10
2858.000031043399
 20
1232.82508
 30
0.0
 40
44.999999
100
AcDbArc
 50
0.0
 51
82.337821
  0
ARC
  5
54C
330
1F
100
AcDbEntity
  8
Ｓ_１_１
  6
CONTINUOUS
 62
     3
100
AcDbCircle
 10
2778.0000320434
 20
1712.825073
 30
0.0
 40
39.999999
100
AcDbArc
 50
90.000003
 51
180.000005
  0
ARC
  5
54D
330
1F
100
AcDbEntity
  8
Ｓ_１_１
  6
CONTINUOUS
 62
     3
100
AcDbCircle
 10
2778.0000320434
 20
1622.824998
 30
0.0
 40
39.999999
100
AcDbArc
 50
179.999991
 51
270.0000010000001
  0
ARC
  5
54E
330
1F
100
AcDbEntity
  8
Ｓ_１_１
  6
CONTINUOUS
 62
     3
100
AcDbCircle
 10
2778.0000320434
 20
1712.825073
 30
0.0
 40
20.0
100
AcDbArc
 50
90.000003
 51
180.000005
  0
ARC
  5
54F
330
1F
100
AcDbEntity
  8
Ｓ_１_１
  6
CONTINUOUS
 62
     3
100
AcDbCircle
 10
2778.0000320434
 20
1622.824998
 30
0.0
 40
20.0
100
AcDbArc
 50
179.999991
 51
270.0000010000001
  0
ARC
  5
550
330
1F
100
AcDbEntity
  8
Ｓ_１_１
  6
CONTINUOUS
 62
     3
100
AcDbCircle
 10
2778.0000320434
 20
1112.825043
 30
0.0
 40
20.0
100
AcDbArc
 50
90.000003
 51
180.000005
  0
ARC
  5
551
330
1F
100
AcDbEntity
  8
Ｓ_１_１
  6
CONTINUOUS
 62
     3
100
AcDbCircle
 10
2778.0000320434
 20
1112.825043
 30
0.0
 40
39.999999
100
AcDbArc
 50
90.000003
 51
180.000005
  0
ARC
  5
552
330
1F
100
AcDbEntity
  8
Ｓ_１_１
  6
CONTINUOUS
 62
     3
100
AcDbCircle
 10
2778.0000320434
 20
1022.825045
 30
0.0
 40
39.999999
100
AcDbArc
 50
179.999991
 51
270.0000010000001
  0
ARC
  5
553
330
1F
100
AcDbEntity
  8
Ｓ_１_１
  6
CONTINUOUS
 62
     3
100
AcDbCircle
 10
2778.0000320434
 20
1022.825045
 30
0.0
 40
20.0
100
AcDbArc
 50
179.999991
 51
270.0000010000001
  0
ARC
  5
554
330
1F
100
AcDbEntity
  8
Ｓ_１_１
  6
CONTINUOUS
 62
     3
100
AcDbCircle
 10
2857.9999540434
 20
1232.825118
 30
0.0
 40
20.0
100
AcDbArc
 50
107.457604
 51
252.5423920000002
  0
ARC
  5
555
330
1F
100
AcDbEntity
  8
Ｓ_１_１
  6
CONTINUOUS
 62
     3
100
AcDbCircle
 10
2857.9999540434
 20
1232.825118
 30
0.0
 40
20.0
100
AcDbArc
 50
287.4576060000001
 51
72.54239400000003
  0
ARC
  5
556
330
1F
100
AcDbEntity
  8
Ｓ_１_１
  6
CONTINUOUS
 62
     3
100
AcDbCircle
 10
2877.7810670434
 20
2369.25977
 30
0.0
 40
20.0
100
AcDbArc
 50
352.9655190000001
 51
90.000003
  0
ARC
  5
557
330
1F
100
AcDbEntity
  8
Ｓ_１_１
  6
CONTINUOUS
 62
     3
100
AcDbCircle
 10
2877.7810670434
 20
2369.25977
 30
0.0
 40
20.0
100
AcDbArc
 50
90.000003
 51
172.965525
  0
ARC
  5
558
330
1F
100
AcDbEntity
  8
Ｓ_１_１
  6
CONTINUOUS
 62
     3
100
AcDbCircle
 10
2731.4999410434
 20
1232.825118
 30
0.0
 40
39.999999
100
AcDbArc
 50
76.36250500000003
 51
210.778231
  0
CIRCLE
  5
559
330
1F
100
AcDbEntity
  8
Ｓ_１_１
  6
CONTINUOUS
 62
     3
100
AcDbCircle
 10
2737.5567650434
 20
1232.878524
 30
0.0
 40
25.00000000000002
  0
ARC
  5
55A
330
1F
100
AcDbEntity
  8
Ｓ_１_１
  6
CONTINUOUS
 62
     3
100
AcDbCircle
 10
2857.9997250434
 20
2208.954139
 30
0.0
 40
44.999999
100
AcDbArc
 50
0.0
 51
180.000005
  0
ARC
  5
55B
330
1F
100
AcDbEntity
  8
Ｓ_１_１
  6
CONTINUOUS
 62
     3
100
AcDbCircle
 10
2857.9997250434
 20
2208.954139
 30
0.0
 40
20.0
100
AcDbArc
 50
0.0
 51
180.000005
  0
ARC
  5
55C
330
1F
100
AcDbEntity
  8
Ｓ_１_１
  6
CONTINUOUS
 62
     3
100
AcDbCircle
 10
2857.9999540434
 20
1282.825155
 30
0.0
 40
6.000000000000005
100
AcDbArc
 50
359.9999970000002
 51
180.000005
  0
ARC
  5
55D
330
1F
100
AcDbEntity
  8
Ｓ_１_１
  6
CONTINUOUS
 62
     3
100
AcDbCircle
 10
2857.9999540434
 20
1182.825119
 30
0.0
 40
6.000000000000005
100
AcDbArc
 50
180.0000090000001
 51
0.0000010000000275
  0
ARC
  5
55E
330
1F
100
AcDbEntity
  8
Ｓ_１_１
  6
CONTINUOUS
 62
     3
100
AcDbCircle
 10
2857.9999540434
 20
892.8251230000001
 30
0.0
 40
20.0
100
AcDbArc
 50
89.99977700000002
 51
270.000219
  0
ARC
  5
55F
330
1F
100
AcDbEntity
  8
Ｓ_１_１
  6
CONTINUOUS
 62
     3
100
AcDbCircle
 10
2857.9999540434
 20
892.8251230000001
 30
0.0
 40
30.00000000000002
100
AcDbArc
 50
270.0001480000001
 51
89.99985200000002
  0
ARC
  5
560
330
1F
100
AcDbEntity
  8
Ｓ_１_１
  6
CONTINUOUS
 62
     3
100
AcDbCircle
 10
2857.9999540434
 20
892.8251230000001
 30
0.0
 40
30.00000000000002
100
AcDbArc
 50
89.99985200000002
 51
270.0001370000001
  0
ARC
  5
561
330
1F
100
AcDbEntity
  8
Ｓ_１_１
  6
CONTINUOUS
 62
     3
100
AcDbCircle
 10
2857.9997250434
 20
2208.954139
 30
0.0
 40
44.999999
100
AcDbArc
 50
179.999991
 51
0.0
  0
ARC
  5
562
330
1F
100
AcDbEntity
  8
Ｓ_１_１
  6
CONTINUOUS
 62
     3
100
AcDbCircle
 10
2857.9997250434
 20
2208.954139
 30
0.0
 40
20.0
100
AcDbArc
 50
179.999991
 51
0.0
  0
ARC
  5
563
330
1F
100
AcDbEntity
  8
Ｓ_１_１
  6
CONTINUOUS
 62
     3
100
AcDbCircle
 10
2857.9999540434
 20
892.8251230000001
 30
0.0
 40
20.0
100
AcDbArc
 50
270.000223
 51
89.99977700000002
  0
LINE
  5
564
330
1F
100
AcDbEntity
  8
Ｓ_１_１
  6
CONTINUOUS
 62
     3
100
AcDbLine
 10
2808.0000270434
 20
1967.062558
 30
0.0
 11
2781.5640850434
 21
1752.825011
 31
0.0
  0
LINE
  5
565
330
1F
100
AcDbEntity
  8
Ｓ_１_１
  6
CONTINUOUS
 62
     3
100
AcDbLine
 10
2808.0000300434
 20
1640.442982
 30
0.0
 11
2803.358133043399
 21
1602.824929
 31
0.0
  0
LINE
  5
566
330
1F
100
AcDbEntity
  8
Ｓ_１_１
  6
CONTINUOUS
 62
     3
100
AcDbLine
 10
2779.0961870434
 20
1732.825103
 30
0.0
 11
2763.7864490434
 21
1608.754592
 31
0.0
  0
LINE
  5
567
330
1F
100
AcDbEntity
  8
Ｓ_１_１
  6
CONTINUOUS
 62
     3
100
AcDbLine
 10
2761.0518040434
 20
1586.592965
 30
0.0
 11
2723.2182880434
 21
1279.989179
 31
0.0
  0
LINE
  5
568
330
1F
100
AcDbEntity
  8
Ｓ_１_１
  6
CONTINUOUS
 62
     3
100
AcDbLine
 10
2800.8902350434
 20
1582.825022
 30
0.0
 11
2762.9171920434
 21
1275.090514
 31
0.0
  0
LINE
  5
569
330
1F
100
AcDbEntity
  8
Ｓ_１_１
  6
CONTINUOUS
 62
     3
100
AcDbLine
 10
2700.3419630434
 20
1257.908548
 30
0.0
 11
2700.9195230434
 21
1262.589005
 31
0.0
  0
LINE
  5
56A
330
1F
100
AcDbEntity
  8
Ｓ_１_１
  6
CONTINUOUS
 62
     3
100
AcDbLine
 10
2762.917153043401
 20
1275.090473
 30
0.0
 11
2769.9641640434
 21
1266.059513
 31
0.0
  0
LINE
  5
56B
330
1F
100
AcDbEntity
  8
Ｓ_１_１
  6
CONTINUOUS
 62
     3
100
AcDbLine
 10
2723.2182240434
 20
1279.989118
 30
0.0
 11
2700.9194760434
 21
1262.589026
 31
0.0
  0
LINE
  5
56C
330
1F
100
AcDbEntity
  8
Ｓ_１_１
  6
CONTINUOUS
 62
     3
100
AcDbLine
 10
2808.000031043399
 20
2258.954138
 30
0.0
 11
2908.0000300434
 21
2258.954138
 31
0.0
  0
LINE
  5
56D
330
1F
100
AcDbEntity
  8
Ｓ_１_１
  6
CONTINUOUS
 62
     3
100
AcDbLine
 10
2908.0000300434
 20
2108.954141
 30
0.0
 11
2924.0000140434
 21
2108.954141
 31
0.0
  0
LINE
  5
56E
330
1F
100
AcDbEntity
  8
Ｓ_１_１
  6
CONTINUOUS
 62
     3
100
AcDbLine
 10
2894.000015043399
 20
2308.954138
 30
0.0
 11
2924.0000140434
 21
2308.954138
 31
0.0
  0
LINE
  5
56F
330
1F
100
AcDbEntity
  8
Ｓ_１_１
  6
CONTINUOUS
 62
     3
100
AcDbLine
 10
2894.000101043399
 20
2308.954135
 30
0.0
 11
2838.7377500434
 21
2258.954118
 31
0.0
  0
LINE
  5
570
330
1F
100
AcDbEntity
  8
Ｓ_１_１
  6
CONTINUOUS
 62
     3
100
AcDbLine
 10
2808.000031043399
 20
1602.824998
 30
0.0
 11
2808.000031043399
 21
1732.825072
 31
0.0
  0
LINE
  5
571
330
1F
100
AcDbEntity
  8
Ｓ_１_１
  6
CONTINUOUS
 62
     3
100
AcDbLine
 10
2808.000031043399
 20
1752.825072
 30
0.0
 11
2808.000031043399
 21
2258.954138
 31
0.0
  0
LINE
  5
572
330
1F
100
AcDbEntity
  8
Ｓ_１_１
  6
CONTINUOUS
 62
     3
100
AcDbLine
 10
2848.000031043399
 20
1732.825072
 30
0.0
 11
2848.000031043399
 21
1752.825072
 31
0.0
  0
LINE
  5
573
330
1F
100
AcDbEntity
  8
Ｓ_１_１
  6
CONTINUOUS
 62
     3
100
AcDbLine
 10
2778.0000320434
 20
1752.825072
 30
0.0
 11
2848.000031043399
 21
1752.825072
 31
0.0
  0
LINE
  5
574
330
1F
100
AcDbEntity
  8
Ｓ_１_１
  6
CONTINUOUS
 62
     3
100
AcDbLine
 10
2738.0000320434
 20
1622.824998
 30
0.0
 11
2738.0000320434
 21
1712.825073
 31
0.0
  0
LINE
  5
575
330
1F
100
AcDbEntity
  8
Ｓ_１_１
  6
CONTINUOUS
 62
     3
100
AcDbLine
 10
2778.0000320434
 20
1602.824998
 30
0.0
 11
2848.000031043399
 21
1602.824998
 31
0.0
  0
LINE
  5
576
330
1F
100
AcDbEntity
  8
Ｓ_１_１
  6
CONTINUOUS
 62
     3
100
AcDbLine
 10
2758.0000320434
 20
1622.824998
 30
0.0
 11
2758.0000320434
 21
1712.825073
 31
0.0
  0
LINE
  5
577
330
1F
100
AcDbEntity
  8
Ｓ_１_１
  6
CONTINUOUS
 62
     3
100
AcDbLine
 10
2848.000031043399
 20
1582.824998
 30
0.0
 11
2848.000031043399
 21
1602.824998
 31
0.0
  0
LINE
  5
578
330
1F
100
AcDbEntity
  8
Ｓ_１_１
  6
CONTINUOUS
 62
     3
100
AcDbLine
 10
2778.0000320434
 20
1582.824998
 30
0.0
 11
2848.000031043399
 21
1582.824998
 31
0.0
  0
LINE
  5
579
330
1F
100
AcDbEntity
  8
Ｓ_１_１
  6
CONTINUOUS
 62
     3
100
AcDbLine
 10
2778.0000320434
 20
1732.825072
 30
0.0
 11
2848.000031043399
 21
1732.825072
 31
0.0
  0
LINE
  5
57A
330
1F
100
AcDbEntity
  8
Ｓ_１_１
  6
CONTINUOUS
 62
     3
100
AcDbLine
 10
2891.7252480434
 20
2318.953961
 30
0.0
 11
2897.6305030434
 21
2366.810295
 31
0.0
  0
LINE
  5
57B
330
1F
100
AcDbEntity
  8
Ｓ_１_１
  6
CONTINUOUS
 62
     3
100
AcDbLine
 10
2845.1129280434
 20
2267.826143
 30
0.0
 11
2857.9315990434
 21
2371.708961
 31
0.0
  0
LINE
  5
57C
330
1F
100
AcDbEntity
  8
Ｓ_１_１
  6
CONTINUOUS
 62
     3
100
AcDbLine
 10
2821.9752490434
 20
2243.62761
 30
0.0
 11
2842.9808120434
 21
2413.857199
 31
0.0
  0
LINE
  5
57D
330
1F
100
AcDbEntity
  8
Ｓ_１_１
  6
CONTINUOUS
 62
     3
100
AcDbLine
 10
2911.8769610434
 20
2318.954159
 30
0.0
 11
2922.3786210434
 21
2404.059867
 31
0.0
  0
LINE
  5
57E
330
1F
100
AcDbEntity
  8
Ｓ_１_１
  6
CONTINUOUS
 62
     3
100
AcDbLine
 10
2848.000031043399
 20
1132.825043
 30
0.0
 11
2848.000031043399
 21
1152.825005
 31
0.0
  0
LINE
  5
57F
330
1F
100
AcDbEntity
  8
Ｓ_１_１
  6
CONTINUOUS
 62
     3
100
AcDbLine
 10
2848.000031043399
 20
982.8250450000002
 30
0.0
 11
2848.000031043399
 21
1002.825045
 31
0.0
  0
LINE
  5
580
330
1F
100
AcDbEntity
  8
Ｓ_１_１
  6
CONTINUOUS
 62
     3
100
AcDbLine
 10
2808.000031043399
 20
1152.825005
 30
0.0
 11
2808.000031043399
 21
1582.824998
 31
0.0
  0
LINE
  5
581
330
1F
100
AcDbEntity
  8
Ｓ_１_１
  6
CONTINUOUS
 62
     3
100
AcDbLine
 10
2802.9999550434
 20
1152.825005
 30
0.0
 11
2802.9999550434
 21
1272.825117
 31
0.0
  0
LINE
  5
582
330
1F
100
AcDbEntity
  8
Ｓ_１_１
  6
CONTINUOUS
 62
     3
100
AcDbLine
 10
2795.4999550434
 20
1152.825005
 30
0.0
 11
2795.4999550434
 21
1282.825155
 31
0.0
  0
LINE
  5
583
330
1F
100
AcDbEntity
  8
Ｓ_１_１
  6
CONTINUOUS
 62
     3
100
AcDbLine
 10
2786.4999400434
 20
1152.825005
 30
0.0
 11
2786.4999400434
 21
1272.825117
 31
0.0
  0
LINE
  5
584
330
1F
100
AcDbEntity
  8
Ｓ_１_１
  6
CONTINUOUS
 62
     3
100
AcDbLine
 10
2808.000031043399
 20
1002.825045
 30
0.0
 11
2808.000031043399
 21
1132.825043
 31
0.0
  0
LINE
  5
585
330
1F
100
AcDbEntity
  8
Ｓ_１_１
  6
CONTINUOUS
 62
     3
100
AcDbLine
 10
2802.9999550434
 20
1002.825045
 30
0.0
 11
2802.9999550434
 21
1132.825043
 31
0.0
  0
LINE
  5
586
330
1F
100
AcDbEntity
  8
Ｓ_１_１
  6
CONTINUOUS
 62
     3
100
AcDbLine
 10
2795.4999550434
 20
1002.825045
 30
0.0
 11
2795.4999550434
 21
1132.825043
 31
0.0
  0
LINE
  5
587
330
1F
100
AcDbEntity
  8
Ｓ_１_１
  6
CONTINUOUS
 62
     3
100
AcDbLine
 10
2786.4999400434
 20
1002.825045
 30
0.0
 11
2786.4999400434
 21
1132.825043
 31
0.0
  0
LINE
  5
588
330
1F
100
AcDbEntity
  8
Ｓ_１_１
  6
CONTINUOUS
 62
     3
100
AcDbLine
 10
2758.0000320434
 20
1022.825045
 30
0.0
 11
2758.0000320434
 21
1112.825043
 31
0.0
  0
LINE
  5
589
330
1F
100
AcDbEntity
  8
Ｓ_１_１
  6
CONTINUOUS
 62
     3
100
AcDbLine
 10
2738.0000320434
 20
1022.825045
 30
0.0
 11
2738.0000320434
 21
1112.825043
 31
0.0
  0
LINE
  5
58A
330
1F
100
AcDbEntity
  8
Ｓ_１_１
  6
CONTINUOUS
 62
     3
100
AcDbLine
 10
2778.0000320434
 20
1132.825043
 30
0.0
 11
2848.000031043399
 21
1132.825043
 31
0.0
  0
LINE
  5
58B
330
1F
100
AcDbEntity
  8
Ｓ_１_１
  6
CONTINUOUS
 62
     3
100
AcDbLine
 10
2778.0000320434
 20
1152.825005
 30
0.0
 11
2848.000031043399
 21
1152.825005
 31
0.0
  0
LINE
  5
58C
330
1F
100
AcDbEntity
  8
Ｓ_１_１
  6
CONTINUOUS
 62
     3
100
AcDbLine
 10
2778.0000320434
 20
1002.825045
 30
0.0
 11
2848.000031043399
 21
1002.825045
 31
0.0
  0
LINE
  5
58D
330
1F
100
AcDbEntity
  8
Ｓ_１_１
  6
CONTINUOUS
 62
     3
100
AcDbLine
 10
2778.0000320434
 20
982.8250450000002
 30
0.0
 11
2848.000031043399
 21
982.8250450000002
 31
0.0
  0
LINE
  5
58E
330
1F
100
AcDbEntity
  8
Ｓ_１_１
  6
CONTINUOUS
 62
     3
100
AcDbLine
 10
2922.3786760434
 20
2404.059939
 30
0.0
 11
2904.9785370434
 21
2426.358748
 31
0.0
  0
LINE
  5
58F
330
1F
100
AcDbEntity
  8
Ｓ_１_１
  6
CONTINUOUS
 62
     3
100
AcDbLine
 10
2842.9808820434
 20
2413.857259
 30
0.0
 11
2865.2796920434
 21
2431.257396
 31
0.0
  0
LINE
  5
590
330
1F
100
AcDbEntity
  8
Ｓ_１_１
  6
CONTINUOUS
 62
     3
100
AcDbLine
 10
2865.2795970434
 20
2431.257318
 30
0.0
 11
2904.9785020434
 21
2426.358652
 31
0.0
  0
LINE
  5
591
330
1F
100
AcDbEntity
  8
Ｓ_１_１
  6
CONTINUOUS
 62
     3
100
AcDbLine
 10
2758.0000320434
 20
1112.825081
 30
0.0
 11
2786.4999400434
 21
1112.825081
 31
0.0
  0
LINE
  5
592
330
1F
100
AcDbEntity
  8
Ｓ_１_１
  6
CONTINUOUS
 62
     3
100
AcDbLine
 10
2743.9653100434
 20
1133.840223
 30
0.0
 11
2697.1466370434
 21
1212.334831
 31
0.0
  0
LINE
  5
593
330
1F
100
AcDbEntity
  8
Ｓ_１_１
  6
CONTINUOUS
 62
     3
100
AcDbLine
 10
2786.4999310434
 20
1262.82513
 30
0.0
 11
2739.178450043401
 21
1272.081217
 31
0.0
  0
LINE
  5
594
330
1F
100
AcDbEntity
  8
Ｓ_１_１
  6
CONTINUOUS
 62
     3
100
AcDbLine
 10
2923.9997850434
 20
2428.954136
 30
0.0
 11
2932.9998010434
 21
2428.954136
 31
0.0
  0
LINE
  5
595
330
1F
100
AcDbEntity
  8
Ｓ_１_１
  6
CONTINUOUS
 62
     3
100
AcDbLine
 10
2923.9997850434
 20
1988.954142
 30
0.0
 11
2932.9998010434
 21
1988.954142
 31
0.0
  0
LINE
  5
596
330
1F
100
AcDbEntity
  8
Ｓ_１_１
  6
CONTINUOUS
 62
     3
100
AcDbLine
 10
2932.9998010434
 20
2428.954136
 30
0.0
 11
2932.9998010434
 21
1988.954142
 31
0.0
  0
LINE
  5
597
330
1F
100
AcDbEntity
  8
Ｓ_１_１
  6
CONTINUOUS
 62
     3
100
AcDbLine
 10
2908.0000300434
 20
1272.825117
 30
0.0
 11
2912.9999540434
 21
1272.825117
 31
0.0
  0
LINE
  5
598
330
1F
100
AcDbEntity
  8
Ｓ_１_１
  6
CONTINUOUS
 62
     3
100
AcDbLine
 10
2908.0000300434
 20
1282.825155
 30
0.0
 11
2920.5000300434
 21
1282.825155
 31
0.0
  0
LINE
  5
599
330
1F
100
AcDbEntity
  8
Ｓ_１_１
  6
CONTINUOUS
 62
     3
100
AcDbLine
 10
2863.9999390434
 20
1182.825119
 30
0.0
 11
2863.9999390434
 21
1282.825155
 31
0.0
  0
LINE
  5
59A
330
1F
100
AcDbEntity
  8
Ｓ_１_１
  6
CONTINUOUS
 62
     3
100
AcDbLine
 10
2851.9999700434
 20
1182.825119
 30
0.0
 11
2851.9999700434
 21
1282.825155
 31
0.0
  0
LINE
  5
59B
330
1F
100
AcDbEntity
  8
Ｓ_１_１
  6
CONTINUOUS
 62
     3
100
AcDbLine
 10
2786.4999400434
 20
852.8251230000001
 30
0.0
 11
2786.4999400434
 21
982.8250450000002
 31
0.0
  0
LINE
  5
59C
330
1F
100
AcDbEntity
  8
Ｓ_１_１
  6
CONTINUOUS
 62
     3
100
AcDbLine
 10
2795.4999550434
 20
842.825124
 30
0.0
 11
2795.4999550434
 21
982.8250450000002
 31
0.0
  0
LINE
  5
59D
330
1F
100
AcDbEntity
  8
Ｓ_１_１
  6
CONTINUOUS
 62
     3
100
AcDbLine
 10
2802.9999550434
 20
852.8251230000001
 30
0.0
 11
2802.9999550434
 21
982.8250450000002
 31
0.0
  0
LINE
  5
59E
330
1F
100
AcDbEntity
  8
Ｓ_１_１
  6
CONTINUOUS
 62
     3
100
AcDbLine
 10
2912.9999540434
 20
852.8251230000001
 30
0.0
 11
2912.9999540434
 21
1272.825117
 31
0.0
  0
LINE
  5
59F
330
1F
100
AcDbEntity
  8
Ｓ_１_１
  6
CONTINUOUS
 62
     3
100
AcDbLine
 10
2908.0000300434
 20
842.825124
 30
0.0
 11
2908.0000300434
 21
2258.954138
 31
0.0
  0
LINE
  5
5A0
330
1F
100
AcDbEntity
  8
Ｓ_１_１
  6
CONTINUOUS
 62
     3
100
AcDbLine
 10
2908.0000300434
 20
852.8251230000001
 30
0.0
 11
2912.9999540434
 21
852.8251230000001
 31
0.0
  0
LINE
  5
5A1
330
1F
100
AcDbEntity
  8
Ｓ_１_１
  6
CONTINUOUS
 62
     3
100
AcDbLine
 10
2896.3863370434
 20
842.825124
 30
0.0
 11
2920.5000300434
 21
842.825124
 31
0.0
  0
LINE
  5
5A2
330
1F
100
AcDbEntity
  8
Ｓ_１_１
  6
CONTINUOUS
 62
     3
100
AcDbLine
 10
2808.000031043399
 20
842.825028
 30
0.0
 11
2808.000031043399
 21
982.8250450000002
 31
0.0
  0
LINE
  5
5A3
330
1F
100
AcDbEntity
  8
Ｓ_１_１
  6
CONTINUOUS
 62
     3
100
AcDbLine
 10
2923.9997850434
 20
2428.954136
 30
0.0
 11
2923.9997850434
 21
1988.954142
 31
0.0
  0
LINE
  5
5A4
330
1F
100
AcDbEntity
  8
Ｓ_１_１
  6
CONTINUOUS
 62
     3
100
AcDbLine
 10
2920.5000300434
 20
1272.825117
 30
0.0
 11
2929.5000450434
 21
1272.825117
 31
0.0
  0
LINE
  5
5A5
330
1F
100
AcDbEntity
  8
Ｓ_１_１
  6
CONTINUOUS
 62
     3
100
AcDbLine
 10
2795.4999550434
 20
1272.825117
 30
0.0
 11
2786.4999400434
 21
1272.825117
 31
0.0
  0
LINE
  5
5A6
330
1F
100
AcDbEntity
  8
Ｓ_１_１
  6
CONTINUOUS
 62
     3
100
AcDbLine
 10
2786.4999400434
 20
852.8251230000001
 30
0.0
 11
2795.4999550434
 21
852.8251230000001
 31
0.0
  0
LINE
  5
5A7
330
1F
100
AcDbEntity
  8
Ｓ_１_１
  6
CONTINUOUS
 62
     3
100
AcDbLine
 10
2920.5000300434
 20
852.8251230000001
 30
0.0
 11
2929.5000450434
 21
852.8251230000001
 31
0.0
  0
LINE
  5
5A8
330
1F
100
AcDbEntity
  8
Ｓ_１_１
  6
CONTINUOUS
 62
     3
100
AcDbLine
 10
2802.9999550434
 20
852.8251230000001
 30
0.0
 11
2808.000031043399
 21
852.8251230000001
 31
0.0
  0
LINE
  5
5A9
330
1F
100
AcDbEntity
  8
Ｓ_１_１
  6
CONTINUOUS
 62
     3
100
AcDbLine
 10
2929.5000450434
 20
852.8251230000001
 30
0.0
 11
2929.5000450434
 21
1272.482519
 31
0.0
  0
LINE
  5
5AA
330
1F
100
AcDbEntity
  8
Ｓ_１_１
  6
CONTINUOUS
 62
     3
100
AcDbLine
 10
2802.9999550434
 20
1272.825117
 30
0.0
 11
2805.5039990434
 21
1272.825117
 31
0.0
  0
LINE
  5
5AB
330
1F
100
AcDbEntity
  8
Ｓ_１_１
  6
CONTINUOUS
 62
     3
100
AcDbLine
 10
2795.4999550434
 20
842.825028
 30
0.0
 11
2908.0000300434
 21
842.825028
 31
0.0
  0
LINE
  5
5AC
330
1F
100
AcDbEntity
  8
Ｓ_１_１
  6
CONTINUOUS
 62
     3
100
AcDbLine
 10
2920.5000300434
 20
842.825124
 30
0.0
 11
2920.5000300434
 21
1282.825155
 31
0.0
  0
LINE
  5
5AD
330
1F
100
AcDbEntity
  8
Ｓ_１_１
  6
CONTINUOUS
 62
     3
100
AcDbLine
 10
2795.4999550434
 20
1282.825155
 30
0.0
 11
2808.000031043399
 21
1282.825155
 31
0.0
  0
DIMENSION
  5
5AE
330
1F
100
AcDbEntity
  8
Ｓ_１_１
  6
CONTINUOUS
 62
     2
100
AcDbDimension
  2
*D36
 10
1365.0
 20
766.0000019999999
 30
0.0
 11
1337.5
 21
708.000001
 31
0.0
 70
   160
  3
ISO-25
100
AcDbAlignedDimension
 13
1580.000002
 23
650.0
 33
0.0
 14
1667.000018
 24
766.0000019999999
 34
0.0
 50
90.0
100
AcDbRotatedDimension
1001
ACAD
1000
DSTYLE
1002
{
1070
   270
1070
     2
1070
     6
1000
EX_NORM
1070
     7
1000
EX_NORM
1070
    41
1040
30.0
1070
    42
1040
15.0
1070
    44
1040
10.00000000000023
1070
    73
1070
     0
1070
    74
1070
     0
1070
    75
1070
     0
1070
    76
1070
     0
1070
    77
1070
     1
1070
    78
1070
     8
1070
   140
1040
34.6290415704388
1070
   147
1040
0.0
1070
   173
1070
     1
1070
   176
1070
     2
1070
   177
1070
     2
1070
   178
1070
     2
1070
   271
1070
     2
1070
   277
1070
     2
1070
   279
1070
     2
1070
   280
1070
     0
1070
   287
1070
     5
1070
   340
1005
12A
1002
}
  0
DIMENSION
  5
5BB
330
1F
100
AcDbEntity
  8
Ｓ_１_１
  6
CONTINUOUS
 62
     2
100
AcDbDimension
  2
*D37
 10
1365.0
 20
771.0000020000001
 30
0.0
 11
1337.5
 21
768.5000020000001
 31
0.0
 70
   160
  3
ISO-25
100
AcDbAlignedDimension
 13
1667.000018
 23
766.0000019999999
 33
0.0
 14
1691.499998
 24
771.0000020000001
 34
0.0
 50
90.0
100
AcDbRotatedDimension
1001
ACAD
1000
DSTYLE
1002
{
1070
   270
1070
     2
1070
     6
1000
EX_NONE
1070
     7
1000
EX_NONE
1070
    41
1040
0.0
1070
    42
1040
15.0
1070
    44
1040
10.0
1070
    73
1070
     0
1070
    74
1070
     0
1070
    75
1070
     1
1070
    76
1070
     0
1070
    77
1070
     1
1070
    78
1070
     8
1070
   140
1040
34.6290415704388
1070
   147
1040
0.0
1070
   173
1070
     1
1070
   176
1070
     2
1070
   177
1070
     2
1070
   178
1070
     2
1070
   271
1070
     2
1070
   277
1070
     2
1070
   279
1070
     2
1070
   280
1070
     0
1070
   287
1070
     5
1070
   340
1005
12A
1002
}
  0
DIMENSION
  5
5C5
330
1F
100
AcDbEntity
  8
Ｓ_１_１
  6
CONTINUOUS
 62
     2
100
AcDbDimension
  2
*D38
 10
1365.0
 20
816.000001
 30
0.0
 11
1287.5
 21
793.5000014999999
 31
0.0
 70
   160
  3
ISO-25
100
AcDbAlignedDimension
 13
1691.499998
 23
771.0000020000001
 33
0.0
 14
1675.499998
 24
816.000001
 34
0.0
 50
90.0
100
AcDbRotatedDimension
1001
ACAD
1000
DSTYLE
1002
{
1070
   270
1070
     2
1070
     6
1000
EX_BCIR
1070
     7
1000
EX_NONE
1070
    41
1040
10.0
1070
    42
1040
15.0
1070
    44
1040
10.0
1070
    73
1070
     0
1070
    74
1070
     0
1070
    75
1070
     1
1070
    76
1070
     0
1070
    77
1070
     1
1070
    78
1070
     8
1070
   140
1040
34.6290415704388
1070
   147
1040
0.0
1070
   173
1070
     1
1070
   176
1070
     2
1070
   177
1070
     2
1070
   178
1070
     2
1070
   271
1070
     2
1070
   277
1070
     2
1070
   279
1070
     2
1070
   280
1070
     0
1070
   287
1070
     5
1070
   340
1005
12A
1002
}
  0
DIMENSION
  5
5D1
330
1F
100
AcDbEntity
  8
Ｓ_１_１
  6
CONTINUOUS
 62
     2
100
AcDbDimension
  2
*D39
 10
1365.0
 20
866.0
 30
0.0
 11
1337.5
 21
841.0000005
 31
0.0
 70
   160
  3
ISO-25
100
AcDbAlignedDimension
 13
1675.499998
 23
816.000001
 33
0.0
 14
1580.000002
 24
866.0
 34
0.0
 50
90.0
100
AcDbRotatedDimension
1001
ACAD
1000
DSTYLE
1002
{
1070
   270
1070
     2
1070
     6
1000
EX_BCIR
1070
     7
1000
EX_NONE
1070
    41
1040
10.0
1070
    42
1040
15.0
1070
    44
1040
10.0
1070
    73
1070
     0
1070
    74
1070
     0
1070
    75
1070
     1
1070
    76
1070
     0
1070
    77
1070
     1
1070
    78
1070
     8
1070
   140
1040
34.6290415704388
1070
   147
1040
0.0
1070
   173
1070
     1
1070
   176
1070
     2
1070
   177
1070
     2
1070
   178
1070
     2
1070
   271
1070
     2
1070
   277
1070
     2
1070
   279
1070
     2
1070
   280
1070
     0
1070
   287
1070
     5
1070
   340
1005
12A
1002
}
  0
DIMENSION
  5
5DD
330
1F
100
AcDbEntity
  8
Ｓ_１_１
  6
CONTINUOUS
 62
     2
100
AcDbDimension
  2
*D40
 10
1365.0
 20
874.999996
 30
0.0
 11
1287.5
 21
870.499998
 31
0.0
 70
   160
  3
ISO-25
100
AcDbAlignedDimension
 13
1580.000002
 23
866.0
 33
0.0
 14
1570.000003
 24
874.999996
 34
0.0
 50
90.0
100
AcDbRotatedDimension
1001
ACAD
1000
DSTYLE
1002
{
1070
   270
1070
     2
1070
     6
1000
EX_BCIR
1070
     7
1000
EX_NONE
1070
    41
1040
10.0
1070
    42
1040
15.0
1070
    44
1040
10.0
1070
    73
1070
     0
1070
    74
1070
     0
1070
    75
1070
     1
1070
    76
1070
     0
1070
    77
1070
     1
1070
    78
1070
     8
1070
   140
1040
34.6290415704388
1070
   147
1040
0.0
1070
   173
1070
     1
1070
   176
1070
     2
1070
   177
1070
     2
1070
   178
1070
     2
1070
   271
1070
     2
1070
   277
1070
     2
1070
   279
1070
     2
1070
   280
1070
     0
1070
   287
1070
     5
1070
   340
1005
12A
1002
}
  0
DIMENSION
  5
5EB
330
1F
100
AcDbEntity
  8
Ｓ_１_１
  6
CONTINUOUS
 62
     2
100
AcDbDimension
  2
*D41
 10
1365.0
 20
999.999995
 30
0.0
 11
1337.5
 21
937.4999955000001
 31
0.0
 70
   160
  3
ISO-25
100
AcDbAlignedDimension
 13
1570.000003
 23
874.999996
 33
0.0
 14
1570.000003
 24
999.999995
 34
0.0
 50
90.0
100
AcDbRotatedDimension
1001
ACAD
1000
DSTYLE
1002
{
1070
   270
1070
     2
1070
     6
1000
EX_NORM
1070
     7
1000
EX_NORM
1070
    41
1040
30.0
1070
    42
1040
15.0
1070
    44
1040
10.0
1070
    73
1070
     0
1070
    74
1070
     0
1070
    75
1070
     1
1070
    76
1070
     0
1070
    77
1070
     1
1070
    78
1070
     8
1070
   140
1040
34.6290415704388
1070
   147
1040
0.0
1070
   173
1070
     1
1070
   176
1070
     2
1070
   177
1070
     2
1070
   178
1070
     2
1070
   271
1070
     2
1070
   277
1070
     2
1070
   279
1070
     2
1070
   280
1070
     0
1070
   287
1070
     5
1070
   340
1005
12A
1002
}
  0
DIMENSION
  5
5F7
330
1F
100
AcDbEntity
  8
Ｓ_１_１
  6
CONTINUOUS
 62
     2
100
AcDbDimension
  2
*D42
 10
1365.0
 20
1009.00001
 30
0.0
 11
1337.5
 21
1004.5000025
 31
0.0
 70
   160
  3
ISO-25
100
AcDbAlignedDimension
 13
1570.000003
 23
999.999995
 33
0.0
 14
1580.000002
 24
1009.00001
 34
0.0
 50
90.0
100
AcDbRotatedDimension
1001
ACAD
1000
DSTYLE
1002
{
1070
   270
1070
     2
1070
     6
1000
EX_NONE
1070
     7
1000
EX_NONE
1070
    41
1040
0.0
1070
    42
1040
15.0
1070
    44
1040
10.0
1070
    73
1070
     0
1070
    74
1070
     0
1070
    75
1070
     1
1070
    76
1070
     0
1070
    77
1070
     1
1070
    78
1070
     8
1070
   140
1040
34.6290415704388
1070
   147
1040
0.0
1070
   173
1070
     1
1070
   176
1070
     2
1070
   177
1070
     2
1070
   178
1070
     2
1070
   271
1070
     2
1070
   277
1070
     2
1070
   279
1070
     2
1070
   280
1070
     0
1070
   287
1070
     5
1070
   340
1005
12A
1002
}
  0
DIMENSION
  5
601
330
1F
100
AcDbEntity
  8
Ｓ_１_１
  6
CONTINUOUS
 62
     2
100
AcDbDimension
  2
*D43
 10
1365.0
 20
1039.000009
 30
0.0
 11
1337.5
 21
1091.500008999999
 31
0.0
 70
   160
  3
ISO-25
100
AcDbAlignedDimension
 13
1580.000002
 23
1009.00001
 33
0.0
 14
1678.000021
 24
1039.000009
 34
0.0
 50
90.0
100
AcDbRotatedDimension
1001
ACAD
1000
DSTYLE
1002
{
1070
   270
1070
     2
1070
     6
1000
EX_BCIR
1070
     7
1000
EX_NORM
1070
    41
1040
10.0
1070
    42
1040
15.0
1070
    44
1040
10.0
1070
    73
1070
     0
1070
    74
1070
     0
1070
    75
1070
     1
1070
    76
1070
     0
1070
    77
1070
     1
1070
    78
1070
     8
1070
   140
1040
34.6290415704388
1070
   147
1040
0.0
1070
   173
1070
     1
1070
   176
1070
     2
1070
   177
1070
     2
1070
   178
1070
     2
1070
   271
1070
     2
1070
   277
1070
     2
1070
   279
1070
     2
1070
   280
1070
     2
1070
   287
1070
     5
1070
   340
1005
12A
1002
}
  0
LINE
  5
60D
330
1F
100
AcDbEntity
  8
Ｓ_１_１
  6
CONTINUOUS
 62
     3
100
AcDbLine
 10
2134.999994
 20
2465.585453
 30
0.0
 11
2134.999994
 21
672.0
 31
0.0
  0
LINE
  5
60E
330
1F
100
AcDbEntity
  8
Ｓ_１_１
  6
CONTINUOUS
 62
     3
100
AcDbLine
 10
2093.999991
 20
672.0
 30
0.0
 11
2162.9
 21
672.0
 31
0.0
  0
LINE
  5
60F
330
1F
100
AcDbEntity
  8
Ｓ_１_１
  6
CONTINUOUS
 62
     3
100
AcDbLine
 10
2093.999991
 20
650.0
 30
0.0
 11
2162.9
 21
650.0
 31
0.0
  0
DIMENSION
  5
610
330
1F
100
AcDbEntity
  8
Ｓ_１_１
  6
CONTINUOUS
 62
     2
100
AcDbDimension
  2
*D44
 10
1620.000002
 20
455.0
 30
0.0
 11
1595.0000025
 21
482.5
 31
0.0
 70
   160
  3
ISO-25
100
AcDbAlignedDimension
 13
1570.000003
 23
874.999996
 33
0.0
 14
1620.000002
 24
887.499996
 34
0.0
100
AcDbRotatedDimension
1001
ACAD
1000
DSTYLE
1002
{
1070
   270
1070
     2
1070
     6
1000
EX_NORM
1070
     7
1000
EX_NONE
1070
    41
1040
30.0
1070
    42
1040
15.0
1070
    44
1040
10.0
1070
    73
1070
     0
1070
    74
1070
     0
1070
    75
1070
     1
1070
    76
1070
     0
1070
    77
1070
     1
1070
    78
1070
     8
1070
   140
1040
34.6290415704388
1070
   147
1040
0.0
1070
   173
1070
     1
1070
   176
1070
     2
1070
   177
1070
     2
1070
   178
1070
     2
1070
   271
1070
     2
1070
   277
1070
     2
1070
   279
1070
     2
1070
   280
1070
     0
1070
   287
1070
     5
1070
   340
1005
12A
1002
}
  0
DIMENSION
  5
61E
330
1F
100
AcDbEntity
  8
Ｓ_１_１
  6
CONTINUOUS
 62
     2
100
AcDbDimension
  2
*D45
 10
1755.0
 20
455.0
 30
0.0
 11
1687.500001
 21
482.5
 31
0.0
 70
   160
  3
ISO-25
100
AcDbAlignedDimension
 13
1620.000002
 23
887.499996
 33
0.0
 14
1755.0
 24
631.000862
 34
0.0
100
AcDbRotatedDimension
1001
ACAD
1000
DSTYLE
1002
{
1070
   270
1070
     2
1070
     6
1000
EX_NORM
1070
     7
1000
EX_NORM
1070
    41
1040
30.0
1070
    42
1040
15.0
1070
    44
1040
10.0
1070
    73
1070
     0
1070
    74
1070
     0
1070
    75
1070
     1
1070
    76
1070
     0
1070
    77
1070
     1
1070
    78
1070
     8
1070
   140
1040
34.6290415704388
1070
   147
1040
0.0
1070
   173
1070
     1
1070
   176
1070
     2
1070
   177
1070
     2
1070
   178
1070
     2
1070
   271
1070
     2
1070
   277
1070
     2
1070
   279
1070
     2
1070
   280
1070
     0
1070
   287
1070
     5
1070
   340
1005
12A
1002
}
  0
DIMENSION
  5
62A
330
1F
100
AcDbEntity
  8
Ｓ_１_１
  6
CONTINUOUS
 62
     2
100
AcDbDimension
  2
*D46
 10
1959.999997
 20
455.0
 30
0.0
 11
1857.4999985
 21
482.5
 31
0.0
 70
   160
  3
ISO-25
100
AcDbAlignedDimension
 13
1755.0
 23
631.000862
 33
0.0
 14
1959.999997
 24
891.397163
 34
0.0
100
AcDbRotatedDimension
1001
ACAD
1000
DSTYLE
1002
{
1070
   270
1070
     2
1070
     6
1000
EX_NORM
1070
     7
1000
EX_NORM
1070
    41
1040
30.0
1070
    42
1040
15.0
1070
    44
1040
10.0
1070
    73
1070
     0
1070
    74
1070
     0
1070
    75
1070
     1
1070
    76
1070
     0
1070
    77
1070
     1
1070
    78
1070
     8
1070
   140
1040
34.6290415704388
1070
   147
1040
0.0
1070
   173
1070
     1
1070
   176
1070
     2
1070
   177
1070
     2
1070
   178
1070
     2
1070
   271
1070
     2
1070
   277
1070
     2
1070
   279
1070
     2
1070
   280
1070
     0
1070
   287
1070
     5
1070
   340
1005
12A
1002
}
  0
DIMENSION
  5
636
330
1F
100
AcDbEntity
  8
Ｓ_１_１
  6
CONTINUOUS
 62
     2
100
AcDbDimension
  2
*D47
 10
1999.999996
 20
455.0
 30
0.0
 11
1979.9999965
 21
427.5
 31
0.0
 70
   160
  3
ISO-25
100
AcDbAlignedDimension
 13
1959.999997
 23
891.397163
 33
0.0
 14
1999.999996
 24
866.0000020000001
 34
0.0
100
AcDbRotatedDimension
1001
ACAD
1000
DSTYLE
1002
{
1070
   270
1070
     2
1070
     6
1000
EX_NONE
1070
     7
1000
EX_NONE
1070
    41
1040
30.0
1070
    42
1040
0.0
1070
    44
1040
0.0
1070
    73
1070
     0
1070
    74
1070
     0
1070
    75
1070
     1
1070
    76
1070
     1
1070
    77
1070
     1
1070
    78
1070
     8
1070
   140
1040
34.6290415704388
1070
   147
1040
0.0
1070
   173
1070
     1
1070
   176
1070
     2
1070
   177
1070
     2
1070
   178
1070
     2
1070
   271
1070
     2
1070
   277
1070
     2
1070
   279
1070
     2
1070
   280
1070
     0
1070
   287
1070
     5
1070
   340
1005
12A
1002
}
  0
DIMENSION
  5
643
330
1F
100
AcDbEntity
  8
Ｓ_１_１
  6
CONTINUOUS
 62
     2
100
AcDbDimension
  2
*D48
 10
2122.999987
 20
455.0
 30
0.0
 11
2072.9999875
 21
482.5
 31
0.0
 70
   160
  3
ISO-25
100
AcDbAlignedDimension
 13
2022.999988
 23
837.500007
 33
0.0
 14
2122.999987
 24
822.499997
 34
0.0
100
AcDbRotatedDimension
1001
ACAD
1000
DSTYLE
1002
{
1070
   270
1070
     2
1070
     6
1000
EX_NORM
1070
     7
1000
EX_NORM
1070
    41
1040
30.0
1070
    42
1040
15.0
1070
    44
1040
10.0
1070
    73
1070
     0
1070
    74
1070
     0
1070
    75
1070
     1
1070
    76
1070
     0
1070
    77
1070
     1
1070
    78
1070
     8
1070
   140
1040
34.6290415704388
1070
   147
1040
0.0
1070
   173
1070
     1
1070
   176
1070
     2
1070
   177
1070
     2
1070
   178
1070
     2
1070
   271
1070
     2
1070
   277
1070
     2
1070
   279
1070
     2
1070
   280
1070
     0
1070
   287
1070
     5
1070
   340
1005
12A
1002
}
  0
DIMENSION
  5
64F
330
1F
100
AcDbEntity
  8
Ｓ_１_１
  6
CONTINUOUS
 62
     2
100
AcDbDimension
  2
*D49
 10
2134.999994
 20
455.0
 30
0.0
 11
2187.499994
 21
482.5
 31
0.0
 70
   160
  3
ISO-25
100
AcDbAlignedDimension
 13
2122.999987
 23
822.499997
 33
0.0
 14
2134.999994
 24
672.0
 34
0.0
100
AcDbRotatedDimension
1001
ACAD
1000
DSTYLE
1002
{
1070
   270
1070
     2
1070
     6
1000
EX_NONE
1070
     7
1000
EX_NORM
1070
    41
1040
30.0
1070
    42
1040
0.0
1070
    44
1040
0.0
1070
    73
1070
     0
1070
    74
1070
     0
1070
    75
1070
     1
1070
    76
1070
     1
1070
    77
1070
     1
1070
    78
1070
     8
1070
   140
1040
34.6290415704388
1070
   147
1040
0.0
1070
   173
1070
     1
1070
   176
1070
     2
1070
   177
1070
     2
1070
   178
1070
     2
1070
   271
1070
     2
1070
   277
1070
     2
1070
   279
1070
     2
1070
   280
1070
     2
1070
   287
1070
     5
1070
   340
1005
12A
1002
}
  0
DIMENSION
  5
65C
330
1F
100
AcDbEntity
  8
Ｓ_１_１
  6
CONTINUOUS
 62
     2
100
AcDbDimension
  2
*D50
 10
2022.999988
 20
390.0
 30
0.0
 11
2078.999991
 21
417.5
 31
0.0
 70
   160
  3
ISO-25
100
AcDbAlignedDimension
 13
2134.999994
 23
672.0
 33
0.0
 14
2022.999988
 24
837.500007
 34
0.0
100
AcDbRotatedDimension
1001
ACAD
1000
DSTYLE
1002
{
1070
   270
1070
     2
1070
     6
1000
EX_NORM
1070
     7
1000
EX_NORM
1070
    41
1040
30.0
1070
    42
1040
15.0
1070
    44
1040
9.999999999999432
1070
    73
1070
     0
1070
    74
1070
     0
1070
    75
1070
     0
1070
    76
1070
     0
1070
    77
1070
     1
1070
    78
1070
     8
1070
   140
1040
34.6290415704388
1070
   147
1040
0.0
1070
   173
1070
     1
1070
   176
1070
     2
1070
   177
1070
     2
1070
   178
1070
     2
1070
   271
1070
     2
1070
   277
1070
     2
1070
   279
1070
     2
1070
   280
1070
     0
1070
   287
1070
     5
1070
   340
1005
12A
1002
}
  0
TEXT
  5
669
330
1F
100
AcDbEntity
  8
Ｓ_１_１
  6
CONTINUOUS
 62
     4
100
AcDbText
 10
2271.5
 20
531.328125
 30
0.0
 40
34.6290415704388
  1
[200×80]
 41
0.9992307692307691
  7
EXCADTTF1
 72
     5
 11
2474.0
 21
531.328125
 31
0.0
100
AcDbText
  0
LEADER
  5
66A
330
1F
100
AcDbEntity
  8
Ｓ_１_１
  6
CONTINUOUS
 62
     2
100
AcDbLeader
  3
ISO-25
 76
     3
 10
2091.999999
 20
837.499997
 30
0.0
 10
2275.0
 20
520.0
 30
0.0
 10
2474.0
 20
520.0
 30
0.0
1001
ACAD
1000
DSTYLE
1002
{
1070
     5
1000
EX_NORM
1070
    41
1040
30.0
1070
   341
1005
78
1002
}
  0
TEXT
  5
66B
330
1F
100
AcDbEntity
  8
Ｓ_１_１
  6
CONTINUOUS
 62
     4
100
AcDbText
 10
2730.0
 20
591.328125
 30
0.0
 40
34.6290415704388
  1
折りたたみ状態図
 41
0.9992307692307693
  7
EXCADTTF1
 72
     5
 11
3090.0
 21
591.328125
 31
0.0
100
AcDbText
  0
DIMENSION
  5
66C
330
1F
100
AcDbEntity
  8
Ｓ_１_１
  6
CONTINUOUS
 62
     2
100
AcDbDimension
  2
*D51
 10
1999.999996
 20
455.0
 30
0.0
 11
2072.5
 21
547.5
 31
0.0
 70
   160
  3
ISO-25
100
AcDbAlignedDimension
 13
2022.999988
 23
837.499997
 33
0.0
 14
1999.999996
 24
866.0000020000001
 34
0.0
100
AcDbRotatedDimension
1001
ACAD
1000
DSTYLE
1002
{
1070
   270
1070
     2
1070
     6
1000
EX_NONE
1070
     7
1000
EX_BCIR
1070
    41
1040
30.0
1070
    42
1040
0.0
1070
    44
1040
0.0
1070
    73
1070
     1
1070
    74
1070
     1
1070
    75
1070
     1
1070
    76
1070
     1
1070
    77
1070
     1
1070
    78
1070
     8
1070
   140
1040
34.6290415704388
1070
   147
1040
0.0
1070
   173
1070
     1
1070
   176
1070
     2
1070
   177
1070
     2
1070
   178
1070
     2
1070
   271
1070
     2
1070
   277
1070
     2
1070
   279
1070
     2
1070
   280
1070
     0
1070
   287
1070
     5
1070
   340
1005
12A
1002
}
  0
LEADER
  5
679
330
1F
100
AcDbEntity
  8
Ｓ_１_１
  6
CONTINUOUS
 62
     2
100
AcDbLeader
  3
ISO-25
 76
     3
 10
2013.0
 20
455.0
 30
0.0
 10
2040.0
 20
520.0
 30
0.0
 10
2105.0
 20
520.0
 30
0.0
1001
ACAD
1000
DSTYLE
1002
{
1070
     5
1000
EX_NONE
1070
    41
1040
30.0
1070
   341
1005
87
1002
}
  0
LINE
  5
67A
330
1F
100
AcDbEntity
  8
Ｓ_１_１
  6
CONTINUOUS
 62
     3
100
AcDbLine
 10
1691.499996
 20
771.0000019999999
 30
0.0
 11
1686.499991
 21
765.9999960000001
 31
0.0
  0
LINE
  5
67B
330
1F
100
AcDbEntity
  8
Ｓ_１_１
  6
CONTINUOUS
 62
     3
100
AcDbLine
 10
1818.499992
 20
770.9999760000001
 30
0.0
 11
1823.499997
 21
765.9999699999998
 31
0.0
  0
LINE
  5
67C
330
1F
100
AcDbEntity
  8
Ｓ_１_１
  6
CONTINUOUS
 62
     3
100
AcDbLine
 10
1823.499987
 20
746.0000019999998
 30
0.0
 11
1823.499987
 21
766.0000110000001
 31
0.0
  0
ARC
  5
67D
330
1F
100
AcDbEntity
  8
Ｓ_１_１
  6
CONTINUOUS
 62
     3
100
AcDbCircle
 10
1754.217945
 20
786.0000019999998
 30
0.0
 40
79.999999
100
AcDbArc
 50
270.5601145639694
 51
329.9999990000001
  0
DIMENSION
  5
67E
330
1F
100
AcDbEntity
  8
Ｓ_１_１
  6
CONTINUOUS
 62
     2
100
AcDbDimension
  2
*D52
 10
390.0
 20
2208.954139
 30
0.0
 11
362.5000000000001
 21
2108.9541405
 31
0.0
 70
   160
  3
ISO-25
100
AcDbAlignedDimension
 13
549.99985200001
 23
2008.954142
 33
0.0
 14
502.798009
 24
2208.954139
 34
0.0
 50
90.0
100
AcDbRotatedDimension
1001
ACAD
1000
DSTYLE
1002
{
1070
   270
1070
     2
1070
     6
1000
EX_NORM
1070
     7
1000
EX_NORM
1070
    41
1040
30.0
1070
    42
1040
0.0
1070
    44
1040
0.0
1070
    73
1070
     0
1070
    74
1070
     0
1070
    75
1070
     1
1070
    76
1070
     1
1070
    77
1070
     1
1070
    78
1070
     8
1070
   140
1040
34.6290415704388
1070
   147
1040
0.0
1070
   173
1070
     1
1070
   176
1070
     2
1070
   177
1070
     2
1070
   178
1070
     2
1070
   271
1070
     2
1070
   277
1070
     2
1070
   279
1070
     2
1070
   280
1070
     0
1070
   287
1070
     5
1070
   340
1005
12A
1002
}
  0
DIMENSION
  5
689
330
1F
100
AcDbEntity
  8
Ｓ_１_１
  6
CONTINUOUS
 62
     2
100
AcDbDimension
  2
*D53
 10
390.0
 20
2408.954136
 30
0.0
 11
362.5000000000001
 21
2308.9541375
 31
0.0
 70
   160
  3
ISO-25
100
AcDbAlignedDimension
 13
502.798009
 23
2208.954139
 33
0.0
 14
549.99995100001
 24
2408.954136
 34
0.0
 50
90.0
100
AcDbRotatedDimension
1001
ACAD
1000
DSTYLE
1002
{
1070
   270
1070
     2
1070
     6
1000
EX_NORM
1070
     7
1000
EX_NORM
1070
    41
1040
30.0
1070
    42
1040
15.0
1070
    44
1040
10.0
1070
    73
1070
     0
1070
    74
1070
     0
1070
    75
1070
     0
1070
    76
1070
     1
1070
    77
1070
     1
1070
    78
1070
     8
1070
   140
1040
34.6290415704388
1070
   147
1040
0.0
1070
   173
1070
     1
1070
   176
1070
     2
1070
   177
1070
     2
1070
   178
1070
     2
1070
   271
1070
     2
1070
   277
1070
     2
1070
   279
1070
     2
1070
   280
1070
     0
1070
   287
1070
     5
1070
   340
1005
12A
1002
}
  0
DIMENSION
  5
695
330
1F
100
AcDbEntity
  8
Ｓ_１_１
  6
CONTINUOUS
 62
     2
100
AcDbDimension
  2
*D54
 10
325.0
 20
2408.954136
 30
0.0
 11
297.5000000000001
 21
2208.954139
 31
0.0
 70
   160
  3
ISO-25
100
AcDbAlignedDimension
 13
549.99985200001
 23
2008.954142
 33
0.0
 14
549.99995100001
 24
2408.954136
 34
0.0
 50
90.0
100
AcDbRotatedDimension
1001
ACAD
1000
DSTYLE
1002
{
1070
   270
1070
     2
1070
     6
1000
EX_NORM
1070
     7
1000
EX_NORM
1070
    41
1040
30.0
1070
    42
1040
15.0
1070
    44
1040
10.0
1070
    73
1070
     0
1070
    74
1070
     0
1070
    75
1070
     0
1070
    76
1070
     0
1070
    77
1070
     1
1070
    78
1070
     8
1070
   140
1040
34.6290415704388
1070
   147
1040
0.0
1070
   173
1070
     1
1070
   176
1070
     2
1070
   177
1070
     2
1070
   178
1070
     2
1070
   271
1070
     2
1070
   277
1070
     2
1070
   279
1070
     2
1070
   280
1070
     0
1070
   287
1070
     5
1070
   340
1005
12A
1002
}
  0
DIMENSION
  5
6A2
330
1F
100
AcDbEntity
  8
Ｓ_１_１
  6
CONTINUOUS
 62
     2
100
AcDbDimension
  2
*D55
 10
1129.999995
 20
396.0
 30
0.0
 11
780.0000004999999
 21
423.5
 31
0.0
 70
   160
  3
ISO-25
100
AcDbAlignedDimension
 13
430.000006
 23
650.0
 33
0.0
 14
1129.999995
 24
650.0
 34
0.0
100
AcDbRotatedDimension
1001
ACAD
1000
DSTYLE
1002
{
1070
   270
1070
     2
1070
     6
1000
EX_NORM
1070
     7
1000
EX_NORM
1070
    41
1040
30.0
1070
    42
1040
15.0
1070
    44
1040
10.0
1070
    73
1070
     0
1070
    74
1070
     0
1070
    75
1070
     0
1070
    76
1070
     0
1070
    77
1070
     1
1070
    78
1070
     8
1070
   140
1040
34.6290415704388
1070
   147
1040
0.0
1070
   173
1070
     1
1070
   176
1070
     2
1070
   177
1070
     2
1070
   178
1070
     2
1070
   271
1070
     2
1070
   277
1070
     2
1070
   279
1070
     2
1070
   280
1070
     0
1070
   287
1070
     5
1070
   340
1005
12A
1002
}
  0
DIMENSION
  5
6AF
330
1F
100
AcDbEntity
  8
Ｓ_１_１
  6
CONTINUOUS
 62
     2
100
AcDbDimension
  2
*D56
 10
1235.0
 20
1569.000001
 30
0.0
 11
1207.5
 21
1109.5000005
 31
0.0
 70
   160
  3
ISO-25
100
AcDbAlignedDimension
 13
1129.999995
 23
650.0
 33
0.0
 14
839.499995
 24
1569.000001
 34
0.0
 50
90.0
100
AcDbRotatedDimension
1001
ACAD
1000
DSTYLE
1002
{
1070
   270
1070
     2
1070
     6
1000
EX_NORM
1070
     7
1000
EX_NORM
1070
    41
1040
30.0
1070
    42
1040
15.0
1070
    44
1040
10.0
1070
    73
1070
     0
1070
    74
1070
     0
1070
    75
1070
     0
1070
    76
1070
     0
1070
    77
1070
     1
1070
    78
1070
     8
1070
   140
1040
34.6290415704388
1070
   147
1040
0.0
1070
   173
1070
     1
1070
   176
1070
     2
1070
   177
1070
     2
1070
   178
1070
     2
1070
   271
1070
     2
1070
   277
1070
     2
1070
   279
1070
     2
1070
   280
1070
     0
1070
   287
1070
     5
1070
   340
1005
12A
1002
}
  0
DIMENSION
  5
6BC
330
1F
100
AcDbEntity
  8
Ｓ_１_１
  6
CONTINUOUS
 62
     2
100
AcDbDimension
  2
*D57
 10
1999.999996
 20
390.0
 30
0.0
 11
1784.9999995
 21
417.5
 31
0.0
 70
   160
  3
ISO-25
100
AcDbAlignedDimension
 13
1570.000003
 23
874.999996
 33
0.0
 14
1999.999996
 24
866.0
 34
0.0
100
AcDbRotatedDimension
1001
ACAD
1000
DSTYLE
1002
{
1070
   270
1070
     2
1070
     6
1000
EX_NORM
1070
     7
1000
EX_NORM
1070
    41
1040
30.0
1070
    42
1040
15.0
1070
    44
1040
10.0
1070
    73
1070
     0
1070
    74
1070
     0
1070
    75
1070
     0
1070
    76
1070
     0
1070
    77
1070
     1
1070
    78
1070
     8
1070
   140
1040
34.6290415704388
1070
   147
1040
0.0
1070
   173
1070
     1
1070
   176
1070
     2
1070
   177
1070
     2
1070
   178
1070
     2
1070
   271
1070
     2
1070
   277
1070
     2
1070
   279
1070
     2
1070
   280
1070
     0
1070
   287
1070
     5
1070
   340
1005
12A
1002
}
  0
ENDSEC
  0
SECTION
  2
OBJECTS
  0
DICTIONARY
  5
C
330
0
100
AcDbDictionary
  3
ACAD_GROUP
350
D
  3
ACAD_LAYOUT
350
1A
  3
ACAD_MATERIAL
350
43
  3
ACAD_MLEADERSTYLE
350
6B
  3
ACAD_MLINESTYLE
350
17
  3
ACAD_PLOTSETTINGS
350
19
  3
ACAD_SCALELIST
350
47
  3
ACAD_VISUALSTYLE
350
2A
  3
ACDBHEADERROUNDTRIPXREC
350
6C9
  3
ACDBVARIABLEDICTIONARY
350
6EA
  0
DICTIONARY
  5
6F5
330
8
100
AcDbDictionary
280
     1
  3
ACAD_XREC_ROUNDTRIP
360
6F6
  0
DICTIONARY
  5
D
102
{ACAD_REACTORS
330
C
102
}
330
C
100
AcDbDictionary
  0
DICTIONARY
  5
1A
102
{ACAD_REACTORS
330
C
102
}
330
C
100
AcDbDictionary
  0
DICTIONARY
  5
43
102
{ACAD_REACTORS
330
C
102
}
330
C
100
AcDbDictionary
  3
BYBLOCK
350
45
  3
BYLAYER
350
44
  3
GLOBAL
350
46
  0
DICTIONARY
  5
6B
102
{ACAD_REACTORS
330
C
102
}
330
C
100
AcDbDictionary
  3
STANDARD
350
6C
  0
DICTIONARY
  5
17
102
{ACAD_REACTORS
330
C
102
}
330
C
100
AcDbDictionary
  3
STANDARD
350
18
  0
DICTIONARY
  5
19
102
{ACAD_REACTORS
330
C
102
}
330
C
100
AcDbDictionary
  0
DICTIONARY
  5
47
102
{ACAD_REACTORS
330
C
102
}
330
C
100
AcDbDictionary
  3
A0
350
48
  3
A1
350
49
  3
A2
350
4A
  3
A3
350
4B
  3
A4
350
4C
  3
A5
350
4D
  3
A6
350
4E
  3
A7
350
4F
  3
A8
350
50
  3
A9
350
51
  3
B0
350
52
  3
B1
350
53
  3
B2
350
54
  3
B3
350
55
  3
B4
350
56
  3
B5
350
57
  3
B6
350
58
  3
B7
350
59
  3
B8
350
5A
  3
B9
350
5B
  3
C0
350
5C
  3
C1
350
5D
  3
C2
350
5E
  3
C3
350
5F
  3
C4
350
60
  3
C5
350
61
  3
C6
350
62
  3
C7
350
63
  3
C8
350
64
  3
C9
350
65
  3
D0
350
66
  3
D1
350
67
  3
D2
350
68
  0
DICTIONARY
  5
2A
102
{ACAD_REACTORS
330
C
102
}
330
C
100
AcDbDictionary
  3
2DWIREFRAME
350
2F
  3
BASIC
350
32
  3
BRIGHTEN
350
36
  3
COLORCHANGE
350
3A
  3
CONCEPTUAL
350
34
  3
DIM
350
35
  3
EDGECOLOROFF
350
3D
  3
FACEPATTERN
350
39
  3
FLAT
350
2B
  3
FLATWITHEDGES
350
2C
  3
GOURAUD
350
2D
  3
GOURAUDWITHEDGES
350
2E
  3
HIDDEN
350
31
  3
JITTEROFF
350
3B
  3
LINEPATTERN
350
38
  3
OVERHANGOFF
350
3C
  3
REALISTIC
350
33
  3
SHADED
350
42
  3
SHADED_WITH_EDGES
350
41
  3
SHADES_OF_GRAY
350
3E
  3
SKETCHY
350
3F
  3
THICKEN
350
37
  3
WIREFRAME
350
30
  3
X-RAY
350
40
  0
DICTIONARY
  5
6C9
102
{ACAD_REACTORS
330
C
102
}
330
C
100
AcDbDictionary
  3
CEPSNID
350
6D3
  3
CEPSNTYPE
350
6D2
  3
DIMSTYLEDATA
350
6E9
  3
FINGERPRINTGUID
350
6D4
  3
HYPERLINKBASE
350
6CC
  3
INSUNITS
350
6D1
  3
LAYOUTDICT
350
6CE
  3
LWETCUNION
350
6D0
  3
PLOTSETDICT
350
6CF
  3
PSVPSCALE
350
6D6
  3
PUCSBASE
350
6D9
  3
PUCSORGBACK
350
6DF
  3
PUCSORGBOTTOM
350
6DB
  3
PUCSORGFRONT
350
6DE
  3
PUCSORGLEFT
350
6DC
  3
PUCSORGRIGHT
350
6DD
  3
PUCSORGTOP
350
6DA
  3
PUCSORTHOREF
350
6D7
  3
PUCSORTHOVIEW
350
6D8
  3
STYLESHEET
350
6CD
  3
TSTACKALIGN
350
6CA
  3
TSTACKSIZE
350
6CB
  3
UCSBASE
350
6E2
  3
UCSORGBACK
350
6E8
  3
UCSORGBOTTOM
350
6E4
  3
UCSORGFRONT
350
6E7
  3
UCSORGLEFT
350
6E5
  3
UCSORGRIGHT
350
6E6
  3
UCSORGTOP
350
6E3
  3
UCSORTHOREF
350
6E0
  3
UCSORTHOVIEW
350
6E1
  3
VERSIONGUID
350
6D5
  0
DICTIONARY
  5
6EA
102
{ACAD_REACTORS
330
C
102
}
330
C
100
AcDbDictionary
  3
CANNOSCALE
350
6F7
  3
CENTEREXE
350
6F1
  3
CENTERLTYPEFILE
350
6F2
  3
CMLEADERSTYLE
350
6EC
  3
CTABLESTYLE
350
6EB
  3
DIMASSOC
350
6F3
  3
HIDETEXT
350
6F4
  3
MSLTSCALE
350
6F8
  3
PSOLHEIGHT
350
6EE
  3
PSOLWIDTH
350
6ED
  0
XRECORD
  5
6F6
102
{ACAD_REACTORS
330
6F5
102
}
330
6F5
100
AcDbXrecord
102
VTR_0.000_0.000_1.000_1.000_VISUALSTYLE
340
2F
102
VTR_0.000_0.000_1.000_1.000_GRIDDISPLAY
 70
     3
102
VTR_0.000_0.000_1.000_1.000_GRIDMAJOR
 70
     5
102
VTR_0.000_0.000_1.000_1.000_DEFAULTLIGHTING
280
     1
102
VTR_0.000_0.000_1.000_1.000_DEFAULTLIGHTINGTYPE
 70
     1
102
VTR_0.000_0.000_1.000_1.000_BRIGHTNESS
141
0.0
102
VTR_0.000_0.000_1.000_1.000_CONTRAST
142
0.0
  0
MATERIAL
  5
45
102
{ACAD_REACTORS
330
43
102
}
102
{ACAD_XDICTIONARY
360
6FB
102
}
330
43
100
AcDbMaterial
  1
BYBLOCK
  0
MATERIAL
  5
44
102
{ACAD_REACTORS
330
43
102
}
102
{ACAD_XDICTIONARY
360
6F9
102
}
330
43
100
AcDbMaterial
  1
BYLAYER
  0
MATERIAL
  5
46
102
{ACAD_REACTORS
330
43
102
}
102
{ACAD_XDICTIONARY
360
6FD
102
}
330
43
100
AcDbMaterial
  1
GLOBAL
  0
ACAD_PROXY_OBJECT
  5
6C
102
{ACAD_REACTORS
330
6B
102
}
330
6B
100
AcDbProxyObject
 90
      499
 91
      505
 93
      610
310
40901902A4063FBFFFFFE0000000000000020400000000000020404214DD185B99185C990000000000000104090141901A00000000000004100000000000000041025764000000000000039000
340
14
340
0
340
11
340
0
 94
        0
1001
ACAD_MLEADERVER
1070
     2
  0
MLINESTYLE
  5
18
102
{ACAD_REACTORS
330
17
102
}
330
17
100
AcDbMlineStyle
  2
Standard
 70
     0
  3

 62
   256
 51
90.0
 52
90.0
 71
     2
 49
0.5
 62
   256
  6
BYLAYER
 49
-0.5
 62
   256
  6
BYLAYER
  0
ACAD_PROXY_OBJECT
  5
48
102
{ACAD_REACTORS
330
47
102
}
330
47
100
AcDbProxyObject
 90
      499
 91
      503
 93
       41
310
903313A31580
  0
ACAD_PROXY_OBJECT
  5
49
102
{ACAD_REACTORS
330
47
102
}
330
47
100
AcDbProxyObject
 90
      499
 91
      503
 93
      105
310
903313A324000000000000004000
  0
ACAD_PROXY_OBJECT
  5
4A
102
{ACAD_REACTORS
330
47
102
}
330
47
100
AcDbProxyObject
 90
      499
 91
      503
 93
      105
310
903313A344000000000000104000
  0
ACAD_PROXY_OBJECT
  5
4B
102
{ACAD_REACTORS
330
47
102
}
330
47
100
AcDbProxyObject
 90
      499
 91
      503
 93
      105
310
903313A354000000000000144000
  0
ACAD_PROXY_OBJECT
  5
4C
102
{ACAD_REACTORS
330
47
102
}
330
47
100
AcDbProxyObject
 90
      499
 91
      503
 93
      105
310
903313A384000000000000204000
  0
ACAD_PROXY_OBJECT
  5
4D
102
{ACAD_REACTORS
330
47
102
}
330
47
100
AcDbProxyObject
 90
      499
 91
      503
 93
      113
310
904313A31304000000000000244000
  0
ACAD_PROXY_OBJECT
  5
4E
102
{ACAD_REACTORS
330
47
102
}
330
47
100
AcDbProxyObject
 90
      499
 91
      503
 93
      113
310
904313A31364000000000000304000
  0
ACAD_PROXY_OBJECT
  5
4F
102
{ACAD_REACTORS
330
47
102
}
330
47
100
AcDbProxyObject
 90
      499
 91
      503
 93
      113
310
904313A32304000000000000344000
  0
ACAD_PROXY_OBJECT
  5
50
102
{ACAD_REACTORS
330
47
102
}
330
47
100
AcDbProxyObject
 90
      499
 91
      503
 93
      113
310
904313A333040000000000003E4000
  0
ACAD_PROXY_OBJECT
  5
51
102
{ACAD_REACTORS
330
47
102
}
330
47
100
AcDbProxyObject
 90
      499
 91
      503
 93
      113
310
904313A34304000000000000444000
  0
ACAD_PROXY_OBJECT
  5
52
102
{ACAD_REACTORS
330
47
102
}
330
47
100
AcDbProxyObject
 90
      499
 91
      503
 93
      113
310
904313A35304000000000000494000
  0
ACAD_PROXY_OBJECT
  5
53
102
{ACAD_REACTORS
330
47
102
}
330
47
100
AcDbProxyObject
 90
      499
 91
      503
 93
      121
310
905313A3130304000000000000594000
  0
ACAD_PROXY_OBJECT
  5
54
102
{ACAD_REACTORS
330
47
102
}
330
47
100
AcDbProxyObject
 90
      499
 91
      503
 93
      105
310
903323A310000000000000010100
  0
ACAD_PROXY_OBJECT
  5
55
102
{ACAD_REACTORS
330
47
102
}
330
47
100
AcDbProxyObject
 90
      499
 91
      503
 93
      105
310
903343A310000000000000410100
  0
ACAD_PROXY_OBJECT
  5
56
102
{ACAD_REACTORS
330
47
102
}
330
47
100
AcDbProxyObject
 90
      499
 91
      503
 93
      105
310
903383A310000000000000810100
  0
ACAD_PROXY_OBJECT
  5
57
102
{ACAD_REACTORS
330
47
102
}
330
47
100
AcDbProxyObject
 90
      499
 91
      503
 93
      113
310
90431303A310000000000000910100
  0
ACAD_PROXY_OBJECT
  5
58
102
{ACAD_REACTORS
330
47
102
}
330
47
100
AcDbProxyObject
 90
      499
 91
      503
 93
      121
310
9053130303A310000000000001650100
  0
ACAD_PROXY_OBJECT
  5
59
102
{ACAD_REACTORS
330
47
102
}
330
47
100
AcDbProxyObject
 90
      499
 91
      503
 93
      257
310
90E312F31323822203D2031272D3022000000000000200FC000000000000284000
  0
ACAD_PROXY_OBJECT
  5
5A
102
{ACAD_REACTORS
330
47
102
}
330
47
100
AcDbProxyObject
 90
      499
 91
      503
 93
      249
310
90D312F363422203D2031272D3022000000000000240FC000000000000284000
  0
ACAD_PROXY_OBJECT
  5
5B
102
{ACAD_REACTORS
330
47
102
}
330
47
100
AcDbProxyObject
 90
      499
 91
      503
 93
      249
310
90D312F333222203D2031272D3022000000000000280FC000000000000284000
  0
ACAD_PROXY_OBJECT
  5
5C
102
{ACAD_REACTORS
330
47
102
}
330
47
100
AcDbProxyObject
 90
      499
 91
      503
 93
      249
310
90D312F313622203D2031272D30220000000000002C0FC000000000000284000
  0
ACAD_PROXY_OBJECT
  5
5D
102
{ACAD_REACTORS
330
47
102
}
330
47
100
AcDbProxyObject
 90
      499
 91
      503
 93
      249
310
90D332F333222203D2031272D30220000000000002E0FC000000000000284000
  0
ACAD_PROXY_OBJECT
  5
5E
102
{ACAD_REACTORS
330
47
102
}
330
47
100
AcDbProxyObject
 90
      499
 91
      503
 93
      241
310
90C312F3822203D2031272D3022000000000000300FC000000000000284000
  0
ACAD_PROXY_OBJECT
  5
5F
102
{ACAD_REACTORS
330
47
102
}
330
47
100
AcDbProxyObject
 90
      499
 91
      503
 93
      249
310
90D332F313622203D2031272D3022000000000000320FC000000000000284000
  0
ACAD_PROXY_OBJECT
  5
60
102
{ACAD_REACTORS
330
47
102
}
330
47
100
AcDbProxyObject
 90
      499
 91
      503
 93
      241
310
90C312F3422203D2031272D3022000000000000340FC000000000000284000
  0
ACAD_PROXY_OBJECT
  5
61
102
{ACAD_REACTORS
330
47
102
}
330
47
100
AcDbProxyObject
 90
      499
 91
      503
 93
      241
310
90C332F3822203D2031272D3022000000000000360FC000000000000284000
  0
ACAD_PROXY_OBJECT
  5
62
102
{ACAD_REACTORS
330
47
102
}
330
47
100
AcDbProxyObject
 90
      499
 91
      503
 93
      241
310
90C312F3222203D2031272D3022000000000000380FC000000000000284000
  0
ACAD_PROXY_OBJECT
  5
63
102
{ACAD_REACTORS
330
47
102
}
330
47
100
AcDbProxyObject
 90
      499
 91
      503
 93
      241
310
90C332F3422203D2031272D30220000000000003A0FC000000000000284000
  0
ACAD_PROXY_OBJECT
  5
64
102
{ACAD_REACTORS
330
47
102
}
330
47
100
AcDbProxyObject
 90
      499
 91
      503
 93
      161
310
90A3122203D2031272D30224000000000000284000
  0
ACAD_PROXY_OBJECT
  5
65
102
{ACAD_REACTORS
330
47
102
}
330
47
100
AcDbProxyObject
 90
      499
 91
      503
 93
      257
310
90E312D312F3222203D2031272D30220000000000003E0FC000000000000284000
  0
ACAD_PROXY_OBJECT
  5
66
102
{ACAD_REACTORS
330
47
102
}
330
47
100
AcDbProxyObject
 90
      499
 91
      503
 93
      225
310
90A3322203D2031272D302200000000000002100000000000000284000
  0
ACAD_PROXY_OBJECT
  5
67
102
{ACAD_REACTORS
330
47
102
}
330
47
100
AcDbProxyObject
 90
      499
 91
      503
 93
      225
310
90A3622203D2031272D302200000000000006100000000000000284000
  0
ACAD_PROXY_OBJECT
  5
68
102
{ACAD_REACTORS
330
47
102
}
330
47
100
AcDbProxyObject
 90
      499
 91
      503
 93
      249
310
90D31272D3022203D2031272D30220000000000000A100000000000000284000
  0
ACAD_PROXY_OBJECT
  5
2F
102
{ACAD_REACTORS
330
2A
102
}
330
2A
100
AcDbProxyObject
 90
      499
 91
      501
 93
      436
310
42CC9915DA5C99599C985B595049028333333333333E33F0000000000000F90107901411070040501600405405064090741402480A0340
1001
ACAD
1000
AcDbSavedByObjectVersion
1070
     0
  0
ACAD_PROXY_OBJECT
  5
32
102
{ACAD_REACTORS
330
2A
102
}
330
2A
100
AcDbProxyObject
 90
      499
 91
      501
 93
      388
310
4150985CDA58D07406404333333333333E33F0000000000000F90107A41107004050150841D405064090741402480A0350
1001
ACAD
1000
AcDbSavedByObjectVersion
1070
     0
  0
ACAD_PROXY_OBJECT
  5
36
102
{ACAD_REACTORS
330
2A
102
}
330
2A
100
AcDbProxyObject
 90
      499
 91
      501
 93
      428
310
42109C9A59DA1D195B90C409028333333333333E33F0000000000000F9010790141107004050150841D405064090741402480A029950
1001
ACAD
1000
AcDbSavedByObjectVersion
1070
     0
  0
ACAD_PROXY_OBJECT
  5
3A
102
{ACAD_REACTORS
330
2A
102
}
330
2A
100
AcDbProxyObject
 90
      499
 91
      501
 93
      452
310
42D0DBDB1BDC90DA185B99D95104090240C333333333333E33F0000000000000F90108901411070040501508421405064090741402480A0350
1001
ACAD
1000
AcDbSavedByObjectVersion
1070
     0
  0
ACAD_PROXY_OBJECT
  5
34
102
{ACAD_REACTORS
330
2A
102
}
330
2A
100
AcDbProxyObject
 90
      499
 91
      501
 93
      500
310
4290DBDB98D95C1D1D585B10940D028333333333333E33F0000000000000F90107902409070040501000000000018199010841D405064090740C02480A0340
1001
ACAD
1000
AcDbSavedByObjectVersion
1070
     0
  0
ACAD_PROXY_OBJECT
  5
35
102
{ACAD_REACTORS
330
2A
102
}
330
2A
100
AcDbProxyObject
 90
      499
 91
      501
 93
      412
310
40D11A5B50B409028333333333333E33F0000000000000F9010790141107004050150841D405064090741402480A02677FFFFFD0
1001
ACAD
1000
AcDbSavedByObjectVersion
1070
     0
  0
ACAD_PROXY_OBJECT
  5
3D
102
{ACAD_REACTORS
330
2A
102
}
330
2A
100
AcDbProxyObject
 90
      499
 91
      501
 93
      452
310
43115919D950DBDB1BDC93D999916409028333333333333E33F0000000000000F9010790141107004050150841D405064090741402480A0350
1001
ACAD
1000
AcDbSavedByObjectVersion
1070
     0
  0
ACAD_PROXY_OBJECT
  5
39
102
{ACAD_REACTORS
330
2A
102
}
330
2A
100
AcDbProxyObject
 90
      499
 91
      501
 93
      444
310
42D19858D95C185D1D195C9B90F409028333333333333E33F0000000000000F9010790141107004050150841D405064090741402480A0350
1001
ACAD
1000
AcDbSavedByObjectVersion
1070
     0
  0
ACAD_PROXY_OBJECT
  5
2B
102
{ACAD_REACTORS
330
2A
102
}
330
2A
100
AcDbProxyObject
 90
      499
 91
      501
 93
      380
310
41119B185D240901404333333333333E33F0000000000000F9010740A907004050150841D405064090741402480A1B50
1001
ACAD
1000
AcDbSavedByObjectVersion
1070
     0
  0
ACAD_PROXY_OBJECT
  5
2C
102
{ACAD_REACTORS
330
2A
102
}
330
2A
100
AcDbProxyObject
 90
      499
 91
      501
 93
      468
310
43519B185D15DA5D1A115919D95CD0140901404333333333333E33F0000000000000F90107409019070040501600405405064090741402480A1B50
1001
ACAD
1000
AcDbSavedByObjectVersion
1070
     0
  0
ACAD_PROXY_OBJECT
  5
2D
102
{ACAD_REACTORS
330
2A
102
}
330
2A
100
AcDbProxyObject
 90
      499
 91
      501
 93
      404
310
41D1DBDD5C985D5910240902404333333333333E33F0000000000000F9010740A9070040501641D405064090741402480A1B50
1001
ACAD
1000
AcDbSavedByObjectVersion
1070
     0
  0
ACAD_PROXY_OBJECT
  5
2E
102
{ACAD_REACTORS
330
2A
102
}
330
2A
100
AcDbProxyObject
 90
      499
 91
      501
 93
      492
310
4411DBDD5C985D5915DA5D1A115919D95CD0340902404333333333333E33F0000000000000F90107409019070040501600405405064090741402480A1B50
1001
ACAD
1000
AcDbSavedByObjectVersion
1070
     0
  0
ACAD_PROXY_OBJECT
  5
31
102
{ACAD_REACTORS
330
2A
102
}
330
2A
100
AcDbProxyObject
 90
      499
 91
      501
 93
      476
310
41921A5919195B90640502408333333333333E33F0000000000000F901079024090700405020000000000001110200405405064090740C02480A0340
1001
ACAD
1000
AcDbSavedByObjectVersion
1070
     0
  0
ACAD_PROXY_OBJECT
  5
3B
102
{ACAD_REACTORS
330
2A
102
}
330
2A
100
AcDbProxyObject
 90
      499
 91
      501
 93
      428
310
42529A5D1D195C93D999914409028333333333333E33F0000000000000F9010790141107004050150A41D405064090741402480A0350
1001
ACAD
1000
AcDbSavedByObjectVersion
1070
     0
  0
ACAD_PROXY_OBJECT
  5
38
102
{ACAD_REACTORS
330
2A
102
}
330
2A
100
AcDbProxyObject
 90
      499
 91
      501
 93
      444
310
42D31A5B995C185D1D195C9B90E409028333333333333E33F0000000000000F9010790141107004050750841D405064090741402483A0350
1001
ACAD
1000
AcDbSavedByObjectVersion
1070
     0
  0
ACAD_PROXY_OBJECT
  5
3C
102
{ACAD_REACTORS
330
2A
102
}
330
2A
100
AcDbProxyObject
 90
      499
 91
      501
 93
      444
310
42D3DD995C9A185B99D3D999915409028333333333333E33F0000000000000F9010790141107004050150941D405064090741402480A0350
1001
ACAD
1000
AcDbSavedByObjectVersion
1070
     0
  0
ACAD_PROXY_OBJECT
  5
33
102
{ACAD_REACTORS
330
2A
102
}
330
2A
100
AcDbProxyObject
 90
      499
 91
      501
 93
      428
310
425499585B1A5CDD1A58D08409038333333333333E33F0000000000000F9010740A907004050150800405405064090740C02480A1B40
1001
ACAD
1000
AcDbSavedByObjectVersion
1070
     0
  0
ACAD_PROXY_OBJECT
  5
42
102
{ACAD_REACTORS
330
2A
102
}
330
2A
100
AcDbProxyObject
 90
      499
 91
      501
 93
      420
310
4194DA1859195911B40902404333333333333E33F0000000000000F9010740A41107004050150800405405064090840C02480A0B40
1001
ACAD
1000
AcDbSavedByObjectVersion
1070
     0
  0
ACAD_PROXY_OBJECT
  5
41
102
{ACAD_REACTORS
330
2A
102
}
330
2A
100
AcDbProxyObject
 90
      499
 91
      501
 93
      516
310
4454DA18591959081DDA5D1A08195919D95CD1A40902404333333333333E33F0000000000000F901074090142907004050250800405405064090740C02480A0B40
1001
ACAD
1000
AcDbSavedByObjectVersion
1070
     0
  0
ACAD_PROXY_OBJECT
  5
3E
102
{ACAD_REACTORS
330
2A
102
}
330
2A
100
AcDbProxyObject
 90
      499
 91
      501
 93
      532
310
4394DA1859195CC81BD98811DC985E5174090240C333333333333E33F0000000000000F901079024090741D01000000000000111010841D405064090740C02480A0340
1001
ACAD
1000
AcDbSavedByObjectVersion
1070
     0
  0
ACAD_PROXY_OBJECT
  5
3F
102
{ACAD_REACTORS
330
2A
102
}
330
2A
100
AcDbProxyObject
 90
      499
 91
      501
 93
      476
310
41D4DAD95D18DA1E51840502408333333333333E33F0000000000000F901079024090741D01000000000000111010B41D405064090741802480A0340
1001
ACAD
1000
AcDbSavedByObjectVersion
1070
     0
  0
ACAD_PROXY_OBJECT
  5
37
102
{ACAD_REACTORS
330
2A
102
}
330
2A
100
AcDbProxyObject
 90
      499
 91
      501
 93
      412
310
41D51A1A58DAD95B90D409028333333333333E33F0000000000000F9010790141107004050150C41D405064090741402480A0350
1001
ACAD
1000
AcDbSavedByObjectVersion
1070
     0
  0
ACAD_PROXY_OBJECT
  5
30
102
{ACAD_REACTORS
330
2A
102
}
330
2A
100
AcDbProxyObject
 90
      499
 91
      501
 93
      420
310
4255DA5C99599C985B595059028333333333333E33F0000000000000F90107901411070040501600405405064090740C02480A0340
1001
ACAD
1000
AcDbSavedByObjectVersion
1070
     0
  0
ACAD_PROXY_OBJECT
  5
40
102
{ACAD_REACTORS
330
2A
102
}
330
2A
100
AcDbProxyObject
 90
      499
 91
      501
 93
      404
310
41560B54985E51940902404000000000000E03F0000000000000F9010740501907004050150841D405064090740C02480A1B40
1001
ACAD
1000
AcDbSavedByObjectVersion
1070
     0
  0
XRECORD
  5
6D3
102
{ACAD_REACTORS
330
6C9
102
}
330
6C9
100
AcDbXrecord
340
0
  0
XRECORD
  5
6D2
102
{ACAD_REACTORS
330
6C9
102
}
330
6C9
100
AcDbXrecord
 90
        0
  0
XRECORD
  5
6E9
102
{ACAD_REACTORS
330
6C9
102
}
330
6C9
100
AcDbXrecord
1000
DSTYLE
1002
{
1070
   340
340
11
1002
}
  0
XRECORD
  5
6D4
102
{ACAD_REACTORS
330
6C9
102
}
330
6C9
100
AcDbXrecord
  1
{a1a9c2d6-079e-4884-ad1d-8fc783db0053}
  0
XRECORD
  5
6CC
102
{ACAD_REACTORS
330
6C9
102
}
330
6C9
100
AcDbXrecord
  1

  0
XRECORD
  5
6D1
102
{ACAD_REACTORS
330
6C9
102
}
330
6C9
100
AcDbXrecord
 90
        4
  0
XRECORD
  5
6CE
102
{ACAD_REACTORS
330
6C9
102
}
330
6C9
100
AcDbXrecord
340
1A
  0
XRECORD
  5
6D0
102
{ACAD_REACTORS
330
6C9
102
}
330
6C9
100
AcDbXrecord
 90
    10781
  0
XRECORD
  5
6CF
102
{ACAD_REACTORS
330
6C9
102
}
330
6C9
100
AcDbXrecord
340
19
  0
XRECORD
  5
6D6
102
{ACAD_REACTORS
330
6C9
102
}
330
6C9
100
AcDbXrecord
 40
0.0
  0
XRECORD
  5
6D9
102
{ACAD_REACTORS
330
6C9
102
}
330
6C9
100
AcDbXrecord
340
0
  0
XRECORD
  5
6DF
102
{ACAD_REACTORS
330
6C9
102
}
330
6C9
100
AcDbXrecord
 10
0.0
 20
0.0
 30
0.0
  0
XRECORD
  5
6DB
102
{ACAD_REACTORS
330
6C9
102
}
330
6C9
100
AcDbXrecord
 10
0.0
 20
0.0
 30
0.0
  0
XRECORD
  5
6DE
102
{ACAD_REACTORS
330
6C9
102
}
330
6C9
100
AcDbXrecord
 10
0.0
 20
0.0
 30
0.0
  0
XRECORD
  5
6DC
102
{ACAD_REACTORS
330
6C9
102
}
330
6C9
100
AcDbXrecord
 10
0.0
 20
0.0
 30
0.0
  0
XRECORD
  5
6DD
102
{ACAD_REACTORS
330
6C9
102
}
330
6C9
100
AcDbXrecord
 10
0.0
 20
0.0
 30
0.0
  0
XRECORD
  5
6DA
102
{ACAD_REACTORS
330
6C9
102
}
330
6C9
100
AcDbXrecord
 10
0.0
 20
0.0
 30
0.0
  0
XRECORD
  5
6D7
102
{ACAD_REACTORS
330
6C9
102
}
330
6C9
100
AcDbXrecord
340
0
  0
XRECORD
  5
6D8
102
{ACAD_REACTORS
330
6C9
102
}
330
6C9
100
AcDbXrecord
 70
     0
  0
XRECORD
  5
6CD
102
{ACAD_REACTORS
330
6C9
102
}
330
6C9
100
AcDbXrecord
  1

  0
XRECORD
  5
6CA
102
{ACAD_REACTORS
330
6C9
102
}
330
6C9
100
AcDbXrecord
 90
        1
  0
XRECORD
  5
6CB
102
{ACAD_REACTORS
330
6C9
102
}
330
6C9
100
AcDbXrecord
 90
       70
  0
XRECORD
  5
6E2
102
{ACAD_REACTORS
330
6C9
102
}
330
6C9
100
AcDbXrecord
340
0
  0
XRECORD
  5
6E8
102
{ACAD_REACTORS
330
6C9
102
}
330
6C9
100
AcDbXrecord
 10
0.0
 20
0.0
 30
0.0
  0
XRECORD
  5
6E4
102
{ACAD_REACTORS
330
6C9
102
}
330
6C9
100
AcDbXrecord
 10
0.0
 20
0.0
 30
0.0
  0
XRECORD
  5
6E7
102
{ACAD_REACTORS
330
6C9
102
}
330
6C9
100
AcDbXrecord
 10
0.0
 20
0.0
 30
0.0
  0
XRECORD
  5
6E5
102
{ACAD_REACTORS
330
6C9
102
}
330
6C9
100
AcDbXrecord
 10
0.0
 20
0.0
 30
0.0
  0
XRECORD
  5
6E6
102
{ACAD_REACTORS
330
6C9
102
}
330
6C9
100
AcDbXrecord
 10
0.0
 20
0.0
 30
0.0
  0
XRECORD
  5
6E3
102
{ACAD_REACTORS
330
6C9
102
}
330
6C9
100
AcDbXrecord
 10
0.0
 20
0.0
 30
0.0
  0
XRECORD
  5
6E0
102
{ACAD_REACTORS
330
6C9
102
}
330
6C9
100
AcDbXrecord
340
0
  0
XRECORD
  5
6E1
102
{ACAD_REACTORS
330
6C9
102
}
330
6C9
100
AcDbXrecord
 70
     0
  0
XRECORD
  5
6D5
102
{ACAD_REACTORS
330
6C9
102
}
330
6C9
100
AcDbXrecord
  1
{FAEB1C32-E019-11D5-929B-00C0DF256EC4}
  0
DICTIONARYVAR
  5
6F7
102
{ACAD_REACTORS
330
6EA
102
}
330
6EA
100
DictionaryVariables
280
     0
  1
1:1
  0
DICTIONARYVAR
  5
6F1
102
{ACAD_REACTORS
330
6EA
102
}
330
6EA
100
DictionaryVariables
280
     0
  1
3.500000
  0
DICTIONARYVAR
  5
6F2
102
{ACAD_REACTORS
330
6EA
102
}
330
6EA
100
DictionaryVariables
280
     0
  1
acadiso.lin
  0
DICTIONARYVAR
  5
6EC
102
{ACAD_REACTORS
330
6EA
102
}
330
6EA
100
DictionaryVariables
280
     0
  1
Standard
  0
DICTIONARYVAR
  5
6EB
102
{ACAD_REACTORS
330
6EA
102
}
330
6EA
100
DictionaryVariables
280
     0
  1
Standard
  0
DICTIONARYVAR
  5
6F3
102
{ACAD_REACTORS
330
6EA
102
}
330
6EA
100
DictionaryVariables
280
     0
  1
2
  0
DICTIONARYVAR
  5
6F4
102
{ACAD_REACTORS
330
6EA
102
}
330
6EA
100
DictionaryVariables
280
     0
  1
1
  0
DICTIONARYVAR
  5
6F8
102
{ACAD_REACTORS
330
6EA
102
}
330
6EA
100
DictionaryVariables
280
     0
  1
1
  0
DICTIONARYVAR
  5
6EE
102
{ACAD_REACTORS
330
6EA
102
}
330
6EA
100
DictionaryVariables
280
     0
  1
80.000000
  0
DICTIONARYVAR
  5
6ED
102
{ACAD_REACTORS
330
6EA
102
}
330
6EA
100
DictionaryVariables
280
     0
  1
5.000000
  0
DICTIONARY
  5
6FB
330
45
100
AcDbDictionary
280
     1
  3
ACAD_XREC_ROUNDTRIP
360
6FC
  0
DICTIONARY
  5
6F9
330
44
100
AcDbDictionary
280
     1
  3
ACAD_XREC_ROUNDTRIP
360
6FA
  0
DICTIONARY
  5
6FD
330
46
100
AcDbDictionary
280
     1
  3
ACAD_XREC_ROUNDTRIP
360
6FE
  0
XRECORD
  5
6FC
102
{ACAD_REACTORS
330
6FB
102
}
330
6FB
100
AcDbXrecord
102
MATERIAL
148
0.0
149
0.0
149
0.0
 93
        0
 94
      127
282
     0
 72
     1
 77
     1
171
     1
175
     1
179
     1
273
     0
  0
XRECORD
  5
6FA
102
{ACAD_REACTORS
330
6F9
102
}
330
6F9
100
AcDbXrecord
102
MATERIAL
148
0.0
149
0.0
149
0.0
 93
        0
 94
      127
282
     0
 72
     1
 77
     1
171
     1
175
     1
179
     1
273
     0
  0
XRECORD
  5
6FE
102
{ACAD_REACTORS
330
6FD
102
}
330
6FD
100
AcDbXrecord
102
MATERIAL
148
0.0
149
0.0
149
0.0
 93
        0
 94
      127
282
     0
 72
     1
 77
     1
171
     1
175
     1
179
     1
273
     0
  0
ENDSEC
  0
EOF
