  0
SECTION
  2
HEADER
  9
$ACADVER
  1
AC1014
  9
$ACADMAINTVER
 70
     9
  9
$DWGCODEPAGE
  3
ANSI_932
  9
$INSBASE
 10
0.0
 20
0.0
 30
0.0
  9
$EXTMIN
 10
60.0
 20
60.0
 30
0.0
  9
$EXTMAX
 10
2460.0
 20
1722.0
 30
0.0
  9
$LIMMIN
 10
0.0
 20
0.0
  9
$LIMMAX
 10
420.0
 20
297.0
  9
$ORTHOMODE
 70
     0
  9
$REGENMODE
 70
     1
  9
$FILLMODE
 70
     1
  9
$QTEXTMODE
 70
     0
  9
$MIRRTEXT
 70
     1
  9
$DRAGMODE
 70
     2
  9
$LTSCALE
 40
1.0
  9
$OSMODE
 70
    37
  9
$ATTMODE
 70
     1
  9
$TEXTSIZE
 40
2.5
  9
$TRACEWID
 40
1.0
  9
$TEXTSTYLE
  7
STANDARD
  9
$CLAYER
  8
Ｓ_１_１
  9
$CELTYPE
  6
BYLAYER
  9
$CECOLOR
 62
   256
  9
$CELTSCALE
 40
1.0
  9
$DELOBJ
 70
     1
  9
$DISPSILH
 70
     0
  9
$DIMSCALE
 40
1.0
  9
$DIMASZ
 40
2.5
  9
$DIMEXO
 40
0.625
  9
$DIMDLI
 40
3.75
  9
$DIMRND
 40
0.0
  9
$DIMDLE
 40
0.0
  9
$DIMEXE
 40
1.25
  9
$DIMTP
 40
0.0
  9
$DIMTM
 40
0.0
  9
$DIMTXT
 40
2.5
  9
$DIMCEN
 40
2.5
  9
$DIMTSZ
 40
0.0
  9
$DIMTOL
 70
     0
  9
$DIMLIM
 70
     0
  9
$DIMTIH
 70
     0
  9
$DIMTOH
 70
     0
  9
$DIMSE1
 70
     0
  9
$DIMSE2
 70
     0
  9
$DIMTAD
 70
     1
  9
$DIMZIN
 70
     8
  9
$DIMBLK
  1

  9
$DIMASO
 70
     1
  9
$DIMSHO
 70
     1
  9
$DIMPOST
  1

  9
$DIMAPOST
  1

  9
$DIMALT
 70
     0
  9
$DIMALTD
 70
     3
  9
$DIMALTF
 40
0.03937007874016
  9
$DIMLFAC
 40
1.0
  9
$DIMTOFL
 70
     1
  9
$DIMTVP
 40
0.0
  9
$DIMTIX
 70
     0
  9
$DIMSOXD
 70
     0
  9
$DIMSAH
 70
     0
  9
$DIMBLK1
  1

  9
$DIMBLK2
  1

  9
$DIMSTYLE
  2
ISO-25
  9
$DIMCLRD
 70
     0
  9
$DIMCLRE
 70
     0
  9
$DIMCLRT
 70
     0
  9
$DIMTFAC
 40
1.0
  9
$DIMGAP
 40
0.625
  9
$DIMJUST
 70
     0
  9
$DIMSD1
 70
     0
  9
$DIMSD2
 70
     0
  9
$DIMTOLJ
 70
     0
  9
$DIMTZIN
 70
     8
  9
$DIMALTZ
 70
     0
  9
$DIMALTTZ
 70
     0
  9
$DIMFIT
 70
     3
  9
$DIMUPT
 70
     0
  9
$DIMUNIT
 70
     2
  9
$DIMDEC
 70
     2
  9
$DIMTDEC
 70
     2
  9
$DIMALTU
 70
     2
  9
$DIMALTTD
 70
     3
  9
$DIMTXSTY
  7
STANDARD
  9
$DIMAUNIT
 70
     0
  9
$LUNITS
 70
     2
  9
$LUPREC
 70
     4
  9
$SKETCHINC
 40
1.0
  9
$FILLETRAD
 40
10.0
  9
$AUNITS
 70
     0
  9
$AUPREC
 70
     0
  9
$MENU
  1
.
  9
$ELEVATION
 40
0.0
  9
$PELEVATION
 40
0.0
  9
$THICKNESS
 40
0.0
  9
$LIMCHECK
 70
     0
  9
$CHAMFERA
 40
0.0
  9
$CHAMFERB
 40
0.0
  9
$CHAMFERC
 40
0.0
  9
$CHAMFERD
 40
0.0
  9
$SKPOLY
 70
     0
  9
$TDCREATE
 40
2459586.418449676
  9
$TDUPDATE
 40
2459586.418451655
  9
$TDINDWG
 40
0.0000000116
  9
$TDUSRTIMER
 40
0.0000000116
  9
$USRTIMER
 70
     1
  9
$ANGBASE
 50
0.0
  9
$ANGDIR
 70
     0
  9
$PDMODE
 70
     0
  9
$PDSIZE
 40
0.0
  9
$PLINEWID
 40
0.0
  9
$COORDS
 70
     1
  9
$SPLFRAME
 70
     0
  9
$SPLINETYPE
 70
     6
  9
$SPLINESEGS
 70
     8
  9
$ATTDIA
 70
     0
  9
$ATTREQ
 70
     1
  9
$HANDLING
 70
     1
  9
$HANDSEED
  5
701
  9
$SURFTAB1
 70
     6
  9
$SURFTAB2
 70
     6
  9
$SURFTYPE
 70
     6
  9
$SURFU
 70
     6
  9
$SURFV
 70
     6
  9
$UCSNAME
  2

  9
$UCSORG
 10
0.0
 20
0.0
 30
0.0
  9
$UCSXDIR
 10
1.0
 20
0.0
 30
0.0
  9
$UCSYDIR
 10
0.0
 20
1.0
 30
0.0
  9
$PUCSNAME
  2

  9
$PUCSORG
 10
0.0
 20
0.0
 30
0.0
  9
$PUCSXDIR
 10
1.0
 20
0.0
 30
0.0
  9
$PUCSYDIR
 10
0.0
 20
1.0
 30
0.0
  9
$USERI1
 70
     0
  9
$USERI2
 70
     0
  9
$USERI3
 70
     0
  9
$USERI4
 70
     0
  9
$USERI5
 70
     0
  9
$USERR1
 40
0.0
  9
$USERR2
 40
0.0
  9
$USERR3
 40
0.0
  9
$USERR4
 40
0.0
  9
$USERR5
 40
0.0
  9
$WORLDVIEW
 70
     1
  9
$SHADEDGE
 70
     3
  9
$SHADEDIF
 70
    70
  9
$TILEMODE
 70
     1
  9
$MAXACTVP
 70
    64
  9
$PINSBASE
 10
0.0
 20
0.0
 30
0.0
  9
$PLIMCHECK
 70
     0
  9
$PEXTMIN
 10
1.000000000000000E+20
 20
1.000000000000000E+20
 30
1.000000000000000E+20
  9
$PEXTMAX
 10
-1.000000000000000E+20
 20
-1.000000000000000E+20
 30
-1.000000000000000E+20
  9
$PLIMMIN
 10
0.0
 20
0.0
  9
$PLIMMAX
 10
420.0
 20
297.0
  9
$UNITMODE
 70
     0
  9
$VISRETAIN
 70
     1
  9
$PLINEGEN
 70
     0
  9
$PSLTSCALE
 70
     1
  9
$TREEDEPTH
 70
  3020
  9
$PICKSTYLE
 70
     1
  9
$CMLSTYLE
  2
STANDARD
  9
$CMLJUST
 70
     0
  9
$CMLSCALE
 40
20.0
  9
$PROXYGRAPHICS
 70
     1
  9
$MEASUREMENT
 70
     1
  0
ENDSEC
  0
SECTION
  2
CLASSES
  0
CLASS
  1
ACDBDICTIONARYWDFLT
  2
AcDbDictionaryWithDefault
  3
ObjectDBX Classes
 90
        0
280
     0
281
     0
  0
CLASS
  1
VISUALSTYLE
  2
AcDbVisualStyle
  3
ObjectDBX Classes
 90
     4095
280
     0
281
     0
  0
CLASS
  1
MATERIAL
  2
AcDbMaterial
  3
ObjectDBX Classes
 90
     1153
280
     0
281
     0
  0
CLASS
  1
SCALE
  2
AcDbScale
  3
ObjectDBX Classes
 90
     1153
280
     0
281
     0
  0
CLASS
  1
TABLESTYLE
  2
AcDbTableStyle
  3
ObjectDBX Classes
 90
     4095
280
     0
281
     0
  0
CLASS
  1
MLEADERSTYLE
  2
AcDbMLeaderStyle
  3
ACDB_MLEADERSTYLE_CLASS
 90
     4095
280
     0
281
     0
  0
CLASS
  1
SUN
  2
AcDbSun
  3
SCENEOE
 90
     1153
280
     0
281
     0
  0
CLASS
  1
DICTIONARYVAR
  2
AcDbDictionaryVar
  3
ObjectDBX Classes
 90
        0
280
     0
281
     0
  0
CLASS
  1
XRECORD
  2
AcDbXrecord
  3
ObjectDBX Classes
 90
        0
280
     0
281
     0
  0
CLASS
  1
LWPOLYLINE
  2
AcDbPolyline
  3
ObjectDBX Classes
 90
        0
280
     0
281
     1
  0
CLASS
  1
HATCH
  2
AcDbHatch
  3
ObjectDBX Classes
 90
        0
280
     0
281
     1
  0
CLASS
  1
ACDBPLACEHOLDER
  2
AcDbPlaceHolder
  3
ObjectDBX Classes
 90
        0
280
     0
281
     0
  0
CLASS
  1
LAYOUT
  2
AcDbLayout
  3
ObjectDBX Classes
 90
        0
280
     0
281
     0
  0
ENDSEC
  0
SECTION
  2
TABLES
  0
TABLE
  2
VPORT
  5
8
102
{ACAD_XDICTIONARY
360
6F6
102
}
330
0
100
AcDbSymbolTable
 70
     1
  0
VPORT
  5
29
330
8
100
AcDbSymbolTableRecord
100
AcDbViewportTableRecord
  2
*ACTIVE
 70
     0
 10
0.0
 20
0.0
 11
1.0
 21
1.0
 12
1260.0
 22
891.0
 13
0.0
 23
0.0
 14
10.0
 24
10.0
 15
10.0
 25
10.0
 16
0.0
 26
0.0
 36
1.0
 17
0.0
 27
0.0
 37
0.0
 40
1662.0
 41
1.444043321299639
 42
50.0
 43
0.0
 44
0.0
 50
0.0
 51
0.0
 71
     0
 72
  1000
 73
     1
 74
     3
 75
     0
 76
     0
 77
     0
 78
     0
  0
ENDTAB
  0
TABLE
  2
LTYPE
  5
5
330
0
100
AcDbSymbolTable
 70
    11
  0
LTYPE
  5
14
330
5
100
AcDbSymbolTableRecord
100
AcDbLinetypeTableRecord
  2
BYBLOCK
 70
     0
  3

 72
    65
 73
     0
 40
0.0
  0
LTYPE
  5
15
330
5
100
AcDbSymbolTableRecord
100
AcDbLinetypeTableRecord
  2
BYLAYER
 70
     0
  3

 72
    65
 73
     0
 40
0.0
  0
LTYPE
  5
16
330
5
100
AcDbSymbolTableRecord
100
AcDbLinetypeTableRecord
  2
CONTINUOUS
 70
     0
  3
Solid line
 72
    65
 73
     0
 40
0.0
  0
LTYPE
  5
6E
330
5
100
AcDbSymbolTableRecord
100
AcDbLinetypeTableRecord
  2
EXLTYPE0
 70
     0
  3
破線
 72
    65
 73
     2
 40
4.0
 49
3.0
 74
     0
 49
-1.0
 74
     0
  0
LTYPE
  5
6F
330
5
100
AcDbSymbolTableRecord
100
AcDbLinetypeTableRecord
  2
EXLTYPE1
 70
     0
  3
点線
 72
    65
 73
     2
 40
2.0
 49
1.0
 74
     0
 49
-1.0
 74
     0
  0
LTYPE
  5
70
330
5
100
AcDbSymbolTableRecord
100
AcDbLinetypeTableRecord
  2
EXLTYPE2
 70
     0
  3
一点鎖線
 72
    65
 73
     4
 40
13.0
 49
10.0
 74
     0
 49
-1.0
 74
     0
 49
1.0
 74
     0
 49
-1.0
 74
     0
  0
LTYPE
  5
71
330
5
100
AcDbSymbolTableRecord
100
AcDbLinetypeTableRecord
  2
EXLTYPE3
 70
     0
  3
二点鎖線
 72
    65
 73
     6
 40
15.0
 49
10.0
 74
     0
 49
-1.0
 74
     0
 49
1.0
 74
     0
 49
-1.0
 74
     0
 49
1.0
 74
     0
 49
-1.0
 74
     0
  0
LTYPE
  5
72
330
5
100
AcDbSymbolTableRecord
100
AcDbLinetypeTableRecord
  2
EXLTYPE4
 70
     0
  3
一点鎖線2
 72
    65
 73
     4
 40
3.5
 49
2.0
 74
     0
 49
-0.5
 74
     0
 49
0.5
 74
     0
 49
-0.5
 74
     0
  0
LTYPE
  5
73
330
5
100
AcDbSymbolTableRecord
100
AcDbLinetypeTableRecord
  2
EXLTYPE5
 70
     0
  3
二点鎖線2
 72
    65
 73
     6
 40
4.5
 49
2.0
 74
     0
 49
-0.5
 74
     0
 49
0.5
 74
     0
 49
-0.5
 74
     0
 49
0.5
 74
     0
 49
-0.5
 74
     0
  0
LTYPE
  5
74
330
5
100
AcDbSymbolTableRecord
100
AcDbLinetypeTableRecord
  2
EXLTYPE6
 70
     0
  3
一点鎖線5
 72
    65
 73
     4
 40
13.0
 49
10.0
 74
     0
 49
-1.0
 74
     0
 49
1.0
 74
     0
 49
-1.0
 74
     0
  0
LTYPE
  5
75
330
5
100
AcDbSymbolTableRecord
100
AcDbLinetypeTableRecord
  2
EXLTYPE7
 70
     0
  3
破線7
 72
    65
 73
     2
 40
2.5
 49
1.5
 74
     0
 49
-1.0
 74
     0
  0
LTYPE
  5
76
330
5
100
AcDbSymbolTableRecord
100
AcDbLinetypeTableRecord
  2
EXLTYPE8
 70
     0
  3
一点鎖線4
 72
    65
 73
     4
 40
13.0
 49
10.0
 74
     0
 49
-1.0
 74
     0
 49
1.0
 74
     0
 49
-1.0
 74
     0
  0
LTYPE
  5
77
330
5
100
AcDbSymbolTableRecord
100
AcDbLinetypeTableRecord
  2
EXLTYPE9
 70
     0
  3
破線2
 72
    65
 73
     2
 40
2.5
 49
1.5
 74
     0
 49
-1.0
 74
     0
  0
ENDTAB
  0
TABLE
  2
LAYER
  5
2
330
0
100
AcDbSymbolTable
 70
     4
  0
LAYER
  5
10
330
2
100
AcDbSymbolTableRecord
100
AcDbLayerTableRecord
  2
0
 70
     0
 62
     7
  6
CONTINUOUS
  0
LAYER
  5
7A
330
2
100
AcDbSymbolTableRecord
100
AcDbLayerTableRecord
  2
図面枠
 70
     4
 62
     7
  6
CONTINUOUS
  0
LAYER
  5
7B
330
2
100
AcDbSymbolTableRecord
100
AcDbLayerTableRecord
  2
Ｓ_１_１
 70
     0
 62
     7
  6
CONTINUOUS
  0
LAYER
  5
11D
330
2
100
AcDbSymbolTableRecord
100
AcDbLayerTableRecord
  2
DEFPOINTS
 70
     0
 62
     7
  6
CONTINUOUS
  0
ENDTAB
  0
TABLE
  2
STYLE
  5
3
330
0
100
AcDbSymbolTable
 70
     5
  0
STYLE
  5
11
330
3
100
AcDbSymbolTableRecord
100
AcDbTextStyleTableRecord
  2
STANDARD
 70
     0
 40
0.0
 41
1.0
 50
0.0
 71
     0
 42
2.5
  3
monotxt
  4
extfont
  0
STYLE
  5
78
330
3
100
AcDbSymbolTableRecord
100
AcDbTextStyleTableRecord
  2
EXCADSTD
 70
     0
 40
0.0
 41
1.0
 50
0.0
 71
     0
 42
2.5
  3
monotxt
  4
extfont
  0
STYLE
  5
79
330
3
100
AcDbSymbolTableRecord
100
AcDbTextStyleTableRecord
  2
EXCADVERT
 70
     4
 40
0.0
 41
1.0
 50
0.0
 71
     0
 42
2.5
  3
monotxt
  4
extfont
  0
STYLE
  5
DE
330
3
100
AcDbSymbolTableRecord
100
AcDbTextStyleTableRecord
  2
EXCADTTF1
 70
     0
 40
0.0
 41
1.0
 50
0.0
 71
     0
 42
2.5
  3
msgothic.ttc
  4

1001
ACAD
1000
MS Gothic
1071
    32817
  0
STYLE
  5
11B
330
3
100
AcDbSymbolTableRecord
100
AcDbTextStyleTableRecord
  2
EXCADDIM1
 70
     0
 40
0.0
 41
1.0
 50
0.0
 71
     0
 42
2.5
  3
msgothic.ttc
  4

1001
ACAD
1000
MS Gothic
1071
    32817
  0
ENDTAB
  0
TABLE
  2
VIEW
  5
6
330
0
100
AcDbSymbolTable
 70
     0
  0
ENDTAB
  0
TABLE
  2
UCS
  5
7
330
0
100
AcDbSymbolTable
 70
     0
  0
ENDTAB
  0
TABLE
  2
APPID
  5
9
330
0
100
AcDbSymbolTable
 70
     2
  0
APPID
  5
12
330
9
100
AcDbSymbolTableRecord
100
AcDbRegAppTableRecord
  2
ACAD
 70
     0
  0
APPID
  5
700
330
9
100
AcDbSymbolTableRecord
100
AcDbRegAppTableRecord
  2
ACAD_MLEADERVER
 70
     0
  0
ENDTAB
  0
TABLE
  2
DIMSTYLE
  5
A
330
0
100
AcDbSymbolTable
 70
     1
  0
DIMSTYLE
105
27
102
{ACAD_REACTORS
330
11C
330
12A
330
137
330
144
330
153
330
162
330
16F
330
17C
330
189
330
196
330
1A3
330
1B0
330
1BD
330
1CA
330
1D7
330
1E4
330
1F1
330
1FE
330
20B
330
218
330
225
330
232
330
23F
330
24C
102
}
330
A
100
AcDbSymbolTableRecord
100
AcDbDimStyleTableRecord
  2
ISO-25
 70
     0
  3

  4

  5

  6

  7

 40
1.0
 41
2.5
 42
0.625
 43
3.75
 44
1.25
 45
0.0
 46
0.0
 47
0.0
 48
0.0
140
2.5
141
2.5
142
0.0
143
0.03937007874016
144
1.0
145
0.0
146
1.0
147
0.625
 71
     0
 72
     0
 73
     0
 74
     0
 75
     0
 76
     0
 77
     1
 78
     8
170
     0
171
     3
172
     1
173
     0
174
     0
175
     0
176
     0
177
     0
178
     0
270
     2
271
     2
272
     2
273
     2
274
     3
340
11
275
     0
280
     0
281
     0
282
     0
283
     0
284
     8
285
     0
286
     0
287
     5
288
     0
  0
ENDTAB
  0
TABLE
  2
BLOCK_RECORD
  5
1
330
0
100
AcDbSymbolTable
 70
    38
  0
BLOCK_RECORD
  5
1F
330
1
100
AcDbSymbolTableRecord
100
AcDbBlockTableRecord
  2
*MODEL_SPACE
  0
BLOCK_RECORD
  5
1B
330
1
100
AcDbSymbolTableRecord
100
AcDbBlockTableRecord
  2
*PAPER_SPACE
  0
BLOCK_RECORD
  5
7C
330
1
100
AcDbSymbolTableRecord
100
AcDbBlockTableRecord
  2
EX_NORM
  0
BLOCK_RECORD
  5
7F
330
1
100
AcDbSymbolTableRecord
100
AcDbBlockTableRecord
  2
EX_BNORM
  0
BLOCK_RECORD
  5
82
330
1
100
AcDbSymbolTableRecord
100
AcDbBlockTableRecord
  2
EX_BCIR
  0
BLOCK_RECORD
  5
85
330
1
100
AcDbSymbolTableRecord
100
AcDbBlockTableRecord
  2
EX_RCIVIL
  0
BLOCK_RECORD
  5
88
330
1
100
AcDbSymbolTableRecord
100
AcDbBlockTableRecord
  2
EX_SLANT
  0
BLOCK_RECORD
  5
8B
330
1
100
AcDbSymbolTableRecord
100
AcDbBlockTableRecord
  2
EX_NONE
  0
BLOCK_RECORD
  5
8E
330
1
100
AcDbSymbolTableRecord
100
AcDbBlockTableRecord
  2
EX_CIVIL
  0
BLOCK_RECORD
  5
91
330
1
100
AcDbSymbolTableRecord
100
AcDbBlockTableRecord
  2
EX_WCIR
  0
BLOCK_RECORD
  5
94
330
1
100
AcDbSymbolTableRecord
100
AcDbBlockTableRecord
  2
EX_WCIR2
  0
BLOCK_RECORD
  5
97
330
1
100
AcDbSymbolTableRecord
100
AcDbBlockTableRecord
  2
EX_WNORM
  0
BLOCK_RECORD
  5
9A
330
1
100
AcDbSymbolTableRecord
100
AcDbBlockTableRecord
  2
EX_NNORM
  0
BLOCK_RECORD
  5
9D
330
1
100
AcDbSymbolTableRecord
100
AcDbBlockTableRecord
  2
EX_BBOX
  0
BLOCK_RECORD
  5
A0
330
1
100
AcDbSymbolTableRecord
100
AcDbBlockTableRecord
  2
EX_WBOX
  0
BLOCK_RECORD
  5
A3
330
1
100
AcDbSymbolTableRecord
100
AcDbBlockTableRecord
  2
EX_INTEGRAL
  0
BLOCK_RECORD
  5
11E
330
1
100
AcDbSymbolTableRecord
100
AcDbBlockTableRecord
  2
*D15
  0
BLOCK_RECORD
  5
12B
330
1
100
AcDbSymbolTableRecord
100
AcDbBlockTableRecord
  2
*D16
  0
BLOCK_RECORD
  5
138
330
1
100
AcDbSymbolTableRecord
100
AcDbBlockTableRecord
  2
*D17
  0
BLOCK_RECORD
  5
145
330
1
100
AcDbSymbolTableRecord
100
AcDbBlockTableRecord
  2
*D18
  0
BLOCK_RECORD
  5
154
330
1
100
AcDbSymbolTableRecord
100
AcDbBlockTableRecord
  2
*D19
  0
BLOCK_RECORD
  5
163
330
1
100
AcDbSymbolTableRecord
100
AcDbBlockTableRecord
  2
*D20
  0
BLOCK_RECORD
  5
170
330
1
100
AcDbSymbolTableRecord
100
AcDbBlockTableRecord
  2
*D21
  0
BLOCK_RECORD
  5
17D
330
1
100
AcDbSymbolTableRecord
100
AcDbBlockTableRecord
  2
*D22
  0
BLOCK_RECORD
  5
18A
330
1
100
AcDbSymbolTableRecord
100
AcDbBlockTableRecord
  2
*D23
  0
BLOCK_RECORD
  5
197
330
1
100
AcDbSymbolTableRecord
100
AcDbBlockTableRecord
  2
*D24
  0
BLOCK_RECORD
  5
1A4
330
1
100
AcDbSymbolTableRecord
100
AcDbBlockTableRecord
  2
*D25
  0
BLOCK_RECORD
  5
1B1
330
1
100
AcDbSymbolTableRecord
100
AcDbBlockTableRecord
  2
*D26
  0
BLOCK_RECORD
  5
1BE
330
1
100
AcDbSymbolTableRecord
100
AcDbBlockTableRecord
  2
*D27
  0
BLOCK_RECORD
  5
1CB
330
1
100
AcDbSymbolTableRecord
100
AcDbBlockTableRecord
  2
*D28
  0
BLOCK_RECORD
  5
1D8
330
1
100
AcDbSymbolTableRecord
100
AcDbBlockTableRecord
  2
*D29
  0
BLOCK_RECORD
  5
1E5
330
1
100
AcDbSymbolTableRecord
100
AcDbBlockTableRecord
  2
*D30
  0
BLOCK_RECORD
  5
1F2
330
1
100
AcDbSymbolTableRecord
100
AcDbBlockTableRecord
  2
*D31
  0
BLOCK_RECORD
  5
1FF
330
1
100
AcDbSymbolTableRecord
100
AcDbBlockTableRecord
  2
*D32
  0
BLOCK_RECORD
  5
20C
330
1
100
AcDbSymbolTableRecord
100
AcDbBlockTableRecord
  2
*D33
  0
BLOCK_RECORD
  5
219
330
1
100
AcDbSymbolTableRecord
100
AcDbBlockTableRecord
  2
*D34
  0
BLOCK_RECORD
  5
226
330
1
100
AcDbSymbolTableRecord
100
AcDbBlockTableRecord
  2
*D35
  0
BLOCK_RECORD
  5
233
330
1
100
AcDbSymbolTableRecord
100
AcDbBlockTableRecord
  2
*D36
  0
BLOCK_RECORD
  5
240
330
1
100
AcDbSymbolTableRecord
100
AcDbBlockTableRecord
  2
*D37
  0
BLOCK_RECORD
  5
24D
330
1
100
AcDbSymbolTableRecord
100
AcDbBlockTableRecord
  2
*D38
  0
ENDTAB
  0
ENDSEC
  0
SECTION
  2
BLOCKS
  0
BLOCK
  5
20
330
1F
100
AcDbEntity
  8
0
100
AcDbBlockBegin
  2
*MODEL_SPACE
 70
     0
 10
0.0
 20
0.0
 30
0.0
  3
*MODEL_SPACE
  1

  0
ENDBLK
  5
21
330
1F
100
AcDbEntity
  8
0
100
AcDbBlockEnd
  0
BLOCK
  5
1C
330
1B
100
AcDbEntity
 67
     1
  8
0
100
AcDbBlockBegin
  2
*PAPER_SPACE
 70
     0
 10
0.0
 20
0.0
 30
0.0
  3
*PAPER_SPACE
  1

  0
ENDBLK
  5
1D
330
1B
100
AcDbEntity
 67
     1
  8
0
100
AcDbBlockEnd
  0
BLOCK
  5
7D
330
7C
100
AcDbEntity
  8
0
100
AcDbBlockBegin
  2
EX_NORM
 70
     0
 10
0.0
 20
0.0
 30
0.0
  3
EX_NORM
  1

  0
LINE
  5
A6
330
7C
100
AcDbEntity
  8
0
  6
CONTINUOUS
 62
     0
100
AcDbLine
 10
0.0
 20
0.0
 30
0.0
 11
-1.0
 21
0.0
 31
0.0
  0
LINE
  5
A7
330
7C
100
AcDbEntity
  8
0
  6
CONTINUOUS
 62
     0
100
AcDbLine
 10
0.0
 20
0.0
 30
0.0
 11
-1.0
 21
0.166666667
 31
0.0
  0
LINE
  5
A8
330
7C
100
AcDbEntity
  8
0
  6
CONTINUOUS
 62
     0
100
AcDbLine
 10
0.0
 20
0.0
 30
0.0
 11
-1.0
 21
-0.166666667
 31
0.0
  0
ENDBLK
  5
7E
330
7C
100
AcDbEntity
  8
0
100
AcDbBlockEnd
  0
BLOCK
  5
80
330
7F
100
AcDbEntity
  8
0
100
AcDbBlockBegin
  2
EX_BNORM
 70
     0
 10
0.0
 20
0.0
 30
0.0
  3
EX_BNORM
  1

  0
LINE
  5
A9
330
7F
100
AcDbEntity
  8
0
  6
CONTINUOUS
 62
     0
100
AcDbLine
 10
0.0
 20
0.0
 30
0.0
 11
-1.0
 21
0.0
 31
0.0
  0
LINE
  5
AA
330
7F
100
AcDbEntity
  8
0
  6
CONTINUOUS
 62
     0
100
AcDbLine
 10
0.0
 20
0.0
 30
0.0
 11
-1.0
 21
0.166666667
 31
0.0
  0
LINE
  5
AB
330
7F
100
AcDbEntity
  8
0
  6
CONTINUOUS
 62
     0
100
AcDbLine
 10
0.0
 20
0.0
 30
0.0
 11
-1.0
 21
-0.166666667
 31
0.0
  0
LINE
  5
AC
330
7F
100
AcDbEntity
  8
0
  6
CONTINUOUS
 62
     0
100
AcDbLine
 10
0.0
 20
0.0
 30
0.0
 11
-1.0
 21
0.083333333
 31
0.0
  0
LINE
  5
AD
330
7F
100
AcDbEntity
  8
0
  6
CONTINUOUS
 62
     0
100
AcDbLine
 10
0.0
 20
0.0
 30
0.0
 11
-1.0
 21
-0.083333333
 31
0.0
  0
LINE
  5
AE
330
7F
100
AcDbEntity
  8
0
  6
CONTINUOUS
 62
     0
100
AcDbLine
 10
-1.0
 20
0.166666667
 30
0.0
 11
-1.0
 21
-0.166666667
 31
0.0
  0
ENDBLK
  5
81
330
7F
100
AcDbEntity
  8
0
100
AcDbBlockEnd
  0
BLOCK
  5
83
330
82
100
AcDbEntity
  8
0
100
AcDbBlockBegin
  2
EX_BCIR
 70
     0
 10
0.0
 20
0.0
 30
0.0
  3
EX_BCIR
  1

  0
LINE
  5
AF
330
82
100
AcDbEntity
  8
0
  6
CONTINUOUS
 62
     0
100
AcDbLine
 10
0.0
 20
0.0
 30
0.0
 11
-1.0
 21
0.0
 31
0.0
  0
CIRCLE
  5
B0
330
82
100
AcDbEntity
  8
0
  6
CONTINUOUS
 62
     0
100
AcDbCircle
 10
0.0
 20
0.0
 30
0.0
 40
0.5
  0
CIRCLE
  5
B1
330
82
100
AcDbEntity
  8
0
  6
CONTINUOUS
 62
     0
100
AcDbCircle
 10
0.0
 20
0.0
 30
0.0
 40
0.25
  0
ENDBLK
  5
84
330
82
100
AcDbEntity
  8
0
100
AcDbBlockEnd
  0
BLOCK
  5
86
330
85
100
AcDbEntity
  8
0
100
AcDbBlockBegin
  2
EX_RCIVIL
 70
     0
 10
0.0
 20
0.0
 30
0.0
  3
EX_RCIVIL
  1

  0
LINE
  5
B2
330
85
100
AcDbEntity
  8
0
  6
CONTINUOUS
 62
     0
100
AcDbLine
 10
0.0
 20
0.0
 30
0.0
 11
-1.0
 21
0.0
 31
0.0
  0
LINE
  5
B3
330
85
100
AcDbEntity
  8
0
  6
CONTINUOUS
 62
     0
100
AcDbLine
 10
-1.0
 20
-0.25
 30
0.0
 11
0.0
 21
-0.25
 31
0.0
  0
LINE
  5
B4
330
85
100
AcDbEntity
  8
0
  6
CONTINUOUS
 62
     0
100
AcDbLine
 10
-1.0
 20
-0.125
 30
0.0
 11
0.0
 21
-0.125
 31
0.0
  0
ENDBLK
  5
87
330
85
100
AcDbEntity
  8
0
100
AcDbBlockEnd
  0
BLOCK
  5
89
330
88
100
AcDbEntity
  8
0
100
AcDbBlockBegin
  2
EX_SLANT
 70
     0
 10
0.0
 20
0.0
 30
0.0
  3
EX_SLANT
  1

  0
LINE
  5
B5
330
88
100
AcDbEntity
  8
0
  6
CONTINUOUS
 62
     0
100
AcDbLine
 10
0.0
 20
0.0
 30
0.0
 11
-1.0
 21
0.0
 31
0.0
  0
LINE
  5
B6
330
88
100
AcDbEntity
  8
0
  6
CONTINUOUS
 62
     0
100
AcDbLine
 10
0.707106781
 20
0.707106781
 30
0.0
 11
-0.707106781
 21
-0.707106781
 31
0.0
  0
ENDBLK
  5
8A
330
88
100
AcDbEntity
  8
0
100
AcDbBlockEnd
  0
BLOCK
  5
8C
330
8B
100
AcDbEntity
  8
0
100
AcDbBlockBegin
  2
EX_NONE
 70
     0
 10
0.0
 20
0.0
 30
0.0
  3
EX_NONE
  1

  0
LINE
  5
B7
330
8B
100
AcDbEntity
  8
0
  6
CONTINUOUS
 62
     0
100
AcDbLine
 10
0.0
 20
0.0
 30
0.0
 11
-1.0
 21
0.0
 31
0.0
  0
ENDBLK
  5
8D
330
8B
100
AcDbEntity
  8
0
100
AcDbBlockEnd
  0
BLOCK
  5
8F
330
8E
100
AcDbEntity
  8
0
100
AcDbBlockBegin
  2
EX_CIVIL
 70
     0
 10
0.0
 20
0.0
 30
0.0
  3
EX_CIVIL
  1

  0
LINE
  5
B8
330
8E
100
AcDbEntity
  8
0
  6
CONTINUOUS
 62
     0
100
AcDbLine
 10
0.0
 20
0.0
 30
0.0
 11
-1.0
 21
0.0
 31
0.0
  0
LINE
  5
B9
330
8E
100
AcDbEntity
  8
0
  6
CONTINUOUS
 62
     0
100
AcDbLine
 10
-1.0
 20
0.25
 30
0.0
 11
0.0
 21
0.25
 31
0.0
  0
LINE
  5
BA
330
8E
100
AcDbEntity
  8
0
  6
CONTINUOUS
 62
     0
100
AcDbLine
 10
-1.0
 20
0.125
 30
0.0
 11
0.0
 21
0.125
 31
0.0
  0
ENDBLK
  5
90
330
8E
100
AcDbEntity
  8
0
100
AcDbBlockEnd
  0
BLOCK
  5
92
330
91
100
AcDbEntity
  8
0
100
AcDbBlockBegin
  2
EX_WCIR
 70
     0
 10
0.0
 20
0.0
 30
0.0
  3
EX_WCIR
  1

  0
LINE
  5
BB
330
91
100
AcDbEntity
  8
0
  6
CONTINUOUS
 62
     0
100
AcDbLine
 10
0.0
 20
0.0
 30
0.0
 11
-1.0
 21
0.0
 31
0.0
  0
CIRCLE
  5
BC
330
91
100
AcDbEntity
  8
0
  6
CONTINUOUS
 62
     0
100
AcDbCircle
 10
0.0
 20
0.0
 30
0.0
 40
0.5
  0
ENDBLK
  5
93
330
91
100
AcDbEntity
  8
0
100
AcDbBlockEnd
  0
BLOCK
  5
95
330
94
100
AcDbEntity
  8
0
100
AcDbBlockBegin
  2
EX_WCIR2
 70
     0
 10
0.0
 20
0.0
 30
0.0
  3
EX_WCIR2
  1

  0
LINE
  5
BD
330
94
100
AcDbEntity
  8
0
  6
CONTINUOUS
 62
     0
100
AcDbLine
 10
-0.5
 20
0.0
 30
0.0
 11
-1.0
 21
0.0
 31
0.0
  0
CIRCLE
  5
BE
330
94
100
AcDbEntity
  8
0
  6
CONTINUOUS
 62
     0
100
AcDbCircle
 10
0.0
 20
0.0
 30
0.0
 40
0.5
  0
ENDBLK
  5
96
330
94
100
AcDbEntity
  8
0
100
AcDbBlockEnd
  0
BLOCK
  5
98
330
97
100
AcDbEntity
  8
0
100
AcDbBlockBegin
  2
EX_WNORM
 70
     0
 10
0.0
 20
0.0
 30
0.0
  3
EX_WNORM
  1

  0
LINE
  5
BF
330
97
100
AcDbEntity
  8
0
  6
CONTINUOUS
 62
     0
100
AcDbLine
 10
-1.0
 20
0.0
 30
0.0
 11
-1.0
 21
0.0
 31
0.0
  0
LINE
  5
C0
330
97
100
AcDbEntity
  8
0
  6
CONTINUOUS
 62
     0
100
AcDbLine
 10
0.0
 20
0.0
 30
0.0
 11
-1.0
 21
0.166666667
 31
0.0
  0
LINE
  5
C1
330
97
100
AcDbEntity
  8
0
  6
CONTINUOUS
 62
     0
100
AcDbLine
 10
0.0
 20
0.0
 30
0.0
 11
-1.0
 21
-0.166666667
 31
0.0
  0
LINE
  5
C2
330
97
100
AcDbEntity
  8
0
  6
CONTINUOUS
 62
     0
100
AcDbLine
 10
-1.0
 20
0.166666667
 30
0.0
 11
-1.0
 21
-0.166666667
 31
0.0
  0
ENDBLK
  5
99
330
97
100
AcDbEntity
  8
0
100
AcDbBlockEnd
  0
BLOCK
  5
9B
330
9A
100
AcDbEntity
  8
0
100
AcDbBlockBegin
  2
EX_NNORM
 70
     0
 10
0.0
 20
0.0
 30
0.0
  3
EX_NNORM
  1

  0
LINE
  5
C3
330
9A
100
AcDbEntity
  8
0
  6
CONTINUOUS
 62
     0
100
AcDbLine
 10
0.0
 20
0.0
 30
0.0
 11
-1.0
 21
0.0
 31
0.0
  0
LINE
  5
C4
330
9A
100
AcDbEntity
  8
0
  6
CONTINUOUS
 62
     0
100
AcDbLine
 10
0.0
 20
0.0
 30
0.0
 11
-1.0
 21
0.166666667
 31
0.0
  0
LINE
  5
C5
330
9A
100
AcDbEntity
  8
0
  6
CONTINUOUS
 62
     0
100
AcDbLine
 10
0.0
 20
0.0
 30
0.0
 11
-1.0
 21
-0.166666667
 31
0.0
  0
LINE
  5
C6
330
9A
100
AcDbEntity
  8
0
  6
CONTINUOUS
 62
     0
100
AcDbLine
 10
-1.0
 20
0.166666667
 30
0.0
 11
-1.0
 21
-0.166666667
 31
0.0
  0
ENDBLK
  5
9C
330
9A
100
AcDbEntity
  8
0
100
AcDbBlockEnd
  0
BLOCK
  5
9E
330
9D
100
AcDbEntity
  8
0
100
AcDbBlockBegin
  2
EX_BBOX
 70
     0
 10
0.0
 20
0.0
 30
0.0
  3
EX_BBOX
  1

  0
LINE
  5
C7
330
9D
100
AcDbEntity
  8
0
  6
CONTINUOUS
 62
     0
100
AcDbLine
 10
0.0
 20
0.0
 30
0.0
 11
-1.0
 21
0.0
 31
0.0
  0
LINE
  5
C8
330
9D
100
AcDbEntity
  8
0
  6
CONTINUOUS
 62
     0
100
AcDbLine
 10
-0.5
 20
0.5
 30
0.0
 11
0.5
 21
0.5
 31
0.0
  0
LINE
  5
C9
330
9D
100
AcDbEntity
  8
0
  6
CONTINUOUS
 62
     0
100
AcDbLine
 10
0.5
 20
0.5
 30
0.0
 11
0.5
 21
-0.5
 31
0.0
  0
LINE
  5
CA
330
9D
100
AcDbEntity
  8
0
  6
CONTINUOUS
 62
     0
100
AcDbLine
 10
0.5
 20
-0.5
 30
0.0
 11
-0.5
 21
-0.5
 31
0.0
  0
LINE
  5
CB
330
9D
100
AcDbEntity
  8
0
  6
CONTINUOUS
 62
     0
100
AcDbLine
 10
-0.5
 20
-0.5
 30
0.0
 11
-0.5
 21
0.5
 31
0.0
  0
LINE
  5
CC
330
9D
100
AcDbEntity
  8
0
  6
CONTINUOUS
 62
     0
100
AcDbLine
 10
-0.25
 20
0.25
 30
0.0
 11
0.25
 21
0.25
 31
0.0
  0
LINE
  5
CD
330
9D
100
AcDbEntity
  8
0
  6
CONTINUOUS
 62
     0
100
AcDbLine
 10
0.25
 20
0.25
 30
0.0
 11
0.25
 21
-0.25
 31
0.0
  0
LINE
  5
CE
330
9D
100
AcDbEntity
  8
0
  6
CONTINUOUS
 62
     0
100
AcDbLine
 10
0.25
 20
-0.25
 30
0.0
 11
-0.25
 21
-0.25
 31
0.0
  0
LINE
  5
CF
330
9D
100
AcDbEntity
  8
0
  6
CONTINUOUS
 62
     0
100
AcDbLine
 10
-0.25
 20
-0.25
 30
0.0
 11
-0.25
 21
0.25
 31
0.0
  0
ENDBLK
  5
9F
330
9D
100
AcDbEntity
  8
0
100
AcDbBlockEnd
  0
BLOCK
  5
A1
330
A0
100
AcDbEntity
  8
0
100
AcDbBlockBegin
  2
EX_WBOX
 70
     0
 10
0.0
 20
0.0
 30
0.0
  3
EX_WBOX
  1

  0
LINE
  5
D0
330
A0
100
AcDbEntity
  8
0
  6
CONTINUOUS
 62
     0
100
AcDbLine
 10
-0.5
 20
0.0
 30
0.0
 11
-1.0
 21
0.0
 31
0.0
  0
LINE
  5
D1
330
A0
100
AcDbEntity
  8
0
  6
CONTINUOUS
 62
     0
100
AcDbLine
 10
-0.5
 20
0.5
 30
0.0
 11
0.5
 21
0.5
 31
0.0
  0
LINE
  5
D2
330
A0
100
AcDbEntity
  8
0
  6
CONTINUOUS
 62
     0
100
AcDbLine
 10
0.5
 20
0.5
 30
0.0
 11
0.5
 21
-0.5
 31
0.0
  0
LINE
  5
D3
330
A0
100
AcDbEntity
  8
0
  6
CONTINUOUS
 62
     0
100
AcDbLine
 10
0.5
 20
-0.5
 30
0.0
 11
-0.5
 21
-0.5
 31
0.0
  0
LINE
  5
D4
330
A0
100
AcDbEntity
  8
0
  6
CONTINUOUS
 62
     0
100
AcDbLine
 10
-0.5
 20
-0.5
 30
0.0
 11
-0.5
 21
0.5
 31
0.0
  0
ENDBLK
  5
A2
330
A0
100
AcDbEntity
  8
0
100
AcDbBlockEnd
  0
BLOCK
  5
A4
330
A3
100
AcDbEntity
  8
0
100
AcDbBlockBegin
  2
EX_INTEGRAL
 70
     0
 10
0.0
 20
0.0
 30
0.0
  3
EX_INTEGRAL
  1

  0
LINE
  5
D5
330
A3
100
AcDbEntity
  8
0
  6
CONTINUOUS
 62
     0
100
AcDbLine
 10
0.0
 20
0.0
 30
0.0
 11
-1.0
 21
0.0
 31
0.0
  0
ARC
  5
D6
330
A3
100
AcDbEntity
  8
0
  6
CONTINUOUS
 62
     0
100
AcDbCircle
 10
0.542115
 20
0.164992
 30
0.0
 40
0.56667
100
AcDbArc
 50
73.07249033629006
 51
196.9275130221199
  0
ARC
  5
D7
330
A3
100
AcDbEntity
  8
0
  6
CONTINUOUS
 62
     0
100
AcDbCircle
 10
-0.542115
 20
-0.164992
 30
0.0
 40
0.56667
100
AcDbArc
 50
253.0724869220464
 51
16.9275130559125
  0
ENDBLK
  5
A5
330
A3
100
AcDbEntity
  8
0
100
AcDbBlockEnd
  0
BLOCK
  5
11F
330
11E
100
AcDbEntity
  8
0
100
AcDbBlockBegin
  2
*D15
 70
     1
 10
0.0
 20
0.0
 30
0.0
  3
*D15
  1

  0
LINE
  5
121
330
11E
100
AcDbEntity
  8
Ｓ_１_１
  6
CONTINUOUS
 62
     2
100
AcDbLine
 10
631.0
 20
200.0
 30
0.0
 11
393.9999999999999
 21
200.0
 31
0.0
  0
LINE
  5
122
330
11E
100
AcDbEntity
  8
Ｓ_１_１
  6
CONTINUOUS
 62
     2
100
AcDbLine
 10
651.0
 20
590.00003814697
 30
0.0
 11
393.9999999999999
 21
590.00003814697
 31
0.0
  0
LINE
  5
123
330
11E
100
AcDbEntity
  8
Ｓ_１_１
  6
CONTINUOUS
 62
     2
100
AcDbLine
 10
399.9999999999999
 20
218.0
 30
0.0
 11
399.9999999999999
 21
572.00003814697
 31
0.0
  0
INSERT
  5
124
330
11E
100
AcDbEntity
  8
Ｓ_１_１
 62
     2
100
AcDbBlockReference
  2
EX_NORM
 10
399.9999999999999
 20
200.0
 30
0.0
 41
18.0
 42
18.0
 43
18.0
 50
270.0
  0
INSERT
  5
125
330
11E
100
AcDbEntity
  8
Ｓ_１_１
 62
     2
100
AcDbBlockReference
  2
EX_NORM
 10
399.9999999999999
 20
590.00003814697
 30
0.0
 41
18.0
 42
18.0
 43
18.0
 50
90.0
  0
MTEXT
  5
126
330
11E
100
AcDbEntity
  8
Ｓ_１_１
 62
     2
100
AcDbMText
 10
383.4999999999999
 20
395.0000190734849
 30
0.0
 40
20.77742494226328
 41
0.0
 71
     5
 72
     1
  1
390
  7
EXCADDIM1
 11
0.0
 21
1.0
 31
0.0
  0
POINT
  5
127
330
11E
100
AcDbEntity
  8
DEFPOINTS
 62
     0
100
AcDbPoint
 10
640.0
 20
200.0
 30
0.0
  0
POINT
  5
128
330
11E
100
AcDbEntity
  8
DEFPOINTS
 62
     0
100
AcDbPoint
 10
660.0
 20
590.00003814697
 30
0.0
  0
POINT
  5
129
330
11E
100
AcDbEntity
  8
DEFPOINTS
 62
     0
100
AcDbPoint
 10
399.9999999999999
 20
590.00003814697
 30
0.0
  0
ENDBLK
  5
120
330
11E
100
AcDbEntity
  8
0
100
AcDbBlockEnd
  0
BLOCK
  5
12C
330
12B
100
AcDbEntity
  8
0
100
AcDbBlockBegin
  2
*D16
 70
     1
 10
0.0
 20
0.0
 30
0.0
  3
*D16
  1

  0
LINE
  5
12E
330
12B
100
AcDbEntity
  8
Ｓ_１_１
  6
CONTINUOUS
 62
     2
100
AcDbLine
 10
651.0
 20
590.00003814697
 30
0.0
 11
393.9999999999999
 21
590.00003814697
 31
0.0
  0
LINE
  5
12F
330
12B
100
AcDbEntity
  8
Ｓ_１_１
  6
CONTINUOUS
 62
     2
100
AcDbLine
 10
531.0
 20
750.0
 30
0.0
 11
393.9999999999999
 21
750.0
 31
0.0
  0
LINE
  5
130
330
12B
100
AcDbEntity
  8
Ｓ_１_１
  6
CONTINUOUS
 62
     2
100
AcDbLine
 10
399.9999999999999
 20
608.00003814697
 30
0.0
 11
399.9999999999999
 21
732.0
 31
0.0
  0
INSERT
  5
131
330
12B
100
AcDbEntity
  8
Ｓ_１_１
 62
     2
100
AcDbBlockReference
  2
EX_NORM
 10
399.9999999999999
 20
590.00003814697
 30
0.0
 41
18.0
 42
18.0
 43
18.0
 50
270.0
  0
INSERT
  5
132
330
12B
100
AcDbEntity
  8
Ｓ_１_１
 62
     2
100
AcDbBlockReference
  2
EX_NORM
 10
399.9999999999999
 20
750.0
 30
0.0
 41
18.0
 42
18.0
 43
18.0
 50
90.0
  0
MTEXT
  5
133
330
12B
100
AcDbEntity
  8
Ｓ_１_１
 62
     2
100
AcDbMText
 10
383.4999999999999
 20
670.000019073485
 30
0.0
 40
20.77742494226328
 41
0.0
 71
     5
 72
     1
  1
160
  7
EXCADDIM1
 11
0.0
 21
1.0
 31
0.0
  0
POINT
  5
134
330
12B
100
AcDbEntity
  8
DEFPOINTS
 62
     0
100
AcDbPoint
 10
660.0
 20
590.00003814697
 30
0.0
  0
POINT
  5
135
330
12B
100
AcDbEntity
  8
DEFPOINTS
 62
     0
100
AcDbPoint
 10
540.0
 20
750.0
 30
0.0
  0
POINT
  5
136
330
12B
100
AcDbEntity
  8
DEFPOINTS
 62
     0
100
AcDbPoint
 10
399.9999999999999
 20
750.0
 30
0.0
  0
ENDBLK
  5
12D
330
12B
100
AcDbEntity
  8
0
100
AcDbBlockEnd
  0
BLOCK
  5
139
330
138
100
AcDbEntity
  8
0
100
AcDbBlockBegin
  2
*D17
 70
     1
 10
0.0
 20
0.0
 30
0.0
  3
*D17
  1

  0
LINE
  5
13B
330
138
100
AcDbEntity
  8
Ｓ_１_１
  6
CONTINUOUS
 62
     2
100
AcDbLine
 10
631.0
 20
200.0
 30
0.0
 11
353.9999999999997
 21
200.0
 31
0.0
  0
LINE
  5
13C
330
138
100
AcDbEntity
  8
Ｓ_１_１
  6
CONTINUOUS
 62
     2
100
AcDbLine
 10
531.0
 20
750.0
 30
0.0
 11
353.9999999999998
 21
750.0
 31
0.0
  0
LINE
  5
13D
330
138
100
AcDbEntity
  8
Ｓ_１_１
  6
CONTINUOUS
 62
     2
100
AcDbLine
 10
359.9999999999997
 20
218.0
 30
0.0
 11
359.9999999999998
 21
732.0
 31
0.0
  0
INSERT
  5
13E
330
138
100
AcDbEntity
  8
Ｓ_１_１
 62
     2
100
AcDbBlockReference
  2
EX_NORM
 10
359.9999999999997
 20
200.0
 30
0.0
 41
18.0
 42
18.0
 43
18.0
 50
270.0
  0
INSERT
  5
13F
330
138
100
AcDbEntity
  8
Ｓ_１_１
 62
     2
100
AcDbBlockReference
  2
EX_NORM
 10
359.9999999999998
 20
750.0
 30
0.0
 41
18.0
 42
18.0
 43
18.0
 50
90.0
  0
MTEXT
  5
140
330
138
100
AcDbEntity
  8
Ｓ_１_１
 62
     2
100
AcDbMText
 10
343.4999999999999
 20
474.9999999999999
 30
0.0
 40
20.77742494226328
 41
0.0
 71
     5
 72
     1
  1
550
  7
EXCADDIM1
 11
1.033516706560146E-16
 21
1.0
 31
0.0
  0
POINT
  5
141
330
138
100
AcDbEntity
  8
DEFPOINTS
 62
     0
100
AcDbPoint
 10
640.0
 20
200.0
 30
0.0
  0
POINT
  5
142
330
138
100
AcDbEntity
  8
DEFPOINTS
 62
     0
100
AcDbPoint
 10
540.0
 20
750.0
 30
0.0
  0
POINT
  5
143
330
138
100
AcDbEntity
  8
DEFPOINTS
 62
     0
100
AcDbPoint
 10
359.9999999999998
 20
750.0
 30
0.0
  0
ENDBLK
  5
13A
330
138
100
AcDbEntity
  8
0
100
AcDbBlockEnd
  0
BLOCK
  5
146
330
145
100
AcDbEntity
  8
0
100
AcDbBlockBegin
  2
*D18
 70
     1
 10
0.0
 20
0.0
 30
0.0
  3
*D18
  1

  0
LINE
  5
148
330
145
100
AcDbEntity
  8
Ｓ_１_１
  6
CONTINUOUS
 62
     2
100
AcDbLine
 10
531.0
 20
734.0
 30
0.0
 11
433.9999999999986
 21
734.0
 31
0.0
  0
LINE
  5
149
330
145
100
AcDbEntity
  8
Ｓ_１_１
  6
CONTINUOUS
 62
     2
100
AcDbLine
 10
531.0
 20
750.0
 30
0.0
 11
433.9999999999986
 21
750.0
 31
0.0
  0
LINE
  5
14A
330
145
100
AcDbEntity
  8
Ｓ_１_１
  6
CONTINUOUS
 62
     2
100
AcDbLine
 10
439.9999999999986
 20
734.0
 30
0.0
 11
439.9999999999986
 21
750.0
 31
0.0
  0
LINE
  5
14B
330
145
100
AcDbEntity
  8
Ｓ_１_１
  6
CONTINUOUS
 62
     2
100
AcDbLine
 10
439.9999999999986
 20
716.0
 30
0.0
 11
439.9999999999986
 21
698.0
 31
0.0
  0
LINE
  5
14C
330
145
100
AcDbEntity
  8
Ｓ_１_１
  6
CONTINUOUS
 62
     2
100
AcDbLine
 10
439.9999999999986
 20
768.0
 30
0.0
 11
439.9999999999986
 21
786.0
 31
0.0
  0
INSERT
  5
14D
330
145
100
AcDbEntity
  8
Ｓ_１_１
 62
     2
100
AcDbBlockReference
  2
EX_NORM
 10
439.9999999999986
 20
734.0
 30
0.0
 41
18.0
 42
18.0
 43
18.0
 50
90.0
  0
INSERT
  5
14E
330
145
100
AcDbEntity
  8
Ｓ_１_１
 62
     2
100
AcDbBlockReference
  2
EX_NORM
 10
439.9999999999986
 20
750.0
 30
0.0
 41
18.0
 42
18.0
 43
18.0
 50
270.0
  0
MTEXT
  5
14F
330
145
100
AcDbEntity
  8
Ｓ_１_１
 62
     2
100
AcDbMText
 10
423.4999999999978
 20
781.4999999999994
 30
0.0
 40
20.77742494226328
 41
0.0
 71
     5
 72
     1
  1
16
  7
EXCADDIM1
 11
0.0
 21
1.0
 31
0.0
  0
POINT
  5
150
330
145
100
AcDbEntity
  8
DEFPOINTS
 62
     0
100
AcDbPoint
 10
540.0
 20
734.0
 30
0.0
  0
POINT
  5
151
330
145
100
AcDbEntity
  8
DEFPOINTS
 62
     0
100
AcDbPoint
 10
540.0
 20
750.0
 30
0.0
  0
POINT
  5
152
330
145
100
AcDbEntity
  8
DEFPOINTS
 62
     0
100
AcDbPoint
 10
439.9999999999986
 20
750.0
 30
0.0
  0
ENDBLK
  5
147
330
145
100
AcDbEntity
  8
0
100
AcDbBlockEnd
  0
BLOCK
  5
155
330
154
100
AcDbEntity
  8
0
100
AcDbBlockBegin
  2
*D19
 70
     1
 10
0.0
 20
0.0
 30
0.0
  3
*D19
  1

  0
LINE
  5
157
330
154
100
AcDbEntity
  8
Ｓ_１_１
  6
CONTINUOUS
 62
     2
100
AcDbLine
 10
631.0000000000025
 20
225.0000000000009
 30
0.0
 11
434.0
 21
225.0000000000009
 31
0.0
  0
LINE
  5
158
330
154
100
AcDbEntity
  8
Ｓ_１_１
  6
CONTINUOUS
 62
     2
100
AcDbLine
 10
631.0000000000025
 20
200.0000000000009
 30
0.0
 11
434.0
 21
200.0000000000009
 31
0.0
  0
LINE
  5
159
330
154
100
AcDbEntity
  8
Ｓ_１_１
  6
CONTINUOUS
 62
     2
100
AcDbLine
 10
440.0
 20
225.0000000000009
 30
0.0
 11
440.0
 21
200.0000000000009
 31
0.0
  0
LINE
  5
15A
330
154
100
AcDbEntity
  8
Ｓ_１_１
  6
CONTINUOUS
 62
     2
100
AcDbLine
 10
440.0
 20
243.0000000000009
 30
0.0
 11
440.0
 21
261.0000000000009
 31
0.0
  0
LINE
  5
15B
330
154
100
AcDbEntity
  8
Ｓ_１_１
  6
CONTINUOUS
 62
     2
100
AcDbLine
 10
440.0
 20
182.0000000000009
 30
0.0
 11
440.0
 21
164.0000000000009
 31
0.0
  0
INSERT
  5
15C
330
154
100
AcDbEntity
  8
Ｓ_１_１
 62
     2
100
AcDbBlockReference
  2
EX_NORM
 10
440.0
 20
225.0000000000009
 30
0.0
 41
18.0
 42
18.0
 43
18.0
 50
270.0
  0
INSERT
  5
15D
330
154
100
AcDbEntity
  8
Ｓ_１_１
 62
     2
100
AcDbBlockReference
  2
EX_NORM
 10
440.0
 20
200.0000000000009
 30
0.0
 41
18.0
 42
18.0
 43
18.0
 50
90.0
  0
MTEXT
  5
15E
330
154
100
AcDbEntity
  8
Ｓ_１_１
 62
     2
100
AcDbMText
 10
423.4999999999999
 20
168.5000000000009
 30
0.0
 40
20.77742494226328
 41
0.0
 71
     5
 72
     1
  1
25
  7
EXCADDIM1
 11
0.0
 21
1.0
 31
0.0
  0
POINT
  5
15F
330
154
100
AcDbEntity
  8
DEFPOINTS
 62
     0
100
AcDbPoint
 10
640.0000000000025
 20
225.0000000000009
 30
0.0
  0
POINT
  5
160
330
154
100
AcDbEntity
  8
DEFPOINTS
 62
     0
100
AcDbPoint
 10
640.0000000000025
 20
200.0000000000009
 30
0.0
  0
POINT
  5
161
330
154
100
AcDbEntity
  8
DEFPOINTS
 62
     0
100
AcDbPoint
 10
440.0
 20
200.0000000000009
 30
0.0
  0
ENDBLK
  5
156
330
154
100
AcDbEntity
  8
0
100
AcDbBlockEnd
  0
BLOCK
  5
164
330
163
100
AcDbEntity
  8
0
100
AcDbBlockBegin
  2
*D20
 70
     1
 10
0.0
 20
0.0
 30
0.0
  3
*D20
  1

  0
LINE
  5
166
330
163
100
AcDbEntity
  8
Ｓ_１_１
  6
CONTINUOUS
 62
     2
100
AcDbLine
 10
631.0
 20
225.0
 30
0.0
 11
434.0
 21
225.0
 31
0.0
  0
LINE
  5
167
330
163
100
AcDbEntity
  8
Ｓ_１_１
  6
CONTINUOUS
 62
     2
100
AcDbLine
 10
718.0
 20
434.9999999999998
 30
0.0
 11
434.0
 21
434.9999999999999
 31
0.0
  0
LINE
  5
168
330
163
100
AcDbEntity
  8
Ｓ_１_１
  6
CONTINUOUS
 62
     2
100
AcDbLine
 10
440.0
 20
243.0
 30
0.0
 11
440.0
 21
416.9999999999999
 31
0.0
  0
INSERT
  5
169
330
163
100
AcDbEntity
  8
Ｓ_１_１
 62
     2
100
AcDbBlockReference
  2
EX_NORM
 10
440.0
 20
225.0
 30
0.0
 41
18.0
 42
18.0
 43
18.0
 50
270.0
  0
INSERT
  5
16A
330
163
100
AcDbEntity
  8
Ｓ_１_１
 62
     2
100
AcDbBlockReference
  2
EX_NORM
 10
440.0
 20
434.9999999999999
 30
0.0
 41
18.0
 42
18.0
 43
18.0
 50
90.0
  0
MTEXT
  5
16B
330
163
100
AcDbEntity
  8
Ｓ_１_１
 62
     2
100
AcDbMText
 10
423.5000000000001
 20
329.9999999999998
 30
0.0
 40
20.77742494226328
 41
0.0
 71
     5
 72
     1
  1
210
  7
EXCADDIM1
 11
0.0
 21
1.0
 31
0.0
  0
POINT
  5
16C
330
163
100
AcDbEntity
  8
DEFPOINTS
 62
     0
100
AcDbPoint
 10
640.0
 20
225.0
 30
0.0
  0
POINT
  5
16D
330
163
100
AcDbEntity
  8
DEFPOINTS
 62
     0
100
AcDbPoint
 10
727.0
 20
434.9999999999998
 30
0.0
  0
POINT
  5
16E
330
163
100
AcDbEntity
  8
DEFPOINTS
 62
     0
100
AcDbPoint
 10
440.0
 20
434.9999999999999
 30
0.0
  0
ENDBLK
  5
165
330
163
100
AcDbEntity
  8
0
100
AcDbBlockEnd
  0
BLOCK
  5
171
330
170
100
AcDbEntity
  8
0
100
AcDbBlockBegin
  2
*D21
 70
     1
 10
0.0
 20
0.0
 30
0.0
  3
*D21
  1

  0
LINE
  5
173
330
170
100
AcDbEntity
  8
Ｓ_１_１
  6
CONTINUOUS
 62
     2
100
AcDbLine
 10
718.0
 20
434.9999999999998
 30
0.0
 11
434.0
 21
434.9999999999999
 31
0.0
  0
LINE
  5
174
330
170
100
AcDbEntity
  8
Ｓ_１_１
  6
CONTINUOUS
 62
     2
100
AcDbLine
 10
651.0
 20
590.00003814697
 30
0.0
 11
434.0
 21
590.00003814697
 31
0.0
  0
LINE
  5
175
330
170
100
AcDbEntity
  8
Ｓ_１_１
  6
CONTINUOUS
 62
     2
100
AcDbLine
 10
440.0
 20
452.9999999999999
 30
0.0
 11
440.0
 21
572.00003814697
 31
0.0
  0
INSERT
  5
176
330
170
100
AcDbEntity
  8
Ｓ_１_１
 62
     2
100
AcDbBlockReference
  2
EX_NORM
 10
440.0
 20
434.9999999999999
 30
0.0
 41
18.0
 42
18.0
 43
18.0
 50
270.0
  0
INSERT
  5
177
330
170
100
AcDbEntity
  8
Ｓ_１_１
 62
     2
100
AcDbBlockReference
  2
EX_NORM
 10
440.0
 20
590.00003814697
 30
0.0
 41
18.0
 42
18.0
 43
18.0
 50
90.0
  0
MTEXT
  5
178
330
170
100
AcDbEntity
  8
Ｓ_１_１
 62
     2
100
AcDbMText
 10
423.5000000000001
 20
512.500019073485
 30
0.0
 40
20.77742494226328
 41
0.0
 71
     5
 72
     1
  1
155
  7
EXCADDIM1
 11
0.0
 21
1.0
 31
0.0
  0
POINT
  5
179
330
170
100
AcDbEntity
  8
DEFPOINTS
 62
     0
100
AcDbPoint
 10
727.0
 20
434.9999999999998
 30
0.0
  0
POINT
  5
17A
330
170
100
AcDbEntity
  8
DEFPOINTS
 62
     0
100
AcDbPoint
 10
660.0
 20
590.00003814697
 30
0.0
  0
POINT
  5
17B
330
170
100
AcDbEntity
  8
DEFPOINTS
 62
     0
100
AcDbPoint
 10
440.0
 20
590.00003814697
 30
0.0
  0
ENDBLK
  5
172
330
170
100
AcDbEntity
  8
0
100
AcDbBlockEnd
  0
BLOCK
  5
17E
330
17D
100
AcDbEntity
  8
0
100
AcDbBlockBegin
  2
*D22
 70
     1
 10
0.0
 20
0.0
 30
0.0
  3
*D22
  1

  0
LINE
  5
180
330
17D
100
AcDbEntity
  8
Ｓ_１_１
  6
CONTINUOUS
 62
     2
100
AcDbLine
 10
589.99999999999
 20
1289.8
 30
0.0
 11
589.99999999999
 21
1446.0
 31
0.0
  0
LINE
  5
181
330
17D
100
AcDbEntity
  8
Ｓ_１_１
  6
CONTINUOUS
 62
     2
100
AcDbLine
 10
789.9999999999899
 20
1289.8
 30
0.0
 11
789.9999999999899
 21
1446.0
 31
0.0
  0
LINE
  5
182
330
17D
100
AcDbEntity
  8
Ｓ_１_１
  6
CONTINUOUS
 62
     2
100
AcDbLine
 10
607.99999999999
 20
1440.0
 30
0.0
 11
771.9999999999899
 21
1440.0
 31
0.0
  0
INSERT
  5
183
330
17D
100
AcDbEntity
  8
Ｓ_１_１
 62
     2
100
AcDbBlockReference
  2
EX_NORM
 10
589.99999999999
 20
1440.0
 30
0.0
 41
18.0
 42
18.0
 43
18.0
 50
180.0
  0
INSERT
  5
184
330
17D
100
AcDbEntity
  8
Ｓ_１_１
 62
     2
100
AcDbBlockReference
  2
EX_NORM
 10
789.9999999999899
 20
1440.0
 30
0.0
 41
18.0
 42
18.0
 43
18.0
  0
MTEXT
  5
185
330
17D
100
AcDbEntity
  8
Ｓ_１_１
 62
     2
100
AcDbMText
 10
689.9999999999901
 20
1456.5
 30
0.0
 40
20.77742494226328
 41
0.0
 71
     5
 72
     1
  1
200
  7
EXCADDIM1
  0
POINT
  5
186
330
17D
100
AcDbEntity
  8
DEFPOINTS
 62
     0
100
AcDbPoint
 10
589.99999999999
 20
1280.8
 30
0.0
  0
POINT
  5
187
330
17D
100
AcDbEntity
  8
DEFPOINTS
 62
     0
100
AcDbPoint
 10
789.9999999999899
 20
1280.8
 30
0.0
  0
POINT
  5
188
330
17D
100
AcDbEntity
  8
DEFPOINTS
 62
     0
100
AcDbPoint
 10
789.9999999999899
 20
1440.0
 30
0.0
  0
ENDBLK
  5
17F
330
17D
100
AcDbEntity
  8
0
100
AcDbBlockEnd
  0
BLOCK
  5
18B
330
18A
100
AcDbEntity
  8
0
100
AcDbBlockBegin
  2
*D23
 70
     1
 10
0.0
 20
0.0
 30
0.0
  3
*D23
  1

  0
LINE
  5
18D
330
18A
100
AcDbEntity
  8
Ｓ_１_１
  6
CONTINUOUS
 62
     2
100
AcDbLine
 10
789.9999999999899
 20
1289.8
 30
0.0
 11
789.9999999999899
 21
1446.0
 31
0.0
  0
LINE
  5
18E
330
18A
100
AcDbEntity
  8
Ｓ_１_１
  6
CONTINUOUS
 62
     2
100
AcDbLine
 10
890.0000000000098
 20
1289.8
 30
0.0
 11
890.0000000000098
 21
1446.0
 31
0.0
  0
LINE
  5
18F
330
18A
100
AcDbEntity
  8
Ｓ_１_１
  6
CONTINUOUS
 62
     2
100
AcDbLine
 10
807.9999999999899
 20
1440.0
 30
0.0
 11
872.0000000000098
 21
1440.0
 31
0.0
  0
INSERT
  5
190
330
18A
100
AcDbEntity
  8
Ｓ_１_１
 62
     2
100
AcDbBlockReference
  2
EX_NORM
 10
789.9999999999899
 20
1440.0
 30
0.0
 41
18.0
 42
18.0
 43
18.0
 50
180.0
  0
INSERT
  5
191
330
18A
100
AcDbEntity
  8
Ｓ_１_１
 62
     2
100
AcDbBlockReference
  2
EX_NORM
 10
890.0000000000098
 20
1440.0
 30
0.0
 41
18.0
 42
18.0
 43
18.0
  0
MTEXT
  5
192
330
18A
100
AcDbEntity
  8
Ｓ_１_１
 62
     2
100
AcDbMText
 10
840.0
 20
1456.5
 30
0.0
 40
20.77742494226328
 41
0.0
 71
     5
 72
     1
  1
100
  7
EXCADDIM1
  0
POINT
  5
193
330
18A
100
AcDbEntity
  8
DEFPOINTS
 62
     0
100
AcDbPoint
 10
789.9999999999899
 20
1280.8
 30
0.0
  0
POINT
  5
194
330
18A
100
AcDbEntity
  8
DEFPOINTS
 62
     0
100
AcDbPoint
 10
890.0000000000098
 20
1280.8
 30
0.0
  0
POINT
  5
195
330
18A
100
AcDbEntity
  8
DEFPOINTS
 62
     0
100
AcDbPoint
 10
890.0000000000098
 20
1440.0
 30
0.0
  0
ENDBLK
  5
18C
330
18A
100
AcDbEntity
  8
0
100
AcDbBlockEnd
  0
BLOCK
  5
198
330
197
100
AcDbEntity
  8
0
100
AcDbBlockBegin
  2
*D24
 70
     1
 10
0.0
 20
0.0
 30
0.0
  3
*D24
  1

  0
LINE
  5
19A
330
197
100
AcDbEntity
  8
Ｓ_１_１
  6
CONTINUOUS
 62
     2
100
AcDbLine
 10
890.0000000000098
 20
1289.8
 30
0.0
 11
890.0000000000098
 21
1446.0
 31
0.0
  0
LINE
  5
19B
330
197
100
AcDbEntity
  8
Ｓ_１_１
  6
CONTINUOUS
 62
     2
100
AcDbLine
 10
1090.0
 20
1289.8
 30
0.0
 11
1090.0
 21
1446.0
 31
0.0
  0
LINE
  5
19C
330
197
100
AcDbEntity
  8
Ｓ_１_１
  6
CONTINUOUS
 62
     2
100
AcDbLine
 10
908.0000000000098
 20
1440.0
 30
0.0
 11
1072.0
 21
1440.0
 31
0.0
  0
INSERT
  5
19D
330
197
100
AcDbEntity
  8
Ｓ_１_１
 62
     2
100
AcDbBlockReference
  2
EX_NORM
 10
890.0000000000098
 20
1440.0
 30
0.0
 41
18.0
 42
18.0
 43
18.0
 50
180.0
  0
INSERT
  5
19E
330
197
100
AcDbEntity
  8
Ｓ_１_１
 62
     2
100
AcDbBlockReference
  2
EX_NORM
 10
1090.0
 20
1440.0
 30
0.0
 41
18.0
 42
18.0
 43
18.0
  0
MTEXT
  5
19F
330
197
100
AcDbEntity
  8
Ｓ_１_１
 62
     2
100
AcDbMText
 10
990.000000000005
 20
1456.5
 30
0.0
 40
20.77742494226328
 41
0.0
 71
     5
 72
     1
  1
200
  7
EXCADDIM1
  0
POINT
  5
1A0
330
197
100
AcDbEntity
  8
DEFPOINTS
 62
     0
100
AcDbPoint
 10
890.0000000000098
 20
1280.8
 30
0.0
  0
POINT
  5
1A1
330
197
100
AcDbEntity
  8
DEFPOINTS
 62
     0
100
AcDbPoint
 10
1090.0
 20
1280.8
 30
0.0
  0
POINT
  5
1A2
330
197
100
AcDbEntity
  8
DEFPOINTS
 62
     0
100
AcDbPoint
 10
1090.0
 20
1440.0
 30
0.0
  0
ENDBLK
  5
199
330
197
100
AcDbEntity
  8
0
100
AcDbBlockEnd
  0
BLOCK
  5
1A5
330
1A4
100
AcDbEntity
  8
0
100
AcDbBlockBegin
  2
*D25
 70
     1
 10
0.0
 20
0.0
 30
0.0
  3
*D25
  1

  0
LINE
  5
1A7
330
1A4
100
AcDbEntity
  8
Ｓ_１_１
  6
CONTINUOUS
 62
     2
100
AcDbLine
 10
589.99999999999
 20
1289.8
 30
0.0
 11
589.99999999999
 21
1446.0
 31
0.0
  0
LINE
  5
1A8
330
1A4
100
AcDbEntity
  8
Ｓ_１_１
  6
CONTINUOUS
 62
     2
100
AcDbLine
 10
539.99999999999
 20
1289.0
 30
0.0
 11
539.99999999999
 21
1446.0
 31
0.0
  0
LINE
  5
1A9
330
1A4
100
AcDbEntity
  8
Ｓ_１_１
  6
CONTINUOUS
 62
     2
100
AcDbLine
 10
571.99999999999
 20
1440.0
 30
0.0
 11
557.99999999999
 21
1440.0
 31
0.0
  0
INSERT
  5
1AA
330
1A4
100
AcDbEntity
  8
Ｓ_１_１
 62
     2
100
AcDbBlockReference
  2
EX_NORM
 10
589.99999999999
 20
1440.0
 30
0.0
 41
18.0
 42
18.0
 43
18.0
  0
INSERT
  5
1AB
330
1A4
100
AcDbEntity
  8
Ｓ_１_１
 62
     2
100
AcDbBlockReference
  2
EX_NORM
 10
539.99999999999
 20
1440.0
 30
0.0
 41
18.0
 42
18.0
 43
18.0
 50
180.0
  0
MTEXT
  5
1AC
330
1A4
100
AcDbEntity
  8
Ｓ_１_１
 62
     2
100
AcDbMText
 10
564.9999999999903
 20
1456.5
 30
0.0
 40
20.77742494226328
 41
0.0
 71
     5
 72
     1
  1
50
  7
EXCADDIM1
  0
POINT
  5
1AD
330
1A4
100
AcDbEntity
  8
DEFPOINTS
 62
     0
100
AcDbPoint
 10
589.99999999999
 20
1280.8
 30
0.0
  0
POINT
  5
1AE
330
1A4
100
AcDbEntity
  8
DEFPOINTS
 62
     0
100
AcDbPoint
 10
539.99999999999
 20
1280.0
 30
0.0
  0
POINT
  5
1AF
330
1A4
100
AcDbEntity
  8
DEFPOINTS
 62
     0
100
AcDbPoint
 10
539.99999999999
 20
1440.0
 30
0.0
  0
ENDBLK
  5
1A6
330
1A4
100
AcDbEntity
  8
0
100
AcDbBlockEnd
  0
BLOCK
  5
1B2
330
1B1
100
AcDbEntity
  8
0
100
AcDbBlockBegin
  2
*D26
 70
     1
 10
0.0
 20
0.0
 30
0.0
  3
*D26
  1

  0
LINE
  5
1B4
330
1B1
100
AcDbEntity
  8
Ｓ_１_１
  6
CONTINUOUS
 62
     2
100
AcDbLine
 10
1090.0
 20
1289.8
 30
0.0
 11
1090.0
 21
1446.0
 31
0.0
  0
LINE
  5
1B5
330
1B1
100
AcDbEntity
  8
Ｓ_１_１
  6
CONTINUOUS
 62
     2
100
AcDbLine
 10
1140.0
 20
1289.0
 30
0.0
 11
1140.0
 21
1446.0
 31
0.0
  0
LINE
  5
1B6
330
1B1
100
AcDbEntity
  8
Ｓ_１_１
  6
CONTINUOUS
 62
     2
100
AcDbLine
 10
1108.0
 20
1440.0
 30
0.0
 11
1122.0
 21
1440.0
 31
0.0
  0
INSERT
  5
1B7
330
1B1
100
AcDbEntity
  8
Ｓ_１_１
 62
     2
100
AcDbBlockReference
  2
EX_NORM
 10
1090.0
 20
1440.0
 30
0.0
 41
18.0
 42
18.0
 43
18.0
 50
180.0
  0
INSERT
  5
1B8
330
1B1
100
AcDbEntity
  8
Ｓ_１_１
 62
     2
100
AcDbBlockReference
  2
EX_NORM
 10
1140.0
 20
1440.0
 30
0.0
 41
18.0
 42
18.0
 43
18.0
  0
MTEXT
  5
1B9
330
1B1
100
AcDbEntity
  8
Ｓ_１_１
 62
     2
100
AcDbMText
 10
1115.0
 20
1456.5
 30
0.0
 40
20.77742494226328
 41
0.0
 71
     5
 72
     1
  1
50
  7
EXCADDIM1
  0
POINT
  5
1BA
330
1B1
100
AcDbEntity
  8
DEFPOINTS
 62
     0
100
AcDbPoint
 10
1090.0
 20
1280.8
 30
0.0
  0
POINT
  5
1BB
330
1B1
100
AcDbEntity
  8
DEFPOINTS
 62
     0
100
AcDbPoint
 10
1140.0
 20
1280.0
 30
0.0
  0
POINT
  5
1BC
330
1B1
100
AcDbEntity
  8
DEFPOINTS
 62
     0
100
AcDbPoint
 10
1140.0
 20
1440.0
 30
0.0
  0
ENDBLK
  5
1B3
330
1B1
100
AcDbEntity
  8
0
100
AcDbBlockEnd
  0
BLOCK
  5
1BF
330
1BE
100
AcDbEntity
  8
0
100
AcDbBlockBegin
  2
*D27
 70
     1
 10
0.0
 20
0.0
 30
0.0
  3
*D27
  1

  0
LINE
  5
1C1
330
1BE
100
AcDbEntity
  8
Ｓ_１_１
  6
CONTINUOUS
 62
     2
100
AcDbLine
 10
539.99999999999
 20
1289.0
 30
0.0
 11
539.99999999999
 21
1486.0
 31
0.0
  0
LINE
  5
1C2
330
1BE
100
AcDbEntity
  8
Ｓ_１_１
  6
CONTINUOUS
 62
     2
100
AcDbLine
 10
1140.0
 20
1289.0
 30
0.0
 11
1140.0
 21
1486.0
 31
0.0
  0
LINE
  5
1C3
330
1BE
100
AcDbEntity
  8
Ｓ_１_１
  6
CONTINUOUS
 62
     2
100
AcDbLine
 10
557.99999999999
 20
1480.0
 30
0.0
 11
1122.0
 21
1480.0
 31
0.0
  0
INSERT
  5
1C4
330
1BE
100
AcDbEntity
  8
Ｓ_１_１
 62
     2
100
AcDbBlockReference
  2
EX_NORM
 10
539.99999999999
 20
1480.0
 30
0.0
 41
18.0
 42
18.0
 43
18.0
 50
180.0
  0
INSERT
  5
1C5
330
1BE
100
AcDbEntity
  8
Ｓ_１_１
 62
     2
100
AcDbBlockReference
  2
EX_NORM
 10
1140.0
 20
1480.0
 30
0.0
 41
18.0
 42
18.0
 43
18.0
  0
MTEXT
  5
1C6
330
1BE
100
AcDbEntity
  8
Ｓ_１_１
 62
     2
100
AcDbMText
 10
839.9999999999951
 20
1496.5
 30
0.0
 40
20.77742494226328
 41
0.0
 71
     5
 72
     1
  1
600
  7
EXCADDIM1
  0
POINT
  5
1C7
330
1BE
100
AcDbEntity
  8
DEFPOINTS
 62
     0
100
AcDbPoint
 10
539.99999999999
 20
1280.0
 30
0.0
  0
POINT
  5
1C8
330
1BE
100
AcDbEntity
  8
DEFPOINTS
 62
     0
100
AcDbPoint
 10
1140.0
 20
1280.0
 30
0.0
  0
POINT
  5
1C9
330
1BE
100
AcDbEntity
  8
DEFPOINTS
 62
     0
100
AcDbPoint
 10
1140.0
 20
1480.0
 30
0.0
  0
ENDBLK
  5
1C0
330
1BE
100
AcDbEntity
  8
0
100
AcDbBlockEnd
  0
BLOCK
  5
1CC
330
1CB
100
AcDbEntity
  8
0
100
AcDbBlockBegin
  2
*D28
 70
     1
 10
0.0
 20
0.0
 30
0.0
  3
*D28
  1

  0
LINE
  5
1CE
330
1CB
100
AcDbEntity
  8
Ｓ_１_１
  6
CONTINUOUS
 62
     2
100
AcDbLine
 10
559.8668931961
 20
1060.0
 30
0.0
 11
434.0000000000001
 21
1060.0
 31
0.0
  0
LINE
  5
1CF
330
1CB
100
AcDbEntity
  8
Ｓ_１_１
  6
CONTINUOUS
 62
     2
100
AcDbLine
 10
559.8668931961
 20
1260.0
 30
0.0
 11
434.0000000000001
 21
1260.0
 31
0.0
  0
LINE
  5
1D0
330
1CB
100
AcDbEntity
  8
Ｓ_１_１
  6
CONTINUOUS
 62
     2
100
AcDbLine
 10
440.0000000000001
 20
1078.0
 30
0.0
 11
440.0000000000001
 21
1242.0
 31
0.0
  0
INSERT
  5
1D1
330
1CB
100
AcDbEntity
  8
Ｓ_１_１
 62
     2
100
AcDbBlockReference
  2
EX_NORM
 10
440.0000000000001
 20
1060.0
 30
0.0
 41
18.0
 42
18.0
 43
18.0
 50
270.0
  0
INSERT
  5
1D2
330
1CB
100
AcDbEntity
  8
Ｓ_１_１
 62
     2
100
AcDbBlockReference
  2
EX_NORM
 10
440.0000000000001
 20
1260.0
 30
0.0
 41
18.0
 42
18.0
 43
18.0
 50
90.0
  0
MTEXT
  5
1D3
330
1CB
100
AcDbEntity
  8
Ｓ_１_１
 62
     2
100
AcDbMText
 10
423.5000000000003
 20
1160.0
 30
0.0
 40
20.77742494226328
 41
0.0
 71
     5
 72
     1
  1
200
  7
EXCADDIM1
 11
0.0
 21
1.0
 31
0.0
  0
POINT
  5
1D4
330
1CB
100
AcDbEntity
  8
DEFPOINTS
 62
     0
100
AcDbPoint
 10
568.8668931961
 20
1060.0
 30
0.0
  0
POINT
  5
1D5
330
1CB
100
AcDbEntity
  8
DEFPOINTS
 62
     0
100
AcDbPoint
 10
568.8668931961
 20
1260.0
 30
0.0
  0
POINT
  5
1D6
330
1CB
100
AcDbEntity
  8
DEFPOINTS
 62
     0
100
AcDbPoint
 10
440.0000000000001
 20
1260.0
 30
0.0
  0
ENDBLK
  5
1CD
330
1CB
100
AcDbEntity
  8
0
100
AcDbBlockEnd
  0
BLOCK
  5
1D9
330
1D8
100
AcDbEntity
  8
0
100
AcDbBlockBegin
  2
*D29
 70
     1
 10
0.0
 20
0.0
 30
0.0
  3
*D29
  1

  0
LINE
  5
1DB
330
1D8
100
AcDbEntity
  8
Ｓ_１_１
  6
CONTINUOUS
 62
     2
100
AcDbLine
 10
540.99999999999
 20
1290.0
 30
0.0
 11
394.0000000000001
 21
1290.0
 31
0.0
  0
LINE
  5
1DC
330
1D8
100
AcDbEntity
  8
Ｓ_１_１
  6
CONTINUOUS
 62
     2
100
AcDbLine
 10
540.99999999999
 20
1030.0
 30
0.0
 11
394.0000000000001
 21
1030.0
 31
0.0
  0
LINE
  5
1DD
330
1D8
100
AcDbEntity
  8
Ｓ_１_１
  6
CONTINUOUS
 62
     2
100
AcDbLine
 10
400.0000000000001
 20
1272.0
 30
0.0
 11
400.0000000000001
 21
1048.0
 31
0.0
  0
INSERT
  5
1DE
330
1D8
100
AcDbEntity
  8
Ｓ_１_１
 62
     2
100
AcDbBlockReference
  2
EX_NORM
 10
400.0000000000001
 20
1290.0
 30
0.0
 41
18.0
 42
18.0
 43
18.0
 50
90.0
  0
INSERT
  5
1DF
330
1D8
100
AcDbEntity
  8
Ｓ_１_１
 62
     2
100
AcDbBlockReference
  2
EX_NORM
 10
400.0000000000001
 20
1030.0
 30
0.0
 41
18.0
 42
18.0
 43
18.0
 50
270.0
  0
MTEXT
  5
1E0
330
1D8
100
AcDbEntity
  8
Ｓ_１_１
 62
     2
100
AcDbMText
 10
383.5000000000003
 20
1160.0
 30
0.0
 40
20.77742494226328
 41
0.0
 71
     5
 72
     1
  1
260
  7
EXCADDIM1
 11
0.0
 21
1.0
 31
0.0
  0
POINT
  5
1E1
330
1D8
100
AcDbEntity
  8
DEFPOINTS
 62
     0
100
AcDbPoint
 10
549.99999999999
 20
1290.0
 30
0.0
  0
POINT
  5
1E2
330
1D8
100
AcDbEntity
  8
DEFPOINTS
 62
     0
100
AcDbPoint
 10
549.99999999999
 20
1030.0
 30
0.0
  0
POINT
  5
1E3
330
1D8
100
AcDbEntity
  8
DEFPOINTS
 62
     0
100
AcDbPoint
 10
400.0000000000001
 20
1030.0
 30
0.0
  0
ENDBLK
  5
1DA
330
1D8
100
AcDbEntity
  8
0
100
AcDbBlockEnd
  0
BLOCK
  5
1E6
330
1E5
100
AcDbEntity
  8
0
100
AcDbBlockBegin
  2
*D30
 70
     1
 10
0.0
 20
0.0
 30
0.0
  3
*D30
  1

  0
LINE
  5
1E8
330
1E5
100
AcDbEntity
  8
Ｓ_１_１
  6
CONTINUOUS
 62
     2
100
AcDbLine
 10
1435.0
 20
1357.1331068039
 30
0.0
 11
1435.0
 21
1446.0
 31
0.0
  0
LINE
  5
1E9
330
1E5
100
AcDbEntity
  8
Ｓ_１_１
  6
CONTINUOUS
 62
     2
100
AcDbLine
 10
1600.0
 20
1380.1331068039
 30
0.0
 11
1600.0
 21
1446.0
 31
0.0
  0
LINE
  5
1EA
330
1E5
100
AcDbEntity
  8
Ｓ_１_１
  6
CONTINUOUS
 62
     2
100
AcDbLine
 10
1453.0
 20
1440.0
 30
0.0
 11
1582.0
 21
1440.0
 31
0.0
  0
INSERT
  5
1EB
330
1E5
100
AcDbEntity
  8
Ｓ_１_１
 62
     2
100
AcDbBlockReference
  2
EX_NORM
 10
1435.0
 20
1440.0
 30
0.0
 41
18.0
 42
18.0
 43
18.0
 50
180.0
  0
INSERT
  5
1EC
330
1E5
100
AcDbEntity
  8
Ｓ_１_１
 62
     2
100
AcDbBlockReference
  2
EX_NORM
 10
1600.0
 20
1440.0
 30
0.0
 41
18.0
 42
18.0
 43
18.0
  0
MTEXT
  5
1ED
330
1E5
100
AcDbEntity
  8
Ｓ_１_１
 62
     2
100
AcDbMText
 10
1517.5
 20
1456.5
 30
0.0
 40
20.77742494226328
 41
0.0
 71
     5
 72
     1
  1
165
  7
EXCADDIM1
  0
POINT
  5
1EE
330
1E5
100
AcDbEntity
  8
DEFPOINTS
 62
     0
100
AcDbPoint
 10
1435.0
 20
1348.1331068039
 30
0.0
  0
POINT
  5
1EF
330
1E5
100
AcDbEntity
  8
DEFPOINTS
 62
     0
100
AcDbPoint
 10
1600.0
 20
1371.1331068039
 30
0.0
  0
POINT
  5
1F0
330
1E5
100
AcDbEntity
  8
DEFPOINTS
 62
     0
100
AcDbPoint
 10
1600.0
 20
1440.0
 30
0.0
  0
ENDBLK
  5
1E7
330
1E5
100
AcDbEntity
  8
0
100
AcDbBlockEnd
  0
BLOCK
  5
1F3
330
1F2
100
AcDbEntity
  8
0
100
AcDbBlockBegin
  2
*D31
 70
     1
 10
0.0
 20
0.0
 30
0.0
  3
*D31
  1

  0
LINE
  5
1F5
330
1F2
100
AcDbEntity
  8
Ｓ_１_１
  6
CONTINUOUS
 62
     2
100
AcDbLine
 10
1600.0
 20
1380.1331068039
 30
0.0
 11
1600.0
 21
1446.0
 31
0.0
  0
LINE
  5
1F6
330
1F2
100
AcDbEntity
  8
Ｓ_１_１
  6
CONTINUOUS
 62
     2
100
AcDbLine
 10
1765.0
 20
1357.1331068039
 30
0.0
 11
1765.0
 21
1446.0
 31
0.0
  0
LINE
  5
1F7
330
1F2
100
AcDbEntity
  8
Ｓ_１_１
  6
CONTINUOUS
 62
     2
100
AcDbLine
 10
1618.0
 20
1440.0
 30
0.0
 11
1747.0
 21
1440.0
 31
0.0
  0
INSERT
  5
1F8
330
1F2
100
AcDbEntity
  8
Ｓ_１_１
 62
     2
100
AcDbBlockReference
  2
EX_NORM
 10
1600.0
 20
1440.0
 30
0.0
 41
18.0
 42
18.0
 43
18.0
 50
180.0
  0
INSERT
  5
1F9
330
1F2
100
AcDbEntity
  8
Ｓ_１_１
 62
     2
100
AcDbBlockReference
  2
EX_NORM
 10
1765.0
 20
1440.0
 30
0.0
 41
18.0
 42
18.0
 43
18.0
  0
MTEXT
  5
1FA
330
1F2
100
AcDbEntity
  8
Ｓ_１_１
 62
     2
100
AcDbMText
 10
1682.5
 20
1456.5
 30
0.0
 40
20.77742494226328
 41
0.0
 71
     5
 72
     1
  1
165
  7
EXCADDIM1
  0
POINT
  5
1FB
330
1F2
100
AcDbEntity
  8
DEFPOINTS
 62
     0
100
AcDbPoint
 10
1600.0
 20
1371.1331068039
 30
0.0
  0
POINT
  5
1FC
330
1F2
100
AcDbEntity
  8
DEFPOINTS
 62
     0
100
AcDbPoint
 10
1765.0
 20
1348.1331068039
 30
0.0
  0
POINT
  5
1FD
330
1F2
100
AcDbEntity
  8
DEFPOINTS
 62
     0
100
AcDbPoint
 10
1765.0
 20
1440.0
 30
0.0
  0
ENDBLK
  5
1F4
330
1F2
100
AcDbEntity
  8
0
100
AcDbBlockEnd
  0
BLOCK
  5
200
330
1FF
100
AcDbEntity
  8
0
100
AcDbBlockBegin
  2
*D32
 70
     1
 10
0.0
 20
0.0
 30
0.0
  3
*D32
  1

  0
LINE
  5
202
330
1FF
100
AcDbEntity
  8
Ｓ_１_１
  6
CONTINUOUS
 62
     2
100
AcDbLine
 10
1400.0
 20
1349.0
 30
0.0
 11
1400.0
 21
1486.0
 31
0.0
  0
LINE
  5
203
330
1FF
100
AcDbEntity
  8
Ｓ_１_１
  6
CONTINUOUS
 62
     2
100
AcDbLine
 10
1800.0
 20
1349.0
 30
0.0
 11
1800.0
 21
1486.0
 31
0.0
  0
LINE
  5
204
330
1FF
100
AcDbEntity
  8
Ｓ_１_１
  6
CONTINUOUS
 62
     2
100
AcDbLine
 10
1418.0
 20
1480.0
 30
0.0
 11
1782.0
 21
1480.0
 31
0.0
  0
INSERT
  5
205
330
1FF
100
AcDbEntity
  8
Ｓ_１_１
 62
     2
100
AcDbBlockReference
  2
EX_NORM
 10
1400.0
 20
1480.0
 30
0.0
 41
18.0
 42
18.0
 43
18.0
 50
180.0
  0
INSERT
  5
206
330
1FF
100
AcDbEntity
  8
Ｓ_１_１
 62
     2
100
AcDbBlockReference
  2
EX_NORM
 10
1800.0
 20
1480.0
 30
0.0
 41
18.0
 42
18.0
 43
18.0
  0
MTEXT
  5
207
330
1FF
100
AcDbEntity
  8
Ｓ_１_１
 62
     2
100
AcDbMText
 10
1600.0
 20
1496.5
 30
0.0
 40
20.77742494226328
 41
0.0
 71
     5
 72
     1
  1
400
  7
EXCADDIM1
  0
POINT
  5
208
330
1FF
100
AcDbEntity
  8
DEFPOINTS
 62
     0
100
AcDbPoint
 10
1400.0
 20
1340.0
 30
0.0
  0
POINT
  5
209
330
1FF
100
AcDbEntity
  8
DEFPOINTS
 62
     0
100
AcDbPoint
 10
1800.0
 20
1340.0
 30
0.0
  0
POINT
  5
20A
330
1FF
100
AcDbEntity
  8
DEFPOINTS
 62
     0
100
AcDbPoint
 10
1800.0
 20
1480.0
 30
0.0
  0
ENDBLK
  5
201
330
1FF
100
AcDbEntity
  8
0
100
AcDbBlockEnd
  0
BLOCK
  5
20D
330
20C
100
AcDbEntity
  8
0
100
AcDbBlockBegin
  2
*D33
 70
     1
 10
0.0
 20
0.0
 30
0.0
  3
*D33
  1

  0
LINE
  5
20F
330
20C
100
AcDbEntity
  8
Ｓ_１_１
  6
CONTINUOUS
 62
     2
100
AcDbLine
 10
1382.0
 20
1160.0
 30
0.0
 11
1314.0
 21
1160.0
 31
0.0
  0
LINE
  5
210
330
20C
100
AcDbEntity
  8
Ｓ_１_１
  6
CONTINUOUS
 62
     2
100
AcDbLine
 10
1401.5
 20
1325.0
 30
0.0
 11
1314.0
 21
1325.0
 31
0.0
  0
LINE
  5
211
330
20C
100
AcDbEntity
  8
Ｓ_１_１
  6
CONTINUOUS
 62
     2
100
AcDbLine
 10
1320.0
 20
1178.0
 30
0.0
 11
1320.0
 21
1307.0
 31
0.0
  0
INSERT
  5
212
330
20C
100
AcDbEntity
  8
Ｓ_１_１
 62
     2
100
AcDbBlockReference
  2
EX_NORM
 10
1320.0
 20
1160.0
 30
0.0
 41
18.0
 42
18.0
 43
18.0
 50
270.0
  0
INSERT
  5
213
330
20C
100
AcDbEntity
  8
Ｓ_１_１
 62
     2
100
AcDbBlockReference
  2
EX_NORM
 10
1320.0
 20
1325.0
 30
0.0
 41
18.0
 42
18.0
 43
18.0
 50
90.0
  0
MTEXT
  5
214
330
20C
100
AcDbEntity
  8
Ｓ_１_１
 62
     2
100
AcDbMText
 10
1303.5
 20
1242.5
 30
0.0
 40
20.77742494226328
 41
0.0
 71
     5
 72
     1
  1
165
  7
EXCADDIM1
 11
0.0
 21
1.0
 31
0.0
  0
POINT
  5
215
330
20C
100
AcDbEntity
  8
DEFPOINTS
 62
     0
100
AcDbPoint
 10
1391.0
 20
1160.0
 30
0.0
  0
POINT
  5
216
330
20C
100
AcDbEntity
  8
DEFPOINTS
 62
     0
100
AcDbPoint
 10
1410.5
 20
1325.0
 30
0.0
  0
POINT
  5
217
330
20C
100
AcDbEntity
  8
DEFPOINTS
 62
     0
100
AcDbPoint
 10
1320.0
 20
1325.0
 30
0.0
  0
ENDBLK
  5
20E
330
20C
100
AcDbEntity
  8
0
100
AcDbBlockEnd
  0
BLOCK
  5
21A
330
219
100
AcDbEntity
  8
0
100
AcDbBlockBegin
  2
*D34
 70
     1
 10
0.0
 20
0.0
 30
0.0
  3
*D34
  1

  0
LINE
  5
21C
330
219
100
AcDbEntity
  8
Ｓ_１_１
  6
CONTINUOUS
 62
     2
100
AcDbLine
 10
1382.0
 20
1160.0
 30
0.0
 11
1314.0
 21
1160.0
 31
0.0
  0
LINE
  5
21D
330
219
100
AcDbEntity
  8
Ｓ_１_１
  6
CONTINUOUS
 62
     2
100
AcDbLine
 10
1401.5
 20
995.00000000004
 30
0.0
 11
1314.0
 21
995.00000000004
 31
0.0
  0
LINE
  5
21E
330
219
100
AcDbEntity
  8
Ｓ_１_１
  6
CONTINUOUS
 62
     2
100
AcDbLine
 10
1320.0
 20
1142.0
 30
0.0
 11
1320.0
 21
1013.00000000004
 31
0.0
  0
INSERT
  5
21F
330
219
100
AcDbEntity
  8
Ｓ_１_１
 62
     2
100
AcDbBlockReference
  2
EX_NORM
 10
1320.0
 20
1160.0
 30
0.0
 41
18.0
 42
18.0
 43
18.0
 50
90.0
  0
INSERT
  5
220
330
219
100
AcDbEntity
  8
Ｓ_１_１
 62
     2
100
AcDbBlockReference
  2
EX_NORM
 10
1320.0
 20
995.00000000004
 30
0.0
 41
18.0
 42
18.0
 43
18.0
 50
270.0
  0
MTEXT
  5
221
330
219
100
AcDbEntity
  8
Ｓ_１_１
 62
     2
100
AcDbMText
 10
1303.5
 20
1077.50000000002
 30
0.0
 40
20.77742494226328
 41
0.0
 71
     5
 72
     1
  1
165
  7
EXCADDIM1
 11
0.0
 21
1.0
 31
0.0
  0
POINT
  5
222
330
219
100
AcDbEntity
  8
DEFPOINTS
 62
     0
100
AcDbPoint
 10
1391.0
 20
1160.0
 30
0.0
  0
POINT
  5
223
330
219
100
AcDbEntity
  8
DEFPOINTS
 62
     0
100
AcDbPoint
 10
1410.5
 20
995.00000000004
 30
0.0
  0
POINT
  5
224
330
219
100
AcDbEntity
  8
DEFPOINTS
 62
     0
100
AcDbPoint
 10
1320.0
 20
995.00000000004
 30
0.0
  0
ENDBLK
  5
21B
330
219
100
AcDbEntity
  8
0
100
AcDbBlockEnd
  0
BLOCK
  5
227
330
226
100
AcDbEntity
  8
0
100
AcDbBlockBegin
  2
*D35
 70
     1
 10
0.0
 20
0.0
 30
0.0
  3
*D35
  1

  0
LINE
  5
229
330
226
100
AcDbEntity
  8
Ｓ_１_１
  6
CONTINUOUS
 62
     2
100
AcDbLine
 10
1411.0
 20
960.0000000000399
 30
0.0
 11
1274.0
 21
960.00000000004
 31
0.0
  0
LINE
  5
22A
330
226
100
AcDbEntity
  8
Ｓ_１_１
  6
CONTINUOUS
 62
     2
100
AcDbLine
 10
1411.0
 20
1360.0
 30
0.0
 11
1274.0
 21
1360.0
 31
0.0
  0
LINE
  5
22B
330
226
100
AcDbEntity
  8
Ｓ_１_１
  6
CONTINUOUS
 62
     2
100
AcDbLine
 10
1280.0
 20
978.00000000004
 30
0.0
 11
1280.0
 21
1342.0
 31
0.0
  0
INSERT
  5
22C
330
226
100
AcDbEntity
  8
Ｓ_１_１
 62
     2
100
AcDbBlockReference
  2
EX_NORM
 10
1280.0
 20
960.00000000004
 30
0.0
 41
18.0
 42
18.0
 43
18.0
 50
270.0
  0
INSERT
  5
22D
330
226
100
AcDbEntity
  8
Ｓ_１_１
 62
     2
100
AcDbBlockReference
  2
EX_NORM
 10
1280.0
 20
1360.0
 30
0.0
 41
18.0
 42
18.0
 43
18.0
 50
90.0
  0
MTEXT
  5
22E
330
226
100
AcDbEntity
  8
Ｓ_１_１
 62
     2
100
AcDbMText
 10
1263.5
 20
1160.00000000002
 30
0.0
 40
20.77742494226328
 41
0.0
 71
     5
 72
     1
  1
400
  7
EXCADDIM1
 11
0.0
 21
1.0
 31
0.0
  0
POINT
  5
22F
330
226
100
AcDbEntity
  8
DEFPOINTS
 62
     0
100
AcDbPoint
 10
1420.0
 20
960.0000000000399
 30
0.0
  0
POINT
  5
230
330
226
100
AcDbEntity
  8
DEFPOINTS
 62
     0
100
AcDbPoint
 10
1420.0
 20
1360.0
 30
0.0
  0
POINT
  5
231
330
226
100
AcDbEntity
  8
DEFPOINTS
 62
     0
100
AcDbPoint
 10
1280.0
 20
1360.0
 30
0.0
  0
ENDBLK
  5
228
330
226
100
AcDbEntity
  8
0
100
AcDbBlockEnd
  0
BLOCK
  5
234
330
233
100
AcDbEntity
  8
0
100
AcDbBlockBegin
  2
*D36
 70
     1
 10
0.0
 20
0.0
 30
0.0
  3
*D36
  1

  0
LINE
  5
236
330
233
100
AcDbEntity
  8
Ｓ_１_１
  6
CONTINUOUS
 62
     2
100
AcDbLine
 10
1385.0
 20
703.0
 30
0.0
 11
1385.0
 21
886.0
 31
0.0
  0
LINE
  5
237
330
233
100
AcDbEntity
  8
Ｓ_１_１
  6
CONTINUOUS
 62
     2
100
AcDbLine
 10
1815.0
 20
703.0
 30
0.0
 11
1815.0
 21
886.0
 31
0.0
  0
LINE
  5
238
330
233
100
AcDbEntity
  8
Ｓ_１_１
  6
CONTINUOUS
 62
     2
100
AcDbLine
 10
1403.0
 20
880.0
 30
0.0
 11
1797.0
 21
880.0
 31
0.0
  0
INSERT
  5
239
330
233
100
AcDbEntity
  8
Ｓ_１_１
 62
     2
100
AcDbBlockReference
  2
EX_NORM
 10
1385.0
 20
880.0
 30
0.0
 41
18.0
 42
18.0
 43
18.0
 50
180.0
  0
INSERT
  5
23A
330
233
100
AcDbEntity
  8
Ｓ_１_１
 62
     2
100
AcDbBlockReference
  2
EX_NORM
 10
1815.0
 20
880.0
 30
0.0
 41
18.0
 42
18.0
 43
18.0
  0
MTEXT
  5
23B
330
233
100
AcDbEntity
  8
Ｓ_１_１
 62
     2
100
AcDbMText
 10
1600.0
 20
896.5
 30
0.0
 40
20.77742494226328
 41
0.0
 71
     5
 72
     1
  1
430
  7
EXCADDIM1
  0
POINT
  5
23C
330
233
100
AcDbEntity
  8
DEFPOINTS
 62
     0
100
AcDbPoint
 10
1385.0
 20
694.0
 30
0.0
  0
POINT
  5
23D
330
233
100
AcDbEntity
  8
DEFPOINTS
 62
     0
100
AcDbPoint
 10
1815.0
 20
694.0
 30
0.0
  0
POINT
  5
23E
330
233
100
AcDbEntity
  8
DEFPOINTS
 62
     0
100
AcDbPoint
 10
1815.0
 20
880.0
 30
0.0
  0
ENDBLK
  5
235
330
233
100
AcDbEntity
  8
0
100
AcDbBlockEnd
  0
BLOCK
  5
241
330
240
100
AcDbEntity
  8
0
100
AcDbBlockBegin
  2
*D37
 70
     1
 10
0.0
 20
0.0
 30
0.0
  3
*D37
  1

  0
LINE
  5
243
330
240
100
AcDbEntity
  8
Ｓ_１_１
  6
CONTINUOUS
 62
     2
100
AcDbLine
 10
1425.0
 20
733.0
 30
0.0
 11
1425.0
 21
846.0
 31
0.0
  0
LINE
  5
244
330
240
100
AcDbEntity
  8
Ｓ_１_１
  6
CONTINUOUS
 62
     2
100
AcDbLine
 10
1775.0
 20
733.0
 30
0.0
 11
1775.0
 21
846.0
 31
0.0
  0
LINE
  5
245
330
240
100
AcDbEntity
  8
Ｓ_１_１
  6
CONTINUOUS
 62
     2
100
AcDbLine
 10
1443.0
 20
840.0
 30
0.0
 11
1757.0
 21
840.0
 31
0.0
  0
INSERT
  5
246
330
240
100
AcDbEntity
  8
Ｓ_１_１
 62
     2
100
AcDbBlockReference
  2
EX_NORM
 10
1425.0
 20
840.0
 30
0.0
 41
18.0
 42
18.0
 43
18.0
 50
180.0
  0
INSERT
  5
247
330
240
100
AcDbEntity
  8
Ｓ_１_１
 62
     2
100
AcDbBlockReference
  2
EX_NORM
 10
1775.0
 20
840.0
 30
0.0
 41
18.0
 42
18.0
 43
18.0
  0
MTEXT
  5
248
330
240
100
AcDbEntity
  8
Ｓ_１_１
 62
     2
100
AcDbMText
 10
1600.0
 20
856.5
 30
0.0
 40
20.77742494226328
 41
0.0
 71
     5
 72
     1
  1
350
  7
EXCADDIM1
  0
POINT
  5
249
330
240
100
AcDbEntity
  8
DEFPOINTS
 62
     0
100
AcDbPoint
 10
1425.0
 20
724.0
 30
0.0
  0
POINT
  5
24A
330
240
100
AcDbEntity
  8
DEFPOINTS
 62
     0
100
AcDbPoint
 10
1775.0
 20
724.0
 30
0.0
  0
POINT
  5
24B
330
240
100
AcDbEntity
  8
DEFPOINTS
 62
     0
100
AcDbPoint
 10
1775.0
 20
840.0
 30
0.0
  0
ENDBLK
  5
242
330
240
100
AcDbEntity
  8
0
100
AcDbBlockEnd
  0
BLOCK
  5
24E
330
24D
100
AcDbEntity
  8
0
100
AcDbBlockBegin
  2
*D38
 70
     1
 10
0.0
 20
0.0
 30
0.0
  3
*D38
  1

  0
LINE
  5
250
330
24D
100
AcDbEntity
  8
Ｓ_１_１
  6
CONTINUOUS
 62
     2
100
AcDbLine
 10
1776.732050807571
 20
692.9999999999961
 30
0.0
 11
1773.267949192433
 21
694.9999999999958
 31
0.0
  0
MTEXT
  5
251
330
24D
100
AcDbEntity
  8
Ｓ_１_１
 62
     2
100
AcDbMText
 10
1838.242613140316
 20
676.5394191624441
 30
0.0
 40
20.77742494226328
 41
0.0
 71
     5
 72
     1
  1
　%%c40
  7
EXCADDIM1
 11
0.8660254037844813
 21
-0.499999999999926
 31
0.0
  0
LINE
  5
252
330
24D
100
AcDbEntity
  8
Ｓ_１_１
  6
CONTINUOUS
 62
     2
100
AcDbLine
 10
1757.679491924313
 20
703.9999999999944
 30
0.0
 11
1792.320508075692
 21
683.9999999999975
 31
0.0
  0
INSERT
  5
253
330
24D
100
AcDbEntity
  8
Ｓ_１_１
 62
     2
100
AcDbBlockReference
  2
EX_NORM
 10
1757.679491924313
 20
703.9999999999944
 30
0.0
 41
18.0
 42
18.0
 43
18.0
 50
150.0000000000049
  0
INSERT
  5
254
330
24D
100
AcDbEntity
  8
Ｓ_１_１
 62
     2
100
AcDbBlockReference
  2
EX_NORM
 10
1792.320508075692
 20
683.9999999999975
 30
0.0
 41
18.0
 42
18.0
 43
18.0
 50
330.0000000000049
  0
POINT
  5
255
330
24D
100
AcDbEntity
  8
DEFPOINTS
 62
     0
100
AcDbPoint
 10
1792.320508075692
 20
683.9999999999975
 30
0.0
  0
POINT
  5
256
330
24D
100
AcDbEntity
  8
DEFPOINTS
 62
     0
100
AcDbPoint
 10
1757.679491924313
 20
703.9999999999944
 30
0.0
  0
ENDBLK
  5
24F
330
24D
100
AcDbEntity
  8
0
100
AcDbBlockEnd
  0
ENDSEC
  0
SECTION
  2
ENTITIES
  0
LINE
  5
D8
330
1F
100
AcDbEntity
  8
図面枠
  6
CONTINUOUS
 62
     5
100
AcDbLine
 10
60.0
 20
60.0
 30
0.0
 11
2460.0
 21
60.0
 31
0.0
  0
LINE
  5
D9
330
1F
100
AcDbEntity
  8
図面枠
  6
CONTINUOUS
 62
     5
100
AcDbLine
 10
2460.0
 20
60.0
 30
0.0
 11
2460.0
 21
1722.0
 31
0.0
  0
LINE
  5
DA
330
1F
100
AcDbEntity
  8
図面枠
  6
CONTINUOUS
 62
     5
100
AcDbLine
 10
2460.0
 20
1722.0
 30
0.0
 11
60.00000000000031
 21
1722.0
 31
0.0
  0
LINE
  5
DB
330
1F
100
AcDbEntity
  8
図面枠
  6
CONTINUOUS
 62
     5
100
AcDbLine
 10
60.00000000000031
 20
1722.0
 30
0.0
 11
60.0
 21
60.0
 31
0.0
  0
LINE
  5
DC
330
1F
100
AcDbEntity
  8
図面枠
  6
CONTINUOUS
 62
     3
100
AcDbLine
 10
2430.0
 20
144.0
 30
0.0
 11
2430.0
 21
90.0
 31
0.0
  0
LINE
  5
DD
330
1F
100
AcDbEntity
  8
図面枠
  6
CONTINUOUS
 62
     3
100
AcDbLine
 10
90.00000000000009
 20
1692.0
 30
0.0
 11
90.00000000000009
 21
1638.0
 31
0.0
  0
TEXT
  5
DF
330
1F
100
AcDbEntity
  8
図面枠
  6
CONTINUOUS
 62
     4
100
AcDbText
 10
2322.0
 20
1628.296875
 30
0.0
 40
20.77742494226328
  1
kN
 41
0.999230769230769
  7
EXCADTTF1
 72
     5
 11
2349.0
 21
1628.296875
 31
0.0
100
AcDbText
  0
TEXT
  5
E0
330
1F
100
AcDbEntity
  8
図面枠
  6
CONTINUOUS
 62
     4
100
AcDbText
 10
1962.0
 20
1628.296875
 30
0.0
 40
20.77742494226328
  1
能力
 41
0.999230769230769
  7
EXCADTTF1
 72
     5
 11
2016.0
 21
1628.296875
 31
0.0
100
AcDbText
  0
TEXT
  5
E1
330
1F
100
AcDbEntity
  8
図面枠
  6
CONTINUOUS
 62
     4
100
AcDbText
 10
2122.5
 20
1664.296875
 30
0.0
 40
20.77742494226328
  1
仕　　　様
 41
0.9992307692307689
  7
EXCADTTF1
 72
     5
 11
2257.5
 21
1664.296875
 31
0.0
100
AcDbText
  0
LINE
  5
E2
330
1F
100
AcDbEntity
  8
図面枠
  6
CONTINUOUS
 62
     3
100
AcDbLine
 10
1950.0
 20
1692.0
 30
0.0
 11
2430.0
 21
1692.0
 31
0.0
  0
LINE
  5
E3
330
1F
100
AcDbEntity
  8
図面枠
  6
CONTINUOUS
 62
     3
100
AcDbLine
 10
1950.0
 20
1656.0
 30
0.0
 11
2430.0
 21
1656.0
 31
0.0
  0
TEXT
  5
E4
330
1F
100
AcDbEntity
  8
図面枠
  6
CONTINUOUS
 62
     4
100
AcDbText
 10
2244.0
 20
1628.296875
 30
0.0
 40
20.77742494226328
  1
1000
 41
0.999230769230769
  7
EXCADTTF1
 72
     5
 11
2298.0
 21
1628.296875
 31
0.0
100
AcDbText
  0
TEXT
  5
E5
330
1F
100
AcDbEntity
  8
図面枠
  6
CONTINUOUS
 62
     4
100
AcDbText
 10
2322.0
 20
1592.296875
 30
0.0
 40
20.77742494226328
  1
mm
 41
0.999230769230769
  7
EXCADTTF1
 72
     5
 11
2349.0
 21
1592.296875
 31
0.0
100
AcDbText
  0
TEXT
  5
E6
330
1F
100
AcDbEntity
  8
図面枠
  6
CONTINUOUS
 62
     4
100
AcDbText
 10
2322.0
 20
1556.296875
 30
0.0
 40
20.77742494226328
  1
mm
 41
0.999230769230769
  7
EXCADTTF1
 72
     5
 11
2349.0
 21
1556.296875
 31
0.0
100
AcDbText
  0
TEXT
  5
E7
330
1F
100
AcDbEntity
  8
図面枠
  6
CONTINUOUS
 62
     4
100
AcDbText
 10
2322.0
 20
1520.296875
 30
0.0
 40
20.77742494226328
  1
mm
 41
0.999230769230769
  7
EXCADTTF1
 72
     5
 11
2349.0
 21
1520.296875
 31
0.0
100
AcDbText
  0
TEXT
  5
E8
330
1F
100
AcDbEntity
  8
図面枠
  6
CONTINUOUS
 62
     4
100
AcDbText
 10
1962.0
 20
1592.296875
 30
0.0
 40
20.77742494226328
  1
ストローク
 41
0.9992307692307689
  7
EXCADTTF1
 72
     5
 11
2097.0
 21
1592.296875
 31
0.0
100
AcDbText
  0
TEXT
  5
E9
330
1F
100
AcDbEntity
  8
図面枠
  6
CONTINUOUS
 62
     4
100
AcDbText
 10
1962.0
 20
1556.296875
 30
0.0
 40
20.77742494226328
  1
最低機械高
 41
0.9992307692307689
  7
EXCADTTF1
 72
     5
 11
2097.0
 21
1556.296875
 31
0.0
100
AcDbText
  0
TEXT
  5
EA
330
1F
100
AcDbEntity
  8
図面枠
  6
CONTINUOUS
 62
     4
100
AcDbText
 10
1962.0
 20
1520.296875
 30
0.0
 40
20.77742494226328
  1
シリンダー外径
 41
0.9992307692307688
  7
EXCADTTF1
 72
     5
 11
2151.0
 21
1520.296875
 31
0.0
100
AcDbText
  0
LINE
  5
EB
330
1F
100
AcDbEntity
  8
図面枠
  6
CONTINUOUS
 62
     2
100
AcDbLine
 10
1950.0
 20
1620.0
 30
0.0
 11
2430.0
 21
1620.0
 31
0.0
  0
LINE
  5
EC
330
1F
100
AcDbEntity
  8
図面枠
  6
CONTINUOUS
 62
     2
100
AcDbLine
 10
1950.0
 20
1584.0
 30
0.0
 11
2430.0
 21
1584.0
 31
0.0
  0
LINE
  5
ED
330
1F
100
AcDbEntity
  8
図面枠
  6
CONTINUOUS
 62
     2
100
AcDbLine
 10
1950.0
 20
1548.0
 30
0.0
 11
2430.0
 21
1548.0
 31
0.0
  0
LINE
  5
EE
330
1F
100
AcDbEntity
  8
図面枠
  6
CONTINUOUS
 62
     2
100
AcDbLine
 10
1950.0
 20
1512.0
 30
0.0
 11
2430.0
 21
1512.0
 31
0.0
  0
TEXT
  5
EF
330
1F
100
AcDbEntity
  8
図面枠
  6
CONTINUOUS
 62
     4
100
AcDbText
 10
2257.5
 20
1592.296875
 30
0.0
 40
20.77742494226328
  1
150
 41
0.999230769230769
  7
EXCADTTF1
 72
     5
 11
2298.0
 21
1592.296875
 31
0.0
100
AcDbText
  0
TEXT
  5
F0
330
1F
100
AcDbEntity
  8
図面枠
  6
CONTINUOUS
 62
     4
100
AcDbText
 10
2257.5
 20
1520.296875
 30
0.0
 40
20.77742494226328
  1
190
 41
0.999230769230769
  7
EXCADTTF1
 72
     5
 11
2298.0
 21
1520.296875
 31
0.0
100
AcDbText
  0
TEXT
  5
F1
330
1F
100
AcDbEntity
  8
図面枠
  6
CONTINUOUS
 62
     4
100
AcDbText
 10
2322.0
 20
1484.296875
 30
0.0
 40
20.77742494226328
  1
cm
 41
0.999230769230769
  7
EXCADTTF1
 72
     5
 11
2349.0
 21
1484.296875
 31
0.0
100
AcDbText
  0
TEXT
  5
F2
330
1F
100
AcDbEntity
  8
図面枠
  6
CONTINUOUS
 62
     4
100
AcDbText
 10
2340.900000000001
 20
1497.05859388411
 30
0.0
 40
9.349840196579397
  1
2
 41
0.9992308790346205
  7
EXCADTTF1
 72
     5
 11
2346.975
 21
1497.05859388411
 31
0.0
100
AcDbText
  0
LINE
  5
F3
330
1F
100
AcDbEntity
  8
図面枠
  6
CONTINUOUS
 62
     3
100
AcDbLine
 10
2250.0
 20
144.0
 30
0.0
 11
2250.0
 21
90.0
 31
0.0
  0
TEXT
  5
F4
330
1F
100
AcDbEntity
  8
図面枠
  6
CONTINUOUS
 62
     4
100
AcDbText
 10
2268.0
 20
104.0625
 30
0.0
 40
27.70323325635104
  1
RJ-10015
 41
0.9992307692307693
  7
EXCADTTF1
 72
     5
 11
2412.0
 21
104.0625
 31
0.0
100
AcDbText
  0
LINE
  5
F5
330
1F
100
AcDbEntity
  8
図面枠
  6
CONTINUOUS
 62
     3
100
AcDbLine
 10
2250.0
 20
90.0
 30
0.0
 11
2430.0
 21
90.0
 31
0.0
  0
LINE
  5
F6
330
1F
100
AcDbEntity
  8
図面枠
  6
CONTINUOUS
 62
     3
100
AcDbLine
 10
2250.0
 20
144.0
 30
0.0
 11
2430.0
 21
144.0
 31
0.0
  0
TEXT
  5
F7
330
1F
100
AcDbEntity
  8
図面枠
  6
CONTINUOUS
 62
     4
100
AcDbText
 10
2257.5
 20
1556.296875
 30
0.0
 40
20.77742494226328
  1
550
 41
0.999230769230769
  7
EXCADTTF1
 72
     5
 11
2298.0
 21
1556.296875
 31
0.0
100
AcDbText
  0
TEXT
  5
F8
330
1F
100
AcDbEntity
  8
図面枠
  6
CONTINUOUS
 62
     4
100
AcDbText
 10
114.0
 20
1652.0625
 30
0.0
 40
27.70323325635104
  1
1000kN150ストローク仮受け用油圧ジャッキ　球面回転ヘッド型
 41
0.9992307692307698
  7
EXCADTTF1
 72
     5
 11
1140.0
 21
1652.0625
 31
0.0
100
AcDbText
  0
LINE
  5
F9
330
1F
100
AcDbEntity
  8
図面枠
  6
CONTINUOUS
 62
     3
100
AcDbLine
 10
1164.0
 20
1692.0
 30
0.0
 11
1164.0
 21
1638.0
 31
0.0
  0
LINE
  5
FA
330
1F
100
AcDbEntity
  8
図面枠
  6
CONTINUOUS
 62
     3
100
AcDbLine
 10
90.00000000000009
 20
1692.0
 30
0.0
 11
1164.0
 21
1692.0
 31
0.0
  0
LINE
  5
FB
330
1F
100
AcDbEntity
  8
図面枠
  6
CONTINUOUS
 62
     3
100
AcDbLine
 10
90.00000000000009
 20
1638.0
 30
0.0
 11
1164.0
 21
1638.0
 31
0.0
  0
TEXT
  5
FC
330
1F
100
AcDbEntity
  8
図面枠
  6
CONTINUOUS
 62
     4
100
AcDbText
 10
2322.0
 20
1448.296875
 30
0.0
 40
20.77742494226328
  1
MPa
 41
0.999230769230769
  7
EXCADTTF1
 72
     5
 11
2362.5
 21
1448.296875
 31
0.0
100
AcDbText
  0
TEXT
  5
FD
330
1F
100
AcDbEntity
  8
図面枠
  6
CONTINUOUS
 62
     4
100
AcDbText
 10
1962.0
 20
1484.296875
 30
0.0
 40
20.77742494226328
  1
受圧面積
 41
0.999230769230769
  7
EXCADTTF1
 72
     5
 11
2070.0
 21
1484.296875
 31
0.0
100
AcDbText
  0
TEXT
  5
FE
330
1F
100
AcDbEntity
  8
図面枠
  6
CONTINUOUS
 62
     4
100
AcDbText
 10
1962.0
 20
1448.296875
 30
0.0
 40
20.77742494226328
  1
最高使用圧力
 41
0.9992307692307689
  7
EXCADTTF1
 72
     5
 11
2124.0
 21
1448.296875
 31
0.0
100
AcDbText
  0
LINE
  5
FF
330
1F
100
AcDbEntity
  8
図面枠
  6
CONTINUOUS
 62
     2
100
AcDbLine
 10
1950.0
 20
1476.0
 30
0.0
 11
2430.0
 21
1476.0
 31
0.0
  0
TEXT
  5
100
330
1F
100
AcDbEntity
  8
図面枠
  6
CONTINUOUS
 62
     4
100
AcDbText
 10
2244.0
 20
1448.296875
 30
0.0
 40
20.77742494226328
  1
60.6
 41
0.999230769230769
  7
EXCADTTF1
 72
     5
 11
2298.0
 21
1448.296875
 31
0.0
100
AcDbText
  0
TEXT
  5
101
330
1F
100
AcDbEntity
  8
図面枠
  6
CONTINUOUS
 62
     4
100
AcDbText
 10
2322.0
 20
1376.296875
 30
0.0
 40
20.77742494226328
  1
kg
 41
0.999230769230769
  7
EXCADTTF1
 72
     5
 11
2349.0
 21
1376.296875
 31
0.0
100
AcDbText
  0
TEXT
  5
102
330
1F
100
AcDbEntity
  8
図面枠
  6
CONTINUOUS
 62
     4
100
AcDbText
 10
1962.0
 20
1412.296875
 30
0.0
 40
20.77742494226328
  1
所要油量
 41
0.999230769230769
  7
EXCADTTF1
 72
     5
 11
2070.0
 21
1412.296875
 31
0.0
100
AcDbText
  0
LINE
  5
103
330
1F
100
AcDbEntity
  8
図面枠
  6
CONTINUOUS
 62
     2
100
AcDbLine
 10
1950.0
 20
1440.0
 30
0.0
 11
2430.0
 21
1440.0
 31
0.0
  0
LINE
  5
104
330
1F
100
AcDbEntity
  8
図面枠
  6
CONTINUOUS
 62
     2
100
AcDbLine
 10
1950.0
 20
1404.0
 30
0.0
 11
2430.0
 21
1404.0
 31
0.0
  0
TEXT
  5
105
330
1F
100
AcDbEntity
  8
図面枠
  6
CONTINUOUS
 62
     4
100
AcDbText
 10
1962.0
 20
1376.296875
 30
0.0
 40
20.77742494226328
  1
重量
 41
0.999230769230769
  7
EXCADTTF1
 72
     5
 11
2016.0
 21
1376.296875
 31
0.0
100
AcDbText
  0
TEXT
  5
106
330
1F
100
AcDbEntity
  8
図面枠
  6
CONTINUOUS
 62
     4
100
AcDbText
 10
1962.0
 20
1340.296875
 30
0.0
 40
20.77742494226328
  1
ユニバーサル
 41
0.9992307692307689
  7
EXCADTTF1
 72
     5
 11
2124.0
 21
1340.296875
 31
0.0
100
AcDbText
  0
TEXT
  5
107
330
1F
100
AcDbEntity
  8
図面枠
  6
CONTINUOUS
 62
     4
100
AcDbText
 10
1962.0
 20
1313.296875
 30
0.0
 40
20.77742494226328
  1
振り角
 41
0.999230769230769
  7
EXCADTTF1
 72
     5
 11
2043.0
 21
1313.296875
 31
0.0
100
AcDbText
  0
TEXT
  5
108
330
1F
100
AcDbEntity
  8
図面枠
  6
CONTINUOUS
 62
     4
100
AcDbText
 10
2257.5
 20
1340.296875
 30
0.0
 40
20.77742494226328
  1
±3
 41
0.999230769230769
  7
EXCADTTF1
 72
     5
 11
2298.0
 21
1340.296875
 31
0.0
100
AcDbText
  0
TEXT
  5
109
330
1F
100
AcDbEntity
  8
図面枠
  6
CONTINUOUS
 62
     4
100
AcDbText
 10
2322.0
 20
1340.296875
 30
0.0
 40
20.77742494226328
  1
°
 41
0.999230769230769
  7
EXCADTTF1
 72
     5
 11
2349.0
 21
1340.296875
 31
0.0
100
AcDbText
  0
TEXT
  5
10A
330
1F
100
AcDbEntity
  8
図面枠
  6
CONTINUOUS
 62
     4
100
AcDbText
 10
2322.0
 20
1304.296875
 30
0.0
 40
20.77742494226328
  1
%%%
 41
0.999230769230769
  7
EXCADTTF1
 72
     5
 11
2335.5
 21
1304.296875
 31
0.0
100
AcDbText
  0
TEXT
  5
10B
330
1F
100
AcDbEntity
  8
図面枠
  6
CONTINUOUS
 62
     4
100
AcDbText
 10
2257.5
 20
1304.296875
 30
0.0
 40
20.77742494226328
  1
±5
 41
0.999230769230769
  7
EXCADTTF1
 72
     5
 11
2298.0
 21
1304.296875
 31
0.0
100
AcDbText
  0
LINE
  5
10C
330
1F
100
AcDbEntity
  8
図面枠
  6
CONTINUOUS
 62
     2
100
AcDbLine
 10
2190.0
 20
1332.0
 30
0.0
 11
2430.0
 21
1332.0
 31
0.0
  0
LINE
  5
10D
330
1F
100
AcDbEntity
  8
図面枠
  6
CONTINUOUS
 62
     3
100
AcDbLine
 10
1950.0
 20
1296.0
 30
0.0
 11
2430.0
 21
1296.0
 31
0.0
  0
LINE
  5
10E
330
1F
100
AcDbEntity
  8
図面枠
  6
CONTINUOUS
 62
     2
100
AcDbLine
 10
1950.0
 20
1368.0
 30
0.0
 11
2430.0
 21
1368.0
 31
0.0
  0
TEXT
  5
10F
330
1F
100
AcDbEntity
  8
図面枠
  6
CONTINUOUS
 62
     4
100
AcDbText
 10
2322.0
 20
1412.296875
 30
0.0
 40
20.77742494226328
  1
L
 41
0.999230769230769
  7
EXCADTTF1
 72
     5
 11
2335.5
 21
1412.296875
 31
0.0
100
AcDbText
  0
TEXT
  5
110
330
1F
100
AcDbEntity
  8
図面枠
  6
CONTINUOUS
 62
     4
100
AcDbText
 10
2257.5
 20
1412.296875
 30
0.0
 40
20.77742494226328
  1
2.5
 41
0.999230769230769
  7
EXCADTTF1
 72
     5
 11
2298.0
 21
1412.296875
 31
0.0
100
AcDbText
  0
TEXT
  5
111
330
1F
100
AcDbEntity
  8
図面枠
  6
CONTINUOUS
 62
     4
100
AcDbText
 10
2230.5
 20
1484.296875
 30
0.0
 40
20.77742494226328
  1
165.1
 41
0.9992307692307689
  7
EXCADTTF1
 72
     5
 11
2298.0
 21
1484.296875
 31
0.0
100
AcDbText
  0
TEXT
  5
112
330
1F
100
AcDbEntity
  8
図面枠
  6
CONTINUOUS
 62
     4
100
AcDbText
 10
2230.5
 20
1376.296875
 30
0.0
 40
20.77742494226328
  1
約215
 41
0.9992307692307689
  7
EXCADTTF1
 72
     5
 11
2298.0
 21
1376.296875
 31
0.0
100
AcDbText
  0
LINE
  5
113
330
1F
100
AcDbEntity
  8
図面枠
  6
CONTINUOUS
 62
     3
100
AcDbLine
 10
1950.0
 20
1692.0
 30
0.0
 11
1950.0
 21
1296.0
 31
0.0
  0
LINE
  5
114
330
1F
100
AcDbEntity
  8
図面枠
  6
CONTINUOUS
 62
     2
100
AcDbLine
 10
2190.0
 20
1656.0
 30
0.0
 11
2190.0
 21
1296.0
 31
0.0
  0
LINE
  5
115
330
1F
100
AcDbEntity
  8
図面枠
  6
CONTINUOUS
 62
     2
100
AcDbLine
 10
2310.0
 20
1656.0
 30
0.0
 11
2310.0
 21
1296.0
 31
0.0
  0
LINE
  5
116
330
1F
100
AcDbEntity
  8
図面枠
  6
CONTINUOUS
 62
     3
100
AcDbLine
 10
2430.0
 20
1692.0
 30
0.0
 11
2430.0
 21
1296.0
 31
0.0
  0
TEXT
  5
117
330
1F
100
AcDbEntity
  8
図面枠
  6
CONTINUOUS
 62
     4
100
AcDbText
 10
1915.199999999999
 20
1227.196874999997
 30
0.0
 40
20.77742494226328
  1
※）球面回転ヘッドの為、無負荷ジャッキ
 41
0.9992307692307687
  7
EXCADTTF1
 72
     5
 11
2428.199999999999
 21
1227.196874999997
 31
0.0
100
AcDbText
  0
TEXT
  5
118
330
1F
100
AcDbEntity
  8
図面枠
  6
CONTINUOUS
 62
     4
100
AcDbText
 10
1915.199999999999
 20
1200.196874999997
 30
0.0
 40
20.77742494226328
  1
　　作動時にヘッドが急に傾く場合があり
 41
0.9992307692307687
  7
EXCADTTF1
 72
     5
 11
2428.199999999999
 21
1200.196874999997
 31
0.0
100
AcDbText
  0
TEXT
  5
119
330
1F
100
AcDbEntity
  8
図面枠
  6
CONTINUOUS
 62
     4
100
AcDbText
 10
1915.199999999999
 20
1173.196874999997
 30
0.0
 40
20.77742494226328
  1
　　ます。必要に応じて搭載物の転倒防止
 41
0.9992307692307687
  7
EXCADTTF1
 72
     5
 11
2428.199999999999
 21
1173.196874999997
 31
0.0
100
AcDbText
  0
TEXT
  5
11A
330
1F
100
AcDbEntity
  8
図面枠
  6
CONTINUOUS
 62
     4
100
AcDbText
 10
1915.199999999999
 20
1146.196874999997
 30
0.0
 40
20.77742494226328
  1
　　を行ってください。
 41
0.9992307692307687
  7
EXCADTTF1
 72
     5
 11
2212.199999999999
 21
1146.196874999997
 31
0.0
100
AcDbText
  0
DIMENSION
  5
11C
330
1F
100
AcDbEntity
  8
Ｓ_１_１
  6
CONTINUOUS
 62
     2
100
AcDbDimension
  2
*D15
 10
399.9999999999999
 20
590.00003814697
 30
0.0
 11
383.4999999999999
 21
395.0000190734849
 31
0.0
 70
   160
  3
ISO-25
100
AcDbAlignedDimension
 13
640.0
 23
200.0
 33
0.0
 14
660.0
 24
590.00003814697
 34
0.0
 50
90.0
100
AcDbRotatedDimension
1001
ACAD
1000
DSTYLE
1002
{
1070
   270
1070
     2
1070
     6
1000
EX_NORM
1070
     7
1000
EX_NORM
1070
    41
1040
18.0
1070
    42
1040
9.0
1070
    44
1040
6.0
1070
    73
1070
     0
1070
    74
1070
     0
1070
    75
1070
     0
1070
    76
1070
     0
1070
    77
1070
     1
1070
    78
1070
     8
1070
   140
1040
20.77742494226328
1070
   147
1040
0.0
1070
   173
1070
     1
1070
   176
1070
     2
1070
   177
1070
     2
1070
   178
1070
     2
1070
   271
1070
     2
1070
   277
1070
     2
1070
   279
1070
     2
1070
   280
1070
     0
1070
   287
1070
     5
1070
   340
1005
11B
1002
}
  0
DIMENSION
  5
12A
330
1F
100
AcDbEntity
  8
Ｓ_１_１
  6
CONTINUOUS
 62
     2
100
AcDbDimension
  2
*D16
 10
399.9999999999999
 20
750.0
 30
0.0
 11
383.4999999999999
 21
670.000019073485
 31
0.0
 70
   160
  3
ISO-25
100
AcDbAlignedDimension
 13
660.0
 23
590.00003814697
 33
0.0
 14
540.0
 24
750.0
 34
0.0
 50
90.0
100
AcDbRotatedDimension
1001
ACAD
1000
DSTYLE
1002
{
1070
   270
1070
     2
1070
     6
1000
EX_NORM
1070
     7
1000
EX_NORM
1070
    41
1040
18.0
1070
    42
1040
9.0
1070
    44
1040
6.0
1070
    73
1070
     0
1070
    74
1070
     0
1070
    75
1070
     0
1070
    76
1070
     0
1070
    77
1070
     1
1070
    78
1070
     8
1070
   140
1040
20.77742494226328
1070
   147
1040
0.0
1070
   173
1070
     1
1070
   176
1070
     2
1070
   177
1070
     2
1070
   178
1070
     2
1070
   271
1070
     2
1070
   277
1070
     2
1070
   279
1070
     2
1070
   280
1070
     0
1070
   287
1070
     5
1070
   340
1005
11B
1002
}
  0
DIMENSION
  5
137
330
1F
100
AcDbEntity
  8
Ｓ_１_１
  6
CONTINUOUS
 62
     2
100
AcDbDimension
  2
*D17
 10
359.9999999999998
 20
750.0
 30
0.0
 11
343.4999999999999
 21
474.9999999999999
 31
0.0
 70
   160
  3
ISO-25
100
AcDbAlignedDimension
 13
640.0
 23
200.0
 33
0.0
 14
540.0
 24
750.0
 34
0.0
 50
90.0
100
AcDbRotatedDimension
1001
ACAD
1000
DSTYLE
1002
{
1070
   270
1070
     2
1070
     6
1000
EX_NORM
1070
     7
1000
EX_NORM
1070
    41
1040
18.0
1070
    42
1040
9.0
1070
    44
1040
6.0
1070
    73
1070
     0
1070
    74
1070
     0
1070
    75
1070
     0
1070
    76
1070
     0
1070
    77
1070
     1
1070
    78
1070
     8
1070
   140
1040
20.77742494226328
1070
   147
1040
0.0
1070
   173
1070
     1
1070
   176
1070
     2
1070
   177
1070
     2
1070
   178
1070
     2
1070
   271
1070
     2
1070
   277
1070
     2
1070
   279
1070
     2
1070
   280
1070
     0
1070
   287
1070
     5
1070
   340
1005
11B
1002
}
  0
DIMENSION
  5
144
330
1F
100
AcDbEntity
  8
Ｓ_１_１
  6
CONTINUOUS
 62
     2
100
AcDbDimension
  2
*D18
 10
439.9999999999986
 20
750.0
 30
0.0
 11
423.4999999999978
 21
781.4999999999994
 31
0.0
 70
   160
  3
ISO-25
100
AcDbAlignedDimension
 13
540.0
 23
734.0
 33
0.0
 14
540.0
 24
750.0
 34
0.0
 50
90.0
100
AcDbRotatedDimension
1001
ACAD
1000
DSTYLE
1002
{
1070
   270
1070
     2
1070
     6
1000
EX_NORM
1070
     7
1000
EX_NORM
1070
    41
1040
18.0
1070
    42
1040
9.0
1070
    44
1040
6.0
1070
    73
1070
     0
1070
    74
1070
     0
1070
    75
1070
     0
1070
    76
1070
     0
1070
    77
1070
     1
1070
    78
1070
     8
1070
   140
1040
20.77742494226328
1070
   147
1040
0.0
1070
   173
1070
     1
1070
   176
1070
     2
1070
   177
1070
     2
1070
   178
1070
     2
1070
   271
1070
     2
1070
   277
1070
     2
1070
   279
1070
     2
1070
   280
1070
     2
1070
   287
1070
     5
1070
   340
1005
11B
1002
}
  0
DIMENSION
  5
153
330
1F
100
AcDbEntity
  8
Ｓ_１_１
  6
CONTINUOUS
 62
     2
100
AcDbDimension
  2
*D19
 10
440.0
 20
200.0000000000009
 30
0.0
 11
423.4999999999999
 21
168.5000000000009
 31
0.0
 70
   160
  3
ISO-25
100
AcDbAlignedDimension
 13
640.0000000000025
 23
225.0000000000009
 33
0.0
 14
640.0000000000025
 24
200.0000000000009
 34
0.0
 50
90.0
100
AcDbRotatedDimension
1001
ACAD
1000
DSTYLE
1002
{
1070
   270
1070
     2
1070
     6
1000
EX_NORM
1070
     7
1000
EX_NORM
1070
    41
1040
18.0
1070
    42
1040
9.0
1070
    44
1040
6.0
1070
    73
1070
     0
1070
    74
1070
     0
1070
    75
1070
     0
1070
    76
1070
     0
1070
    77
1070
     1
1070
    78
1070
     8
1070
   140
1040
20.77742494226328
1070
   147
1040
0.0
1070
   173
1070
     1
1070
   176
1070
     2
1070
   177
1070
     2
1070
   178
1070
     2
1070
   271
1070
     2
1070
   277
1070
     2
1070
   279
1070
     2
1070
   280
1070
     2
1070
   287
1070
     5
1070
   340
1005
11B
1002
}
  0
DIMENSION
  5
162
330
1F
100
AcDbEntity
  8
Ｓ_１_１
  6
CONTINUOUS
 62
     2
100
AcDbDimension
  2
*D20
 10
440.0
 20
434.9999999999999
 30
0.0
 11
423.5000000000001
 21
329.9999999999998
 31
0.0
 70
   160
  3
ISO-25
100
AcDbAlignedDimension
 13
640.0
 23
225.0
 33
0.0
 14
727.0
 24
434.9999999999998
 34
0.0
 50
90.0
100
AcDbRotatedDimension
1001
ACAD
1000
DSTYLE
1002
{
1070
   270
1070
     2
1070
     6
1000
EX_NORM
1070
     7
1000
EX_NORM
1070
    41
1040
18.0
1070
    42
1040
9.0
1070
    44
1040
6.0
1070
    73
1070
     0
1070
    74
1070
     0
1070
    75
1070
     0
1070
    76
1070
     0
1070
    77
1070
     1
1070
    78
1070
     8
1070
   140
1040
20.77742494226328
1070
   147
1040
0.0
1070
   173
1070
     1
1070
   176
1070
     2
1070
   177
1070
     2
1070
   178
1070
     2
1070
   271
1070
     2
1070
   277
1070
     2
1070
   279
1070
     2
1070
   280
1070
     0
1070
   287
1070
     5
1070
   340
1005
11B
1002
}
  0
DIMENSION
  5
16F
330
1F
100
AcDbEntity
  8
Ｓ_１_１
  6
CONTINUOUS
 62
     2
100
AcDbDimension
  2
*D21
 10
440.0
 20
590.00003814697
 30
0.0
 11
423.5000000000001
 21
512.500019073485
 31
0.0
 70
   160
  3
ISO-25
100
AcDbAlignedDimension
 13
727.0
 23
434.9999999999998
 33
0.0
 14
660.0
 24
590.00003814697
 34
0.0
 50
90.0
100
AcDbRotatedDimension
1001
ACAD
1000
DSTYLE
1002
{
1070
   270
1070
     2
1070
     6
1000
EX_NORM
1070
     7
1000
EX_NORM
1070
    41
1040
18.0
1070
    42
1040
9.0
1070
    44
1040
6.0
1070
    73
1070
     0
1070
    74
1070
     0
1070
    75
1070
     0
1070
    76
1070
     0
1070
    77
1070
     1
1070
    78
1070
     8
1070
   140
1040
20.77742494226328
1070
   147
1040
0.0
1070
   173
1070
     1
1070
   176
1070
     2
1070
   177
1070
     2
1070
   178
1070
     2
1070
   271
1070
     2
1070
   277
1070
     2
1070
   279
1070
     2
1070
   280
1070
     0
1070
   287
1070
     5
1070
   340
1005
11B
1002
}
  0
DIMENSION
  5
17C
330
1F
100
AcDbEntity
  8
Ｓ_１_１
  6
CONTINUOUS
 62
     2
100
AcDbDimension
  2
*D22
 10
789.9999999999899
 20
1440.0
 30
0.0
 11
689.9999999999901
 21
1456.5
 31
0.0
 70
   160
  3
ISO-25
100
AcDbAlignedDimension
 13
589.99999999999
 23
1280.8
 33
0.0
 14
789.9999999999899
 24
1280.8
 34
0.0
100
AcDbRotatedDimension
1001
ACAD
1000
DSTYLE
1002
{
1070
   270
1070
     2
1070
     6
1000
EX_NORM
1070
     7
1000
EX_NORM
1070
    41
1040
18.0
1070
    42
1040
9.0
1070
    44
1040
6.0
1070
    73
1070
     0
1070
    74
1070
     0
1070
    75
1070
     0
1070
    76
1070
     0
1070
    77
1070
     1
1070
    78
1070
     8
1070
   140
1040
20.77742494226328
1070
   147
1040
0.0
1070
   173
1070
     1
1070
   176
1070
     2
1070
   177
1070
     2
1070
   178
1070
     2
1070
   271
1070
     2
1070
   277
1070
     2
1070
   279
1070
     2
1070
   280
1070
     0
1070
   287
1070
     5
1070
   340
1005
11B
1002
}
  0
DIMENSION
  5
189
330
1F
100
AcDbEntity
  8
Ｓ_１_１
  6
CONTINUOUS
 62
     2
100
AcDbDimension
  2
*D23
 10
890.0000000000098
 20
1440.0
 30
0.0
 11
840.0
 21
1456.5
 31
0.0
 70
   160
  3
ISO-25
100
AcDbAlignedDimension
 13
789.9999999999899
 23
1280.8
 33
0.0
 14
890.0000000000098
 24
1280.8
 34
0.0
100
AcDbRotatedDimension
1001
ACAD
1000
DSTYLE
1002
{
1070
   270
1070
     2
1070
     6
1000
EX_NORM
1070
     7
1000
EX_NORM
1070
    41
1040
18.0
1070
    42
1040
9.0
1070
    44
1040
6.0
1070
    73
1070
     0
1070
    74
1070
     0
1070
    75
1070
     0
1070
    76
1070
     0
1070
    77
1070
     1
1070
    78
1070
     8
1070
   140
1040
20.77742494226328
1070
   147
1040
0.0
1070
   173
1070
     1
1070
   176
1070
     2
1070
   177
1070
     2
1070
   178
1070
     2
1070
   271
1070
     2
1070
   277
1070
     2
1070
   279
1070
     2
1070
   280
1070
     0
1070
   287
1070
     5
1070
   340
1005
11B
1002
}
  0
DIMENSION
  5
196
330
1F
100
AcDbEntity
  8
Ｓ_１_１
  6
CONTINUOUS
 62
     2
100
AcDbDimension
  2
*D24
 10
1090.0
 20
1440.0
 30
0.0
 11
990.000000000005
 21
1456.5
 31
0.0
 70
   160
  3
ISO-25
100
AcDbAlignedDimension
 13
890.0000000000098
 23
1280.8
 33
0.0
 14
1090.0
 24
1280.8
 34
0.0
100
AcDbRotatedDimension
1001
ACAD
1000
DSTYLE
1002
{
1070
   270
1070
     2
1070
     6
1000
EX_NORM
1070
     7
1000
EX_NORM
1070
    41
1040
18.0
1070
    42
1040
9.0
1070
    44
1040
6.0
1070
    73
1070
     0
1070
    74
1070
     0
1070
    75
1070
     0
1070
    76
1070
     0
1070
    77
1070
     1
1070
    78
1070
     8
1070
   140
1040
20.77742494226328
1070
   147
1040
0.0
1070
   173
1070
     1
1070
   176
1070
     2
1070
   177
1070
     2
1070
   178
1070
     2
1070
   271
1070
     2
1070
   277
1070
     2
1070
   279
1070
     2
1070
   280
1070
     0
1070
   287
1070
     5
1070
   340
1005
11B
1002
}
  0
DIMENSION
  5
1A3
330
1F
100
AcDbEntity
  8
Ｓ_１_１
  6
CONTINUOUS
 62
     2
100
AcDbDimension
  2
*D25
 10
539.99999999999
 20
1440.0
 30
0.0
 11
564.9999999999903
 21
1456.5
 31
0.0
 70
   160
  3
ISO-25
100
AcDbAlignedDimension
 13
589.99999999999
 23
1280.8
 33
0.0
 14
539.99999999999
 24
1280.0
 34
0.0
100
AcDbRotatedDimension
1001
ACAD
1000
DSTYLE
1002
{
1070
   270
1070
     2
1070
     6
1000
EX_NORM
1070
     7
1000
EX_NORM
1070
    41
1040
18.0
1070
    42
1040
9.0
1070
    44
1040
6.0
1070
    73
1070
     0
1070
    74
1070
     0
1070
    75
1070
     0
1070
    76
1070
     0
1070
    77
1070
     1
1070
    78
1070
     8
1070
   140
1040
20.77742494226328
1070
   147
1040
0.0
1070
   173
1070
     1
1070
   176
1070
     2
1070
   177
1070
     2
1070
   178
1070
     2
1070
   271
1070
     2
1070
   277
1070
     2
1070
   279
1070
     2
1070
   280
1070
     0
1070
   287
1070
     5
1070
   340
1005
11B
1002
}
  0
DIMENSION
  5
1B0
330
1F
100
AcDbEntity
  8
Ｓ_１_１
  6
CONTINUOUS
 62
     2
100
AcDbDimension
  2
*D26
 10
1140.0
 20
1440.0
 30
0.0
 11
1115.0
 21
1456.5
 31
0.0
 70
   160
  3
ISO-25
100
AcDbAlignedDimension
 13
1090.0
 23
1280.8
 33
0.0
 14
1140.0
 24
1280.0
 34
0.0
100
AcDbRotatedDimension
1001
ACAD
1000
DSTYLE
1002
{
1070
   270
1070
     2
1070
     6
1000
EX_NORM
1070
     7
1000
EX_NORM
1070
    41
1040
18.0
1070
    42
1040
9.0
1070
    44
1040
6.0
1070
    73
1070
     0
1070
    74
1070
     0
1070
    75
1070
     0
1070
    76
1070
     0
1070
    77
1070
     1
1070
    78
1070
     8
1070
   140
1040
20.77742494226328
1070
   147
1040
0.0
1070
   173
1070
     1
1070
   176
1070
     2
1070
   177
1070
     2
1070
   178
1070
     2
1070
   271
1070
     2
1070
   277
1070
     2
1070
   279
1070
     2
1070
   280
1070
     0
1070
   287
1070
     5
1070
   340
1005
11B
1002
}
  0
DIMENSION
  5
1BD
330
1F
100
AcDbEntity
  8
Ｓ_１_１
  6
CONTINUOUS
 62
     2
100
AcDbDimension
  2
*D27
 10
1140.0
 20
1480.0
 30
0.0
 11
839.9999999999951
 21
1496.5
 31
0.0
 70
   160
  3
ISO-25
100
AcDbAlignedDimension
 13
539.99999999999
 23
1280.0
 33
0.0
 14
1140.0
 24
1280.0
 34
0.0
100
AcDbRotatedDimension
1001
ACAD
1000
DSTYLE
1002
{
1070
   270
1070
     2
1070
     6
1000
EX_NORM
1070
     7
1000
EX_NORM
1070
    41
1040
18.0
1070
    42
1040
9.0
1070
    44
1040
6.0
1070
    73
1070
     0
1070
    74
1070
     0
1070
    75
1070
     0
1070
    76
1070
     0
1070
    77
1070
     1
1070
    78
1070
     8
1070
   140
1040
20.77742494226328
1070
   147
1040
0.0
1070
   173
1070
     1
1070
   176
1070
     2
1070
   177
1070
     2
1070
   178
1070
     2
1070
   271
1070
     2
1070
   277
1070
     2
1070
   279
1070
     2
1070
   280
1070
     0
1070
   287
1070
     5
1070
   340
1005
11B
1002
}
  0
DIMENSION
  5
1CA
330
1F
100
AcDbEntity
  8
Ｓ_１_１
  6
CONTINUOUS
 62
     2
100
AcDbDimension
  2
*D28
 10
440.0000000000001
 20
1260.0
 30
0.0
 11
423.5000000000003
 21
1160.0
 31
0.0
 70
   160
  3
ISO-25
100
AcDbAlignedDimension
 13
568.8668931961
 23
1060.0
 33
0.0
 14
568.8668931961
 24
1260.0
 34
0.0
 50
90.0
100
AcDbRotatedDimension
1001
ACAD
1000
DSTYLE
1002
{
1070
   270
1070
     2
1070
     6
1000
EX_NORM
1070
     7
1000
EX_NORM
1070
    41
1040
18.0
1070
    42
1040
9.0
1070
    44
1040
6.0
1070
    73
1070
     0
1070
    74
1070
     0
1070
    75
1070
     0
1070
    76
1070
     0
1070
    77
1070
     1
1070
    78
1070
     8
1070
   140
1040
20.77742494226328
1070
   147
1040
0.0
1070
   173
1070
     1
1070
   176
1070
     2
1070
   177
1070
     2
1070
   178
1070
     2
1070
   271
1070
     2
1070
   277
1070
     2
1070
   279
1070
     2
1070
   280
1070
     0
1070
   287
1070
     5
1070
   340
1005
11B
1002
}
  0
DIMENSION
  5
1D7
330
1F
100
AcDbEntity
  8
Ｓ_１_１
  6
CONTINUOUS
 62
     2
100
AcDbDimension
  2
*D29
 10
400.0000000000001
 20
1030.0
 30
0.0
 11
383.5000000000003
 21
1160.0
 31
0.0
 70
   160
  3
ISO-25
100
AcDbAlignedDimension
 13
549.99999999999
 23
1290.0
 33
0.0
 14
549.99999999999
 24
1030.0
 34
0.0
 50
90.0
100
AcDbRotatedDimension
1001
ACAD
1000
DSTYLE
1002
{
1070
   270
1070
     2
1070
     6
1000
EX_NORM
1070
     7
1000
EX_NORM
1070
    41
1040
18.0
1070
    42
1040
9.0
1070
    44
1040
6.0
1070
    73
1070
     0
1070
    74
1070
     0
1070
    75
1070
     0
1070
    76
1070
     0
1070
    77
1070
     1
1070
    78
1070
     8
1070
   140
1040
20.77742494226328
1070
   147
1040
0.0
1070
   173
1070
     1
1070
   176
1070
     2
1070
   177
1070
     2
1070
   178
1070
     2
1070
   271
1070
     2
1070
   277
1070
     2
1070
   279
1070
     2
1070
   280
1070
     0
1070
   287
1070
     5
1070
   340
1005
11B
1002
}
  0
DIMENSION
  5
1E4
330
1F
100
AcDbEntity
  8
Ｓ_１_１
  6
CONTINUOUS
 62
     2
100
AcDbDimension
  2
*D30
 10
1600.0
 20
1440.0
 30
0.0
 11
1517.5
 21
1456.5
 31
0.0
 70
   160
  3
ISO-25
100
AcDbAlignedDimension
 13
1435.0
 23
1348.1331068039
 33
0.0
 14
1600.0
 24
1371.1331068039
 34
0.0
100
AcDbRotatedDimension
1001
ACAD
1000
DSTYLE
1002
{
1070
   270
1070
     2
1070
     6
1000
EX_NORM
1070
     7
1000
EX_NORM
1070
    41
1040
18.0
1070
    42
1040
9.0
1070
    44
1040
6.0
1070
    73
1070
     0
1070
    74
1070
     0
1070
    75
1070
     0
1070
    76
1070
     0
1070
    77
1070
     1
1070
    78
1070
     8
1070
   140
1040
20.77742494226328
1070
   147
1040
0.0
1070
   173
1070
     1
1070
   176
1070
     2
1070
   177
1070
     2
1070
   178
1070
     2
1070
   271
1070
     2
1070
   277
1070
     2
1070
   279
1070
     2
1070
   280
1070
     0
1070
   287
1070
     5
1070
   340
1005
11B
1002
}
  0
DIMENSION
  5
1F1
330
1F
100
AcDbEntity
  8
Ｓ_１_１
  6
CONTINUOUS
 62
     2
100
AcDbDimension
  2
*D31
 10
1765.0
 20
1440.0
 30
0.0
 11
1682.5
 21
1456.5
 31
0.0
 70
   160
  3
ISO-25
100
AcDbAlignedDimension
 13
1600.0
 23
1371.1331068039
 33
0.0
 14
1765.0
 24
1348.1331068039
 34
0.0
100
AcDbRotatedDimension
1001
ACAD
1000
DSTYLE
1002
{
1070
   270
1070
     2
1070
     6
1000
EX_NORM
1070
     7
1000
EX_NORM
1070
    41
1040
18.0
1070
    42
1040
9.0
1070
    44
1040
6.0
1070
    73
1070
     0
1070
    74
1070
     0
1070
    75
1070
     0
1070
    76
1070
     0
1070
    77
1070
     1
1070
    78
1070
     8
1070
   140
1040
20.77742494226328
1070
   147
1040
0.0
1070
   173
1070
     1
1070
   176
1070
     2
1070
   177
1070
     2
1070
   178
1070
     2
1070
   271
1070
     2
1070
   277
1070
     2
1070
   279
1070
     2
1070
   280
1070
     0
1070
   287
1070
     5
1070
   340
1005
11B
1002
}
  0
DIMENSION
  5
1FE
330
1F
100
AcDbEntity
  8
Ｓ_１_１
  6
CONTINUOUS
 62
     2
100
AcDbDimension
  2
*D32
 10
1800.0
 20
1480.0
 30
0.0
 11
1600.0
 21
1496.5
 31
0.0
 70
   160
  3
ISO-25
100
AcDbAlignedDimension
 13
1400.0
 23
1340.0
 33
0.0
 14
1800.0
 24
1340.0
 34
0.0
100
AcDbRotatedDimension
1001
ACAD
1000
DSTYLE
1002
{
1070
   270
1070
     2
1070
     6
1000
EX_NORM
1070
     7
1000
EX_NORM
1070
    41
1040
18.0
1070
    42
1040
9.0
1070
    44
1040
6.0
1070
    73
1070
     0
1070
    74
1070
     0
1070
    75
1070
     0
1070
    76
1070
     0
1070
    77
1070
     1
1070
    78
1070
     8
1070
   140
1040
20.77742494226328
1070
   147
1040
0.0
1070
   173
1070
     1
1070
   176
1070
     2
1070
   177
1070
     2
1070
   178
1070
     2
1070
   271
1070
     2
1070
   277
1070
     2
1070
   279
1070
     2
1070
   280
1070
     0
1070
   287
1070
     5
1070
   340
1005
11B
1002
}
  0
DIMENSION
  5
20B
330
1F
100
AcDbEntity
  8
Ｓ_１_１
  6
CONTINUOUS
 62
     2
100
AcDbDimension
  2
*D33
 10
1320.0
 20
1325.0
 30
0.0
 11
1303.5
 21
1242.5
 31
0.0
 70
   160
  3
ISO-25
100
AcDbAlignedDimension
 13
1391.0
 23
1160.0
 33
0.0
 14
1410.5
 24
1325.0
 34
0.0
 50
90.0
100
AcDbRotatedDimension
1001
ACAD
1000
DSTYLE
1002
{
1070
   270
1070
     2
1070
     6
1000
EX_NORM
1070
     7
1000
EX_NORM
1070
    41
1040
18.0
1070
    42
1040
9.0
1070
    44
1040
6.0
1070
    73
1070
     0
1070
    74
1070
     0
1070
    75
1070
     0
1070
    76
1070
     0
1070
    77
1070
     1
1070
    78
1070
     8
1070
   140
1040
20.77742494226328
1070
   147
1040
0.0
1070
   173
1070
     1
1070
   176
1070
     2
1070
   177
1070
     2
1070
   178
1070
     2
1070
   271
1070
     2
1070
   277
1070
     2
1070
   279
1070
     2
1070
   280
1070
     0
1070
   287
1070
     5
1070
   340
1005
11B
1002
}
  0
DIMENSION
  5
218
330
1F
100
AcDbEntity
  8
Ｓ_１_１
  6
CONTINUOUS
 62
     2
100
AcDbDimension
  2
*D34
 10
1320.0
 20
995.00000000004
 30
0.0
 11
1303.5
 21
1077.50000000002
 31
0.0
 70
   160
  3
ISO-25
100
AcDbAlignedDimension
 13
1391.0
 23
1160.0
 33
0.0
 14
1410.5
 24
995.00000000004
 34
0.0
 50
90.0
100
AcDbRotatedDimension
1001
ACAD
1000
DSTYLE
1002
{
1070
   270
1070
     2
1070
     6
1000
EX_NORM
1070
     7
1000
EX_NORM
1070
    41
1040
18.0
1070
    42
1040
9.0
1070
    44
1040
6.0
1070
    73
1070
     0
1070
    74
1070
     0
1070
    75
1070
     0
1070
    76
1070
     0
1070
    77
1070
     1
1070
    78
1070
     8
1070
   140
1040
20.77742494226328
1070
   147
1040
0.0
1070
   173
1070
     1
1070
   176
1070
     2
1070
   177
1070
     2
1070
   178
1070
     2
1070
   271
1070
     2
1070
   277
1070
     2
1070
   279
1070
     2
1070
   280
1070
     0
1070
   287
1070
     5
1070
   340
1005
11B
1002
}
  0
DIMENSION
  5
225
330
1F
100
AcDbEntity
  8
Ｓ_１_１
  6
CONTINUOUS
 62
     2
100
AcDbDimension
  2
*D35
 10
1280.0
 20
1360.0
 30
0.0
 11
1263.5
 21
1160.00000000002
 31
0.0
 70
   160
  3
ISO-25
100
AcDbAlignedDimension
 13
1420.0
 23
960.0000000000399
 33
0.0
 14
1420.0
 24
1360.0
 34
0.0
 50
90.0
100
AcDbRotatedDimension
1001
ACAD
1000
DSTYLE
1002
{
1070
   270
1070
     2
1070
     6
1000
EX_NORM
1070
     7
1000
EX_NORM
1070
    41
1040
18.0
1070
    42
1040
9.0
1070
    44
1040
6.0
1070
    73
1070
     0
1070
    74
1070
     0
1070
    75
1070
     0
1070
    76
1070
     0
1070
    77
1070
     1
1070
    78
1070
     8
1070
   140
1040
20.77742494226328
1070
   147
1040
0.0
1070
   173
1070
     1
1070
   176
1070
     2
1070
   177
1070
     2
1070
   178
1070
     2
1070
   271
1070
     2
1070
   277
1070
     2
1070
   279
1070
     2
1070
   280
1070
     0
1070
   287
1070
     5
1070
   340
1005
11B
1002
}
  0
DIMENSION
  5
232
330
1F
100
AcDbEntity
  8
Ｓ_１_１
  6
CONTINUOUS
 62
     2
100
AcDbDimension
  2
*D36
 10
1815.0
 20
880.0
 30
0.0
 11
1600.0
 21
896.5
 31
0.0
 70
   160
  3
ISO-25
100
AcDbAlignedDimension
 13
1385.0
 23
694.0
 33
0.0
 14
1815.0
 24
694.0
 34
0.0
100
AcDbRotatedDimension
1001
ACAD
1000
DSTYLE
1002
{
1070
   270
1070
     2
1070
     6
1000
EX_NORM
1070
     7
1000
EX_NORM
1070
    41
1040
18.0
1070
    42
1040
9.0
1070
    44
1040
6.0
1070
    73
1070
     0
1070
    74
1070
     0
1070
    75
1070
     0
1070
    76
1070
     0
1070
    77
1070
     1
1070
    78
1070
     8
1070
   140
1040
20.77742494226328
1070
   147
1040
0.0
1070
   173
1070
     1
1070
   176
1070
     2
1070
   177
1070
     2
1070
   178
1070
     2
1070
   271
1070
     2
1070
   277
1070
     2
1070
   279
1070
     2
1070
   280
1070
     0
1070
   287
1070
     5
1070
   340
1005
11B
1002
}
  0
DIMENSION
  5
23F
330
1F
100
AcDbEntity
  8
Ｓ_１_１
  6
CONTINUOUS
 62
     2
100
AcDbDimension
  2
*D37
 10
1775.0
 20
840.0
 30
0.0
 11
1600.0
 21
856.5
 31
0.0
 70
   160
  3
ISO-25
100
AcDbAlignedDimension
 13
1425.0
 23
724.0
 33
0.0
 14
1775.0
 24
724.0
 34
0.0
100
AcDbRotatedDimension
1001
ACAD
1000
DSTYLE
1002
{
1070
   270
1070
     2
1070
     6
1000
EX_NORM
1070
     7
1000
EX_NORM
1070
    41
1040
18.0
1070
    42
1040
9.0
1070
    44
1040
6.0
1070
    73
1070
     0
1070
    74
1070
     0
1070
    75
1070
     0
1070
    76
1070
     0
1070
    77
1070
     1
1070
    78
1070
     8
1070
   140
1040
20.77742494226328
1070
   147
1040
0.0
1070
   173
1070
     1
1070
   176
1070
     2
1070
   177
1070
     2
1070
   178
1070
     2
1070
   271
1070
     2
1070
   277
1070
     2
1070
   279
1070
     2
1070
   280
1070
     0
1070
   287
1070
     5
1070
   340
1005
11B
1002
}
  0
DIMENSION
  5
24C
330
1F
100
AcDbEntity
  8
Ｓ_１_１
  6
CONTINUOUS
 62
     2
100
AcDbDimension
  2
*D38
 10
1757.679491924313
 20
703.9999999999944
 30
0.0
 11
1838.242613140316
 21
676.5394191624441
 31
0.0
 70
   163
  1
　%%c40
  3
ISO-25
100
AcDbDiametricDimension
 15
1792.320508075692
 25
683.9999999999975
 35
0.0
 40
0.0
1001
ACAD
1000
DSTYLE
1002
{
1070
   270
1070
     2
1070
     6
1000
EX_NORM
1070
     7
1000
EX_NORM
1070
    41
1040
18.0
1070
    73
1070
     0
1070
    74
1070
     0
1070
    77
1070
     1
1070
    78
1070
     8
1070
   140
1040
20.77742494226328
1070
   147
1040
0.0
1070
   173
1070
     1
1070
   176
1070
     2
1070
   177
1070
     2
1070
   178
1070
     2
1070
   271
1070
     2
1070
   277
1070
     2
1070
   279
1070
     2
1070
   280
1070
     1
1070
   287
1070
     5
1070
   340
1005
11B
1002
}
  0
TEXT
  5
257
330
1F
100
AcDbEntity
  8
Ｓ_１_１
  6
CONTINUOUS
 62
     4
100
AcDbText
 10
1067.36633283866
 20
447.5519095916001
 30
0.0
 40
20.77742494226328
  1
球面回転ヘッド
 41
0.9992307692307688
  7
EXCADTTF1
 72
     5
 11
1256.36633283866
 21
447.5519095916001
 31
0.0
100
AcDbText
  0
LEADER
  5
258
330
1F
100
AcDbEntity
  8
Ｓ_１_１
  6
CONTINUOUS
 62
     2
100
AcDbLeader
  3
ISO-25
 76
     3
 10
885.0118003876295
 20
535.2299216907859
 30
0.0
 10
1048.64710488276
 20
440.7550345916001
 30
0.0
 10
1256.36633283866
 20
440.7550345916001
 30
0.0
1001
ACAD
1000
DSTYLE
1002
{
1070
     5
1000
EX_NORM
1070
    41
1040
18.0
1070
   341
1005
7C
1002
}
  0
TEXT
  5
259
330
1F
100
AcDbEntity
  8
Ｓ_１_１
  6
CONTINUOUS
 62
     4
100
AcDbText
 10
1085.6
 20
318.3161313912901
 30
0.0
 40
20.77742494226328
  1
安定架台
 41
0.999230769230769
  7
EXCADTTF1
 72
     5
 11
1193.6
 21
318.3161313912901
 31
0.0
100
AcDbText
  0
LEADER
  5
25A
330
1F
100
AcDbEntity
  8
Ｓ_１_１
  6
CONTINUOUS
 62
     2
100
AcDbLeader
  3
ISO-25
 76
     3
 10
1030.0614872175
 20
265.20000000004
 30
0.0
 10
1076.3807436088
 20
311.5192563912901
 30
0.0
 10
1193.6
 20
311.5192563912901
 30
0.0
1001
ACAD
1000
DSTYLE
1002
{
1070
     5
1000
EX_NORM
1070
    41
1040
18.0
1070
   341
1005
7C
1002
}
  0
TEXT
  5
25B
330
1F
100
AcDbEntity
  8
Ｓ_１_１
  6
CONTINUOUS
 62
     4
100
AcDbText
 10
998.0
 20
809.5078331933599
 30
0.0
 40
20.77742494226328
  1
角ヘッド
 41
0.999230769230769
  7
EXCADTTF1
 72
     5
 11
1106.0
 21
809.5078331933599
 31
0.0
100
AcDbText
  0
LEADER
  5
25C
330
1F
100
AcDbEntity
  8
Ｓ_１_１
  6
CONTINUOUS
 62
     2
100
AcDbLeader
  3
ISO-25
 76
     3
 10
959.6
 20
750.0
 30
0.0
 10
990.0326859021999
 20
802.7109581933599
 30
0.0
 10
1106.0
 20
802.7109581933599
 30
0.0
1001
ACAD
1000
DSTYLE
1002
{
1070
     5
1000
EX_NORM
1070
    41
1040
18.0
1070
   341
1005
7C
1002
}
  0
LINE
  5
25D
330
1F
100
AcDbEntity
  8
Ｓ_１_１
  6
EXLTYPE6
 62
     1
100
AcDbLine
 10
839.9999999999997
 20
1371.13310680393
 30
0.0
 11
839.9999999999997
 21
949.1331068039298
 31
0.0
  0
LINE
  5
25E
330
1F
100
AcDbEntity
  8
Ｓ_１_１
  6
CONTINUOUS
 62
     3
100
AcDbLine
 10
942.8038475773061
 20
969.9385127825935
 30
0.0
 11
953.1961524227205
 21
975.9385127825935
 31
0.0
  0
LINE
  5
25F
330
1F
100
AcDbEntity
  8
Ｓ_１_１
  6
CONTINUOUS
 62
     3
100
AcDbLine
 10
737.1961524226915
 20
969.9385127825935
 30
0.0
 11
726.8038475772789
 21
975.9385127825935
 31
0.0
  0
LINE
  5
260
330
1F
100
AcDbEntity
  8
Ｓ_１_１
  6
CONTINUOUS
 62
     3
100
AcDbLine
 10
942.8038475773061
 20
1350.061487217487
 30
0.0
 11
953.1961524227205
 21
1344.061487217487
 31
0.0
  0
LINE
  5
261
330
1F
100
AcDbEntity
  8
Ｓ_１_１
  6
CONTINUOUS
 62
     3
100
AcDbLine
 10
737.1961524226915
 20
1350.061487217487
 30
0.0
 11
726.8038475772789
 21
1344.061487217487
 31
0.0
  0
LINE
  5
262
330
1F
100
AcDbEntity
  8
Ｓ_１_１
  6
CONTINUOUS
 62
     3
100
AcDbLine
 10
1020.0
 20
1360.00000000004
 30
0.0
 11
1040.0
 21
1340.00000000004
 31
0.0
  0
LINE
  5
263
330
1F
100
AcDbEntity
  8
Ｓ_１_１
  6
EXLTYPE6
 62
     1
100
AcDbLine
 10
1005.0
 20
1348.13310680393
 30
0.0
 11
1005.0
 21
1300.63310680393
 31
0.0
  0
LINE
  5
264
330
1F
100
AcDbEntity
  8
Ｓ_１_１
  6
CONTINUOUS
 62
     3
100
AcDbLine
 10
1020.0
 20
960.0000000000399
 30
0.0
 11
1040.0
 21
980.00000000004
 31
0.0
  0
LINE
  5
265
330
1F
100
AcDbEntity
  8
Ｓ_１_１
  6
EXLTYPE6
 62
     1
100
AcDbLine
 10
1005.0
 20
971.8668931961502
 30
0.0
 11
1005.0
 21
1019.36689319615
 31
0.0
  0
LINE
  5
266
330
1F
100
AcDbEntity
  8
Ｓ_１_１
  6
CONTINUOUS
 62
     3
100
AcDbLine
 10
659.9999999999998
 20
1360.00000000004
 30
0.0
 11
639.9999999999998
 21
1340.00000000004
 31
0.0
  0
LINE
  5
267
330
1F
100
AcDbEntity
  8
Ｓ_１_１
  6
EXLTYPE6
 62
     1
100
AcDbLine
 10
674.9999999999998
 20
1348.13310680393
 30
0.0
 11
674.9999999999998
 21
1300.63310680393
 31
0.0
  0
LINE
  5
268
330
1F
100
AcDbEntity
  8
Ｓ_１_１
  6
CONTINUOUS
 62
     3
100
AcDbLine
 10
659.9999999999998
 20
960.0000000000399
 30
0.0
 11
639.9999999999998
 21
980.00000000004
 31
0.0
  0
LINE
  5
269
330
1F
100
AcDbEntity
  8
Ｓ_１_１
  6
EXLTYPE6
 62
     1
100
AcDbLine
 10
674.9999999999998
 20
971.8668931961502
 30
0.0
 11
674.9999999999998
 21
1019.36689319615
 31
0.0
  0
CIRCLE
  5
26A
330
1F
100
AcDbEntity
  8
Ｓ_１_１
  6
CONTINUOUS
 62
     3
100
AcDbCircle
 10
839.9999999999997
 20
1325.00000000004
 30
0.0
 40
13.0
  0
LINE
  5
26B
330
1F
100
AcDbEntity
  8
Ｓ_１_１
  6
EXLTYPE6
 62
     1
100
AcDbLine
 10
863.4999999999998
 20
1325.00000000004
 30
0.0
 11
815.4999999999998
 21
1325.00000000004
 31
0.0
  0
LINE
  5
26C
330
1F
100
AcDbEntity
  8
Ｓ_１_１
  6
CONTINUOUS
 62
     3
100
AcDbLine
 10
742.1961524226915
 20
1341.401233179642
 30
0.0
 11
731.8038475772789
 21
1335.401233179642
 31
0.0
  0
LINE
  5
26D
330
1F
100
AcDbEntity
  8
Ｓ_１_１
  6
CONTINUOUS
 62
     3
100
AcDbLine
 10
824.5001602172886
 20
992.1380615234575
 30
0.0
 11
838.2498550415073
 21
992.1380615234575
 31
0.0
  0
LINE
  5
26E
330
1F
100
AcDbEntity
  8
Ｓ_１_１
  6
CONTINUOUS
 62
     3
100
AcDbLine
 10
827.9990005493197
 20
999.6377563476743
 30
0.0
 11
851.999549865726
 21
999.6377563476743
 31
0.0
  0
LINE
  5
26F
330
1F
100
AcDbEntity
  8
Ｓ_１_１
  6
CONTINUOUS
 62
     3
100
AcDbLine
 10
827.9990005493197
 20
1014.637908935566
 30
0.0
 11
851.999549865726
 21
1014.637908935566
 31
0.0
  0
LINE
  5
270
330
1F
100
AcDbEntity
  8
Ｓ_１_１
  6
CONTINUOUS
 62
     3
100
AcDbLine
 10
852.9990005493198
 20
992.1380615234575
 30
0.0
 11
852.9990005493198
 21
999.0602111816597
 31
0.0
  0
LINE
  5
271
330
1F
100
AcDbEntity
  8
Ｓ_１_１
  6
CONTINUOUS
 62
     3
100
AcDbLine
 10
851.999549865726
 20
964.6379089355659
 30
0.0
 11
851.999549865726
 21
965.1375961303902
 31
0.0
  0
LINE
  5
272
330
1F
100
AcDbEntity
  8
Ｓ_１_１
  6
CONTINUOUS
 62
     3
100
AcDbLine
 10
826.9995498657261
 20
992.1380615234575
 30
0.0
 11
826.9995498657261
 21
999.0602111816597
 31
0.0
  0
LINE
  5
273
330
1F
100
AcDbEntity
  8
Ｓ_１_１
  6
CONTINUOUS
 62
     3
100
AcDbLine
 10
827.9990005493197
 20
964.6379089355659
 30
0.0
 11
851.999549865726
 21
964.6379089355659
 31
0.0
  0
LINE
  5
274
330
1F
100
AcDbEntity
  8
Ｓ_１_１
  6
CONTINUOUS
 62
     3
100
AcDbLine
 10
826.9995498657261
 20
1015.215415954609
 30
0.0
 11
826.9995498657261
 21
1026.560363769549
 31
0.0
  0
LINE
  5
275
330
1F
100
AcDbEntity
  8
Ｓ_１_１
  6
CONTINUOUS
 62
     3
100
AcDbLine
 10
855.4999160766636
 20
976.1376953125191
 30
0.0
 11
855.4999160766636
 21
984.1378402710151
 31
0.0
  0
LINE
  5
276
330
1F
100
AcDbEntity
  8
Ｓ_１_１
  6
CONTINUOUS
 62
     3
100
AcDbLine
 10
824.5001602172886
 20
976.1376953125191
 30
0.0
 11
824.5001602172886
 21
984.1378402710151
 31
0.0
  0
LINE
  5
277
330
1F
100
AcDbEntity
  8
Ｓ_１_１
  6
CONTINUOUS
 62
     3
100
AcDbLine
 10
852.9990005493198
 20
965.1375961303902
 30
0.0
 11
856.0004043579135
 21
968.1375122070494
 31
0.0
  0
LINE
  5
278
330
1F
100
AcDbEntity
  8
Ｓ_１_１
  6
CONTINUOUS
 62
     3
100
AcDbLine
 10
824.5001602172886
 20
984.1378402710151
 30
0.0
 11
855.4999160766636
 21
984.1378402710151
 31
0.0
  0
LINE
  5
279
330
1F
100
AcDbEntity
  8
Ｓ_１_１
  6
CONTINUOUS
 62
     3
100
AcDbLine
 10
855.4999160766636
 20
976.1376953125191
 30
0.0
 11
856.0004043579135
 21
975.6380081176949
 31
0.0
  0
LINE
  5
27A
330
1F
100
AcDbEntity
  8
Ｓ_１_１
  6
CONTINUOUS
 62
     3
100
AcDbLine
 10
823.9996719360386
 20
984.6376037597846
 30
0.0
 11
824.5001602172886
 21
984.1378402710151
 31
0.0
  0
LINE
  5
27B
330
1F
100
AcDbEntity
  8
Ｓ_１_１
  6
CONTINUOUS
 62
     3
100
AcDbLine
 10
824.5001602172886
 20
976.1376953125191
 30
0.0
 11
855.4999160766636
 21
976.1376953125191
 31
0.0
  0
LINE
  5
27C
330
1F
100
AcDbEntity
  8
Ｓ_１_１
  6
CONTINUOUS
 62
     3
100
AcDbLine
 10
856.0004043579135
 20
968.1375122070494
 30
0.0
 11
856.0004043579135
 21
975.6380081176949
 31
0.0
  0
LINE
  5
27D
330
1F
100
AcDbEntity
  8
Ｓ_１_１
  6
CONTINUOUS
 62
     3
100
AcDbLine
 10
823.9996719360386
 20
968.1375122070494
 30
0.0
 11
823.9996719360386
 21
975.6380081176949
 31
0.0
  0
LINE
  5
27E
330
1F
100
AcDbEntity
  8
Ｓ_１_１
  6
CONTINUOUS
 62
     3
100
AcDbLine
 10
852.9990005493198
 20
1015.215415954609
 30
0.0
 11
852.9990005493198
 21
1026.560363769549
 31
0.0
  0
LINE
  5
27F
330
1F
100
AcDbEntity
  8
Ｓ_１_１
  6
CONTINUOUS
 62
     3
100
AcDbLine
 10
826.9995498657261
 20
965.1375961303902
 30
0.0
 11
852.9990005493198
 21
965.1375961303902
 31
0.0
  0
LINE
  5
280
330
1F
100
AcDbEntity
  8
Ｓ_１_１
  6
CONTINUOUS
 62
     3
100
AcDbLine
 10
827.9990005493197
 20
999.6377563476743
 30
0.0
 11
827.9990005493197
 21
1014.637908935566
 31
0.0
  0
LINE
  5
281
330
1F
100
AcDbEntity
  8
Ｓ_１_１
  6
CONTINUOUS
 62
     3
100
AcDbLine
 10
851.999549865726
 20
999.6377563476743
 30
0.0
 11
851.999549865726
 21
1014.637908935566
 31
0.0
  0
LINE
  5
282
330
1F
100
AcDbEntity
  8
Ｓ_１_１
  6
CONTINUOUS
 62
     3
100
AcDbLine
 10
845.0003051757847
 20
1026.560363769549
 30
0.0
 11
852.9990005493198
 21
1026.560363769549
 31
0.0
  0
LINE
  5
283
330
1F
100
AcDbEntity
  8
Ｓ_１_１
  6
CONTINUOUS
 62
     3
100
AcDbLine
 10
845.0003051757847
 20
1015.215415954609
 30
0.0
 11
852.9990005493198
 21
1015.215415954609
 31
0.0
  0
LINE
  5
284
330
1F
100
AcDbEntity
  8
Ｓ_１_１
  6
CONTINUOUS
 62
     3
100
AcDbLine
 10
826.9995498657261
 20
1026.560363769549
 30
0.0
 11
834.9996566772495
 21
1026.560363769549
 31
0.0
  0
LINE
  5
285
330
1F
100
AcDbEntity
  8
Ｓ_１_１
  6
CONTINUOUS
 62
     3
100
AcDbLine
 10
827.9990005493197
 20
1027.137908935566
 30
0.0
 11
851.999549865726
 21
1027.137908935566
 31
0.0
  0
LINE
  5
286
330
1F
100
AcDbEntity
  8
Ｓ_１_１
  6
CONTINUOUS
 62
     3
100
AcDbLine
 10
826.9995498657261
 20
1026.560363769549
 30
0.0
 11
827.9990005493197
 21
1027.137908935566
 31
0.0
  0
LINE
  5
287
330
1F
100
AcDbEntity
  8
Ｓ_１_１
  6
CONTINUOUS
 62
     3
100
AcDbLine
 10
851.999549865726
 20
999.6377563476743
 30
0.0
 11
852.9990005493198
 21
999.0602111816597
 31
0.0
  0
LINE
  5
288
330
1F
100
AcDbEntity
  8
Ｓ_１_１
  6
CONTINUOUS
 62
     3
100
AcDbLine
 10
826.9995498657261
 20
1015.215415954609
 30
0.0
 11
827.9990005493197
 21
1014.637908935566
 31
0.0
  0
LINE
  5
289
330
1F
100
AcDbEntity
  8
Ｓ_１_１
  6
CONTINUOUS
 62
     3
100
AcDbLine
 10
851.999549865726
 20
1014.637908935566
 30
0.0
 11
852.9990005493198
 21
1015.215415954609
 31
0.0
  0
LINE
  5
28A
330
1F
100
AcDbEntity
  8
Ｓ_１_１
  6
CONTINUOUS
 62
     3
100
AcDbLine
 10
826.9995498657261
 20
1015.215415954609
 30
0.0
 11
834.9996566772495
 21
1015.215415954609
 31
0.0
  0
LINE
  5
28B
330
1F
100
AcDbEntity
  8
Ｓ_１_１
  6
CONTINUOUS
 62
     3
100
AcDbLine
 10
826.9995498657261
 20
999.0602111816597
 30
0.0
 11
852.9990005493198
 21
999.0602111816597
 31
0.0
  0
LINE
  5
28C
330
1F
100
AcDbEntity
  8
Ｓ_１_１
  6
CONTINUOUS
 62
     3
100
AcDbLine
 10
826.9995498657261
 20
999.0602111816597
 30
0.0
 11
827.9990005493197
 21
999.6377563476743
 31
0.0
  0
LINE
  5
28D
330
1F
100
AcDbEntity
  8
Ｓ_１_１
  6
CONTINUOUS
 62
     3
100
AcDbLine
 10
851.999549865726
 20
1027.137908935566
 30
0.0
 11
852.9990005493198
 21
1026.560363769549
 31
0.0
  0
LINE
  5
28E
330
1F
100
AcDbEntity
  8
Ｓ_１_１
  6
CONTINUOUS
 62
     3
100
AcDbLine
 10
823.9996719360386
 20
968.1375122070494
 30
0.0
 11
856.0004043579135
 21
968.1375122070494
 31
0.0
  0
LINE
  5
28F
330
1F
100
AcDbEntity
  8
Ｓ_１_１
  6
CONTINUOUS
 62
     3
100
AcDbLine
 10
823.9996719360386
 20
975.6380081176949
 30
0.0
 11
856.0004043579135
 21
975.6380081176949
 31
0.0
  0
LINE
  5
290
330
1F
100
AcDbEntity
  8
Ｓ_１_１
  6
CONTINUOUS
 62
     3
100
AcDbLine
 10
823.9996719360386
 20
991.6376113891791
 30
0.0
 11
838.2498550415073
 21
991.6376113891791
 31
0.0
  0
LINE
  5
291
330
1F
100
AcDbEntity
  8
Ｓ_１_１
  6
CONTINUOUS
 62
     3
100
AcDbLine
 10
838.1445312500033
 20
991.6376113891791
 30
0.0
 11
838.2498550415073
 21
991.4559555053902
 31
0.0
  0
LINE
  5
292
330
1F
100
AcDbEntity
  8
Ｓ_１_１
  6
CONTINUOUS
 62
     3
100
AcDbLine
 10
824.9991226196323
 20
995.1379394531441
 30
0.0
 11
826.9995498657261
 21
995.1379394531441
 31
0.0
  0
LINE
  5
293
330
1F
100
AcDbEntity
  8
Ｓ_１_１
  6
CONTINUOUS
 62
     3
100
AcDbLine
 10
824.5001602172886
 20
993.6380004882994
 30
0.0
 11
824.5001602172886
 21
994.637451171894
 31
0.0
  0
LINE
  5
294
330
1F
100
AcDbEntity
  8
Ｓ_１_１
  6
CONTINUOUS
 62
     3
100
AcDbLine
 10
855.4999160766636
 20
993.6380004882994
 30
0.0
 11
855.4999160766636
 21
994.637451171894
 31
0.0
  0
LINE
  5
295
330
1F
100
AcDbEntity
  8
Ｓ_１_１
  6
CONTINUOUS
 62
     3
100
AcDbLine
 10
823.9996719360386
 20
984.6376037597846
 30
0.0
 11
823.9996719360386
 21
991.6376113891791
 31
0.0
  0
LINE
  5
296
330
1F
100
AcDbEntity
  8
Ｓ_１_１
  6
CONTINUOUS
 62
     3
100
AcDbLine
 10
823.9996719360386
 20
975.6380081176949
 30
0.0
 11
824.5001602172886
 21
976.1376953125191
 31
0.0
  0
LINE
  5
297
330
1F
100
AcDbEntity
  8
Ｓ_１_１
  6
CONTINUOUS
 62
     3
100
AcDbLine
 10
855.4999160766636
 20
984.1378402710151
 30
0.0
 11
856.0004043579135
 21
984.6376037597846
 31
0.0
  0
LINE
  5
298
330
1F
100
AcDbEntity
  8
Ｓ_１_１
  6
CONTINUOUS
 62
     3
100
AcDbLine
 10
856.0004043579135
 20
984.6376037597846
 30
0.0
 11
856.0004043579135
 21
991.6376113891791
 31
0.0
  0
LINE
  5
299
330
1F
100
AcDbEntity
  8
Ｓ_１_１
  6
CONTINUOUS
 62
     3
100
AcDbLine
 10
856.0004043579135
 20
984.6376037597846
 30
0.0
 11
823.9996719360386
 21
984.6376037597846
 31
0.0
  0
LINE
  5
29A
330
1F
100
AcDbEntity
  8
Ｓ_１_１
  6
CONTINUOUS
 62
     3
100
AcDbLine
 10
855.4999160766636
 20
992.1380615234575
 30
0.0
 11
856.0004043579135
 21
991.6376113891791
 31
0.0
  0
LINE
  5
29B
330
1F
100
AcDbEntity
  8
Ｓ_１_１
  6
CONTINUOUS
 62
     3
100
AcDbLine
 10
823.9996719360386
 20
991.6376113891791
 30
0.0
 11
824.5001602172886
 21
992.1380615234575
 31
0.0
  0
LINE
  5
29C
330
1F
100
AcDbEntity
  8
Ｓ_１_１
  6
CONTINUOUS
 62
     3
100
AcDbLine
 10
824.9991226196323
 20
993.1375122070493
 30
0.0
 11
826.9995498657261
 21
993.1375122070493
 31
0.0
  0
LINE
  5
29D
330
1F
100
AcDbEntity
  8
Ｓ_１_１
  6
CONTINUOUS
 62
     3
100
AcDbLine
 10
841.7502212524447
 20
992.1380615234575
 30
0.0
 11
855.4999160766636
 21
992.1380615234575
 31
0.0
  0
LINE
  5
29E
330
1F
100
AcDbEntity
  8
Ｓ_１_１
  6
CONTINUOUS
 62
     3
100
AcDbLine
 10
838.2498550415073
 20
988.6376953125191
 30
0.0
 11
841.7502212524447
 21
988.6376953125191
 31
0.0
  0
LINE
  5
29F
330
1F
100
AcDbEntity
  8
Ｓ_１_１
  6
CONTINUOUS
 62
     3
100
AcDbLine
 10
838.2498550415073
 20
988.6376953125191
 30
0.0
 11
838.2498550415073
 21
992.1380615234575
 31
0.0
  0
LINE
  5
2A0
330
1F
100
AcDbEntity
  8
Ｓ_１_１
  6
CONTINUOUS
 62
     3
100
AcDbLine
 10
841.7502212524447
 20
991.6376113891791
 30
0.0
 11
856.0004043579135
 21
991.6376113891791
 31
0.0
  0
LINE
  5
2A1
330
1F
100
AcDbEntity
  8
Ｓ_１_１
  6
CONTINUOUS
 62
     3
100
AcDbLine
 10
845.0003051757847
 20
1015.215415954609
 30
0.0
 11
845.0003051757847
 21
1026.560363769549
 31
0.0
  0
LINE
  5
2A2
330
1F
100
AcDbEntity
  8
Ｓ_１_１
  6
CONTINUOUS
 62
     3
100
AcDbLine
 10
834.9996566772495
 20
1015.215415954609
 30
0.0
 11
834.9996566772495
 21
1026.560363769549
 31
0.0
  0
LINE
  5
2A3
330
1F
100
AcDbEntity
  8
Ｓ_１_１
  6
CONTINUOUS
 62
     3
100
AcDbLine
 10
841.7502212524447
 20
991.4559555053902
 30
0.0
 11
841.8539810180698
 21
991.6376113891791
 31
0.0
  0
LINE
  5
2A4
330
1F
100
AcDbEntity
  8
Ｓ_１_１
  6
CONTINUOUS
 62
     3
100
AcDbLine
 10
854.9994659423862
 20
993.1375122070493
 30
0.0
 11
855.4999160766636
 21
993.6380004882994
 31
0.0
  0
LINE
  5
2A5
330
1F
100
AcDbEntity
  8
Ｓ_１_１
  6
CONTINUOUS
 62
     3
100
AcDbLine
 10
852.9990005493198
 20
995.1379394531441
 30
0.0
 11
854.9994659423862
 21
995.1379394531441
 31
0.0
  0
LINE
  5
2A6
330
1F
100
AcDbEntity
  8
Ｓ_１_１
  6
CONTINUOUS
 62
     3
100
AcDbLine
 10
852.9990005493198
 20
993.1375122070493
 30
0.0
 11
854.9994659423862
 21
993.1375122070493
 31
0.0
  0
LINE
  5
2A7
330
1F
100
AcDbEntity
  8
Ｓ_１_１
  6
CONTINUOUS
 62
     3
100
AcDbLine
 10
854.9994659423862
 20
995.1379394531441
 30
0.0
 11
855.4999160766636
 21
994.637451171894
 31
0.0
  0
LINE
  5
2A8
330
1F
100
AcDbEntity
  8
Ｓ_１_１
  6
CONTINUOUS
 62
     3
100
AcDbLine
 10
841.7502212524447
 20
988.6376953125191
 30
0.0
 11
841.7502212524447
 21
992.1380615234575
 31
0.0
  0
LINE
  5
2A9
330
1F
100
AcDbEntity
  8
Ｓ_１_１
  6
CONTINUOUS
 62
     3
100
AcDbLine
 10
824.5001602172886
 20
994.637451171894
 30
0.0
 11
824.9991226196323
 21
995.1379394531441
 31
0.0
  0
LINE
  5
2AA
330
1F
100
AcDbEntity
  8
Ｓ_１_１
  6
CONTINUOUS
 62
     3
100
AcDbLine
 10
824.5001602172886
 20
993.6380004882994
 30
0.0
 11
824.9991226196323
 21
993.1375122070493
 31
0.0
  0
ARC
  5
2AB
330
1F
100
AcDbEntity
  8
Ｓ_１_１
  6
CONTINUOUS
 62
     3
100
AcDbCircle
 10
840.0000000000034
 20
1036.576995849628
 30
0.0
 40
21.9394421577454
100
AcDbArc
 50
256.8265073692478
 51
283.173470318952
  0
ARC
  5
2AC
330
1F
100
AcDbEntity
  8
Ｓ_１_１
  6
CONTINUOUS
 62
     3
100
AcDbCircle
 10
840.0000000000034
 20
1005.198097229023
 30
0.0
 40
21.9394421577454
100
AcDbArc
 50
76.82653286877199
 51
103.173523139232
  0
LINE
  5
2AD
330
1F
100
AcDbEntity
  8
Ｓ_１_１
  6
CONTINUOUS
 62
     3
100
AcDbLine
 10
827.000999450687
 20
965.1375961303902
 30
0.0
 11
823.9995956420933
 21
968.1375122070494
 31
0.0
  0
LINE
  5
2AE
330
1F
100
AcDbEntity
  8
Ｓ_１_１
  6
CONTINUOUS
 62
     3
100
AcDbLine
 10
828.0004501342808
 20
964.6379089355659
 30
0.0
 11
828.0004501342808
 21
965.1375961303902
 31
0.0
  0
LINE
  5
2AF
330
1F
100
AcDbEntity
  8
Ｓ_１_１
  6
EXLTYPE6
 62
     1
100
AcDbLine
 10
951.0138145284125
 20
967.7184328948179
 30
0.0
 11
912.1687836487123
 21
1035.00000000004
 31
0.0
  0
LINE
  5
2B0
330
1F
100
AcDbEntity
  8
Ｓ_１_１
  6
EXLTYPE7
 62
     2
100
AcDbLine
 10
852.4999999999998
 20
1105.00000000004
 30
0.0
 11
852.4999999999998
 21
1055.00000000004
 31
0.0
  0
LINE
  5
2B1
330
1F
100
AcDbEntity
  8
Ｓ_１_１
  6
EXLTYPE7
 62
     2
100
AcDbLine
 10
827.4999999999998
 20
1105.00000000004
 30
0.0
 11
827.4999999999998
 21
1055.00000000004
 31
0.0
  0
LINE
  5
2B2
330
1F
100
AcDbEntity
  8
Ｓ_１_１
  6
EXLTYPE7
 62
     2
100
AcDbLine
 10
827.4999999999998
 20
1055.00000000004
 30
0.0
 11
852.4999999999998
 21
1055.00000000004
 31
0.0
  0
LINE
  5
2B3
330
1F
100
AcDbEntity
  8
Ｓ_１_１
  6
EXLTYPE7
 62
     2
100
AcDbLine
 10
852.4999999999998
 20
1215.00000000004
 30
0.0
 11
852.4999999999998
 21
1265.000000000041
 31
0.0
  0
LINE
  5
2B4
330
1F
100
AcDbEntity
  8
Ｓ_１_１
  6
EXLTYPE7
 62
     2
100
AcDbLine
 10
827.4999999999998
 20
1215.00000000004
 30
0.0
 11
827.4999999999998
 21
1265.000000000041
 31
0.0
  0
LINE
  5
2B5
330
1F
100
AcDbEntity
  8
Ｓ_１_１
  6
EXLTYPE7
 62
     2
100
AcDbLine
 10
827.4999999999998
 20
1265.000000000041
 30
0.0
 11
852.4999999999998
 21
1265.000000000041
 31
0.0
  0
LINE
  5
2B6
330
1F
100
AcDbEntity
  8
Ｓ_１_１
  6
CONTINUOUS
 62
     3
100
AcDbLine
 10
683.9999999999889
 20
945.0000000000399
 30
0.0
 11
695.9999999999889
 21
945.0000000000399
 31
0.0
  0
LINE
  5
2B7
330
1F
100
AcDbEntity
  8
Ｓ_１_１
  6
CONTINUOUS
 62
     3
100
AcDbLine
 10
683.9999999999889
 20
1375.000000000041
 30
0.0
 11
695.9999999999889
 21
1375.000000000041
 31
0.0
  0
ARC
  5
2B8
330
1F
100
AcDbEntity
  8
Ｓ_１_１
  6
CONTINUOUS
 62
     3
100
AcDbCircle
 10
674.9999999999998
 20
1325.00000000004
 30
0.0
 40
13.0
100
AcDbArc
 50
64.8651576805412
 51
283.0037678737102
  0
LINE
  5
2B9
330
1F
100
AcDbEntity
  8
Ｓ_１_１
  6
EXLTYPE6
 62
     1
100
AcDbLine
 10
682.2068931961
 20
1325.00000000004
 30
0.0
 11
650.4999999999998
 21
1325.00000000004
 31
0.0
  0
LINE
  5
2BA
330
1F
100
AcDbEntity
  8
Ｓ_１_１
  6
CONTINUOUS
 62
     3
100
AcDbLine
 10
683.9999999999889
 20
1360.00000000004
 30
0.0
 11
659.9999999999998
 21
1360.00000000004
 31
0.0
  0
ARC
  5
2BB
330
1F
100
AcDbEntity
  8
Ｓ_１_１
  6
CONTINUOUS
 62
     3
100
AcDbCircle
 10
674.9999999999998
 20
995.00000000004
 30
0.0
 40
13.0
100
AcDbArc
 50
61.56300069429335
 51
289.9065804829641
  0
LINE
  5
2BC
330
1F
100
AcDbEntity
  8
Ｓ_１_１
  6
EXLTYPE6
 62
     1
100
AcDbLine
 10
680.0468931961002
 20
995.00000000004
 30
0.0
 11
650.4999999999998
 21
995.00000000004
 31
0.0
  0
LINE
  5
2BD
330
1F
100
AcDbEntity
  8
Ｓ_１_１
  6
CONTINUOUS
 62
     3
100
AcDbLine
 10
659.9999999999998
 20
960.0000000000399
 30
0.0
 11
683.9999999999889
 21
960.0000000000399
 31
0.0
  0
LINE
  5
2BE
330
1F
100
AcDbEntity
  8
Ｓ_１_１
  6
EXLTYPE6
 62
     1
100
AcDbLine
 10
689.9999999999889
 20
938.2000000000297
 30
0.0
 11
689.9999999999889
 21
1381.60000000003
 31
0.0
  0
LINE
  5
2BF
330
1F
100
AcDbEntity
  8
Ｓ_１_１
  6
EXLTYPE6
 62
     1
100
AcDbLine
 10
673.2668931960995
 20
1335.00000000004
 30
0.0
 11
703.8668931960999
 21
1335.00000000004
 31
0.0
  0
LINE
  5
2C0
330
1F
100
AcDbEntity
  8
Ｓ_１_１
  6
CONTINUOUS
 62
     3
100
AcDbLine
 10
996.0000000000106
 20
945.0000000000399
 30
0.0
 11
984.0000000000106
 21
945.0000000000399
 31
0.0
  0
LINE
  5
2C1
330
1F
100
AcDbEntity
  8
Ｓ_１_１
  6
CONTINUOUS
 62
     3
100
AcDbLine
 10
996.0000000000106
 20
1375.00000000004
 30
0.0
 11
984.0000000000106
 21
1375.00000000004
 31
0.0
  0
LINE
  5
2C2
330
1F
100
AcDbEntity
  8
Ｓ_１_１
  6
EXLTYPE6
 62
     1
100
AcDbLine
 10
990.0000000000106
 20
938.2000000000297
 30
0.0
 11
990.0000000000106
 21
1381.600000000029
 31
0.0
  0
LINE
  5
2C3
330
1F
100
AcDbEntity
  8
Ｓ_１_１
  6
EXLTYPE6
 62
     1
100
AcDbLine
 10
1006.7331068039
 20
1335.00000000004
 30
0.0
 11
976.1331068039015
 21
1335.00000000004
 31
0.0
  0
LINE
  5
2C4
330
1F
100
AcDbEntity
  8
Ｓ_１_１
  6
EXLTYPE6
 62
     1
100
AcDbLine
 10
673.2668931960995
 20
985.00000000004
 30
0.0
 11
703.8668931960999
 21
985.00000000004
 31
0.0
  0
LINE
  5
2C5
330
1F
100
AcDbEntity
  8
Ｓ_１_１
  6
EXLTYPE6
 62
     1
100
AcDbLine
 10
1006.733106803902
 20
985.0000000000409
 30
0.0
 11
976.1331068039015
 21
985.0000000000409
 31
0.0
  0
ARC
  5
2C6
330
1F
100
AcDbEntity
  8
Ｓ_１_１
  6
CONTINUOUS
 62
     3
100
AcDbCircle
 10
1005.0
 20
1325.00000000004
 30
0.0
 40
13.0
100
AcDbArc
 50
237.2124701094174
 51
113.564155073402
  0
LINE
  5
2C7
330
1F
100
AcDbEntity
  8
Ｓ_１_１
  6
EXLTYPE6
 62
     1
100
AcDbLine
 10
996.0000000000106
 20
1325.00000000004
 30
0.0
 11
1029.5
 21
1325.00000000004
 31
0.0
  0
ARC
  5
2C8
330
1F
100
AcDbEntity
  8
Ｓ_１_１
  6
CONTINUOUS
 62
     3
100
AcDbCircle
 10
1005.0
 20
995.00000000004
 30
0.0
 40
13.0
100
AcDbArc
 50
239.3090077748401
 51
117.215968507912
  0
LINE
  5
2C9
330
1F
100
AcDbEntity
  8
Ｓ_１_１
  6
EXLTYPE6
 62
     1
100
AcDbLine
 10
994.9868931960988
 20
995.00000000004
 30
0.0
 11
1029.5
 21
995.00000000004
 31
0.0
  0
LINE
  5
2CA
330
1F
100
AcDbEntity
  8
Ｓ_１_１
  6
CONTINUOUS
 62
     3
100
AcDbLine
 10
996.0000000000106
 20
960.0000000000399
 30
0.0
 11
1020.0
 21
960.0000000000399
 31
0.0
  0
LINE
  5
2CB
330
1F
100
AcDbEntity
  8
Ｓ_１_１
  6
CONTINUOUS
 62
     3
100
AcDbLine
 10
695.9999999999889
 20
960.0000000000399
 30
0.0
 11
984.0000000000106
 21
960.0000000000399
 31
0.0
  0
LINE
  5
2CC
330
1F
100
AcDbEntity
  8
Ｓ_１_１
  6
CONTINUOUS
 62
     3
100
AcDbLine
 10
1020.0
 20
1360.00000000004
 30
0.0
 11
996.0000000000106
 21
1360.00000000004
 31
0.0
  0
LINE
  5
2CD
330
1F
100
AcDbEntity
  8
Ｓ_１_１
  6
CONTINUOUS
 62
     3
100
AcDbLine
 10
984.0000000000106
 20
1360.00000000004
 30
0.0
 11
695.9999999999889
 21
1360.00000000004
 31
0.0
  0
CIRCLE
  5
2CE
330
1F
100
AcDbEntity
  8
Ｓ_１_１
  6
CONTINUOUS
 62
     3
100
AcDbCircle
 10
589.9999999999889
 20
1260.00000000003
 30
0.0
 40
13.0
  0
LINE
  5
2CF
330
1F
100
AcDbEntity
  8
Ｓ_１_１
  6
EXLTYPE6
 62
     1
100
AcDbLine
 10
589.9999999999889
 20
1238.20000000003
 30
0.0
 11
589.9999999999889
 21
1280.80000000003
 31
0.0
  0
LINE
  5
2D0
330
1F
100
AcDbEntity
  8
Ｓ_１_１
  6
EXLTYPE6
 62
     1
100
AcDbLine
 10
568.8668931960999
 20
1260.00000000004
 30
0.0
 11
610.2668931960995
 21
1260.00000000004
 31
0.0
  0
CIRCLE
  5
2D1
330
1F
100
AcDbEntity
  8
Ｓ_１_１
  6
CONTINUOUS
 62
     3
100
AcDbCircle
 10
589.9999999999889
 20
1060.000000000051
 30
0.0
 40
13.0
  0
LINE
  5
2D2
330
1F
100
AcDbEntity
  8
Ｓ_１_１
  6
EXLTYPE6
 62
     1
100
AcDbLine
 10
589.9999999999889
 20
1081.80000000005
 30
0.0
 11
589.9999999999889
 21
1039.200000000051
 31
0.0
  0
LINE
  5
2D3
330
1F
100
AcDbEntity
  8
Ｓ_１_１
  6
EXLTYPE6
 62
     1
100
AcDbLine
 10
568.8668931960999
 20
1060.00000000004
 30
0.0
 11
610.2668931960995
 21
1060.00000000004
 31
0.0
  0
CIRCLE
  5
2D4
330
1F
100
AcDbEntity
  8
Ｓ_１_１
  6
CONTINUOUS
 62
     3
100
AcDbCircle
 10
789.9999999999889
 20
1260.00000000003
 30
0.0
 40
13.0
  0
LINE
  5
2D5
330
1F
100
AcDbEntity
  8
Ｓ_１_１
  6
EXLTYPE6
 62
     1
100
AcDbLine
 10
789.9999999999906
 20
1238.20000000003
 30
0.0
 11
789.9999999999906
 21
1280.80000000003
 31
0.0
  0
LINE
  5
2D6
330
1F
100
AcDbEntity
  8
Ｓ_１_１
  6
EXLTYPE6
 62
     1
100
AcDbLine
 10
811.1331068038796
 20
1260.00000000004
 30
0.0
 11
769.73310680388
 21
1260.00000000004
 31
0.0
  0
CIRCLE
  5
2D7
330
1F
100
AcDbEntity
  8
Ｓ_１_１
  6
CONTINUOUS
 62
     3
100
AcDbCircle
 10
789.9999999999889
 20
1060.000000000051
 30
0.0
 40
13.0
  0
LINE
  5
2D8
330
1F
100
AcDbEntity
  8
Ｓ_１_１
  6
EXLTYPE6
 62
     1
100
AcDbLine
 10
789.9999999999889
 20
1081.80000000005
 30
0.0
 11
789.9999999999889
 21
1039.200000000051
 31
0.0
  0
LINE
  5
2D9
330
1F
100
AcDbEntity
  8
Ｓ_１_１
  6
EXLTYPE6
 62
     1
100
AcDbLine
 10
811.1331068038796
 20
1060.00000000004
 30
0.0
 11
769.73310680388
 21
1060.00000000004
 31
0.0
  0
CIRCLE
  5
2DA
330
1F
100
AcDbEntity
  8
Ｓ_１_１
  6
CONTINUOUS
 62
     3
100
AcDbCircle
 10
890.0000000000107
 20
1260.00000000003
 30
0.0
 40
13.0
  0
LINE
  5
2DB
330
1F
100
AcDbEntity
  8
Ｓ_１_１
  6
EXLTYPE6
 62
     1
100
AcDbLine
 10
890.0000000000107
 20
1238.20000000003
 30
0.0
 11
890.0000000000107
 21
1280.80000000003
 31
0.0
  0
LINE
  5
2DC
330
1F
100
AcDbEntity
  8
Ｓ_１_１
  6
EXLTYPE6
 62
     1
100
AcDbLine
 10
868.8668931961199
 20
1260.00000000004
 30
0.0
 11
910.2668931961196
 21
1260.00000000004
 31
0.0
  0
CIRCLE
  5
2DD
330
1F
100
AcDbEntity
  8
Ｓ_１_１
  6
CONTINUOUS
 62
     3
100
AcDbCircle
 10
890.0000000000107
 20
1060.000000000051
 30
0.0
 40
13.0
  0
LINE
  5
2DE
330
1F
100
AcDbEntity
  8
Ｓ_１_１
  6
EXLTYPE6
 62
     1
100
AcDbLine
 10
890.0000000000107
 20
1081.80000000005
 30
0.0
 11
890.0000000000107
 21
1039.20000000005
 31
0.0
  0
LINE
  5
2DF
330
1F
100
AcDbEntity
  8
Ｓ_１_１
  6
EXLTYPE6
 62
     1
100
AcDbLine
 10
868.8668931961199
 20
1060.00000000004
 30
0.0
 11
910.2668931961196
 21
1060.00000000004
 31
0.0
  0
CIRCLE
  5
2E0
330
1F
100
AcDbEntity
  8
Ｓ_１_１
  6
CONTINUOUS
 62
     3
100
AcDbCircle
 10
1090.000000000011
 20
1060.00000000005
 30
0.0
 40
13.0
  0
LINE
  5
2E1
330
1F
100
AcDbEntity
  8
Ｓ_１_１
  6
EXLTYPE6
 62
     1
100
AcDbLine
 10
1090.000000000011
 20
1081.80000000005
 30
0.0
 11
1090.000000000011
 21
1039.20000000005
 31
0.0
  0
LINE
  5
2E2
330
1F
100
AcDbEntity
  8
Ｓ_１_１
  6
EXLTYPE6
 62
     1
100
AcDbLine
 10
1111.1331068039
 20
1060.00000000004
 30
0.0
 11
1069.7331068039
 21
1060.00000000004
 31
0.0
  0
CIRCLE
  5
2E3
330
1F
100
AcDbEntity
  8
Ｓ_１_１
  6
CONTINUOUS
 62
     3
100
AcDbCircle
 10
1090.000000000011
 20
1260.000000000029
 30
0.0
 40
13.0
  0
LINE
  5
2E4
330
1F
100
AcDbEntity
  8
Ｓ_１_１
  6
EXLTYPE6
 62
     1
100
AcDbLine
 10
1090.000000000011
 20
1238.20000000003
 30
0.0
 11
1090.000000000011
 21
1280.800000000029
 31
0.0
  0
LINE
  5
2E5
330
1F
100
AcDbEntity
  8
Ｓ_１_１
  6
EXLTYPE6
 62
     1
100
AcDbLine
 10
1111.1331068039
 20
1260.00000000004
 30
0.0
 11
1069.7331068039
 21
1260.00000000004
 31
0.0
  0
LINE
  5
2E6
330
1F
100
AcDbEntity
  8
Ｓ_１_１
  6
EXLTYPE6
 62
     1
100
AcDbLine
 10
761.9492844190042
 20
1318.164693103674
 30
0.0
 11
741.5519588553195
 21
1306.388291698731
 31
0.0
  0
LINE
  5
2E7
330
1F
100
AcDbEntity
  8
Ｓ_１_１
  6
EXLTYPE7
 62
     2
100
AcDbLine
 10
747.1961524226915
 20
1332.740979141797
 30
0.0
 11
736.8038475772789
 21
1326.740979141797
 31
0.0
  0
LINE
  5
2E8
330
1F
100
AcDbEntity
  8
Ｓ_１_１
  6
EXLTYPE7
 62
     2
100
AcDbLine
 10
767.1961524226915
 20
1298.09996299042
 30
0.0
 11
756.8038475772789
 21
1292.09996299042
 31
0.0
  0
LINE
  5
2E9
330
1F
100
AcDbEntity
  8
Ｓ_１_１
  6
CONTINUOUS
 62
     3
100
AcDbLine
 10
937.8038475773079
 20
1341.401233179642
 30
0.0
 11
948.1961524227206
 21
1335.401233179642
 31
0.0
  0
LINE
  5
2EA
330
1F
100
AcDbEntity
  8
Ｓ_１_１
  6
EXLTYPE6
 62
     1
100
AcDbLine
 10
918.0507155809953
 20
1318.164693103673
 30
0.0
 11
938.4480411446799
 21
1306.388291698731
 31
0.0
  0
LINE
  5
2EB
330
1F
100
AcDbEntity
  8
Ｓ_１_１
  6
EXLTYPE7
 62
     2
100
AcDbLine
 10
932.803847577308
 20
1332.740979141797
 30
0.0
 11
943.1961524227224
 21
1326.740979141797
 31
0.0
  0
LINE
  5
2EC
330
1F
100
AcDbEntity
  8
Ｓ_１_１
  6
EXLTYPE7
 62
     2
100
AcDbLine
 10
912.803847577308
 20
1298.099962990419
 30
0.0
 11
923.1961524227205
 21
1292.099962990419
 31
0.0
  0
LINE
  5
2ED
330
1F
100
AcDbEntity
  8
Ｓ_１_１
  6
CONTINUOUS
 62
     3
100
AcDbLine
 10
742.1961524226933
 20
978.5987668204389
 30
0.0
 11
731.8038475772789
 21
984.5987668204389
 31
0.0
  0
LINE
  5
2EE
330
1F
100
AcDbEntity
  8
Ｓ_１_１
  6
CONTINUOUS
 62
     3
100
AcDbLine
 10
726.8038475772789
 20
975.9385127825952
 30
0.0
 11
760.9030131210109
 21
1035.00000000004
 31
0.0
  0
LINE
  5
2EF
330
1F
100
AcDbEntity
  8
Ｓ_１_１
  6
EXLTYPE6
 62
     1
100
AcDbLine
 10
761.9492844190042
 20
1001.835306896407
 30
0.0
 11
741.5519588553195
 21
1013.61170830135
 31
0.0
  0
LINE
  5
2F0
330
1F
100
AcDbEntity
  8
Ｓ_１_１
  6
EXLTYPE7
 62
     2
100
AcDbLine
 10
747.1961524226915
 20
987.2590208582841
 30
0.0
 11
736.8038475772789
 21
993.2590208582841
 31
0.0
  0
LINE
  5
2F1
330
1F
100
AcDbEntity
  8
Ｓ_１_１
  6
EXLTYPE7
 62
     2
100
AcDbLine
 10
767.1961524226915
 20
1021.900037009661
 30
0.0
 11
756.8038475772789
 21
1027.900037009661
 31
0.0
  0
LINE
  5
2F2
330
1F
100
AcDbEntity
  8
Ｓ_１_１
  6
CONTINUOUS
 62
     3
100
AcDbLine
 10
937.8038475773079
 20
978.5987668204397
 30
0.0
 11
948.1961524227206
 21
984.5987668204397
 31
0.0
  0
LINE
  5
2F3
330
1F
100
AcDbEntity
  8
Ｓ_１_１
  6
EXLTYPE6
 62
     1
100
AcDbLine
 10
918.0507155809953
 20
1001.835306896408
 30
0.0
 11
938.4480411446799
 21
1013.61170830135
 31
0.0
  0
LINE
  5
2F4
330
1F
100
AcDbEntity
  8
Ｓ_１_１
  6
EXLTYPE7
 62
     2
100
AcDbLine
 10
932.803847577308
 20
987.2590208582841
 30
0.0
 11
943.1961524227224
 21
993.2590208582841
 31
0.0
  0
LINE
  5
2F5
330
1F
100
AcDbEntity
  8
Ｓ_１_１
  6
EXLTYPE7
 62
     2
100
AcDbLine
 10
912.803847577308
 20
1021.900037009662
 30
0.0
 11
923.1961524227205
 21
1027.900037009662
 31
0.0
  0
LINE
  5
2F6
330
1F
100
AcDbEntity
  8
Ｓ_１_１
  6
EXLTYPE7
 62
     2
100
AcDbLine
 10
554.9999999999889
 20
1105.00000000004
 30
0.0
 11
554.9999999999889
 21
1130.00000000004
 31
0.0
  0
LINE
  5
2F7
330
1F
100
AcDbEntity
  8
Ｓ_１_１
  6
EXLTYPE7
 62
     2
100
AcDbLine
 10
554.9999999999889
 20
1215.00000000004
 30
0.0
 11
554.9999999999889
 21
1190.00000000004
 31
0.0
  0
LINE
  5
2F8
330
1F
100
AcDbEntity
  8
Ｓ_１_１
  6
EXLTYPE7
 62
     2
100
AcDbLine
 10
1125.0
 20
1105.00000000004
 30
0.0
 11
1125.0
 21
1130.00000000004
 31
0.0
  0
LINE
  5
2F9
330
1F
100
AcDbEntity
  8
Ｓ_１_１
  6
EXLTYPE7
 62
     2
100
AcDbLine
 10
1125.0
 20
1215.000000000041
 30
0.0
 11
1125.0
 21
1190.000000000041
 31
0.0
  0
LINE
  5
2FA
330
1F
100
AcDbEntity
  8
Ｓ_１_１
  6
EXLTYPE7
 62
     2
100
AcDbLine
 10
554.9999999999889
 20
1105.00000000004
 30
0.0
 11
1125.0
 21
1105.00000000004
 31
0.0
  0
LINE
  5
2FB
330
1F
100
AcDbEntity
  8
Ｓ_１_１
  6
EXLTYPE7
 62
     2
100
AcDbLine
 10
554.9999999999889
 20
1130.00000000004
 30
0.0
 11
1125.0
 21
1130.00000000004
 31
0.0
  0
LINE
  5
2FC
330
1F
100
AcDbEntity
  8
Ｓ_１_１
  6
EXLTYPE7
 62
     2
100
AcDbLine
 10
554.9999999999889
 20
1190.00000000004
 30
0.0
 11
1125.0
 21
1190.00000000004
 31
0.0
  0
LINE
  5
2FD
330
1F
100
AcDbEntity
  8
Ｓ_１_１
  6
EXLTYPE7
 62
     2
100
AcDbLine
 10
554.9999999999889
 20
1215.00000000004
 30
0.0
 11
1125.0
 21
1215.00000000004
 31
0.0
  0
LINE
  5
2FE
330
1F
100
AcDbEntity
  8
Ｓ_１_１
  6
CONTINUOUS
 62
     3
100
AcDbLine
 10
539.9999999999889
 20
1040.00000000004
 30
0.0
 11
549.9999999999889
 21
1030.00000000004
 31
0.0
  0
LINE
  5
2FF
330
1F
100
AcDbEntity
  8
Ｓ_１_１
  6
CONTINUOUS
 62
     3
100
AcDbLine
 10
1130.0
 20
1030.00000000004
 30
0.0
 11
549.9999999999889
 21
1030.00000000004
 31
0.0
  0
LINE
  5
300
330
1F
100
AcDbEntity
  8
Ｓ_１_１
  6
CONTINUOUS
 62
     3
100
AcDbLine
 10
539.9999999999889
 20
1280.00000000004
 30
0.0
 11
549.9999999999889
 21
1290.00000000004
 31
0.0
  0
LINE
  5
301
330
1F
100
AcDbEntity
  8
Ｓ_１_１
  6
CONTINUOUS
 62
     3
100
AcDbLine
 10
1130.0
 20
1290.00000000004
 30
0.0
 11
549.9999999999889
 21
1290.00000000004
 31
0.0
  0
LINE
  5
302
330
1F
100
AcDbEntity
  8
Ｓ_１_１
  6
CONTINUOUS
 62
     3
100
AcDbLine
 10
539.9999999999889
 20
1040.00000000004
 30
0.0
 11
539.9999999999889
 21
1280.00000000004
 31
0.0
  0
LINE
  5
303
330
1F
100
AcDbEntity
  8
Ｓ_１_１
  6
CONTINUOUS
 62
     3
100
AcDbLine
 10
1140.0
 20
1280.00000000004
 30
0.0
 11
1130.0
 21
1290.00000000004
 31
0.0
  0
LINE
  5
304
330
1F
100
AcDbEntity
  8
Ｓ_１_１
  6
CONTINUOUS
 62
     3
100
AcDbLine
 10
1140.0
 20
1040.00000000004
 30
0.0
 11
1130.0
 21
1030.00000000004
 31
0.0
  0
LINE
  5
305
330
1F
100
AcDbEntity
  8
Ｓ_１_１
  6
EXLTYPE6
 62
     1
100
AcDbLine
 10
530.2668931960995
 20
1160.00000000004
 30
0.0
 11
1149.4668931961
 21
1160.00000000004
 31
0.0
  0
LINE
  5
306
330
1F
100
AcDbEntity
  8
Ｓ_１_１
  6
CONTINUOUS
 62
     3
100
AcDbLine
 10
1140.0
 20
1040.0
 30
0.0
 11
1140.0
 21
1280.0
 31
0.0
  0
LINE
  5
307
330
1F
100
AcDbEntity
  8
Ｓ_１_１
  6
CONTINUOUS
 62
     3
100
AcDbLine
 10
639.9999999999998
 20
1030.00000000004
 30
0.0
 11
639.9999999999998
 21
980.00000000004
 31
0.0
  0
LINE
  5
308
330
1F
100
AcDbEntity
  8
Ｓ_１_１
  6
CONTINUOUS
 62
     3
100
AcDbLine
 10
683.9999999999889
 20
945.0000000000399
 30
0.0
 11
683.9999999999889
 21
1030.00000000004
 31
0.0
  0
LINE
  5
309
330
1F
100
AcDbEntity
  8
Ｓ_１_１
  6
CONTINUOUS
 62
     3
100
AcDbLine
 10
695.9999999999889
 20
945.0000000000399
 30
0.0
 11
695.9999999999889
 21
1030.00000000004
 31
0.0
  0
LINE
  5
30A
330
1F
100
AcDbEntity
  8
Ｓ_１_１
  6
EXLTYPE7
 62
     2
100
AcDbLine
 10
695.9999999999889
 20
1030.00000000004
 30
0.0
 11
695.9999999999889
 21
1105.00000000004
 31
0.0
  0
LINE
  5
30B
330
1F
100
AcDbEntity
  8
Ｓ_１_１
  6
EXLTYPE7
 62
     2
100
AcDbLine
 10
683.9999999999889
 20
1030.00000000004
 30
0.0
 11
683.9999999999889
 21
1105.00000000004
 31
0.0
  0
LINE
  5
30C
330
1F
100
AcDbEntity
  8
Ｓ_１_１
  6
CONTINUOUS
 62
     3
100
AcDbLine
 10
726.8038475772789
 20
975.9385127825944
 30
0.0
 11
758.0162617750627
 21
1030.00000000004
 31
0.0
  0
LINE
  5
30D
330
1F
100
AcDbEntity
  8
Ｓ_１_１
  6
EXLTYPE6
 62
     1
100
AcDbLine
 10
728.9861854715853
 20
967.7184328948179
 30
0.0
 11
765.5402562574452
 21
1031.031940719392
 31
0.0
  0
LINE
  5
30E
330
1F
100
AcDbEntity
  8
Ｓ_１_１
  6
CONTINUOUS
 62
     3
100
AcDbLine
 10
737.1961524226915
 20
969.9385127825944
 30
0.0
 11
771.8726682356134
 21
1030.00000000004
 31
0.0
  0
LINE
  5
30F
330
1F
100
AcDbEntity
  8
Ｓ_１_１
  6
CONTINUOUS
 62
     3
100
AcDbLine
 10
847.1792984008822
 20
1027.137908935566
 30
0.0
 11
847.3586015576873
 21
1030.00000000004
 31
0.0
  0
LINE
  5
310
330
1F
100
AcDbEntity
  8
Ｓ_１_１
  6
CONTINUOUS
 62
     3
100
AcDbLine
 10
847.88124084473
 20
1027.137908935566
 30
0.0
 11
848.0600123517086
 21
1030.00000000004
 31
0.0
  0
LINE
  5
311
330
1F
100
AcDbEntity
  8
Ｓ_１_１
  6
CONTINUOUS
 62
     3
100
AcDbLine
 10
832.8192520141635
 20
1027.137908935566
 30
0.0
 11
832.640660377823
 21
1030.00000000004
 31
0.0
  0
LINE
  5
312
330
1F
100
AcDbEntity
  8
Ｓ_１_１
  6
CONTINUOUS
 62
     3
100
AcDbLine
 10
832.1188735961947
 20
1027.137908935566
 30
0.0
 11
831.9401312050975
 21
1030.00000000004
 31
0.0
  0
LINE
  5
313
330
1F
100
AcDbEntity
  8
Ｓ_１_１
  6
CONTINUOUS
 62
     3
100
AcDbLine
 10
942.803847577308
 20
969.9385127825944
 30
0.0
 11
908.1273317643861
 21
1030.00000000004
 31
0.0
  0
LINE
  5
314
330
1F
100
AcDbEntity
  8
Ｓ_１_１
  6
CONTINUOUS
 62
     3
100
AcDbLine
 10
953.1961524227205
 20
975.9385127825944
 30
0.0
 11
921.9837382249368
 21
1030.00000000004
 31
0.0
  0
LINE
  5
315
330
1F
100
AcDbEntity
  8
Ｓ_１_１
  6
CONTINUOUS
 62
     3
100
AcDbLine
 10
984.0000000000106
 20
945.0000000000399
 30
0.0
 11
984.0000000000106
 21
1030.000000000041
 31
0.0
  0
LINE
  5
316
330
1F
100
AcDbEntity
  8
Ｓ_１_１
  6
CONTINUOUS
 62
     3
100
AcDbLine
 10
996.0000000000106
 20
945.0000000000399
 30
0.0
 11
996.0000000000106
 21
1030.000000000041
 31
0.0
  0
LINE
  5
317
330
1F
100
AcDbEntity
  8
Ｓ_１_１
  6
CONTINUOUS
 62
     3
100
AcDbLine
 10
1040.0
 20
1030.00000000004
 30
0.0
 11
1040.0
 21
980.00000000004
 31
0.0
  0
LINE
  5
318
330
1F
100
AcDbEntity
  8
Ｓ_１_１
  6
EXLTYPE7
 62
     2
100
AcDbLine
 10
984.0000000000106
 20
1030.00000000004
 30
0.0
 11
984.0000000000106
 21
1105.00000000004
 31
0.0
  0
LINE
  5
319
330
1F
100
AcDbEntity
  8
Ｓ_１_１
  6
EXLTYPE7
 62
     2
100
AcDbLine
 10
996.0000000000106
 20
1030.00000000004
 30
0.0
 11
996.0000000000106
 21
1105.00000000004
 31
0.0
  0
LINE
  5
31A
330
1F
100
AcDbEntity
  8
Ｓ_１_１
  6
CONTINUOUS
 62
     3
100
AcDbLine
 10
639.9999999999998
 20
1340.00000000004
 30
0.0
 11
639.9999999999998
 21
1290.00000000004
 31
0.0
  0
LINE
  5
31B
330
1F
100
AcDbEntity
  8
Ｓ_１_１
  6
CONTINUOUS
 62
     3
100
AcDbLine
 10
683.9999999999889
 20
1375.000000000041
 30
0.0
 11
683.9999999999889
 21
1290.00000000004
 31
0.0
  0
LINE
  5
31C
330
1F
100
AcDbEntity
  8
Ｓ_１_１
  6
CONTINUOUS
 62
     3
100
AcDbLine
 10
695.9999999999889
 20
1375.000000000041
 30
0.0
 11
695.9999999999889
 21
1290.00000000004
 31
0.0
  0
LINE
  5
31D
330
1F
100
AcDbEntity
  8
Ｓ_１_１
  6
CONTINUOUS
 62
     3
100
AcDbLine
 10
726.8038475772789
 20
1344.061487217486
 30
0.0
 11
758.0162617750627
 21
1290.00000000004
 31
0.0
  0
LINE
  5
31E
330
1F
100
AcDbEntity
  8
Ｓ_１_１
  6
CONTINUOUS
 62
     3
100
AcDbLine
 10
737.1961524226915
 20
1350.061487217486
 30
0.0
 11
771.8726682356134
 21
1290.00000000004
 31
0.0
  0
LINE
  5
31F
330
1F
100
AcDbEntity
  8
Ｓ_１_１
  6
EXLTYPE6
 62
     1
100
AcDbLine
 10
728.9861854715853
 20
1352.281567105262
 30
0.0
 11
764.944465005339
 21
1290.00000000004
 31
0.0
  0
LINE
  5
320
330
1F
100
AcDbEntity
  8
Ｓ_１_１
  6
CONTINUOUS
 62
     3
100
AcDbLine
 10
942.803847577308
 20
1350.061487217486
 30
0.0
 11
908.1273317643861
 21
1290.00000000004
 31
0.0
  0
LINE
  5
321
330
1F
100
AcDbEntity
  8
Ｓ_１_１
  6
EXLTYPE6
 62
     1
100
AcDbLine
 10
951.0138145284125
 20
1352.281567105262
 30
0.0
 11
915.0555349946605
 21
1290.00000000004
 31
0.0
  0
LINE
  5
322
330
1F
100
AcDbEntity
  8
Ｓ_１_１
  6
CONTINUOUS
 62
     3
100
AcDbLine
 10
953.1961524227205
 20
1344.061487217486
 30
0.0
 11
921.9837382249368
 21
1290.00000000004
 31
0.0
  0
LINE
  5
323
330
1F
100
AcDbEntity
  8
Ｓ_１_１
  6
CONTINUOUS
 62
     3
100
AcDbLine
 10
984.0000000000106
 20
1375.00000000004
 30
0.0
 11
984.0000000000106
 21
1290.000000000041
 31
0.0
  0
LINE
  5
324
330
1F
100
AcDbEntity
  8
Ｓ_１_１
  6
CONTINUOUS
 62
     3
100
AcDbLine
 10
996.0000000000106
 20
1375.00000000004
 30
0.0
 11
996.0000000000106
 21
1290.000000000041
 31
0.0
  0
LINE
  5
325
330
1F
100
AcDbEntity
  8
Ｓ_１_１
  6
CONTINUOUS
 62
     3
100
AcDbLine
 10
1040.0
 20
1340.00000000004
 30
0.0
 11
1040.0
 21
1290.00000000004
 31
0.0
  0
LINE
  5
326
330
1F
100
AcDbEntity
  8
Ｓ_１_１
  6
EXLTYPE7
 62
     2
100
AcDbLine
 10
984.0000000000106
 20
1290.00000000004
 30
0.0
 11
984.0000000000106
 21
1215.00000000004
 31
0.0
  0
LINE
  5
327
330
1F
100
AcDbEntity
  8
Ｓ_１_１
  6
EXLTYPE7
 62
     2
100
AcDbLine
 10
996.0000000000106
 20
1290.00000000004
 30
0.0
 11
996.0000000000106
 21
1215.00000000004
 31
0.0
  0
LINE
  5
328
330
1F
100
AcDbEntity
  8
Ｓ_１_１
  6
EXLTYPE7
 62
     2
100
AcDbLine
 10
695.9999999999889
 20
1290.00000000004
 30
0.0
 11
695.9999999999889
 21
1215.00000000004
 31
0.0
  0
LINE
  5
329
330
1F
100
AcDbEntity
  8
Ｓ_１_１
  6
EXLTYPE7
 62
     2
100
AcDbLine
 10
683.9999999999889
 20
1290.00000000004
 30
0.0
 11
683.9999999999889
 21
1215.00000000004
 31
0.0
  0
LINE
  5
32A
330
1F
100
AcDbEntity
  8
Ｓ_１_１
  6
EXLTYPE6
 62
     1
100
AcDbLine
 10
1390.999999999999
 20
1160.00000000004
 30
0.0
 11
1807.999999999999
 21
1160.00000000004
 31
0.0
  0
LINE
  5
32B
330
1F
100
AcDbEntity
  8
Ｓ_１_１
  6
EXLTYPE6
 62
     1
100
AcDbLine
 10
1599.999999999999
 20
1371.13310680393
 30
0.0
 11
1599.999999999999
 21
949.1331068039301
 31
0.0
  0
LINE
  5
32C
330
1F
100
AcDbEntity
  8
Ｓ_１_１
  6
CONTINUOUS
 62
     3
100
AcDbLine
 10
1547.196152422693
 20
1056.541053161038
 30
0.0
 11
1536.80384757728
 21
1062.541053161037
 31
0.0
  0
CIRCLE
  5
32D
330
1F
100
AcDbEntity
  8
Ｓ_１_１
  6
CONTINUOUS
 62
     3
100
AcDbCircle
 10
1764.999999999999
 20
1325.00000000004
 30
0.0
 40
13.0
  0
LINE
  5
32E
330
1F
100
AcDbEntity
  8
Ｓ_１_１
  6
CONTINUOUS
 62
     3
100
AcDbLine
 10
1779.999999999999
 20
1360.00000000004
 30
0.0
 11
1799.999999999999
 21
1340.00000000004
 31
0.0
  0
LINE
  5
32F
330
1F
100
AcDbEntity
  8
Ｓ_１_１
  6
EXLTYPE6
 62
     1
100
AcDbLine
 10
1741.499999999999
 20
1325.00000000004
 30
0.0
 11
1789.499999999999
 21
1325.00000000004
 31
0.0
  0
LINE
  5
330
330
1F
100
AcDbEntity
  8
Ｓ_１_１
  6
EXLTYPE6
 62
     1
100
AcDbLine
 10
1764.999999999999
 20
1348.13310680393
 30
0.0
 11
1764.999999999999
 21
1300.63310680393
 31
0.0
  0
CIRCLE
  5
331
330
1F
100
AcDbEntity
  8
Ｓ_１_１
  6
CONTINUOUS
 62
     3
100
AcDbCircle
 10
1764.999999999999
 20
995.0000000000393
 30
0.0
 40
13.0
  0
LINE
  5
332
330
1F
100
AcDbEntity
  8
Ｓ_１_１
  6
CONTINUOUS
 62
     3
100
AcDbLine
 10
1779.999999999999
 20
960.0000000000392
 30
0.0
 11
1799.999999999999
 21
980.0000000000393
 31
0.0
  0
LINE
  5
333
330
1F
100
AcDbEntity
  8
Ｓ_１_１
  6
EXLTYPE6
 62
     1
100
AcDbLine
 10
1741.499999999999
 20
995.0000000000393
 30
0.0
 11
1789.499999999999
 21
995.0000000000393
 31
0.0
  0
LINE
  5
334
330
1F
100
AcDbEntity
  8
Ｓ_１_１
  6
EXLTYPE6
 62
     1
100
AcDbLine
 10
1764.999999999999
 20
971.8668931961495
 30
0.0
 11
1764.999999999999
 21
1019.366893196149
 31
0.0
  0
CIRCLE
  5
335
330
1F
100
AcDbEntity
  8
Ｓ_１_１
  6
CONTINUOUS
 62
     3
100
AcDbCircle
 10
1434.999999999999
 20
1325.00000000004
 30
0.0
 40
13.0
  0
LINE
  5
336
330
1F
100
AcDbEntity
  8
Ｓ_１_１
  6
CONTINUOUS
 62
     3
100
AcDbLine
 10
1419.999999999999
 20
1360.00000000004
 30
0.0
 11
1399.999999999999
 21
1340.00000000004
 31
0.0
  0
LINE
  5
337
330
1F
100
AcDbEntity
  8
Ｓ_１_１
  6
EXLTYPE6
 62
     1
100
AcDbLine
 10
1458.499999999999
 20
1325.00000000004
 30
0.0
 11
1410.499999999999
 21
1325.00000000004
 31
0.0
  0
LINE
  5
338
330
1F
100
AcDbEntity
  8
Ｓ_１_１
  6
EXLTYPE6
 62
     1
100
AcDbLine
 10
1434.999999999999
 20
1348.13310680393
 30
0.0
 11
1434.999999999999
 21
1300.63310680393
 31
0.0
  0
CIRCLE
  5
339
330
1F
100
AcDbEntity
  8
Ｓ_１_１
  6
CONTINUOUS
 62
     3
100
AcDbCircle
 10
1434.999999999999
 20
995.0000000000393
 30
0.0
 40
13.0
  0
LINE
  5
33A
330
1F
100
AcDbEntity
  8
Ｓ_１_１
  6
CONTINUOUS
 62
     3
100
AcDbLine
 10
1419.999999999999
 20
960.0000000000392
 30
0.0
 11
1399.999999999999
 21
980.0000000000393
 31
0.0
  0
LINE
  5
33B
330
1F
100
AcDbEntity
  8
Ｓ_１_１
  6
EXLTYPE6
 62
     1
100
AcDbLine
 10
1458.499999999999
 20
995.0000000000393
 30
0.0
 11
1410.499999999999
 21
995.0000000000393
 31
0.0
  0
LINE
  5
33C
330
1F
100
AcDbEntity
  8
Ｓ_１_１
  6
EXLTYPE6
 62
     1
100
AcDbLine
 10
1434.999999999999
 20
971.8668931961495
 30
0.0
 11
1434.999999999999
 21
1019.366893196149
 31
0.0
  0
LINE
  5
33D
330
1F
100
AcDbEntity
  8
Ｓ_１_１
  6
CONTINUOUS
 62
     3
100
AcDbLine
 10
1799.999999999999
 20
1340.00000000004
 30
0.0
 11
1799.999999999999
 21
980.0000000000393
 31
0.0
  0
LINE
  5
33E
330
1F
100
AcDbEntity
  8
Ｓ_１_１
  6
CONTINUOUS
 62
     3
100
AcDbLine
 10
1419.999999999999
 20
960.0000000000402
 30
0.0
 11
1779.999999999999
 21
960.0000000000402
 31
0.0
  0
LINE
  5
33F
330
1F
100
AcDbEntity
  8
Ｓ_１_１
  6
CONTINUOUS
 62
     3
100
AcDbLine
 10
1399.999999999999
 20
1340.00000000004
 30
0.0
 11
1399.999999999999
 21
980.0000000000393
 31
0.0
  0
LINE
  5
340
330
1F
100
AcDbEntity
  8
Ｓ_１_１
  6
CONTINUOUS
 62
     3
100
AcDbLine
 10
1779.999999999999
 20
1360.00000000004
 30
0.0
 11
1419.999999999999
 21
1360.00000000004
 31
0.0
  0
CIRCLE
  5
341
330
1F
100
AcDbEntity
  8
Ｓ_１_１
  6
CONTINUOUS
 62
     3
100
AcDbCircle
 10
1434.999999999999
 20
1160.00000000004
 30
0.0
 40
13.0
  0
LINE
  5
342
330
1F
100
AcDbEntity
  8
Ｓ_１_１
  6
EXLTYPE6
 62
     1
100
AcDbLine
 10
1434.999999999999
 20
1183.13310680393
 30
0.0
 11
1434.999999999999
 21
1135.63310680393
 31
0.0
  0
CIRCLE
  5
343
330
1F
100
AcDbEntity
  8
Ｓ_１_１
  6
CONTINUOUS
 62
     3
100
AcDbCircle
 10
1764.999999999999
 20
1160.00000000004
 30
0.0
 40
13.0
  0
LINE
  5
344
330
1F
100
AcDbEntity
  8
Ｓ_１_１
  6
EXLTYPE6
 62
     1
100
AcDbLine
 10
1764.999999999999
 20
1183.13310680393
 30
0.0
 11
1764.999999999999
 21
1135.63310680393
 31
0.0
  0
CIRCLE
  5
345
330
1F
100
AcDbEntity
  8
Ｓ_１_１
  6
CONTINUOUS
 62
     3
100
AcDbCircle
 10
1599.999999999999
 20
1325.00000000004
 30
0.0
 40
13.0
  0
LINE
  5
346
330
1F
100
AcDbEntity
  8
Ｓ_１_１
  6
EXLTYPE6
 62
     1
100
AcDbLine
 10
1623.499999999999
 20
1325.00000000004
 30
0.0
 11
1575.499999999999
 21
1325.00000000004
 31
0.0
  0
CIRCLE
  5
347
330
1F
100
AcDbEntity
  8
Ｓ_１_１
  6
EXLTYPE6
 62
     1
100
AcDbCircle
 10
1599.999999999999
 20
1159.999999999999
 30
0.0
 40
60.0
  0
CIRCLE
  5
348
330
1F
100
AcDbEntity
  8
Ｓ_１_１
  6
EXLTYPE9
 62
     2
100
AcDbCircle
 10
1599.999999999999
 20
1160.00000000004
 30
0.0
 40
116.0
  0
CIRCLE
  5
349
330
1F
100
AcDbEntity
  8
Ｓ_１_１
  6
EXLTYPE9
 62
     2
100
AcDbCircle
 10
1599.999999999999
 20
1160.00000000004
 30
0.0
 40
96.99999999999999
  0
LINE
  5
34A
330
1F
100
AcDbEntity
  8
Ｓ_１_１
  6
EXLTYPE9
 62
     2
100
AcDbLine
 10
1702.803847577309
 20
1350.061487217486
 30
0.0
 11
1652.803847577307
 21
1263.458946839042
 31
0.0
  0
LINE
  5
34B
330
1F
100
AcDbEntity
  8
Ｓ_１_１
  6
EXLTYPE9
 62
     2
100
AcDbLine
 10
1713.196152422722
 20
1344.061487217486
 30
0.0
 11
1663.196152422722
 21
1257.458946839042
 31
0.0
  0
LINE
  5
34C
330
1F
100
AcDbEntity
  8
Ｓ_１_１
  6
EXLTYPE9
 62
     2
100
AcDbLine
 10
1702.803847577308
 20
1350.061487217486
 30
0.0
 11
1713.19615242272
 21
1344.061487217486
 31
0.0
  0
LINE
  5
34D
330
1F
100
AcDbEntity
  8
Ｓ_１_１
  6
EXLTYPE9
 62
     2
100
AcDbLine
 10
1703.458946839
 20
1212.803847577352
 30
0.0
 11
1697.458946839
 21
1223.196152422765
 31
0.0
  0
LINE
  5
34E
330
1F
100
AcDbEntity
  8
Ｓ_１_１
  6
EXLTYPE9
 62
     2
100
AcDbLine
 10
1790.06148721744
 20
1262.803847577357
 30
0.0
 11
1784.06148721744
 21
1273.196152422769
 31
0.0
  0
LINE
  5
34F
330
1F
100
AcDbEntity
  8
Ｓ_１_１
  6
EXLTYPE9
 62
     2
100
AcDbLine
 10
1790.06148721744
 20
1262.803847577358
 30
0.0
 11
1703.458946839
 21
1212.803847577353
 31
0.0
  0
LINE
  5
350
330
1F
100
AcDbEntity
  8
Ｓ_１_１
  6
EXLTYPE9
 62
     2
100
AcDbLine
 10
1784.06148721744
 20
1273.19615242277
 30
0.0
 11
1697.458946839
 21
1223.196152422766
 31
0.0
  0
LINE
  5
351
330
1F
100
AcDbEntity
  8
Ｓ_１_１
  6
EXLTYPE9
 62
     2
100
AcDbLine
 10
1652.803847577306
 20
1263.458946839042
 30
0.0
 11
1663.19615242272
 21
1257.458946839042
 31
0.0
  0
LINE
  5
352
330
1F
100
AcDbEntity
  8
Ｓ_１_１
  6
EXLTYPE9
 62
     2
100
AcDbLine
 10
1703.458946839
 20
1107.196152422727
 30
0.0
 11
1697.458946839
 21
1096.803847577315
 31
0.0
  0
LINE
  5
353
330
1F
100
AcDbEntity
  8
Ｓ_１_１
  6
EXLTYPE9
 62
     2
100
AcDbLine
 10
1790.06148721744
 20
1057.196152422723
 30
0.0
 11
1784.06148721744
 21
1046.80384757731
 31
0.0
  0
LINE
  5
354
330
1F
100
AcDbEntity
  8
Ｓ_１_１
  6
EXLTYPE9
 62
     2
100
AcDbLine
 10
1790.06148721744
 20
1057.196152422722
 30
0.0
 11
1703.458946839
 21
1107.196152422727
 31
0.0
  0
LINE
  5
355
330
1F
100
AcDbEntity
  8
Ｓ_１_１
  6
EXLTYPE9
 62
     2
100
AcDbLine
 10
1784.06148721744
 20
1046.803847577309
 30
0.0
 11
1697.458946839
 21
1096.803847577314
 31
0.0
  0
LINE
  5
356
330
1F
100
AcDbEntity
  8
Ｓ_１_１
  6
EXLTYPE9
 62
     2
100
AcDbLine
 10
1652.803847577306
 20
1056.541053161038
 30
0.0
 11
1663.19615242272
 21
1062.541053161037
 31
0.0
  0
LINE
  5
357
330
1F
100
AcDbEntity
  8
Ｓ_１_１
  6
EXLTYPE9
 62
     2
100
AcDbLine
 10
1702.803847577309
 20
969.9385127825946
 30
0.0
 11
1652.803847577307
 21
1056.541053161038
 31
0.0
  0
LINE
  5
358
330
1F
100
AcDbEntity
  8
Ｓ_１_１
  6
EXLTYPE9
 62
     2
100
AcDbLine
 10
1713.196152422722
 20
975.9385127825938
 30
0.0
 11
1663.196152422722
 21
1062.541053161038
 31
0.0
  0
LINE
  5
359
330
1F
100
AcDbEntity
  8
Ｓ_１_１
  6
EXLTYPE9
 62
     2
100
AcDbLine
 10
1702.803847577308
 20
969.9385127825938
 30
0.0
 11
1713.19615242272
 21
975.9385127825938
 31
0.0
  0
LINE
  5
35A
330
1F
100
AcDbEntity
  8
Ｓ_１_１
  6
EXLTYPE9
 62
     2
100
AcDbLine
 10
1486.803847577278
 20
975.9385127825938
 30
0.0
 11
1536.803847577278
 21
1062.541053161038
 31
0.0
  0
LINE
  5
35B
330
1F
100
AcDbEntity
  8
Ｓ_１_１
  6
EXLTYPE9
 62
     2
100
AcDbLine
 10
1497.196152422691
 20
969.9385127825946
 30
0.0
 11
1547.196152422693
 21
1056.541053161038
 31
0.0
  0
LINE
  5
35C
330
1F
100
AcDbEntity
  8
Ｓ_１_１
  6
EXLTYPE9
 62
     2
100
AcDbLine
 10
1497.196152422693
 20
969.9385127825938
 30
0.0
 11
1486.80384757728
 21
975.9385127825938
 31
0.0
  0
LINE
  5
35D
330
1F
100
AcDbEntity
  8
Ｓ_１_１
  6
EXLTYPE9
 62
     2
100
AcDbLine
 10
1496.541053161001
 20
1107.196152422727
 30
0.0
 11
1502.541053161001
 21
1096.803847577315
 31
0.0
  0
LINE
  5
35E
330
1F
100
AcDbEntity
  8
Ｓ_１_１
  6
EXLTYPE9
 62
     2
100
AcDbLine
 10
1409.938512782558
 20
1057.196152422723
 30
0.0
 11
1415.93851278256
 21
1046.80384757731
 31
0.0
  0
LINE
  5
35F
330
1F
100
AcDbEntity
  8
Ｓ_１_１
  6
EXLTYPE9
 62
     2
100
AcDbLine
 10
1409.93851278256
 20
1057.196152422722
 30
0.0
 11
1496.541053161001
 21
1107.196152422727
 31
0.0
  0
LINE
  5
360
330
1F
100
AcDbEntity
  8
Ｓ_１_１
  6
EXLTYPE9
 62
     2
100
AcDbLine
 10
1415.93851278256
 20
1046.803847577309
 30
0.0
 11
1502.541053161001
 21
1096.803847577314
 31
0.0
  0
LINE
  5
361
330
1F
100
AcDbEntity
  8
Ｓ_１_１
  6
EXLTYPE9
 62
     2
100
AcDbLine
 10
1496.541053161001
 20
1212.803847577352
 30
0.0
 11
1502.541053161001
 21
1223.196152422765
 31
0.0
  0
LINE
  5
362
330
1F
100
AcDbEntity
  8
Ｓ_１_１
  6
EXLTYPE9
 62
     2
100
AcDbLine
 10
1409.938512782558
 20
1262.803847577357
 30
0.0
 11
1415.93851278256
 21
1273.196152422769
 31
0.0
  0
LINE
  5
363
330
1F
100
AcDbEntity
  8
Ｓ_１_１
  6
EXLTYPE9
 62
     2
100
AcDbLine
 10
1409.93851278256
 20
1262.803847577358
 30
0.0
 11
1496.541053161001
 21
1212.803847577353
 31
0.0
  0
LINE
  5
364
330
1F
100
AcDbEntity
  8
Ｓ_１_１
  6
EXLTYPE9
 62
     2
100
AcDbLine
 10
1415.93851278256
 20
1273.19615242277
 30
0.0
 11
1502.541053161001
 21
1223.196152422766
 31
0.0
  0
LINE
  5
365
330
1F
100
AcDbEntity
  8
Ｓ_１_１
  6
EXLTYPE9
 62
     2
100
AcDbLine
 10
1547.196152422693
 20
1263.458946839042
 30
0.0
 11
1536.80384757728
 21
1257.458946839042
 31
0.0
  0
LINE
  5
366
330
1F
100
AcDbEntity
  8
Ｓ_１_１
  6
EXLTYPE9
 62
     2
100
AcDbLine
 10
1497.196152422693
 20
1350.061487217486
 30
0.0
 11
1486.80384757728
 21
1344.061487217486
 31
0.0
  0
LINE
  5
367
330
1F
100
AcDbEntity
  8
Ｓ_１_１
  6
EXLTYPE9
 62
     2
100
AcDbLine
 10
1497.196152422691
 20
1350.061487217486
 30
0.0
 11
1547.196152422693
 21
1263.458946839042
 31
0.0
  0
LINE
  5
368
330
1F
100
AcDbEntity
  8
Ｓ_１_１
  6
EXLTYPE9
 62
     2
100
AcDbLine
 10
1486.803847577278
 20
1344.061487217486
 30
0.0
 11
1536.803847577278
 21
1257.458946839042
 31
0.0
  0
CIRCLE
  5
369
330
1F
100
AcDbEntity
  8
Ｓ_１_１
  6
CONTINUOUS
 62
     3
100
AcDbCircle
 10
1557.573593128799
 20
1202.426406871199
 30
0.0
 40
13.0
  0
CIRCLE
  5
36A
330
1F
100
AcDbEntity
  8
Ｓ_１_１
  6
CONTINUOUS
 62
     3
100
AcDbCircle
 10
1557.573593128799
 20
1202.426406871199
 30
0.0
 40
12.0
  0
CIRCLE
  5
36B
330
1F
100
AcDbEntity
  8
Ｓ_１_１
  6
CONTINUOUS
 62
     3
100
AcDbCircle
 10
1557.573593128799
 20
1202.426406871199
 30
0.0
 40
10.5
  0
POLYLINE
  5
36C
330
1F
100
AcDbEntity
  8
Ｓ_１_１
  6
CONTINUOUS
 62
     3
100
AcDb2dPolyline
 66
     1
 10
0.0
 20
0.0
 30
0.0
 70
   128
  0
VERTEX
  5
36D
330
36C
100
AcDbEntity
  8
Ｓ_１_１
  6
CONTINUOUS
 62
     3
100
AcDbVertex
100
AcDb2dVertex
 10
1565.656496897454
 20
1202.426406871199
 30
0.0
  0
VERTEX
  5
36E
330
36C
100
AcDbEntity
  8
Ｓ_１_１
  6
CONTINUOUS
 62
     3
100
AcDbVertex
100
AcDb2dVertex
 10
1561.615045013127
 20
1209.426406871199
 30
0.0
  0
VERTEX
  5
36F
330
36C
100
AcDbEntity
  8
Ｓ_１_１
  6
CONTINUOUS
 62
     3
100
AcDbVertex
100
AcDb2dVertex
 10
1553.532141244471
 20
1209.426406871199
 30
0.0
  0
VERTEX
  5
370
330
36C
100
AcDbEntity
  8
Ｓ_１_１
  6
CONTINUOUS
 62
     3
100
AcDbVertex
100
AcDb2dVertex
 10
1549.490689360145
 20
1202.426406871199
 30
0.0
  0
VERTEX
  5
371
330
36C
100
AcDbEntity
  8
Ｓ_１_１
  6
CONTINUOUS
 62
     3
100
AcDbVertex
100
AcDb2dVertex
 10
1553.532141244471
 20
1195.426406871199
 30
0.0
  0
VERTEX
  5
372
330
36C
100
AcDbEntity
  8
Ｓ_１_１
  6
CONTINUOUS
 62
     3
100
AcDbVertex
100
AcDb2dVertex
 10
1561.615045013127
 20
1195.426406871199
 30
0.0
  0
VERTEX
  5
373
330
36C
100
AcDbEntity
  8
Ｓ_１_１
  6
CONTINUOUS
 62
     3
100
AcDbVertex
100
AcDb2dVertex
 10
1565.656496897454
 20
1202.426406871199
 30
0.0
  0
SEQEND
  5
374
330
36C
100
AcDbEntity
  8
Ｓ_１_１
  6
CONTINUOUS
 62
     3
  0
LINE
  5
375
330
1F
100
AcDbEntity
  8
Ｓ_１_１
  6
EXLTYPE6
 62
     1
100
AcDbLine
 10
1544.885221195201
 20
1215.114778804801
 30
0.0
 11
1571.210221195205
 21
1188.789778804806
 31
0.0
  0
CIRCLE
  5
376
330
1F
100
AcDbEntity
  8
Ｓ_１_１
  6
CONTINUOUS
 62
     3
100
AcDbCircle
 10
1642.426406871201
 20
1202.426406871199
 30
0.0
 40
13.0
  0
CIRCLE
  5
377
330
1F
100
AcDbEntity
  8
Ｓ_１_１
  6
CONTINUOUS
 62
     3
100
AcDbCircle
 10
1642.426406871201
 20
1202.426406871199
 30
0.0
 40
12.0
  0
CIRCLE
  5
378
330
1F
100
AcDbEntity
  8
Ｓ_１_１
  6
CONTINUOUS
 62
     3
100
AcDbCircle
 10
1642.426406871201
 20
1202.426406871199
 30
0.0
 40
10.5
  0
POLYLINE
  5
379
330
1F
100
AcDbEntity
  8
Ｓ_１_１
  6
CONTINUOUS
 62
     3
100
AcDb2dPolyline
 66
     1
 10
0.0
 20
0.0
 30
0.0
 70
   128
  0
VERTEX
  5
37A
330
379
100
AcDbEntity
  8
Ｓ_１_１
  6
CONTINUOUS
 62
     3
100
AcDbVertex
100
AcDb2dVertex
 10
1634.343503102547
 20
1202.426406871199
 30
0.0
  0
VERTEX
  5
37B
330
379
100
AcDbEntity
  8
Ｓ_１_１
  6
CONTINUOUS
 62
     3
100
AcDbVertex
100
AcDb2dVertex
 10
1638.384954986875
 20
1209.426406871199
 30
0.0
  0
VERTEX
  5
37C
330
379
100
AcDbEntity
  8
Ｓ_１_１
  6
CONTINUOUS
 62
     3
100
AcDbVertex
100
AcDb2dVertex
 10
1646.467858755529
 20
1209.426406871199
 30
0.0
  0
VERTEX
  5
37D
330
379
100
AcDbEntity
  8
Ｓ_１_１
  6
CONTINUOUS
 62
     3
100
AcDbVertex
100
AcDb2dVertex
 10
1650.509310639855
 20
1202.426406871199
 30
0.0
  0
VERTEX
  5
37E
330
379
100
AcDbEntity
  8
Ｓ_１_１
  6
CONTINUOUS
 62
     3
100
AcDbVertex
100
AcDb2dVertex
 10
1646.467858755529
 20
1195.426406871199
 30
0.0
  0
VERTEX
  5
37F
330
379
100
AcDbEntity
  8
Ｓ_１_１
  6
CONTINUOUS
 62
     3
100
AcDbVertex
100
AcDb2dVertex
 10
1638.384954986873
 20
1195.426406871199
 30
0.0
  0
VERTEX
  5
380
330
379
100
AcDbEntity
  8
Ｓ_１_１
  6
CONTINUOUS
 62
     3
100
AcDbVertex
100
AcDb2dVertex
 10
1634.343503102547
 20
1202.426406871199
 30
0.0
  0
SEQEND
  5
381
330
379
100
AcDbEntity
  8
Ｓ_１_１
  6
CONTINUOUS
 62
     3
  0
LINE
  5
382
330
1F
100
AcDbEntity
  8
Ｓ_１_１
  6
EXLTYPE6
 62
     1
100
AcDbLine
 10
1655.114778804799
 20
1215.114778804801
 30
0.0
 11
1628.789778804795
 21
1188.789778804806
 31
0.0
  0
CIRCLE
  5
383
330
1F
100
AcDbEntity
  8
Ｓ_１_１
  6
CONTINUOUS
 62
     3
100
AcDbCircle
 10
1557.573593128799
 20
1117.573593128881
 30
0.0
 40
13.0
  0
CIRCLE
  5
384
330
1F
100
AcDbEntity
  8
Ｓ_１_１
  6
CONTINUOUS
 62
     3
100
AcDbCircle
 10
1557.573593128799
 20
1117.573593128881
 30
0.0
 40
12.0
  0
CIRCLE
  5
385
330
1F
100
AcDbEntity
  8
Ｓ_１_１
  6
CONTINUOUS
 62
     3
100
AcDbCircle
 10
1557.573593128799
 20
1117.573593128881
 30
0.0
 40
10.5
  0
POLYLINE
  5
386
330
1F
100
AcDbEntity
  8
Ｓ_１_１
  6
CONTINUOUS
 62
     3
100
AcDb2dPolyline
 66
     1
 10
0.0
 20
0.0
 30
0.0
 70
   128
  0
VERTEX
  5
387
330
386
100
AcDbEntity
  8
Ｓ_１_１
  6
CONTINUOUS
 62
     3
100
AcDbVertex
100
AcDb2dVertex
 10
1565.656496897454
 20
1117.573593128881
 30
0.0
  0
VERTEX
  5
388
330
386
100
AcDbEntity
  8
Ｓ_１_１
  6
CONTINUOUS
 62
     3
100
AcDbVertex
100
AcDb2dVertex
 10
1561.615045013127
 20
1110.573593128881
 30
0.0
  0
VERTEX
  5
389
330
386
100
AcDbEntity
  8
Ｓ_１_１
  6
CONTINUOUS
 62
     3
100
AcDbVertex
100
AcDb2dVertex
 10
1553.532141244471
 20
1110.573593128881
 30
0.0
  0
VERTEX
  5
38A
330
386
100
AcDbEntity
  8
Ｓ_１_１
  6
CONTINUOUS
 62
     3
100
AcDbVertex
100
AcDb2dVertex
 10
1549.490689360145
 20
1117.573593128881
 30
0.0
  0
VERTEX
  5
38B
330
386
100
AcDbEntity
  8
Ｓ_１_１
  6
CONTINUOUS
 62
     3
100
AcDbVertex
100
AcDb2dVertex
 10
1553.532141244471
 20
1124.573593128881
 30
0.0
  0
VERTEX
  5
38C
330
386
100
AcDbEntity
  8
Ｓ_１_１
  6
CONTINUOUS
 62
     3
100
AcDbVertex
100
AcDb2dVertex
 10
1561.615045013127
 20
1124.573593128881
 30
0.0
  0
VERTEX
  5
38D
330
386
100
AcDbEntity
  8
Ｓ_１_１
  6
CONTINUOUS
 62
     3
100
AcDbVertex
100
AcDb2dVertex
 10
1565.656496897454
 20
1117.573593128881
 30
0.0
  0
SEQEND
  5
38E
330
386
100
AcDbEntity
  8
Ｓ_１_１
  6
CONTINUOUS
 62
     3
  0
LINE
  5
38F
330
1F
100
AcDbEntity
  8
Ｓ_１_１
  6
EXLTYPE6
 62
     1
100
AcDbLine
 10
1544.885221195201
 20
1104.885221195279
 30
0.0
 11
1571.210221195205
 21
1131.210221195274
 31
0.0
  0
CIRCLE
  5
390
330
1F
100
AcDbEntity
  8
Ｓ_１_１
  6
CONTINUOUS
 62
     3
100
AcDbCircle
 10
1642.426406871201
 20
1117.573593128881
 30
0.0
 40
13.0
  0
CIRCLE
  5
391
330
1F
100
AcDbEntity
  8
Ｓ_１_１
  6
CONTINUOUS
 62
     3
100
AcDbCircle
 10
1642.426406871201
 20
1117.573593128881
 30
0.0
 40
12.0
  0
CIRCLE
  5
392
330
1F
100
AcDbEntity
  8
Ｓ_１_１
  6
CONTINUOUS
 62
     3
100
AcDbCircle
 10
1642.426406871201
 20
1117.573593128881
 30
0.0
 40
10.5
  0
POLYLINE
  5
393
330
1F
100
AcDbEntity
  8
Ｓ_１_１
  6
CONTINUOUS
 62
     3
100
AcDb2dPolyline
 66
     1
 10
0.0
 20
0.0
 30
0.0
 70
   128
  0
VERTEX
  5
394
330
393
100
AcDbEntity
  8
Ｓ_１_１
  6
CONTINUOUS
 62
     3
100
AcDbVertex
100
AcDb2dVertex
 10
1634.343503102547
 20
1117.573593128881
 30
0.0
  0
VERTEX
  5
395
330
393
100
AcDbEntity
  8
Ｓ_１_１
  6
CONTINUOUS
 62
     3
100
AcDbVertex
100
AcDb2dVertex
 10
1638.384954986875
 20
1110.573593128881
 30
0.0
  0
VERTEX
  5
396
330
393
100
AcDbEntity
  8
Ｓ_１_１
  6
CONTINUOUS
 62
     3
100
AcDbVertex
100
AcDb2dVertex
 10
1646.467858755529
 20
1110.573593128881
 30
0.0
  0
VERTEX
  5
397
330
393
100
AcDbEntity
  8
Ｓ_１_１
  6
CONTINUOUS
 62
     3
100
AcDbVertex
100
AcDb2dVertex
 10
1650.509310639855
 20
1117.573593128881
 30
0.0
  0
VERTEX
  5
398
330
393
100
AcDbEntity
  8
Ｓ_１_１
  6
CONTINUOUS
 62
     3
100
AcDbVertex
100
AcDb2dVertex
 10
1646.467858755529
 20
1124.573593128881
 30
0.0
  0
VERTEX
  5
399
330
393
100
AcDbEntity
  8
Ｓ_１_１
  6
CONTINUOUS
 62
     3
100
AcDbVertex
100
AcDb2dVertex
 10
1638.384954986873
 20
1124.573593128881
 30
0.0
  0
VERTEX
  5
39A
330
393
100
AcDbEntity
  8
Ｓ_１_１
  6
CONTINUOUS
 62
     3
100
AcDbVertex
100
AcDb2dVertex
 10
1634.343503102547
 20
1117.573593128881
 30
0.0
  0
SEQEND
  5
39B
330
393
100
AcDbEntity
  8
Ｓ_１_１
  6
CONTINUOUS
 62
     3
  0
LINE
  5
39C
330
1F
100
AcDbEntity
  8
Ｓ_１_１
  6
EXLTYPE6
 62
     1
100
AcDbLine
 10
1655.114778804799
 20
1104.885221195279
 30
0.0
 11
1628.789778804795
 21
1131.210221195274
 31
0.0
  0
CIRCLE
  5
39D
330
1F
100
AcDbEntity
  8
Ｓ_１_１
  6
CONTINUOUS
 62
     3
100
AcDbCircle
 10
1599.999999999999
 20
995.0000000000401
 30
0.0
 40
13.0
  0
LINE
  5
39E
330
1F
100
AcDbEntity
  8
Ｓ_１_１
  6
EXLTYPE6
 62
     1
100
AcDbLine
 10
1623.499999999999
 20
995.0000000000401
 30
0.0
 11
1575.499999999999
 21
995.0000000000401
 31
0.0
  0
LINE
  5
39F
330
1F
100
AcDbEntity
  8
Ｓ_１_１
  6
CONTINUOUS
 62
     3
100
AcDbLine
 10
934.9998855590845
 20
543.0000305175781
 30
0.0
 11
932.999992370608
 21
545.0000381469736
 31
0.0
  0
LINE
  5
3A0
330
1F
100
AcDbEntity
  8
Ｓ_１_１
  6
CONTINUOUS
 62
     3
100
AcDbLine
 10
744.9998855590845
 20
543.0000305175781
 30
0.0
 11
746.9998931884791
 21
545.0000381469736
 31
0.0
  0
LINE
  5
3A1
330
1F
100
AcDbEntity
  8
Ｓ_１_１
  6
CONTINUOUS
 62
     3
100
AcDbLine
 10
932.999992370608
 20
545.0000381469736
 30
0.0
 11
747.000007629397
 21
545.0000381469736
 31
0.0
  0
LINE
  5
3A2
330
1F
100
AcDbEntity
  8
Ｓ_１_１
  6
CONTINUOUS
 62
     3
100
AcDbLine
 10
781.7320464027059
 20
550.0000381469945
 30
0.0
 11
779.999999999957
 21
547.0000457763672
 31
0.0
  0
LINE
  5
3A3
330
1F
100
AcDbEntity
  8
Ｓ_１_１
  6
CONTINUOUS
 62
     3
100
AcDbLine
 10
745.0000000000025
 20
543.0000305175781
 30
0.0
 11
935.0000000000025
 21
543.0000305175781
 31
0.0
  0
LINE
  5
3A4
330
1F
100
AcDbEntity
  8
Ｓ_１_１
  6
CONTINUOUS
 62
     3
100
AcDbLine
 10
779.9999999999552
 20
547.0000457763699
 30
0.0
 11
779.9999999999552
 21
545.0000381469736
 31
0.0
  0
LINE
  5
3A5
330
1F
100
AcDbEntity
  8
Ｓ_１_１
  6
CONTINUOUS
 62
     3
100
AcDbLine
 10
898.2679535972991
 20
550.0000381469945
 30
0.0
 11
900.000000000048
 21
547.0000457763672
 31
0.0
  0
LINE
  5
3A6
330
1F
100
AcDbEntity
  8
Ｓ_１_１
  6
CONTINUOUS
 62
     3
100
AcDbLine
 10
900.0000000000498
 20
547.0000457763699
 30
0.0
 11
900.0000000000498
 21
545.0000381469736
 31
0.0
  0
LINE
  5
3A7
330
1F
100
AcDbEntity
  8
Ｓ_１_１
  6
CONTINUOUS
 62
     3
100
AcDbLine
 10
900.0000000000498
 20
547.0000457763672
 30
0.0
 11
780.0000000000024
 21
547.0000457763672
 31
0.0
  0
LINE
  5
3A8
330
1F
100
AcDbEntity
  8
Ｓ_１_１
  6
CONTINUOUS
 62
     3
100
AcDbLine
 10
781.7320464026932
 20
550.0000381469736
 30
0.0
 11
898.2679535973118
 21
550.0000381469736
 31
0.0
  0
ARC
  5
3A9
330
1F
100
AcDbEntity
  8
Ｓ_１_１
  6
CONTINUOUS
 62
     3
100
AcDbCircle
 10
840.0000000000024
 20
557.0000457763672
 30
0.0
 40
50.0000047683716
100
AcDbArc
 50
351.9522296620731
 51
357.7075486931419
  0
LINE
  5
3AA
330
1F
100
AcDbEntity
  8
Ｓ_１_１
  6
CONTINUOUS
 62
     3
100
AcDbLine
 10
790.0400115460458
 20
555.0000381469736
 30
0.0
 11
889.959988453959
 21
555.0000381469736
 31
0.0
  0
LINE
  5
3AB
330
1F
100
AcDbEntity
  8
Ｓ_１_１
  6
CONTINUOUS
 62
     3
100
AcDbLine
 10
935.5027409304936
 20
557.3868326667216
 30
0.0
 11
889.9599884539609
 21
555.0000381469908
 31
0.0
  0
LINE
  5
3AC
330
1F
100
AcDbEntity
  8
Ｓ_１_１
  6
CONTINUOUS
 62
     3
100
AcDbLine
 10
937.5000000000024
 20
559.4915045792077
 30
0.0
 11
935.5027409304936
 21
557.3868326667216
 31
0.0
  0
LINE
  5
3AD
330
1F
100
AcDbEntity
  8
Ｓ_１_１
  6
CONTINUOUS
 62
     3
100
AcDbLine
 10
744.4972590695113
 20
557.3868326667216
 30
0.0
 11
790.0400115460441
 21
555.0000381469908
 31
0.0
  0
LINE
  5
3AE
330
1F
100
AcDbEntity
  8
Ｓ_１_１
  6
CONTINUOUS
 62
     3
100
AcDbLine
 10
744.4972590695113
 20
557.3868326667216
 30
0.0
 11
742.5000000000025
 21
559.4915045792077
 31
0.0
  0
LINE
  5
3AF
330
1F
100
AcDbEntity
  8
Ｓ_１_１
  6
CONTINUOUS
 62
     3
100
AcDbLine
 10
744.4972590695149
 20
557.3868326667198
 30
0.0
 11
935.5027409304499
 21
557.3868326667198
 31
0.0
  0
LINE
  5
3B0
330
1F
100
AcDbEntity
  8
Ｓ_１_１
  6
CONTINUOUS
 62
     3
100
AcDbLine
 10
937.5000000000061
 20
559.4915045792095
 30
0.0
 11
742.5000000000025
 21
559.4915045792095
 31
0.0
  0
LINE
  5
3B1
330
1F
100
AcDbEntity
  8
Ｓ_１_１
  6
CONTINUOUS
 62
     3
100
AcDbLine
 10
1040.000000000003
 20
225.0000000000009
 30
0.0
 11
1040.000000000003
 21
200.0000000000009
 31
0.0
  0
LINE
  5
3B2
330
1F
100
AcDbEntity
  8
Ｓ_１_１
  6
CONTINUOUS
 62
     3
100
AcDbLine
 10
640.0000000000025
 20
225.0000000000009
 30
0.0
 11
640.0000000000025
 21
200.0000000000009
 31
0.0
  0
LINE
  5
3B3
330
1F
100
AcDbEntity
  8
Ｓ_１_１
  6
CONTINUOUS
 62
     3
100
AcDbLine
 10
640.0000000000025
 20
200.0000000000009
 30
0.0
 11
1040.000000000003
 21
200.0000000000009
 31
0.0
  0
LINE
  5
3B4
330
1F
100
AcDbEntity
  8
Ｓ_１_１
  6
CONTINUOUS
 62
     3
100
AcDbLine
 10
640.0000000000025
 20
225.0000000000009
 30
0.0
 11
1040.000000000003
 21
225.0000000000009
 31
0.0
  0
CIRCLE
  5
3B5
330
1F
100
AcDbEntity
  8
Ｓ_１_１
  6
CONTINUOUS
 62
     3
100
AcDbCircle
 10
840.0000000000061
 20
325.0000381469699
 30
0.0
 40
16.0
  0
CIRCLE
  5
3B6
330
1F
100
AcDbEntity
  8
Ｓ_１_１
  6
CONTINUOUS
 62
     3
100
AcDbCircle
 10
840.0000000000061
 20
325.0000381469699
 30
0.0
 40
14.58898671826498
  0
CIRCLE
  5
3B7
330
1F
100
AcDbEntity
  8
Ｓ_１_１
  6
CONTINUOUS
 62
     3
100
AcDbCircle
 10
840.0000000000061
 20
325.0000381469699
 30
0.0
 40
10.62462489497569
  0
CIRCLE
  5
3B8
330
1F
100
AcDbEntity
  8
Ｓ_１_１
  6
CONTINUOUS
 62
     3
100
AcDbCircle
 10
840.0000000000061
 20
325.0000381469699
 30
0.0
 40
4.98315573269052
  0
ARC
  5
3B9
330
1F
100
AcDbEntity
  8
Ｓ_１_１
  6
CONTINUOUS
 62
     3
100
AcDbCircle
 10
840.0000000000061
 20
325.0000381469699
 30
0.0
 40
35.0
100
AcDbArc
 50
179.9999999999934
 51
0.0000000000067036
  0
LINE
  5
3BA
330
1F
100
AcDbEntity
  8
Ｓ_１_１
  6
EXLTYPE8
 62
     1
100
AcDbLine
 10
800.1331068038951
 20
325.0000381469745
 30
0.0
 11
880.6331068038951
 21
325.0000381469745
 31
0.0
  0
POLYLINE
  5
3BB
330
1F
100
AcDbEntity
  8
Ｓ_１_１
  6
CONTINUOUS
 62
     3
100
AcDb2dPolyline
 66
     1
 10
0.0
 20
0.0
 30
0.0
 70
   128
  0
VERTEX
  5
3BC
330
3BB
100
AcDbEntity
  8
Ｓ_１_１
  6
CONTINUOUS
 62
     3
100
AcDbVertex
100
AcDb2dVertex
 10
840.0000000000061
 20
484.8564293487415
 30
0.0
  0
VERTEX
  5
3BD
330
3BB
100
AcDbEntity
  8
Ｓ_１_１
  6
CONTINUOUS
 62
     3
100
AcDbVertex
100
AcDb2dVertex
 10
852.0000000000061
 20
477.9282261184653
 30
0.0
  0
VERTEX
  5
3BE
330
3BB
100
AcDbEntity
  8
Ｓ_１_１
  6
CONTINUOUS
 62
     3
100
AcDbVertex
100
AcDb2dVertex
 10
852.0000000000061
 20
464.0718196579146
 30
0.0
  0
VERTEX
  5
3BF
330
3BB
100
AcDbEntity
  8
Ｓ_１_１
  6
CONTINUOUS
 62
     3
100
AcDbVertex
100
AcDb2dVertex
 10
840.0000000000061
 20
457.1436164276383
 30
0.0
  0
VERTEX
  5
3C0
330
3BB
100
AcDbEntity
  8
Ｓ_１_１
  6
CONTINUOUS
 62
     3
100
AcDbVertex
100
AcDb2dVertex
 10
828.0000000000061
 20
464.0718196579146
 30
0.0
  0
VERTEX
  5
3C1
330
3BB
100
AcDbEntity
  8
Ｓ_１_１
  6
CONTINUOUS
 62
     3
100
AcDbVertex
100
AcDb2dVertex
 10
828.0000000000061
 20
477.9282261184653
 30
0.0
  0
VERTEX
  5
3C2
330
3BB
100
AcDbEntity
  8
Ｓ_１_１
  6
CONTINUOUS
 62
     3
100
AcDbVertex
100
AcDb2dVertex
 10
840.0000000000061
 20
484.8564293487415
 30
0.0
  0
SEQEND
  5
3C3
330
3BB
100
AcDbEntity
  8
Ｓ_１_１
  6
CONTINUOUS
 62
     3
  0
CIRCLE
  5
3C4
330
1F
100
AcDbEntity
  8
Ｓ_１_１
  6
CONTINUOUS
 62
     3
100
AcDbCircle
 10
840.0000000000061
 20
471.0000228881899
 30
0.0
 40
12.00000000000102
  0
CIRCLE
  5
3C5
330
1F
100
AcDbEntity
  8
Ｓ_１_１
  6
CONTINUOUS
 62
     3
100
AcDbCircle
 10
840.0000000000061
 20
471.0000228881899
 30
0.0
 40
10.72532284355114
  0
CIRCLE
  5
3C6
330
1F
100
AcDbEntity
  8
Ｓ_１_１
  6
CONTINUOUS
 62
     3
100
AcDbCircle
 10
840.0000000000061
 20
471.0000228881899
 30
0.0
 40
6.323600530683808
  0
CIRCLE
  5
3C7
330
1F
100
AcDbEntity
  8
Ｓ_１_１
  6
CONTINUOUS
 62
     3
100
AcDbCircle
 10
840.0000000000061
 20
471.0000228881899
 30
0.0
 40
4.217842489549019
  0
LINE
  5
3C8
330
1F
100
AcDbEntity
  8
Ｓ_１_１
  6
CONTINUOUS
 62
     3
100
AcDbLine
 10
787.1961524226887
 20
240.0000000000018
 30
0.0
 11
772.1961524226887
 21
225.0000000000009
 31
0.0
  0
LINE
  5
3C9
330
1F
100
AcDbEntity
  8
Ｓ_１_１
  6
CONTINUOUS
 62
     3
100
AcDbLine
 10
892.8038475773144
 20
240.0000000000018
 30
0.0
 11
907.8038475773144
 21
225.0000000000009
 31
0.0
  0
LINE
  5
3CA
330
1F
100
AcDbEntity
  8
Ｓ_１_１
  6
CONTINUOUS
 62
     3
100
AcDbLine
 10
782.1961524226888
 20
235.0
 30
0.0
 11
897.8038475773162
 21
235.0
 31
0.0
  0
LINE
  5
3CB
330
1F
100
AcDbEntity
  8
Ｓ_１_１
  6
CONTINUOUS
 62
     3
100
AcDbLine
 10
540.0000000000025
 20
750.0000000000009
 30
0.0
 11
1140.000000000003
 21
750.0000000000009
 31
0.0
  0
LINE
  5
3CC
330
1F
100
AcDbEntity
  8
Ｓ_１_１
  6
CONTINUOUS
 62
     3
100
AcDbLine
 10
660.0000000000025
 20
590.0000381469736
 30
0.0
 11
1020.000000000002
 21
590.0000381469736
 31
0.0
  0
LINE
  5
3CD
330
1F
100
AcDbEntity
  8
Ｓ_１_１
  6
EXLTYPE6
 62
     1
100
AcDbLine
 10
690.0000000000025
 20
738.0464202880903
 30
0.0
 11
690.0000000000025
 21
600.0464202880903
 31
0.0
  0
LINE
  5
3CE
330
1F
100
AcDbEntity
  8
Ｓ_１_１
  6
CONTINUOUS
 62
     3
100
AcDbLine
 10
540.0000000000025
 20
734.0000000000009
 30
0.0
 11
1140.000000000003
 21
734.0000000000009
 31
0.0
  0
LINE
  5
3CF
330
1F
100
AcDbEntity
  8
Ｓ_１_１
  6
CONTINUOUS
 62
     3
100
AcDbLine
 10
660.0000000000025
 20
606.0000381469736
 30
0.0
 11
1020.000000000002
 21
606.0000381469736
 31
0.0
  0
LINE
  5
3D0
330
1F
100
AcDbEntity
  8
Ｓ_１_１
  6
CONTINUOUS
 62
     3
100
AcDbLine
 10
660.0000000000025
 20
606.0000381469736
 30
0.0
 11
660.0000000000025
 21
590.0000381469736
 31
0.0
  0
LINE
  5
3D1
330
1F
100
AcDbEntity
  8
Ｓ_１_１
  6
CONTINUOUS
 62
     3
100
AcDbLine
 10
1020.000000000002
 20
606.0000381469736
 30
0.0
 11
1020.000000000002
 21
590.0000381469736
 31
0.0
  0
LINE
  5
3D2
330
1F
100
AcDbEntity
  8
Ｓ_１_１
  6
CONTINUOUS
 62
     3
100
AcDbLine
 10
1140.000000000003
 20
750.0000000000009
 30
0.0
 11
1140.000000000003
 21
734.0000000000009
 31
0.0
  0
LINE
  5
3D3
330
1F
100
AcDbEntity
  8
Ｓ_１_１
  6
CONTINUOUS
 62
     3
100
AcDbLine
 10
540.0000000000025
 20
750.0000000000009
 30
0.0
 11
540.0000000000025
 21
734.0000000000009
 31
0.0
  0
LINE
  5
3D4
330
1F
100
AcDbEntity
  8
Ｓ_１_１
  6
CONTINUOUS
 62
     3
100
AcDbLine
 10
696.0000000000025
 20
734.0000000000009
 30
0.0
 11
696.0000000000025
 21
606.0000381469736
 31
0.0
  0
LINE
  5
3D5
330
1F
100
AcDbEntity
  8
Ｓ_１_１
  6
CONTINUOUS
 62
     3
100
AcDbLine
 10
684.0000000000025
 20
734.0000000000009
 30
0.0
 11
684.0000000000025
 21
606.0000381469736
 31
0.0
  0
LINE
  5
3D6
330
1F
100
AcDbEntity
  8
Ｓ_１_１
  6
EXLTYPE6
 62
     1
100
AcDbLine
 10
990.0000000000024
 20
738.0464202880903
 30
0.0
 11
990.0000000000024
 21
600.0464202880903
 31
0.0
  0
LINE
  5
3D7
330
1F
100
AcDbEntity
  8
Ｓ_１_１
  6
CONTINUOUS
 62
     3
100
AcDbLine
 10
984.0000000000024
 20
734.0000000000009
 30
0.0
 11
984.0000000000024
 21
606.0000381469736
 31
0.0
  0
LINE
  5
3D8
330
1F
100
AcDbEntity
  8
Ｓ_１_１
  6
CONTINUOUS
 62
     3
100
AcDbLine
 10
996.0000000000024
 20
734.0000000000009
 30
0.0
 11
996.0000000000024
 21
606.0000381469736
 31
0.0
  0
LINE
  5
3D9
330
1F
100
AcDbEntity
  8
Ｓ_１_１
  6
CONTINUOUS
 62
     3
100
AcDbLine
 10
827.5000000000025
 20
734.0000000000009
 30
0.0
 11
827.5000000000025
 21
606.0000381469736
 31
0.0
  0
LINE
  5
3DA
330
1F
100
AcDbEntity
  8
Ｓ_１_１
  6
CONTINUOUS
 62
     3
100
AcDbLine
 10
852.5000000000025
 20
734.0000000000009
 30
0.0
 11
852.5000000000025
 21
606.0000381469736
 31
0.0
  0
LINE
  5
3DB
330
1F
100
AcDbEntity
  8
Ｓ_１_１
  6
CONTINUOUS
 62
     3
100
AcDbLine
 10
955.0000000000025
 20
590.0000381469736
 30
0.0
 11
955.0000000000025
 21
578.0000381469736
 31
0.0
  0
LINE
  5
3DC
330
1F
100
AcDbEntity
  8
Ｓ_１_１
  6
CONTINUOUS
 62
     3
100
AcDbLine
 10
725.0000000000025
 20
590.0000381469736
 30
0.0
 11
725.0000000000025
 21
578.0000381469736
 31
0.0
  0
LINE
  5
3DD
330
1F
100
AcDbEntity
  8
Ｓ_１_１
  6
CONTINUOUS
 62
     3
100
AcDbLine
 10
725.0000000000025
 20
578.0000381469736
 30
0.0
 11
955.0000000000025
 21
578.0000381469736
 31
0.0
  0
LINE
  5
3DE
330
1F
100
AcDbEntity
  8
Ｓ_１_１
  6
CONTINUOUS
 62
     3
100
AcDbLine
 10
970.0000000000061
 20
585.0000381469736
 30
0.0
 11
1010.000000000006
 21
585.0000381469736
 31
0.0
  0
LINE
  5
3DF
330
1F
100
AcDbEntity
  8
Ｓ_１_１
  6
CONTINUOUS
 62
     3
100
AcDbLine
 10
942.8038475773252
 20
410.0
 30
0.0
 11
937.8038475773253
 21
420.0
 31
0.0
  0
LINE
  5
3E0
330
1F
100
AcDbEntity
  8
Ｓ_１_１
  6
CONTINUOUS
 62
     3
100
AcDbLine
 10
948.196152422736
 20
420.0000000000009
 30
0.0
 11
892.8038475773161
 21
420.0000000000009
 31
0.0
  0
LINE
  5
3E1
330
1F
100
AcDbEntity
  8
Ｓ_１_１
  6
CONTINUOUS
 62
     3
100
AcDbLine
 10
953.1961524227361
 20
410.0
 30
0.0
 11
948.196152422736
 21
420.0
 31
0.0
  0
LINE
  5
3E2
330
1F
100
AcDbEntity
  8
Ｓ_１_１
  6
CONTINUOUS
 62
     3
100
AcDbLine
 10
953.1961524227361
 20
410.0000000000009
 30
0.0
 11
942.8038475773252
 21
410.0000000000009
 31
0.0
  0
LINE
  5
3E3
330
1F
100
AcDbEntity
  8
Ｓ_１_１
  6
CONTINUOUS
 62
     3
100
AcDbLine
 10
956.0000000000025
 20
432.0000000000009
 30
0.0
 11
953.0000000000025
 21
435.0000000000009
 31
0.0
  0
LINE
  5
3E4
330
1F
100
AcDbEntity
  8
Ｓ_１_１
  6
CONTINUOUS
 62
     3
100
AcDbLine
 10
727.0000000000025
 20
435.0000000000009
 30
0.0
 11
724.0000000000025
 21
432.0000000000009
 31
0.0
  0
LINE
  5
3E5
330
1F
100
AcDbEntity
  8
Ｓ_１_１
  6
CONTINUOUS
 62
     3
100
AcDbLine
 10
956.000000000006
 20
432.0
 30
0.0
 11
875.000000000006
 21
432.0
 31
0.0
  0
LINE
  5
3E6
330
1F
100
AcDbEntity
  8
Ｓ_１_１
  6
CONTINUOUS
 62
     3
100
AcDbLine
 10
875.000000000006
 20
435.0000000000009
 30
0.0
 11
953.0000000000025
 21
435.0000000000009
 31
0.0
  0
LINE
  5
3E7
330
1F
100
AcDbEntity
  8
Ｓ_１_１
  6
CONTINUOUS
 62
     3
100
AcDbLine
 10
727.0000000000025
 20
435.0000000000009
 30
0.0
 11
805.0000000000061
 21
435.0000000000009
 31
0.0
  0
LINE
  5
3E8
330
1F
100
AcDbEntity
  8
Ｓ_１_１
  6
CONTINUOUS
 62
     3
100
AcDbLine
 10
805.0000000000061
 20
432.0
 30
0.0
 11
724.0000000000025
 21
432.0
 31
0.0
  0
LINE
  5
3E9
330
1F
100
AcDbEntity
  8
Ｓ_１_１
  6
CONTINUOUS
 62
     3
100
AcDbLine
 10
956.0000000000025
 20
432.0000000000009
 30
0.0
 11
956.0000000000025
 21
420.0
 31
0.0
  0
LINE
  5
3EA
330
1F
100
AcDbEntity
  8
Ｓ_１_１
  6
CONTINUOUS
 62
     3
100
AcDbLine
 10
737.1961524226797
 20
410.0
 30
0.0
 11
742.1961524226797
 21
420.0
 31
0.0
  0
LINE
  5
3EB
330
1F
100
AcDbEntity
  8
Ｓ_１_１
  6
CONTINUOUS
 62
     3
100
AcDbLine
 10
731.8038475772689
 20
420.0000000000009
 30
0.0
 11
787.1961524226887
 21
420.0000000000009
 31
0.0
  0
LINE
  5
3EC
330
1F
100
AcDbEntity
  8
Ｓ_１_１
  6
CONTINUOUS
 62
     3
100
AcDbLine
 10
726.8038475772689
 20
410.0
 30
0.0
 11
731.8038475772689
 21
420.0
 31
0.0
  0
LINE
  5
3ED
330
1F
100
AcDbEntity
  8
Ｓ_１_１
  6
CONTINUOUS
 62
     3
100
AcDbLine
 10
726.8038475772689
 20
410.0000000000009
 30
0.0
 11
737.1961524226797
 21
410.0000000000009
 31
0.0
  0
LINE
  5
3EE
330
1F
100
AcDbEntity
  8
Ｓ_１_１
  6
CONTINUOUS
 62
     3
100
AcDbLine
 10
724.0000000000025
 20
432.0000000000009
 30
0.0
 11
724.0000000000025
 21
420.0
 31
0.0
  0
LINE
  5
3EF
330
1F
100
AcDbEntity
  8
Ｓ_１_１
  6
CONTINUOUS
 62
     3
100
AcDbLine
 10
965.000000000006
 20
438.0
 30
0.0
 11
965.000000000006
 21
420.0
 31
0.0
  0
LINE
  5
3F0
330
1F
100
AcDbEntity
  8
Ｓ_１_１
  6
CONTINUOUS
 62
     3
100
AcDbLine
 10
1030.061487217456
 20
410.0
 30
0.0
 11
1030.061487217456
 21
225.0000000000009
 31
0.0
  0
LINE
  5
3F1
330
1F
100
AcDbEntity
  8
Ｓ_１_１
  6
CONTINUOUS
 62
     3
100
AcDbLine
 10
953.1961524227361
 20
410.0000000000009
 30
0.0
 11
953.1961524227341
 21
225.0000000000009
 31
0.0
  0
LINE
  5
3F2
330
1F
100
AcDbEntity
  8
Ｓ_１_１
  6
CONTINUOUS
 62
     3
100
AcDbLine
 10
942.8038475773252
 20
410.0000000000009
 30
0.0
 11
942.8038475773252
 21
225.0000000000009
 31
0.0
  0
LINE
  5
3F3
330
1F
100
AcDbEntity
  8
Ｓ_１_１
  6
CONTINUOUS
 62
     3
100
AcDbLine
 10
892.8038475773161
 20
420.0000000000009
 30
0.0
 11
892.8038475773144
 21
240.0000000000009
 31
0.0
  0
LINE
  5
3F4
330
1F
100
AcDbEntity
  8
Ｓ_１_１
  6
CONTINUOUS
 62
     3
100
AcDbLine
 10
875.000000000006
 20
325.0000381469699
 30
0.0
 11
875.000000000006
 21
435.0000000000009
 31
0.0
  0
LINE
  5
3F5
330
1F
100
AcDbEntity
  8
Ｓ_１_１
  6
CONTINUOUS
 62
     3
100
AcDbLine
 10
805.0000000000061
 20
325.0000381469699
 30
0.0
 11
805.0000000000061
 21
435.0000000000009
 31
0.0
  0
LINE
  5
3F6
330
1F
100
AcDbEntity
  8
Ｓ_１_１
  6
CONTINUOUS
 62
     3
100
AcDbLine
 10
787.1961524226887
 20
420.0000000000009
 30
0.0
 11
787.1961524226887
 21
240.0000000000009
 31
0.0
  0
LINE
  5
3F7
330
1F
100
AcDbEntity
  8
Ｓ_１_１
  6
CONTINUOUS
 62
     3
100
AcDbLine
 10
737.1961524226797
 20
410.0000000000009
 30
0.0
 11
737.1961524226797
 21
225.0000000000009
 31
0.0
  0
LINE
  5
3F8
330
1F
100
AcDbEntity
  8
Ｓ_１_１
  6
CONTINUOUS
 62
     3
100
AcDbLine
 10
726.8038475772689
 20
410.0
 30
0.0
 11
726.8038475772689
 21
225.0000000000009
 31
0.0
  0
LINE
  5
3F9
330
1F
100
AcDbEntity
  8
Ｓ_１_１
  6
CONTINUOUS
 62
     3
100
AcDbLine
 10
649.9385127825487
 20
410.0
 30
0.0
 11
649.9385127825487
 21
225.0000000000009
 31
0.0
  0
LINE
  5
3FA
330
1F
100
AcDbEntity
  8
Ｓ_１_１
  6
CONTINUOUS
 62
     3
100
AcDbLine
 10
935.0000000000025
 20
543.0000305175781
 30
0.0
 11
935.0000000000025
 21
435.0000000000009
 31
0.0
  0
LINE
  5
3FB
330
1F
100
AcDbEntity
  8
Ｓ_１_１
  6
CONTINUOUS
 62
     3
100
AcDbLine
 10
745.0000000000025
 20
435.0000000000009
 30
0.0
 11
745.0000000000025
 21
543.0000305175781
 31
0.0
  0
LINE
  5
3FC
330
1F
100
AcDbEntity
  8
Ｓ_１_１
  6
CONTINUOUS
 62
     3
100
AcDbLine
 10
970.0000000000025
 20
451.00002288819
 30
0.0
 11
940.0000000000025
 21
451.00002288819
 31
0.0
  0
LINE
  5
3FD
330
1F
100
AcDbEntity
  8
Ｓ_１_１
  6
CONTINUOUS
 62
     3
100
AcDbLine
 10
940.0000000000025
 20
491.00002288819
 30
0.0
 11
940.0000000000025
 21
451.00002288819
 31
0.0
  0
LINE
  5
3FE
330
1F
100
AcDbEntity
  8
Ｓ_１_１
  6
CONTINUOUS
 62
     3
100
AcDbLine
 10
970.0000000000025
 20
491.00002288819
 30
0.0
 11
940.0000000000025
 21
491.00002288819
 31
0.0
  0
LINE
  5
3FF
330
1F
100
AcDbEntity
  8
Ｓ_１_１
  6
CONTINUOUS
 62
     3
100
AcDbLine
 10
934.999999999977
 20
496.0000228881572
 30
0.0
 11
939.9999999999442
 21
491.00002288819
 31
0.0
  0
LINE
  5
400
330
1F
100
AcDbEntity
  8
Ｓ_１_１
  6
CONTINUOUS
 62
     3
100
AcDbLine
 10
934.999999999977
 20
446.0000228882227
 30
0.0
 11
939.9999999999442
 21
451.00002288819
 31
0.0
  0
LINE
  5
401
330
1F
100
AcDbEntity
  8
Ｓ_１_１
  6
EXLTYPE6
 62
     1
100
AcDbLine
 10
929.9331068038961
 20
471.0000228881899
 30
0.0
 11
978.293106803895
 21
471.0000228881899
 31
0.0
  0
LINE
  5
402
330
1F
100
AcDbEntity
  8
Ｓ_１_１
  6
EXLTYPE6
 62
     1
100
AcDbLine
 10
957.5000000000025
 20
456.0000228881899
 30
0.0
 11
957.5000000000025
 21
486.0000228881899
 31
0.0
  0
CIRCLE
  5
403
330
1F
100
AcDbEntity
  8
Ｓ_１_１
  6
CONTINUOUS
 62
     3
100
AcDbCircle
 10
957.4999999999951
 20
471.0000228881899
 30
0.0
 40
6.0
  0
LINE
  5
404
330
1F
100
AcDbEntity
  8
Ｓ_１_１
  6
EXLTYPE7
 62
     2
100
AcDbLine
 10
975.0000000000024
 20
486.0000228881899
 30
0.0
 11
970.0000000000025
 21
491.00002288819
 31
0.0
  0
LINE
  5
405
330
1F
100
AcDbEntity
  8
Ｓ_１_１
  6
EXLTYPE7
 62
     2
100
AcDbLine
 10
975.0000000000024
 20
456.0000228881899
 30
0.0
 11
970.0000000000025
 21
451.00002288819
 31
0.0
  0
LINE
  5
406
330
1F
100
AcDbEntity
  8
Ｓ_１_１
  6
EXLTYPE7
 62
     2
100
AcDbLine
 10
975.0000000000024
 20
456.0000228881899
 30
0.0
 11
975.0000000000024
 21
486.0000228881899
 31
0.0
  0
LINE
  5
407
330
1F
100
AcDbEntity
  8
Ｓ_１_１
  6
CONTINUOUS
 62
     3
100
AcDbLine
 10
709.9999999999989
 20
585.0000381469736
 30
0.0
 11
669.9999999999989
 21
585.0000381469736
 31
0.0
  0
LINE
  5
408
330
1F
100
AcDbEntity
  8
Ｓ_１_１
  6
CONTINUOUS
 62
     3
100
AcDbLine
 10
714.9999999999989
 20
438.0
 30
0.0
 11
714.9999999999989
 21
420.0
 31
0.0
  0
LINE
  5
409
330
1F
100
AcDbEntity
  8
Ｓ_１_１
  6
CONTINUOUS
 62
     3
100
AcDbLine
 10
710.0000000000025
 20
451.00002288819
 30
0.0
 11
740.0000000000025
 21
451.00002288819
 31
0.0
  0
LINE
  5
40A
330
1F
100
AcDbEntity
  8
Ｓ_１_１
  6
CONTINUOUS
 62
     3
100
AcDbLine
 10
740.0000000000025
 20
491.00002288819
 30
0.0
 11
740.0000000000025
 21
451.00002288819
 31
0.0
  0
LINE
  5
40B
330
1F
100
AcDbEntity
  8
Ｓ_１_１
  6
CONTINUOUS
 62
     3
100
AcDbLine
 10
710.0000000000025
 20
491.00002288819
 30
0.0
 11
740.0000000000025
 21
491.00002288819
 31
0.0
  0
LINE
  5
40C
330
1F
100
AcDbEntity
  8
Ｓ_１_１
  6
CONTINUOUS
 62
     3
100
AcDbLine
 10
745.000000000028
 20
496.0000228881572
 30
0.0
 11
740.0000000000607
 21
491.00002288819
 31
0.0
  0
LINE
  5
40D
330
1F
100
AcDbEntity
  8
Ｓ_１_１
  6
CONTINUOUS
 62
     3
100
AcDbLine
 10
745.000000000028
 20
446.0000228882227
 30
0.0
 11
740.0000000000607
 21
451.00002288819
 31
0.0
  0
LINE
  5
40E
330
1F
100
AcDbEntity
  8
Ｓ_１_１
  6
EXLTYPE6
 62
     1
100
AcDbLine
 10
750.0668931961088
 20
471.0000228881899
 30
0.0
 11
701.7068931961101
 21
471.0000228881899
 31
0.0
  0
LINE
  5
40F
330
1F
100
AcDbEntity
  8
Ｓ_１_１
  6
EXLTYPE6
 62
     1
100
AcDbLine
 10
722.5000000000025
 20
456.0000228881899
 30
0.0
 11
722.5000000000025
 21
486.0000228881899
 31
0.0
  0
CIRCLE
  5
410
330
1F
100
AcDbEntity
  8
Ｓ_１_１
  6
CONTINUOUS
 62
     3
100
AcDbCircle
 10
722.5000000000098
 20
471.0000228881899
 30
0.0
 40
6.0
  0
LINE
  5
411
330
1F
100
AcDbEntity
  8
Ｓ_１_１
  6
EXLTYPE7
 62
     2
100
AcDbLine
 10
705.0000000000025
 20
486.0000228881899
 30
0.0
 11
710.0000000000025
 21
491.00002288819
 31
0.0
  0
LINE
  5
412
330
1F
100
AcDbEntity
  8
Ｓ_１_１
  6
EXLTYPE7
 62
     2
100
AcDbLine
 10
705.0000000000025
 20
456.0000228881899
 30
0.0
 11
710.0000000000025
 21
451.00002288819
 31
0.0
  0
LINE
  5
413
330
1F
100
AcDbEntity
  8
Ｓ_１_１
  6
EXLTYPE7
 62
     2
100
AcDbLine
 10
705.0000000000025
 20
456.0000228881899
 30
0.0
 11
705.0000000000025
 21
486.0000228881899
 31
0.0
  0
LINE
  5
414
330
1F
100
AcDbEntity
  8
Ｓ_１_１
  6
EXLTYPE7
 62
     2
100
AcDbLine
 10
674.9999999999989
 20
585.0000381469736
 30
0.0
 11
674.9999999999989
 21
438.0
 31
0.0
  0
LINE
  5
415
330
1F
100
AcDbEntity
  8
Ｓ_１_１
  6
EXLTYPE7
 62
     2
100
AcDbLine
 10
938.5000000000025
 20
578.0000381469736
 30
0.0
 11
938.5000000000025
 21
590.0000381469736
 31
0.0
  0
LINE
  5
416
330
1F
100
AcDbEntity
  8
Ｓ_１_１
  6
CONTINUOUS
 62
     3
100
AcDbLine
 10
937.5000000000024
 20
559.4915045792077
 30
0.0
 11
937.5000000000024
 21
578.0000381469736
 31
0.0
  0
LINE
  5
417
330
1F
100
AcDbEntity
  8
Ｓ_１_１
  6
EXLTYPE7
 62
     2
100
AcDbLine
 10
937.4999999999952
 20
578.0000381469699
 30
0.0
 11
937.4999999999952
 21
590.0000381469736
 31
0.0
  0
LINE
  5
418
330
1F
100
AcDbEntity
  8
Ｓ_１_１
  6
CONTINUOUS
 62
     3
100
AcDbLine
 10
742.5000000000025
 20
559.4915045792077
 30
0.0
 11
742.5000000000025
 21
578.0000381469736
 31
0.0
  0
LINE
  5
419
330
1F
100
AcDbEntity
  8
Ｓ_１_１
  6
EXLTYPE7
 62
     2
100
AcDbLine
 10
741.5000000000025
 20
578.0000381469736
 30
0.0
 11
741.5000000000025
 21
590.0000381469736
 31
0.0
  0
LINE
  5
41A
330
1F
100
AcDbEntity
  8
Ｓ_１_１
  6
EXLTYPE7
 62
     2
100
AcDbLine
 10
742.5000000000098
 20
578.0000381469699
 30
0.0
 11
742.5000000000098
 21
590.0000381469736
 31
0.0
  0
LINE
  5
41B
330
1F
100
AcDbEntity
  8
Ｓ_１_１
  6
CONTINUOUS
 62
     3
100
AcDbLine
 10
1020.000000000006
 20
225.0000000000009
 30
0.0
 11
1020.000000000006
 21
200.0000000000009
 31
0.0
  0
LINE
  5
41C
330
1F
100
AcDbEntity
  8
Ｓ_１_１
  6
CONTINUOUS
 62
     3
100
AcDbLine
 10
659.9999999999989
 20
225.0000000000009
 30
0.0
 11
659.9999999999989
 21
200.0000000000009
 31
0.0
  0
LINE
  5
41D
330
1F
100
AcDbEntity
  8
Ｓ_１_１
  6
CONTINUOUS
 62
     3
100
AcDbLine
 10
1030.000000000006
 20
438.0
 30
0.0
 11
1030.000000000006
 21
420.0
 31
0.0
  0
LINE
  5
41E
330
1F
100
AcDbEntity
  8
Ｓ_１_１
  6
CONTINUOUS
 62
     3
100
AcDbLine
 10
965.000000000006
 20
438.0
 30
0.0
 11
1030.000000000006
 21
438.0
 31
0.0
  0
LINE
  5
41F
330
1F
100
AcDbEntity
  8
Ｓ_１_１
  6
CONTINUOUS
 62
     3
100
AcDbLine
 10
965.000000000006
 20
429.0
 30
0.0
 11
1030.000000000006
 21
429.0
 31
0.0
  0
LINE
  5
420
330
1F
100
AcDbEntity
  8
Ｓ_１_１
  6
CONTINUOUS
 62
     3
100
AcDbLine
 10
948.196152422736
 20
420.0
 30
0.0
 11
1030.000000000006
 21
420.0
 31
0.0
  0
LINE
  5
421
330
1F
100
AcDbEntity
  8
Ｓ_１_１
  6
CONTINUOUS
 62
     3
100
AcDbLine
 10
967.9999999999916
 20
438.0
 30
0.0
 11
967.9999999999916
 21
440.4999999999999
 31
0.0
  0
LINE
  5
422
330
1F
100
AcDbEntity
  8
Ｓ_１_１
  6
CONTINUOUS
 62
     3
100
AcDbLine
 10
991.9999999999916
 20
438.0
 30
0.0
 11
991.9999999999916
 21
440.4999999999999
 31
0.0
  0
LINE
  5
423
330
1F
100
AcDbEntity
  8
Ｓ_１_１
  6
CONTINUOUS
 62
     3
100
AcDbLine
 10
991.9999999999916
 20
440.4999999999999
 30
0.0
 11
967.9999999999916
 21
440.4999999999999
 31
0.0
  0
LINE
  5
424
330
1F
100
AcDbEntity
  8
Ｓ_１_１
  6
CONTINUOUS
 62
     3
100
AcDbLine
 10
991.9999999999916
 20
420.0
 30
0.0
 11
991.9999999999916
 21
417.5
 31
0.0
  0
LINE
  5
425
330
1F
100
AcDbEntity
  8
Ｓ_１_１
  6
CONTINUOUS
 62
     3
100
AcDbLine
 10
967.9999999999916
 20
420.0
 30
0.0
 11
967.9999999999916
 21
417.5
 31
0.0
  0
LINE
  5
426
330
1F
100
AcDbEntity
  8
Ｓ_１_１
  6
CONTINUOUS
 62
     3
100
AcDbLine
 10
967.9999999999916
 20
417.5
 30
0.0
 11
991.9999999999916
 21
417.5
 31
0.0
  0
LINE
  5
427
330
1F
100
AcDbEntity
  8
Ｓ_１_１
  6
CONTINUOUS
 62
     3
100
AcDbLine
 10
990.9696551145905
 20
410.3485057760317
 30
0.0
 11
989.4999999999898
 21
409.5
 31
0.0
  0
LINE
  5
428
330
1F
100
AcDbEntity
  8
Ｓ_１_１
  6
CONTINUOUS
 62
     3
100
AcDbLine
 10
969.0303448853925
 20
410.3485057760317
 30
0.0
 11
970.4999999999934
 21
409.5
 31
0.0
  0
LINE
  5
429
330
1F
100
AcDbEntity
  8
Ｓ_１_１
  6
CONTINUOUS
 62
     3
100
AcDbLine
 10
969.0303448853908
 20
410.3485057760317
 30
0.0
 11
969.0303448853908
 21
417.5
 31
0.0
  0
LINE
  5
42A
330
1F
100
AcDbEntity
  8
Ｓ_１_１
  6
CONTINUOUS
 62
     3
100
AcDbLine
 10
970.4999999999915
 20
409.5
 30
0.0
 11
989.4999999999916
 21
409.5
 31
0.0
  0
LINE
  5
42B
330
1F
100
AcDbEntity
  8
Ｓ_１_１
  6
CONTINUOUS
 62
     3
100
AcDbLine
 10
990.9696551145922
 20
410.3485057760317
 30
0.0
 11
990.9696551145922
 21
417.5
 31
0.0
  0
LINE
  5
42C
330
1F
100
AcDbEntity
  8
Ｓ_１_１
  6
CONTINUOUS
 62
     3
100
AcDbLine
 10
974.4327190779811
 20
410.3485057760299
 30
0.0
 11
974.4327190779811
 21
417.5
 31
0.0
  0
LINE
  5
42D
330
1F
100
AcDbEntity
  8
Ｓ_１_１
  6
CONTINUOUS
 62
     3
100
AcDbLine
 10
985.567280922002
 20
410.3485057760299
 30
0.0
 11
985.567280922002
 21
417.5
 31
0.0
  0
ARC
  5
42E
330
1F
100
AcDbEntity
  8
Ｓ_１_１
  6
CONTINUOUS
 62
     3
100
AcDbCircle
 10
990.9623498033895
 20
425.8158956141287
 30
0.0
 40
16.38129777028174
100
AcDbArc
 50
250.7710852792693
 51
264.8784182429786
  0
ARC
  5
42F
330
1F
100
AcDbEntity
  8
Ｓ_１_１
  6
CONTINUOUS
 62
     3
100
AcDbCircle
 10
979.9999999999916
 20
428.1884873459076
 30
0.0
 40
18.68848734590722
100
AcDbArc
 50
252.6685466643336
 51
287.3314533356664
  0
LINE
  5
430
330
1F
100
AcDbEntity
  8
Ｓ_１_１
  6
CONTINUOUS
 62
     3
100
AcDbLine
 10
969.0303448853925
 20
449.6514942239683
 30
0.0
 11
970.4999999999934
 21
450.5
 31
0.0
  0
LINE
  5
431
330
1F
100
AcDbEntity
  8
Ｓ_１_１
  6
CONTINUOUS
 62
     3
100
AcDbLine
 10
990.9696551145905
 20
449.6514942239683
 30
0.0
 11
989.4999999999898
 21
450.5
 31
0.0
  0
LINE
  5
432
330
1F
100
AcDbEntity
  8
Ｓ_１_１
  6
CONTINUOUS
 62
     3
100
AcDbLine
 10
989.4999999999916
 20
450.5
 30
0.0
 11
970.4999999999915
 21
450.5
 31
0.0
  0
ARC
  5
433
330
1F
100
AcDbEntity
  8
Ｓ_１_１
  6
CONTINUOUS
 62
     3
100
AcDbCircle
 10
969.0376501965935
 20
434.1841043858712
 30
0.0
 40
16.38129777028174
100
AcDbArc
 50
70.77108527926924
 51
84.87841824297854
  0
ARC
  5
434
330
1F
100
AcDbEntity
  8
Ｓ_１_１
  6
CONTINUOUS
 62
     3
100
AcDbCircle
 10
979.9999999999916
 20
431.8115126540924
 30
0.0
 40
18.68848734590722
100
AcDbArc
 50
72.66854666433362
 51
107.3314533356664
  0
LINE
  5
435
330
1F
100
AcDbEntity
  8
Ｓ_１_１
  6
CONTINUOUS
 62
     3
100
AcDbLine
 10
990.9696551145922
 20
449.6514942239683
 30
0.0
 11
990.9696551145922
 21
440.4999999999999
 31
0.0
  0
LINE
  5
436
330
1F
100
AcDbEntity
  8
Ｓ_１_１
  6
CONTINUOUS
 62
     3
100
AcDbLine
 10
985.567280922002
 20
449.6514942239701
 30
0.0
 11
985.567280922002
 21
440.4999999999999
 31
0.0
  0
LINE
  5
437
330
1F
100
AcDbEntity
  8
Ｓ_１_１
  6
CONTINUOUS
 62
     3
100
AcDbLine
 10
974.4327190779811
 20
449.6514942239701
 30
0.0
 11
974.4327190779811
 21
440.4999999999999
 31
0.0
  0
LINE
  5
438
330
1F
100
AcDbEntity
  8
Ｓ_１_１
  6
CONTINUOUS
 62
     3
100
AcDbLine
 10
969.0303448853908
 20
449.6514942239701
 30
0.0
 11
969.0303448853908
 21
440.4999999999999
 31
0.0
  0
ARC
  5
439
330
1F
100
AcDbEntity
  8
Ｓ_１_１
  6
CONTINUOUS
 62
     3
100
AcDbCircle
 10
990.9623498033895
 20
434.1841043858712
 30
0.0
 40
16.38129777028174
100
AcDbArc
 50
95.12158175702145
 51
109.2289147207308
  0
ARC
  5
43A
330
1F
100
AcDbEntity
  8
Ｓ_１_１
  6
CONTINUOUS
 62
     3
100
AcDbCircle
 10
969.0376501965935
 20
425.8158956141287
 30
0.0
 40
16.38129777028174
100
AcDbArc
 50
275.1215817570214
 51
289.2289147207308
  0
LINE
  5
43B
330
1F
100
AcDbEntity
  8
Ｓ_１_１
  6
CONTINUOUS
 62
     3
100
AcDbLine
 10
985.2499999999916
 20
450.5
 30
0.0
 11
985.2499999999916
 21
457.5
 31
0.0
  0
LINE
  5
43C
330
1F
100
AcDbEntity
  8
Ｓ_１_１
  6
CONTINUOUS
 62
     3
100
AcDbLine
 10
974.7499999999916
 20
450.5
 30
0.0
 11
974.7499999999916
 21
457.5
 31
0.0
  0
LINE
  5
43D
330
1F
100
AcDbEntity
  8
Ｓ_１_１
  6
CONTINUOUS
 62
     3
100
AcDbLine
 10
985.9999999999916
 20
456.75
 30
0.0
 11
985.9999999999916
 21
450.5
 31
0.0
  0
LINE
  5
43E
330
1F
100
AcDbEntity
  8
Ｓ_１_１
  6
CONTINUOUS
 62
     3
100
AcDbLine
 10
985.2499999999916
 20
457.5
 30
0.0
 11
985.9999999999916
 21
456.75
 31
0.0
  0
LINE
  5
43F
330
1F
100
AcDbEntity
  8
Ｓ_１_１
  6
CONTINUOUS
 62
     3
100
AcDbLine
 10
974.7499999999916
 20
457.5
 30
0.0
 11
973.9999999999916
 21
456.75
 31
0.0
  0
LINE
  5
440
330
1F
100
AcDbEntity
  8
Ｓ_１_１
  6
CONTINUOUS
 62
     3
100
AcDbLine
 10
985.2499999999916
 20
457.5
 30
0.0
 11
974.7499999999916
 21
457.5
 31
0.0
  0
LINE
  5
441
330
1F
100
AcDbEntity
  8
Ｓ_１_１
  6
CONTINUOUS
 62
     3
100
AcDbLine
 10
973.9999999999916
 20
450.5
 30
0.0
 11
973.9999999999916
 21
456.75
 31
0.0
  0
LINE
  5
442
330
1F
100
AcDbEntity
  8
Ｓ_１_１
  6
CONTINUOUS
 62
     3
100
AcDbLine
 10
985.9999999999916
 20
456.75
 30
0.0
 11
973.9999999999916
 21
456.75
 31
0.0
  0
LINE
  5
443
330
1F
100
AcDbEntity
  8
Ｓ_１_１
  6
EXLTYPE6
 62
     1
100
AcDbLine
 10
979.9999999999916
 20
406.63357971191
 30
0.0
 11
979.9999999999916
 21
461.4735797119101
 31
0.0
  0
LINE
  5
444
330
1F
100
AcDbEntity
  8
Ｓ_１_１
  6
CONTINUOUS
 62
     3
100
AcDbLine
 10
1003.000000000001
 20
438.0
 30
0.0
 11
1003.000000000001
 21
440.4999999999999
 31
0.0
  0
LINE
  5
445
330
1F
100
AcDbEntity
  8
Ｓ_１_１
  6
CONTINUOUS
 62
     3
100
AcDbLine
 10
1027.000000000001
 20
438.0
 30
0.0
 11
1027.000000000001
 21
440.4999999999999
 31
0.0
  0
LINE
  5
446
330
1F
100
AcDbEntity
  8
Ｓ_１_１
  6
CONTINUOUS
 62
     3
100
AcDbLine
 10
1027.000000000001
 20
440.4999999999999
 30
0.0
 11
1003.000000000001
 21
440.4999999999999
 31
0.0
  0
LINE
  5
447
330
1F
100
AcDbEntity
  8
Ｓ_１_１
  6
CONTINUOUS
 62
     3
100
AcDbLine
 10
1027.000000000001
 20
420.0
 30
0.0
 11
1027.000000000001
 21
417.5
 31
0.0
  0
LINE
  5
448
330
1F
100
AcDbEntity
  8
Ｓ_１_１
  6
CONTINUOUS
 62
     3
100
AcDbLine
 10
1003.000000000001
 20
420.0
 30
0.0
 11
1003.000000000001
 21
417.5
 31
0.0
  0
LINE
  5
449
330
1F
100
AcDbEntity
  8
Ｓ_１_１
  6
CONTINUOUS
 62
     3
100
AcDbLine
 10
1003.000000000001
 20
417.5
 30
0.0
 11
1027.000000000001
 21
417.5
 31
0.0
  0
LINE
  5
44A
330
1F
100
AcDbEntity
  8
Ｓ_１_１
  6
CONTINUOUS
 62
     3
100
AcDbLine
 10
1025.969655114601
 20
410.3485057760317
 30
0.0
 11
1024.499999999999
 21
409.5
 31
0.0
  0
LINE
  5
44B
330
1F
100
AcDbEntity
  8
Ｓ_１_１
  6
CONTINUOUS
 62
     3
100
AcDbLine
 10
1004.030344885402
 20
410.3485057760317
 30
0.0
 11
1005.500000000004
 21
409.5
 31
0.0
  0
LINE
  5
44C
330
1F
100
AcDbEntity
  8
Ｓ_１_１
  6
CONTINUOUS
 62
     3
100
AcDbLine
 10
1004.030344885402
 20
410.3485057760317
 30
0.0
 11
1004.030344885402
 21
417.5
 31
0.0
  0
LINE
  5
44D
330
1F
100
AcDbEntity
  8
Ｓ_１_１
  6
CONTINUOUS
 62
     3
100
AcDbLine
 10
1005.500000000001
 20
409.5
 30
0.0
 11
1024.500000000001
 21
409.5
 31
0.0
  0
LINE
  5
44E
330
1F
100
AcDbEntity
  8
Ｓ_１_１
  6
CONTINUOUS
 62
     3
100
AcDbLine
 10
1025.969655114601
 20
410.3485057760317
 30
0.0
 11
1025.969655114601
 21
417.5
 31
0.0
  0
LINE
  5
44F
330
1F
100
AcDbEntity
  8
Ｓ_１_１
  6
CONTINUOUS
 62
     3
100
AcDbLine
 10
1009.432719077992
 20
410.3485057760299
 30
0.0
 11
1009.432719077992
 21
417.5
 31
0.0
  0
LINE
  5
450
330
1F
100
AcDbEntity
  8
Ｓ_１_１
  6
CONTINUOUS
 62
     3
100
AcDbLine
 10
1020.567280922011
 20
410.3485057760299
 30
0.0
 11
1020.567280922011
 21
417.5
 31
0.0
  0
ARC
  5
451
330
1F
100
AcDbEntity
  8
Ｓ_１_１
  6
CONTINUOUS
 62
     3
100
AcDbCircle
 10
1025.9623498034
 20
425.8158956141287
 30
0.0
 40
16.38129777028174
100
AcDbArc
 50
250.7710852792693
 51
264.8784182429786
  0
ARC
  5
452
330
1F
100
AcDbEntity
  8
Ｓ_１_１
  6
CONTINUOUS
 62
     3
100
AcDbCircle
 10
1015.000000000001
 20
428.1884873459076
 30
0.0
 40
18.68848734590722
100
AcDbArc
 50
252.6685466643336
 51
287.3314533356664
  0
LINE
  5
453
330
1F
100
AcDbEntity
  8
Ｓ_１_１
  6
CONTINUOUS
 62
     3
100
AcDbLine
 10
1004.030344885402
 20
449.6514942239683
 30
0.0
 11
1005.500000000004
 21
450.5
 31
0.0
  0
LINE
  5
454
330
1F
100
AcDbEntity
  8
Ｓ_１_１
  6
CONTINUOUS
 62
     3
100
AcDbLine
 10
1025.969655114601
 20
449.6514942239683
 30
0.0
 11
1024.499999999999
 21
450.5
 31
0.0
  0
LINE
  5
455
330
1F
100
AcDbEntity
  8
Ｓ_１_１
  6
CONTINUOUS
 62
     3
100
AcDbLine
 10
1024.500000000001
 20
450.5
 30
0.0
 11
1005.500000000001
 21
450.5
 31
0.0
  0
ARC
  5
456
330
1F
100
AcDbEntity
  8
Ｓ_１_１
  6
CONTINUOUS
 62
     3
100
AcDbCircle
 10
1004.037650196603
 20
434.1841043858712
 30
0.0
 40
16.38129777028174
100
AcDbArc
 50
70.77108527926924
 51
84.87841824297854
  0
ARC
  5
457
330
1F
100
AcDbEntity
  8
Ｓ_１_１
  6
CONTINUOUS
 62
     3
100
AcDbCircle
 10
1015.000000000001
 20
431.8115126540924
 30
0.0
 40
18.68848734590722
100
AcDbArc
 50
72.66854666433362
 51
107.3314533356664
  0
LINE
  5
458
330
1F
100
AcDbEntity
  8
Ｓ_１_１
  6
CONTINUOUS
 62
     3
100
AcDbLine
 10
1025.969655114601
 20
449.6514942239683
 30
0.0
 11
1025.969655114601
 21
440.4999999999999
 31
0.0
  0
LINE
  5
459
330
1F
100
AcDbEntity
  8
Ｓ_１_１
  6
CONTINUOUS
 62
     3
100
AcDbLine
 10
1020.567280922011
 20
449.6514942239701
 30
0.0
 11
1020.567280922011
 21
440.4999999999999
 31
0.0
  0
LINE
  5
45A
330
1F
100
AcDbEntity
  8
Ｓ_１_１
  6
CONTINUOUS
 62
     3
100
AcDbLine
 10
1009.432719077992
 20
449.6514942239701
 30
0.0
 11
1009.432719077992
 21
440.4999999999999
 31
0.0
  0
LINE
  5
45B
330
1F
100
AcDbEntity
  8
Ｓ_１_１
  6
CONTINUOUS
 62
     3
100
AcDbLine
 10
1004.030344885402
 20
449.6514942239701
 30
0.0
 11
1004.030344885402
 21
440.4999999999999
 31
0.0
  0
ARC
  5
45C
330
1F
100
AcDbEntity
  8
Ｓ_１_１
  6
CONTINUOUS
 62
     3
100
AcDbCircle
 10
1025.9623498034
 20
434.1841043858712
 30
0.0
 40
16.38129777028174
100
AcDbArc
 50
95.12158175702145
 51
109.2289147207308
  0
ARC
  5
45D
330
1F
100
AcDbEntity
  8
Ｓ_１_１
  6
CONTINUOUS
 62
     3
100
AcDbCircle
 10
1004.037650196603
 20
425.8158956141287
 30
0.0
 40
16.38129777028174
100
AcDbArc
 50
275.1215817570214
 51
289.2289147207308
  0
LINE
  5
45E
330
1F
100
AcDbEntity
  8
Ｓ_１_１
  6
CONTINUOUS
 62
     3
100
AcDbLine
 10
1020.250000000001
 20
450.5
 30
0.0
 11
1020.250000000001
 21
457.5
 31
0.0
  0
LINE
  5
45F
330
1F
100
AcDbEntity
  8
Ｓ_１_１
  6
CONTINUOUS
 62
     3
100
AcDbLine
 10
1009.750000000001
 20
450.5
 30
0.0
 11
1009.750000000001
 21
457.5
 31
0.0
  0
LINE
  5
460
330
1F
100
AcDbEntity
  8
Ｓ_１_１
  6
CONTINUOUS
 62
     3
100
AcDbLine
 10
1021.000000000001
 20
456.75
 30
0.0
 11
1021.000000000001
 21
450.5
 31
0.0
  0
LINE
  5
461
330
1F
100
AcDbEntity
  8
Ｓ_１_１
  6
CONTINUOUS
 62
     3
100
AcDbLine
 10
1020.250000000001
 20
457.5
 30
0.0
 11
1021.000000000001
 21
456.75
 31
0.0
  0
LINE
  5
462
330
1F
100
AcDbEntity
  8
Ｓ_１_１
  6
CONTINUOUS
 62
     3
100
AcDbLine
 10
1009.750000000001
 20
457.5
 30
0.0
 11
1009.000000000001
 21
456.75
 31
0.0
  0
LINE
  5
463
330
1F
100
AcDbEntity
  8
Ｓ_１_１
  6
CONTINUOUS
 62
     3
100
AcDbLine
 10
1020.250000000001
 20
457.5
 30
0.0
 11
1009.750000000001
 21
457.5
 31
0.0
  0
LINE
  5
464
330
1F
100
AcDbEntity
  8
Ｓ_１_１
  6
CONTINUOUS
 62
     3
100
AcDbLine
 10
1009.000000000001
 20
450.5
 30
0.0
 11
1009.000000000001
 21
456.75
 31
0.0
  0
LINE
  5
465
330
1F
100
AcDbEntity
  8
Ｓ_１_１
  6
CONTINUOUS
 62
     3
100
AcDbLine
 10
1021.000000000001
 20
456.75
 30
0.0
 11
1009.000000000001
 21
456.75
 31
0.0
  0
LINE
  5
466
330
1F
100
AcDbEntity
  8
Ｓ_１_１
  6
EXLTYPE6
 62
     1
100
AcDbLine
 10
1015.000000000001
 20
406.63357971191
 30
0.0
 11
1015.000000000003
 21
461.4735797119101
 31
0.0
  0
LINE
  5
467
330
1F
100
AcDbEntity
  8
Ｓ_１_１
  6
EXLTYPE7
 62
     2
100
AcDbLine
 10
1005.000000000006
 20
585.0000381469736
 30
0.0
 11
1005.000000000006
 21
453.0464202880903
 31
0.0
  0
LINE
  5
468
330
1F
100
AcDbEntity
  8
Ｓ_１_１
  6
CONTINUOUS
 62
     3
100
AcDbLine
 10
1010.000000000006
 20
585.0000381469736
 30
0.0
 11
1010.000000000006
 21
461.1464202880898
 31
0.0
  0
LINE
  5
469
330
1F
100
AcDbEntity
  8
Ｓ_１_１
  6
CONTINUOUS
 62
     3
100
AcDbLine
 10
970.0000000000061
 20
585.0000381469736
 30
0.0
 11
970.0000000000061
 21
453.7064202880901
 31
0.0
  0
LINE
  5
46A
330
1F
100
AcDbEntity
  8
Ｓ_１_１
  6
CONTINUOUS
 62
     3
100
AcDbLine
 10
1025.969655114601
 20
414.7248407321204
 30
0.0
 11
1030.061487217456
 21
410.0
 31
0.0
  0
LINE
  5
46B
330
1F
100
AcDbEntity
  8
Ｓ_１_１
  6
CONTINUOUS
 62
     3
100
AcDbLine
 10
1024.061487217456
 20
408.4664202880903
 30
0.0
 11
1024.061487217456
 21
225.0000000000009
 31
0.0
  0
LINE
  5
46C
330
1F
100
AcDbEntity
  8
Ｓ_１_１
  6
CONTINUOUS
 62
     3
100
AcDbLine
 10
1026.413106803896
 20
410.0
 30
0.0
 11
1030.061487217456
 21
410.0
 31
0.0
  0
LINE
  5
46D
330
1F
100
AcDbEntity
  8
Ｓ_１_１
  6
CONTINUOUS
 62
     3
100
AcDbLine
 10
649.9999999999989
 20
438.0
 30
0.0
 11
649.9999999999989
 21
420.0
 31
0.0
  0
LINE
  5
46E
330
1F
100
AcDbEntity
  8
Ｓ_１_１
  6
CONTINUOUS
 62
     3
100
AcDbLine
 10
714.9999999999989
 20
438.0
 30
0.0
 11
649.9999999999989
 21
438.0
 31
0.0
  0
LINE
  5
46F
330
1F
100
AcDbEntity
  8
Ｓ_１_１
  6
CONTINUOUS
 62
     3
100
AcDbLine
 10
714.9999999999989
 20
429.0
 30
0.0
 11
649.9999999999989
 21
429.0
 31
0.0
  0
LINE
  5
470
330
1F
100
AcDbEntity
  8
Ｓ_１_１
  6
CONTINUOUS
 62
     3
100
AcDbLine
 10
731.8038475772689
 20
420.0
 30
0.0
 11
649.9999999999989
 21
420.0
 31
0.0
  0
LINE
  5
471
330
1F
100
AcDbEntity
  8
Ｓ_１_１
  6
CONTINUOUS
 62
     3
100
AcDbLine
 10
677.0000000000025
 20
438.0
 30
0.0
 11
677.0000000000025
 21
440.4999999999999
 31
0.0
  0
LINE
  5
472
330
1F
100
AcDbEntity
  8
Ｓ_１_１
  6
CONTINUOUS
 62
     3
100
AcDbLine
 10
653.0000000000025
 20
438.0
 30
0.0
 11
653.0000000000025
 21
440.4999999999999
 31
0.0
  0
LINE
  5
473
330
1F
100
AcDbEntity
  8
Ｓ_１_１
  6
CONTINUOUS
 62
     3
100
AcDbLine
 10
653.0000000000025
 20
440.4999999999999
 30
0.0
 11
677.0000000000025
 21
440.4999999999999
 31
0.0
  0
LINE
  5
474
330
1F
100
AcDbEntity
  8
Ｓ_１_１
  6
CONTINUOUS
 62
     3
100
AcDbLine
 10
653.0000000000025
 20
420.0
 30
0.0
 11
653.0000000000025
 21
417.5
 31
0.0
  0
LINE
  5
475
330
1F
100
AcDbEntity
  8
Ｓ_１_１
  6
CONTINUOUS
 62
     3
100
AcDbLine
 10
677.0000000000025
 20
420.0
 30
0.0
 11
677.0000000000025
 21
417.5
 31
0.0
  0
LINE
  5
476
330
1F
100
AcDbEntity
  8
Ｓ_１_１
  6
CONTINUOUS
 62
     3
100
AcDbLine
 10
677.0000000000025
 20
417.5
 30
0.0
 11
653.0000000000025
 21
417.5
 31
0.0
  0
LINE
  5
477
330
1F
100
AcDbEntity
  8
Ｓ_１_１
  6
CONTINUOUS
 62
     3
100
AcDbLine
 10
654.0303448854036
 20
410.3485057760308
 30
0.0
 11
655.5000000000061
 21
409.5
 31
0.0
  0
LINE
  5
478
330
1F
100
AcDbEntity
  8
Ｓ_１_１
  6
CONTINUOUS
 62
     3
100
AcDbLine
 10
675.9696551146033
 20
410.3485057760308
 30
0.0
 11
674.5000000000007
 21
409.5
 31
0.0
  0
LINE
  5
479
330
1F
100
AcDbEntity
  8
Ｓ_１_１
  6
CONTINUOUS
 62
     3
100
AcDbLine
 10
675.9696551146033
 20
410.3485057760317
 30
0.0
 11
675.9696551146033
 21
417.5
 31
0.0
  0
LINE
  5
47A
330
1F
100
AcDbEntity
  8
Ｓ_１_１
  6
CONTINUOUS
 62
     3
100
AcDbLine
 10
674.5000000000025
 20
409.5
 30
0.0
 11
655.5000000000025
 21
409.5
 31
0.0
  0
LINE
  5
47B
330
1F
100
AcDbEntity
  8
Ｓ_１_１
  6
CONTINUOUS
 62
     3
100
AcDbLine
 10
654.0303448854036
 20
410.3485057760317
 30
0.0
 11
654.0303448854036
 21
417.5
 31
0.0
  0
LINE
  5
47C
330
1F
100
AcDbEntity
  8
Ｓ_１_１
  6
CONTINUOUS
 62
     3
100
AcDbLine
 10
670.567280922013
 20
410.3485057760299
 30
0.0
 11
670.567280922013
 21
417.5
 31
0.0
  0
LINE
  5
47D
330
1F
100
AcDbEntity
  8
Ｓ_１_１
  6
CONTINUOUS
 62
     3
100
AcDbLine
 10
659.4327190779939
 20
410.3485057760299
 30
0.0
 11
659.4327190779939
 21
417.5
 31
0.0
  0
ARC
  5
47E
330
1F
100
AcDbEntity
  8
Ｓ_１_１
  6
CONTINUOUS
 62
     3
100
AcDbCircle
 10
654.0376501966045
 20
425.8158956141287
 30
0.0
 40
16.38129777028174
100
AcDbArc
 50
275.1215817570214
 51
289.2289147207308
  0
ARC
  5
47F
330
1F
100
AcDbEntity
  8
Ｓ_１_１
  6
CONTINUOUS
 62
     3
100
AcDbCircle
 10
665.0000000000025
 20
428.1884873459076
 30
0.0
 40
18.68848734590722
100
AcDbArc
 50
252.6685466643336
 51
287.3314533356664
  0
LINE
  5
480
330
1F
100
AcDbEntity
  8
Ｓ_１_１
  6
CONTINUOUS
 62
     3
100
AcDbLine
 10
675.9696551146033
 20
449.6514942239683
 30
0.0
 11
674.5000000000007
 21
450.5
 31
0.0
  0
LINE
  5
481
330
1F
100
AcDbEntity
  8
Ｓ_１_１
  6
CONTINUOUS
 62
     3
100
AcDbLine
 10
654.0303448854036
 20
449.6514942239683
 30
0.0
 11
655.5000000000061
 21
450.5
 31
0.0
  0
LINE
  5
482
330
1F
100
AcDbEntity
  8
Ｓ_１_１
  6
CONTINUOUS
 62
     3
100
AcDbLine
 10
655.5000000000025
 20
450.5
 30
0.0
 11
674.5000000000025
 21
450.5
 31
0.0
  0
ARC
  5
483
330
1F
100
AcDbEntity
  8
Ｓ_１_１
  6
CONTINUOUS
 62
     3
100
AcDbCircle
 10
675.9623498034023
 20
434.1841043858712
 30
0.0
 40
16.38129777028174
100
AcDbArc
 50
95.12158175702145
 51
109.228914720731
  0
ARC
  5
484
330
1F
100
AcDbEntity
  8
Ｓ_１_１
  6
CONTINUOUS
 62
     3
100
AcDbCircle
 10
665.0000000000025
 20
431.8115126540924
 30
0.0
 40
18.68848734590722
100
AcDbArc
 50
72.66854666433362
 51
107.3314533356664
  0
LINE
  5
485
330
1F
100
AcDbEntity
  8
Ｓ_１_１
  6
CONTINUOUS
 62
     3
100
AcDbLine
 10
654.0303448854036
 20
449.6514942239683
 30
0.0
 11
654.0303448854036
 21
440.4999999999999
 31
0.0
  0
LINE
  5
486
330
1F
100
AcDbEntity
  8
Ｓ_１_１
  6
CONTINUOUS
 62
     3
100
AcDbLine
 10
659.4327190779939
 20
449.6514942239701
 30
0.0
 11
659.4327190779939
 21
440.4999999999999
 31
0.0
  0
LINE
  5
487
330
1F
100
AcDbEntity
  8
Ｓ_１_１
  6
CONTINUOUS
 62
     3
100
AcDbLine
 10
670.567280922013
 20
449.6514942239701
 30
0.0
 11
670.567280922013
 21
440.4999999999999
 31
0.0
  0
LINE
  5
488
330
1F
100
AcDbEntity
  8
Ｓ_１_１
  6
CONTINUOUS
 62
     3
100
AcDbLine
 10
675.9696551146033
 20
449.6514942239701
 30
0.0
 11
675.9696551146033
 21
440.4999999999999
 31
0.0
  0
ARC
  5
489
330
1F
100
AcDbEntity
  8
Ｓ_１_１
  6
CONTINUOUS
 62
     3
100
AcDbCircle
 10
654.0376501966045
 20
434.1841043858712
 30
0.0
 40
16.38129777028174
100
AcDbArc
 50
70.77108527927
 51
84.87841824297935
  0
ARC
  5
48A
330
1F
100
AcDbEntity
  8
Ｓ_１_１
  6
CONTINUOUS
 62
     3
100
AcDbCircle
 10
675.9623498034023
 20
425.8158956141287
 30
0.0
 40
16.38129777028174
100
AcDbArc
 50
250.7710852792693
 51
264.8784182429794
  0
LINE
  5
48B
330
1F
100
AcDbEntity
  8
Ｓ_１_１
  6
CONTINUOUS
 62
     3
100
AcDbLine
 10
659.7500000000025
 20
450.5
 30
0.0
 11
659.7500000000025
 21
457.5
 31
0.0
  0
LINE
  5
48C
330
1F
100
AcDbEntity
  8
Ｓ_１_１
  6
CONTINUOUS
 62
     3
100
AcDbLine
 10
670.2500000000025
 20
450.5
 30
0.0
 11
670.2500000000025
 21
457.5
 31
0.0
  0
LINE
  5
48D
330
1F
100
AcDbEntity
  8
Ｓ_１_１
  6
CONTINUOUS
 62
     3
100
AcDbLine
 10
659.0000000000025
 20
456.75
 30
0.0
 11
659.0000000000025
 21
450.5
 31
0.0
  0
LINE
  5
48E
330
1F
100
AcDbEntity
  8
Ｓ_１_１
  6
CONTINUOUS
 62
     3
100
AcDbLine
 10
659.7500000000025
 20
457.5
 30
0.0
 11
659.0000000000025
 21
456.75
 31
0.0
  0
LINE
  5
48F
330
1F
100
AcDbEntity
  8
Ｓ_１_１
  6
CONTINUOUS
 62
     3
100
AcDbLine
 10
670.2500000000025
 20
457.5
 30
0.0
 11
671.0000000000025
 21
456.75
 31
0.0
  0
LINE
  5
490
330
1F
100
AcDbEntity
  8
Ｓ_１_１
  6
CONTINUOUS
 62
     3
100
AcDbLine
 10
659.7500000000025
 20
457.5
 30
0.0
 11
670.2500000000025
 21
457.5
 31
0.0
  0
LINE
  5
491
330
1F
100
AcDbEntity
  8
Ｓ_１_１
  6
CONTINUOUS
 62
     3
100
AcDbLine
 10
671.0000000000025
 20
450.5
 30
0.0
 11
671.0000000000025
 21
456.75
 31
0.0
  0
LINE
  5
492
330
1F
100
AcDbEntity
  8
Ｓ_１_１
  6
CONTINUOUS
 62
     3
100
AcDbLine
 10
659.0000000000025
 20
456.75
 30
0.0
 11
671.0000000000025
 21
456.75
 31
0.0
  0
LINE
  5
493
330
1F
100
AcDbEntity
  8
Ｓ_１_１
  6
EXLTYPE6
 62
     1
100
AcDbLine
 10
665.0000000000025
 20
406.63357971191
 30
0.0
 11
665.0000000000025
 21
461.4735797119101
 31
0.0
  0
LINE
  5
494
330
1F
100
AcDbEntity
  8
Ｓ_１_１
  6
EXLTYPE7
 62
     2
100
AcDbLine
 10
705.0000000000025
 20
456.0000228881899
 30
0.0
 11
710.0000000000025
 21
451.00002288819
 31
0.0
  0
LINE
  5
495
330
1F
100
AcDbEntity
  8
Ｓ_１_１
  6
CONTINUOUS
 62
     3
100
AcDbLine
 10
712.0000000000134
 20
438.0
 30
0.0
 11
712.0000000000134
 21
440.4999999999999
 31
0.0
  0
LINE
  5
496
330
1F
100
AcDbEntity
  8
Ｓ_１_１
  6
CONTINUOUS
 62
     3
100
AcDbLine
 10
688.0000000000134
 20
438.0
 30
0.0
 11
688.0000000000134
 21
440.4999999999999
 31
0.0
  0
LINE
  5
497
330
1F
100
AcDbEntity
  8
Ｓ_１_１
  6
CONTINUOUS
 62
     3
100
AcDbLine
 10
688.0000000000134
 20
440.4999999999999
 30
0.0
 11
712.0000000000134
 21
440.4999999999999
 31
0.0
  0
LINE
  5
498
330
1F
100
AcDbEntity
  8
Ｓ_１_１
  6
CONTINUOUS
 62
     3
100
AcDbLine
 10
688.0000000000134
 20
420.0
 30
0.0
 11
688.0000000000134
 21
417.5
 31
0.0
  0
LINE
  5
499
330
1F
100
AcDbEntity
  8
Ｓ_１_１
  6
CONTINUOUS
 62
     3
100
AcDbLine
 10
712.0000000000134
 20
420.0
 30
0.0
 11
712.0000000000134
 21
417.5
 31
0.0
  0
LINE
  5
49A
330
1F
100
AcDbEntity
  8
Ｓ_１_１
  6
CONTINUOUS
 62
     3
100
AcDbLine
 10
712.0000000000134
 20
417.5
 30
0.0
 11
688.0000000000134
 21
417.5
 31
0.0
  0
LINE
  5
49B
330
1F
100
AcDbEntity
  8
Ｓ_１_１
  6
CONTINUOUS
 62
     3
100
AcDbLine
 10
689.0303448854145
 20
410.3485057760308
 30
0.0
 11
690.5000000000152
 21
409.5
 31
0.0
  0
LINE
  5
49C
330
1F
100
AcDbEntity
  8
Ｓ_１_１
  6
CONTINUOUS
 62
     3
100
AcDbLine
 10
710.9696551146124
 20
410.3485057760308
 30
0.0
 11
709.5000000000116
 21
409.5
 31
0.0
  0
LINE
  5
49D
330
1F
100
AcDbEntity
  8
Ｓ_１_１
  6
CONTINUOUS
 62
     3
100
AcDbLine
 10
710.9696551146124
 20
410.3485057760317
 30
0.0
 11
710.9696551146124
 21
417.5
 31
0.0
  0
LINE
  5
49E
330
1F
100
AcDbEntity
  8
Ｓ_１_１
  6
CONTINUOUS
 62
     3
100
AcDbLine
 10
709.5000000000134
 20
409.5
 30
0.0
 11
690.5000000000134
 21
409.5
 31
0.0
  0
LINE
  5
49F
330
1F
100
AcDbEntity
  8
Ｓ_１_１
  6
CONTINUOUS
 62
     3
100
AcDbLine
 10
689.0303448854127
 20
410.3485057760317
 30
0.0
 11
689.0303448854127
 21
417.5
 31
0.0
  0
LINE
  5
4A0
330
1F
100
AcDbEntity
  8
Ｓ_１_１
  6
CONTINUOUS
 62
     3
100
AcDbLine
 10
705.5672809220239
 20
410.3485057760299
 30
0.0
 11
705.5672809220239
 21
417.5
 31
0.0
  0
LINE
  5
4A1
330
1F
100
AcDbEntity
  8
Ｓ_１_１
  6
CONTINUOUS
 62
     3
100
AcDbLine
 10
694.432719078003
 20
410.3485057760299
 30
0.0
 11
694.432719078003
 21
417.5
 31
0.0
  0
ARC
  5
4A2
330
1F
100
AcDbEntity
  8
Ｓ_１_１
  6
CONTINUOUS
 62
     3
100
AcDbCircle
 10
689.0376501966155
 20
425.8158956141287
 30
0.0
 40
16.38129777028174
100
AcDbArc
 50
275.1215817570214
 51
289.2289147207301
  0
ARC
  5
4A3
330
1F
100
AcDbEntity
  8
Ｓ_１_１
  6
CONTINUOUS
 62
     3
100
AcDbCircle
 10
700.0000000000134
 20
428.1884873459076
 30
0.0
 40
18.68848734590722
100
AcDbArc
 50
252.668546664333
 51
287.3314533356664
  0
LINE
  5
4A4
330
1F
100
AcDbEntity
  8
Ｓ_１_１
  6
CONTINUOUS
 62
     3
100
AcDbLine
 10
710.9696551146124
 20
449.6514942239683
 30
0.0
 11
709.5000000000116
 21
450.5
 31
0.0
  0
LINE
  5
4A5
330
1F
100
AcDbEntity
  8
Ｓ_１_１
  6
CONTINUOUS
 62
     3
100
AcDbLine
 10
689.0303448854145
 20
449.6514942239683
 30
0.0
 11
690.5000000000152
 21
450.5
 31
0.0
  0
LINE
  5
4A6
330
1F
100
AcDbEntity
  8
Ｓ_１_１
  6
CONTINUOUS
 62
     3
100
AcDbLine
 10
690.5000000000134
 20
450.5
 30
0.0
 11
709.5000000000134
 21
450.5
 31
0.0
  0
ARC
  5
4A7
330
1F
100
AcDbEntity
  8
Ｓ_１_１
  6
CONTINUOUS
 62
     3
100
AcDbCircle
 10
710.9623498034114
 20
434.1841043858712
 30
0.0
 40
16.38129777028174
100
AcDbArc
 50
95.12158175702065
 51
109.22891472073
  0
ARC
  5
4A8
330
1F
100
AcDbEntity
  8
Ｓ_１_１
  6
CONTINUOUS
 62
     3
100
AcDbCircle
 10
700.0000000000134
 20
431.8115126540924
 30
0.0
 40
18.68848734590722
100
AcDbArc
 50
72.66854666433291
 51
107.3314533356658
  0
LINE
  5
4A9
330
1F
100
AcDbEntity
  8
Ｓ_１_１
  6
CONTINUOUS
 62
     3
100
AcDbLine
 10
689.0303448854127
 20
449.6514942239683
 30
0.0
 11
689.0303448854127
 21
440.4999999999999
 31
0.0
  0
LINE
  5
4AA
330
1F
100
AcDbEntity
  8
Ｓ_１_１
  6
CONTINUOUS
 62
     3
100
AcDbLine
 10
694.432719078003
 20
449.6514942239701
 30
0.0
 11
694.432719078003
 21
440.4999999999999
 31
0.0
  0
LINE
  5
4AB
330
1F
100
AcDbEntity
  8
Ｓ_１_１
  6
CONTINUOUS
 62
     3
100
AcDbLine
 10
705.5672809220239
 20
449.6514942239701
 30
0.0
 11
705.5672809220239
 21
440.4999999999999
 31
0.0
  0
LINE
  5
4AC
330
1F
100
AcDbEntity
  8
Ｓ_１_１
  6
CONTINUOUS
 62
     3
100
AcDbLine
 10
710.9696551146124
 20
449.6514942239701
 30
0.0
 11
710.9696551146124
 21
440.4999999999999
 31
0.0
  0
ARC
  5
4AD
330
1F
100
AcDbEntity
  8
Ｓ_１_１
  6
CONTINUOUS
 62
     3
100
AcDbCircle
 10
689.0376501966155
 20
434.1841043858712
 30
0.0
 40
16.38129777028174
100
AcDbArc
 50
70.77108527926896
 51
84.87841824297854
  0
ARC
  5
4AE
330
1F
100
AcDbEntity
  8
Ｓ_１_１
  6
CONTINUOUS
 62
     3
100
AcDbCircle
 10
710.9623498034114
 20
425.8158956141287
 30
0.0
 40
16.38129777028174
100
AcDbArc
 50
250.7710852792693
 51
264.8784182429794
  0
LINE
  5
4AF
330
1F
100
AcDbEntity
  8
Ｓ_１_１
  6
CONTINUOUS
 62
     3
100
AcDbLine
 10
694.7500000000134
 20
450.5
 30
0.0
 11
694.7500000000134
 21
457.5
 31
0.0
  0
LINE
  5
4B0
330
1F
100
AcDbEntity
  8
Ｓ_１_１
  6
CONTINUOUS
 62
     3
100
AcDbLine
 10
705.2500000000134
 20
450.5
 30
0.0
 11
705.2500000000134
 21
457.5
 31
0.0
  0
LINE
  5
4B1
330
1F
100
AcDbEntity
  8
Ｓ_１_１
  6
CONTINUOUS
 62
     3
100
AcDbLine
 10
694.0000000000134
 20
456.75
 30
0.0
 11
694.0000000000134
 21
450.5
 31
0.0
  0
LINE
  5
4B2
330
1F
100
AcDbEntity
  8
Ｓ_１_１
  6
CONTINUOUS
 62
     3
100
AcDbLine
 10
694.7500000000134
 20
457.5
 30
0.0
 11
694.0000000000134
 21
456.75
 31
0.0
  0
LINE
  5
4B3
330
1F
100
AcDbEntity
  8
Ｓ_１_１
  6
CONTINUOUS
 62
     3
100
AcDbLine
 10
705.2500000000134
 20
457.5
 30
0.0
 11
706.0000000000134
 21
456.75
 31
0.0
  0
LINE
  5
4B4
330
1F
100
AcDbEntity
  8
Ｓ_１_１
  6
CONTINUOUS
 62
     3
100
AcDbLine
 10
694.7500000000134
 20
457.5
 30
0.0
 11
705.2500000000134
 21
457.5
 31
0.0
  0
LINE
  5
4B5
330
1F
100
AcDbEntity
  8
Ｓ_１_１
  6
CONTINUOUS
 62
     3
100
AcDbLine
 10
706.0000000000134
 20
450.5
 30
0.0
 11
706.0000000000134
 21
456.75
 31
0.0
  0
LINE
  5
4B6
330
1F
100
AcDbEntity
  8
Ｓ_１_１
  6
CONTINUOUS
 62
     3
100
AcDbLine
 10
694.0000000000134
 20
456.75
 30
0.0
 11
706.0000000000134
 21
456.75
 31
0.0
  0
LINE
  5
4B7
330
1F
100
AcDbEntity
  8
Ｓ_１_１
  6
CONTINUOUS
 62
     3
100
AcDbLine
 10
709.9999999999989
 20
585.0000381469736
 30
0.0
 11
709.9999999999989
 21
453.7064202880901
 31
0.0
  0
LINE
  5
4B8
330
1F
100
AcDbEntity
  8
Ｓ_１_１
  6
CONTINUOUS
 62
     3
100
AcDbLine
 10
669.9999999999989
 20
585.0000381469736
 30
0.0
 11
669.9999999999989
 21
458.5664202880898
 31
0.0
  0
LINE
  5
4B9
330
1F
100
AcDbEntity
  8
Ｓ_１_１
  6
CONTINUOUS
 62
     3
100
AcDbLine
 10
654.0303448854036
 20
414.7248407321204
 30
0.0
 11
649.9385127825487
 21
410.0
 31
0.0
  0
LINE
  5
4BA
330
1F
100
AcDbEntity
  8
Ｓ_１_１
  6
CONTINUOUS
 62
     3
100
AcDbLine
 10
653.9331068038962
 20
410.0
 30
0.0
 11
649.9385127825487
 21
410.0
 31
0.0
  0
LINE
  5
4BB
330
1F
100
AcDbEntity
  8
Ｓ_１_１
  6
CONTINUOUS
 62
     3
100
AcDbLine
 10
655.9385127825487
 20
408.82642028809
 30
0.0
 11
655.9385127825487
 21
225.0000000000009
 31
0.0
  0
LINE
  5
4BC
330
1F
100
AcDbEntity
  8
Ｓ_１_１
  6
EXLTYPE6
 62
     1
100
AcDbLine
 10
700.0000000000134
 20
406.63357971191
 30
0.0
 11
700.0000000000134
 21
461.4735797119101
 31
0.0
  0
LINE
  5
4BD
330
1F
100
AcDbEntity
  8
Ｓ_１_１
  6
EXLTYPE6
 62
     1
100
AcDbLine
 10
1004.933106803896
 20
694.0
 30
0.0
 11
977.3331068038958
 21
694.0
 31
0.0
  0
LINE
  5
4BE
330
1F
100
AcDbEntity
  8
Ｓ_１_１
  6
EXLTYPE6
 62
     1
100
AcDbLine
 10
703.7331068038955
 20
694.0
 30
0.0
 11
676.7331068038955
 21
694.0
 31
0.0
  0
LINE
  5
4BF
330
1F
100
AcDbEntity
  8
Ｓ_１_１
  6
CONTINUOUS
 62
     3
100
AcDbLine
 10
887.9225522479961
 20
621.0000381469736
 30
0.0
 11
887.9225522479961
 21
606.0000381469736
 31
0.0
  0
LINE
  5
4C0
330
1F
100
AcDbEntity
  8
Ｓ_１_１
  6
CONTINUOUS
 62
     3
100
AcDbLine
 10
885.9225522479962
 20
622.0000381469736
 30
0.0
 11
887.9225522479961
 21
621.0000381469736
 31
0.0
  0
LINE
  5
4C1
330
1F
100
AcDbEntity
  8
Ｓ_１_１
  6
CONTINUOUS
 62
     3
100
AcDbLine
 10
865.9225522479962
 20
622.0000381469736
 30
0.0
 11
885.9225522479962
 21
622.0000381469736
 31
0.0
  0
LINE
  5
4C2
330
1F
100
AcDbEntity
  8
Ｓ_１_１
  6
CONTINUOUS
 62
     3
100
AcDbLine
 10
863.9225522479961
 20
621.0000381469736
 30
0.0
 11
863.9225522479961
 21
606.0000381469736
 31
0.0
  0
LINE
  5
4C3
330
1F
100
AcDbEntity
  8
Ｓ_１_１
  6
CONTINUOUS
 62
     3
100
AcDbLine
 10
865.9225522479962
 20
622.0000381469736
 30
0.0
 11
863.9225522479961
 21
621.0000381469736
 31
0.0
  0
LINE
  5
4C4
330
1F
100
AcDbEntity
  8
Ｓ_１_１
  6
CONTINUOUS
 62
     3
100
AcDbLine
 10
887.9225522479961
 20
621.0000381469699
 30
0.0
 11
863.9225522479961
 21
621.0000381469699
 31
0.0
  0
LINE
  5
4C5
330
1F
100
AcDbEntity
  8
Ｓ_１_１
  6
EXLTYPE6
 62
     1
100
AcDbLine
 10
875.9225522479961
 20
626.4728710937597
 30
0.0
 11
875.9225522479961
 21
555.0000381469699
 31
0.0
  0
LINE
  5
4C6
330
1F
100
AcDbEntity
  8
Ｓ_１_１
  6
CONTINUOUS
 62
     3
100
AcDbLine
 10
792.0774477520087
 20
621.0000381469736
 30
0.0
 11
792.0774477520087
 21
606.0000381469736
 31
0.0
  0
LINE
  5
4C7
330
1F
100
AcDbEntity
  8
Ｓ_１_１
  6
CONTINUOUS
 62
     3
100
AcDbLine
 10
794.0774477520088
 20
622.0000381469736
 30
0.0
 11
792.0774477520087
 21
621.0000381469736
 31
0.0
  0
LINE
  5
4C8
330
1F
100
AcDbEntity
  8
Ｓ_１_１
  6
CONTINUOUS
 62
     3
100
AcDbLine
 10
814.0774477520088
 20
622.0000381469736
 30
0.0
 11
794.0774477520088
 21
622.0000381469736
 31
0.0
  0
LINE
  5
4C9
330
1F
100
AcDbEntity
  8
Ｓ_１_１
  6
CONTINUOUS
 62
     3
100
AcDbLine
 10
816.0774477520087
 20
621.0000381469736
 30
0.0
 11
816.0774477520087
 21
606.0000381469736
 31
0.0
  0
LINE
  5
4CA
330
1F
100
AcDbEntity
  8
Ｓ_１_１
  6
CONTINUOUS
 62
     3
100
AcDbLine
 10
814.0774477520088
 20
622.0000381469736
 30
0.0
 11
816.0774477520087
 21
621.0000381469736
 31
0.0
  0
LINE
  5
4CB
330
1F
100
AcDbEntity
  8
Ｓ_１_１
  6
CONTINUOUS
 62
     3
100
AcDbLine
 10
792.0774477520087
 20
621.0000381469699
 30
0.0
 11
816.0774477520087
 21
621.0000381469699
 31
0.0
  0
LINE
  5
4CC
330
1F
100
AcDbEntity
  8
Ｓ_１_１
  6
EXLTYPE6
 62
     1
100
AcDbLine
 10
804.0774477520087
 20
626.4728710937597
 30
0.0
 11
804.0774477520087
 21
555.0000381469699
 31
0.0
  0
ELLIPSE
  5
4CD
330
1F
100
AcDbEntity
  8
Ｓ_１_１
  6
CONTINUOUS
 62
     3
100
AcDbEllipse
 10
989.4204710660658
 20
380.0
 30
0.0
 11
-3.673940397442059E-15
 21
-20.0
 31
0.0
210
0.0
220
0.0
230
1.0
 40
0.8660254037844993
 41
0.0
 42
6.283185307179586
  0
ELLIPSE
  5
4CE
330
1F
100
AcDbEntity
  8
Ｓ_１_１
  6
CONTINUOUS
 62
     3
100
AcDbEllipse
 10
995.4204710660658
 20
380.0
 30
0.0
 11
-3.673940397442059E-15
 21
-20.0
 31
0.0
210
0.0
220
0.0
230
1.0
 40
0.8660254037844993
 41
3.315675664226261
 42
6.109102296543119
  0
LINE
  5
4CF
330
1F
100
AcDbEntity
  8
Ｓ_１_１
  6
EXLTYPE6
 62
     1
100
AcDbLine
 10
965.999999999986
 20
380.0
 30
0.0
 11
1013.399999999986
 21
380.0
 31
0.0
  0
ELLIPSE
  5
4D0
330
1F
100
AcDbEntity
  8
Ｓ_１_１
  6
CONTINUOUS
 62
     3
100
AcDbEllipse
 10
989.4204710660658
 20
280.0
 30
0.0
 11
-3.673940397442059E-15
 21
-20.0
 31
0.0
210
0.0
220
0.0
230
1.0
 40
0.8660254037844993
 41
0.0
 42
6.283185307179586
  0
ELLIPSE
  5
4D1
330
1F
100
AcDbEntity
  8
Ｓ_１_１
  6
CONTINUOUS
 62
     3
100
AcDbEllipse
 10
995.4204710660658
 20
280.0
 30
0.0
 11
-3.673940397442059E-15
 21
-20.0
 31
0.0
210
0.0
220
0.0
230
1.0
 40
0.8660254037844993
 41
3.315675664226261
 42
6.109102296543119
  0
LINE
  5
4D2
330
1F
100
AcDbEntity
  8
Ｓ_１_１
  6
EXLTYPE6
 62
     1
100
AcDbLine
 10
965.999999999986
 20
280.0
 30
0.0
 11
1013.399999999986
 21
280.0
 31
0.0
  0
ELLIPSE
  5
4D3
330
1F
100
AcDbEntity
  8
Ｓ_１_１
  6
CONTINUOUS
 62
     3
100
AcDbEllipse
 10
690.5795289339192
 20
380.0
 30
0.0
 11
-3.673940397442059E-15
 21
-20.0
 31
0.0
210
0.0
220
0.0
230
1.0
 40
0.8660254037844993
 41
0.0
 42
6.283185307179586
  0
ELLIPSE
  5
4D4
330
1F
100
AcDbEntity
  8
Ｓ_１_１
  6
CONTINUOUS
 62
     3
100
AcDbEllipse
 10
684.5795289339192
 20
380.0
 30
0.0
 11
-3.673940397442059E-15
 21
-20.0
 31
0.0
210
0.0
220
0.0
230
1.0
 40
0.8660254037844993
 41
0.1740830106364672
 42
2.967509642953326
  0
LINE
  5
4D5
330
1F
100
AcDbEntity
  8
Ｓ_１_１
  6
EXLTYPE6
 62
     1
100
AcDbLine
 10
713.9999999999989
 20
380.0
 30
0.0
 11
666.5999999999992
 21
380.0
 31
0.0
  0
ELLIPSE
  5
4D6
330
1F
100
AcDbEntity
  8
Ｓ_１_１
  6
CONTINUOUS
 62
     3
100
AcDbEllipse
 10
690.5795289339192
 20
280.0
 30
0.0
 11
-3.673940397442059E-15
 21
-20.0
 31
0.0
210
0.0
220
0.0
230
1.0
 40
0.8660254037844993
 41
0.0
 42
6.283185307179586
  0
ELLIPSE
  5
4D7
330
1F
100
AcDbEntity
  8
Ｓ_１_１
  6
CONTINUOUS
 62
     3
100
AcDbEllipse
 10
684.5795289339192
 20
280.0
 30
0.0
 11
-3.673940397442059E-15
 21
-20.0
 31
0.0
210
0.0
220
0.0
230
1.0
 40
0.8660254037844993
 41
0.1740830106364672
 42
2.967509642953326
  0
LINE
  5
4D8
330
1F
100
AcDbEntity
  8
Ｓ_１_１
  6
EXLTYPE6
 62
     1
100
AcDbLine
 10
713.9999999999989
 20
280.0
 30
0.0
 11
666.5999999999992
 21
280.0
 31
0.0
  0
ELLIPSE
  5
4D9
330
1F
100
AcDbEntity
  8
Ｓ_１_１
  6
CONTINUOUS
 62
     3
100
AcDbEllipse
 10
922.8038475773161
 20
380.0
 30
0.0
 11
-3.673940397442059E-15
 21
-20.0
 31
0.0
210
0.0
220
0.0
230
1.0
 40
0.5
 41
0.0
 42
6.283185307179586
  0
ELLIPSE
  5
4DA
330
1F
100
AcDbEntity
  8
Ｓ_１_１
  6
CONTINUOUS
 62
     3
100
AcDbEllipse
 10
933.196152422725
 20
380.0
 30
0.0
 11
-3.673940397442059E-15
 21
-20.0
 31
0.0
210
0.0
220
0.0
230
1.0
 40
0.5
 41
3.68799321772757
 42
5.736784743041812
  0
LINE
  5
4DB
330
1F
100
AcDbEntity
  8
Ｓ_１_１
  6
EXLTYPE6
 62
     1
100
AcDbLine
 10
939.1199999999851
 20
380.0
 30
0.0
 11
907.1999999999849
 21
380.0
 31
0.0
  0
LINE
  5
4DC
330
1F
100
AcDbEntity
  8
Ｓ_１_１
  6
EXLTYPE6
 62
     1
100
AcDbLine
 10
922.8038475773161
 20
403.8128710937599
 30
0.0
 11
922.8038475773161
 21
356.5928710937596
 31
0.0
  0
ELLIPSE
  5
4DD
330
1F
100
AcDbEntity
  8
Ｓ_１_１
  6
CONTINUOUS
 62
     3
100
AcDbEllipse
 10
757.1961524226688
 20
380.0
 30
0.0
 11
-3.673940397442059E-15
 21
-20.0
 31
0.0
210
0.0
220
0.0
230
1.0
 40
0.5
 41
0.0
 42
6.283185307179586
  0
ELLIPSE
  5
4DE
330
1F
100
AcDbEntity
  8
Ｓ_１_１
  6
CONTINUOUS
 62
     3
100
AcDbEllipse
 10
746.8038475772598
 20
380.0
 30
0.0
 11
-3.673940397442059E-15
 21
-20.0
 31
0.0
210
0.0
220
0.0
230
1.0
 40
0.5
 41
0.5464005641377705
 42
2.595192089452023
  0
LINE
  5
4DF
330
1F
100
AcDbEntity
  8
Ｓ_１_１
  6
EXLTYPE6
 62
     1
100
AcDbLine
 10
740.8799999999999
 20
380.0
 30
0.0
 11
772.8
 21
380.0
 31
0.0
  0
LINE
  5
4E0
330
1F
100
AcDbEntity
  8
Ｓ_１_１
  6
EXLTYPE6
 62
     1
100
AcDbLine
 10
757.1961524226688
 20
403.8128710937599
 30
0.0
 11
757.1961524226688
 21
356.5928710937596
 31
0.0
  0
ELLIPSE
  5
4E1
330
1F
100
AcDbEntity
  8
Ｓ_１_１
  6
CONTINUOUS
 62
     3
100
AcDbEllipse
 10
922.8038475773161
 20
280.0
 30
0.0
 11
-3.673940397442059E-15
 21
-20.0
 31
0.0
210
0.0
220
0.0
230
1.0
 40
0.5
 41
0.0
 42
6.283185307179586
  0
ELLIPSE
  5
4E2
330
1F
100
AcDbEntity
  8
Ｓ_１_１
  6
CONTINUOUS
 62
     3
100
AcDbEllipse
 10
933.196152422725
 20
280.0
 30
0.0
 11
-3.673940397442059E-15
 21
-20.0
 31
0.0
210
0.0
220
0.0
230
1.0
 40
0.5
 41
3.68799321772757
 42
5.73678474304179
  0
LINE
  5
4E3
330
1F
100
AcDbEntity
  8
Ｓ_１_１
  6
EXLTYPE6
 62
     1
100
AcDbLine
 10
939.1199999999851
 20
280.0
 30
0.0
 11
907.1999999999849
 21
280.0
 31
0.0
  0
LINE
  5
4E4
330
1F
100
AcDbEntity
  8
Ｓ_１_１
  6
EXLTYPE6
 62
     1
100
AcDbLine
 10
922.8038475773161
 20
303.8128710937599
 30
0.0
 11
922.8038475773161
 21
256.5928710937596
 31
0.0
  0
ELLIPSE
  5
4E5
330
1F
100
AcDbEntity
  8
Ｓ_１_１
  6
CONTINUOUS
 62
     3
100
AcDbEllipse
 10
757.1961524226688
 20
280.0
 30
0.0
 11
-3.673940397442059E-15
 21
-20.0
 31
0.0
210
0.0
220
0.0
230
1.0
 40
0.5
 41
0.0
 42
6.283185307179586
  0
ELLIPSE
  5
4E6
330
1F
100
AcDbEntity
  8
Ｓ_１_１
  6
CONTINUOUS
 62
     3
100
AcDbEllipse
 10
746.8038475772598
 20
280.0
 30
0.0
 11
-3.673940397442059E-15
 21
-20.0
 31
0.0
210
0.0
220
0.0
230
1.0
 40
0.5
 41
0.5464005641377513
 42
2.595192089452023
  0
LINE
  5
4E7
330
1F
100
AcDbEntity
  8
Ｓ_１_１
  6
EXLTYPE6
 62
     1
100
AcDbLine
 10
740.8799999999999
 20
280.0
 30
0.0
 11
772.8
 21
280.0
 31
0.0
  0
LINE
  5
4E8
330
1F
100
AcDbEntity
  8
Ｓ_１_１
  6
EXLTYPE6
 62
     1
100
AcDbLine
 10
757.1961524226688
 20
303.8128710937599
 30
0.0
 11
757.1961524226688
 21
256.5928710937596
 31
0.0
  0
LINE
  5
4E9
330
1F
100
AcDbEntity
  8
Ｓ_１_１
  6
EXLTYPE6
 62
     1
100
AcDbLine
 10
690.5795289339192
 20
305.7728710937599
 30
0.0
 11
690.5795289339192
 21
255.9728710937597
 31
0.0
  0
LINE
  5
4EA
330
1F
100
AcDbEntity
  8
Ｓ_１_１
  6
EXLTYPE6
 62
     1
100
AcDbLine
 10
690.5795289339192
 20
405.73287109376
 30
0.0
 11
690.5795289339192
 21
356.1728710937605
 31
0.0
  0
LINE
  5
4EB
330
1F
100
AcDbEntity
  8
Ｓ_１_１
  6
EXLTYPE6
 62
     1
100
AcDbLine
 10
989.4204710660658
 20
404.5928710937596
 30
0.0
 11
989.4204710660658
 21
355.7528710937604
 31
0.0
  0
LINE
  5
4EC
330
1F
100
AcDbEntity
  8
Ｓ_１_１
  6
EXLTYPE6
 62
     1
100
AcDbLine
 10
989.4204710660658
 20
305.4128710937603
 30
0.0
 11
989.4204710660658
 21
255.4928710937602
 31
0.0
  0
LINE
  5
4ED
330
1F
100
AcDbEntity
  8
Ｓ_１_１
  6
EXLTYPE8
 62
     1
100
AcDbLine
 10
840.0000000000024
 20
756.2928710937595
 30
0.0
 11
840.0000000000024
 21
192.1464202880898
 31
0.0
  0
LINE
  5
4EE
330
1F
100
AcDbEntity
  8
Ｓ_１_１
  6
CONTINUOUS
 62
     3
100
AcDbLine
 10
1125.000000000003
 20
684.0000000000009
 30
0.0
 11
1125.000000000003
 21
734.0000000000009
 31
0.0
  0
LINE
  5
4EF
330
1F
100
AcDbEntity
  8
Ｓ_１_１
  6
CONTINUOUS
 62
     3
100
AcDbLine
 10
555.0000000000025
 20
684.0
 30
0.0
 11
555.0000000000025
 21
734.0000000000009
 31
0.0
  0
LINE
  5
4F0
330
1F
100
AcDbEntity
  8
Ｓ_１_１
  6
CONTINUOUS
 62
     3
100
AcDbLine
 10
659.9999999999952
 20
606.0000381469699
 30
0.0
 11
554.9999999999952
 21
684.0
 31
0.0
  0
LINE
  5
4F1
330
1F
100
AcDbEntity
  8
Ｓ_１_１
  6
CONTINUOUS
 62
     3
100
AcDbLine
 10
1020.000000000006
 20
606.0000381469699
 30
0.0
 11
1125.000000000006
 21
684.0
 31
0.0
  0
LINE
  5
4F2
330
1F
100
AcDbEntity
  8
Ｓ_１_１
  6
CONTINUOUS
 62
     3
100
AcDbLine
 10
1694.999885559085
 20
543.0000305175781
 30
0.0
 11
1692.999992370608
 21
545.0000381469736
 31
0.0
  0
LINE
  5
4F3
330
1F
100
AcDbEntity
  8
Ｓ_１_１
  6
CONTINUOUS
 62
     3
100
AcDbLine
 10
1504.999885559085
 20
543.0000305175781
 30
0.0
 11
1506.99989318848
 21
545.0000381469736
 31
0.0
  0
LINE
  5
4F4
330
1F
100
AcDbEntity
  8
Ｓ_１_１
  6
CONTINUOUS
 62
     3
100
AcDbLine
 10
1541.732046402705
 20
550.0000381469936
 30
0.0
 11
1539.999999999957
 21
547.0000457763672
 31
0.0
  0
LINE
  5
4F5
330
1F
100
AcDbEntity
  8
Ｓ_１_１
  6
CONTINUOUS
 62
     3
100
AcDbLine
 10
1539.999999999956
 20
547.0000457763699
 30
0.0
 11
1539.999999999956
 21
545.0000381469736
 31
0.0
  0
LINE
  5
4F6
330
1F
100
AcDbEntity
  8
Ｓ_１_１
  6
CONTINUOUS
 62
     3
100
AcDbLine
 10
1658.2679535973
 20
550.0000381469936
 30
0.0
 11
1660.000000000047
 21
547.0000457763672
 31
0.0
  0
LINE
  5
4F7
330
1F
100
AcDbEntity
  8
Ｓ_１_１
  6
CONTINUOUS
 62
     3
100
AcDbLine
 10
1660.00000000005
 20
547.0000457763699
 30
0.0
 11
1660.00000000005
 21
545.0000381469736
 31
0.0
  0
ARC
  5
4F8
330
1F
100
AcDbEntity
  8
Ｓ_１_１
  6
CONTINUOUS
 62
     3
100
AcDbCircle
 10
1600.000000000003
 20
557.0000457763672
 30
0.0
 40
50.0000047683716
100
AcDbArc
 50
182.2924513068579
 51
188.0477771681161
  0
ARC
  5
4F9
330
1F
100
AcDbEntity
  8
Ｓ_１_１
  6
CONTINUOUS
 62
     3
100
AcDbCircle
 10
1600.000000000003
 20
557.0000457763672
 30
0.0
 40
50.0000047683716
100
AcDbArc
 50
351.9522296620731
 51
357.7075486931419
  0
LINE
  5
4FA
330
1F
100
AcDbEntity
  8
Ｓ_１_１
  6
CONTINUOUS
 62
     3
100
AcDbLine
 10
1695.502740930494
 20
557.3868326667216
 30
0.0
 11
1649.959988453962
 21
555.0000381469908
 31
0.0
  0
LINE
  5
4FB
330
1F
100
AcDbEntity
  8
Ｓ_１_１
  6
CONTINUOUS
 62
     3
100
AcDbLine
 10
1697.500000000003
 20
559.4915045792077
 30
0.0
 11
1695.502740930494
 21
557.3868326667216
 31
0.0
  0
LINE
  5
4FC
330
1F
100
AcDbEntity
  8
Ｓ_１_１
  6
CONTINUOUS
 62
     3
100
AcDbLine
 10
1504.497259069512
 20
557.3868326667216
 30
0.0
 11
1550.040011546045
 21
555.0000381469908
 31
0.0
  0
LINE
  5
4FD
330
1F
100
AcDbEntity
  8
Ｓ_１_１
  6
CONTINUOUS
 62
     3
100
AcDbLine
 10
1504.497259069512
 20
557.3868326667216
 30
0.0
 11
1502.500000000003
 21
559.4915045792077
 31
0.0
  0
LINE
  5
4FE
330
1F
100
AcDbEntity
  8
Ｓ_１_１
  6
CONTINUOUS
 62
     3
100
AcDbLine
 10
1800.000000000003
 20
225.0000000000009
 30
0.0
 11
1800.000000000003
 21
200.0000000000009
 31
0.0
  0
LINE
  5
4FF
330
1F
100
AcDbEntity
  8
Ｓ_１_１
  6
CONTINUOUS
 62
     3
100
AcDbLine
 10
1400.000000000003
 20
225.0000000000009
 30
0.0
 11
1400.000000000003
 21
200.0000000000009
 31
0.0
  0
LINE
  5
500
330
1F
100
AcDbEntity
  8
Ｓ_１_１
  6
CONTINUOUS
 62
     3
100
AcDbLine
 10
1400.000000000003
 20
200.0000000000009
 30
0.0
 11
1800.000000000003
 21
200.0000000000009
 31
0.0
  0
LINE
  5
501
330
1F
100
AcDbEntity
  8
Ｓ_１_１
  6
CONTINUOUS
 62
     3
100
AcDbLine
 10
1400.000000000003
 20
225.0000000000009
 30
0.0
 11
1800.000000000003
 21
225.0000000000009
 31
0.0
  0
LINE
  5
502
330
1F
100
AcDbEntity
  8
Ｓ_１_１
  6
CONTINUOUS
 62
     3
100
AcDbLine
 10
1715.000000000003
 20
590.0000381469736
 30
0.0
 11
1715.000000000003
 21
578.0000381469736
 31
0.0
  0
LINE
  5
503
330
1F
100
AcDbEntity
  8
Ｓ_１_１
  6
CONTINUOUS
 62
     3
100
AcDbLine
 10
1485.000000000003
 20
590.0000381469736
 30
0.0
 11
1485.000000000003
 21
578.0000381469736
 31
0.0
  0
LINE
  5
504
330
1F
100
AcDbEntity
  8
Ｓ_１_１
  6
EXLTYPE7
 62
     2
100
AcDbLine
 10
1698.500000000003
 20
578.0000381469736
 30
0.0
 11
1698.500000000003
 21
590.0000381469736
 31
0.0
  0
LINE
  5
505
330
1F
100
AcDbEntity
  8
Ｓ_１_１
  6
CONTINUOUS
 62
     3
100
AcDbLine
 10
1697.500000000003
 20
559.4915045792077
 30
0.0
 11
1697.500000000003
 21
578.0000381469736
 31
0.0
  0
LINE
  5
506
330
1F
100
AcDbEntity
  8
Ｓ_１_１
  6
EXLTYPE7
 62
     2
100
AcDbLine
 10
1697.499999999996
 20
578.0000381469699
 30
0.0
 11
1697.499999999996
 21
590.0000381469736
 31
0.0
  0
LINE
  5
507
330
1F
100
AcDbEntity
  8
Ｓ_１_１
  6
CONTINUOUS
 62
     3
100
AcDbLine
 10
1502.500000000003
 20
559.4915045792077
 30
0.0
 11
1502.500000000003
 21
578.0000381469736
 31
0.0
  0
LINE
  5
508
330
1F
100
AcDbEntity
  8
Ｓ_１_１
  6
EXLTYPE7
 62
     2
100
AcDbLine
 10
1501.500000000003
 20
578.0000381469736
 30
0.0
 11
1501.500000000003
 21
590.0000381469736
 31
0.0
  0
LINE
  5
509
330
1F
100
AcDbEntity
  8
Ｓ_１_１
  6
EXLTYPE7
 62
     2
100
AcDbLine
 10
1502.50000000001
 20
578.0000381469699
 30
0.0
 11
1502.50000000001
 21
590.0000381469736
 31
0.0
  0
LINE
  5
50A
330
1F
100
AcDbEntity
  8
Ｓ_１_１
  6
CONTINUOUS
 62
     3
100
AcDbLine
 10
1780.000000000005
 20
225.0000000000009
 30
0.0
 11
1780.000000000005
 21
200.0000000000009
 31
0.0
  0
LINE
  5
50B
330
1F
100
AcDbEntity
  8
Ｓ_１_１
  6
CONTINUOUS
 62
     3
100
AcDbLine
 10
1420.0
 20
225.0000000000009
 30
0.0
 11
1420.0
 21
200.0000000000009
 31
0.0
  0
LINE
  5
50C
330
1F
100
AcDbEntity
  8
Ｓ_１_１
  6
CONTINUOUS
 62
     3
100
AcDbLine
 10
1702.803847577326
 20
410.0
 30
0.0
 11
1697.803847577326
 21
420.0
 31
0.0
  0
LINE
  5
50D
330
1F
100
AcDbEntity
  8
Ｓ_１_１
  6
CONTINUOUS
 62
     3
100
AcDbLine
 10
1713.196152422735
 20
410.0
 30
0.0
 11
1708.196152422735
 21
420.0
 31
0.0
  0
LINE
  5
50E
330
1F
100
AcDbEntity
  8
Ｓ_１_１
  6
CONTINUOUS
 62
     3
100
AcDbLine
 10
1702.803847577326
 20
410.0
 30
0.0
 11
1713.196152422735
 21
410.0
 31
0.0
  0
LINE
  5
50F
330
1F
100
AcDbEntity
  8
Ｓ_１_１
  6
CONTINUOUS
 62
     3
100
AcDbLine
 10
1702.803847577326
 20
410.0
 30
0.0
 11
1702.803847577326
 21
225.0000000000009
 31
0.0
  0
LINE
  5
510
330
1F
100
AcDbEntity
  8
Ｓ_１_１
  6
CONTINUOUS
 62
     3
100
AcDbLine
 10
1713.196152422735
 20
410.0
 30
0.0
 11
1713.196152422735
 21
225.0000000000009
 31
0.0
  0
LINE
  5
511
330
1F
100
AcDbEntity
  8
Ｓ_１_１
  6
CONTINUOUS
 62
     3
100
AcDbLine
 10
1497.196152422679
 20
410.0
 30
0.0
 11
1502.196152422679
 21
420.0
 31
0.0
  0
LINE
  5
512
330
1F
100
AcDbEntity
  8
Ｓ_１_１
  6
CONTINUOUS
 62
     3
100
AcDbLine
 10
1486.80384757727
 20
410.0
 30
0.0
 11
1491.80384757727
 21
420.0
 31
0.0
  0
LINE
  5
513
330
1F
100
AcDbEntity
  8
Ｓ_１_１
  6
CONTINUOUS
 62
     3
100
AcDbLine
 10
1497.196152422679
 20
410.0
 30
0.0
 11
1486.80384757727
 21
410.0
 31
0.0
  0
LINE
  5
514
330
1F
100
AcDbEntity
  8
Ｓ_１_１
  6
CONTINUOUS
 62
     3
100
AcDbLine
 10
1497.196152422679
 20
410.0
 30
0.0
 11
1497.19615242268
 21
225.0000000000009
 31
0.0
  0
LINE
  5
515
330
1F
100
AcDbEntity
  8
Ｓ_１_１
  6
CONTINUOUS
 62
     3
100
AcDbLine
 10
1486.80384757727
 20
410.0
 30
0.0
 11
1486.80384757727
 21
225.0000000000009
 31
0.0
  0
LINE
  5
516
330
1F
100
AcDbEntity
  8
Ｓ_１_１
  6
CONTINUOUS
 62
     3
100
AcDbLine
 10
1784.061487217457
 20
410.0
 30
0.0
 11
1775.401233179605
 21
420.0
 31
0.0
  0
LINE
  5
517
330
1F
100
AcDbEntity
  8
Ｓ_１_１
  6
CONTINUOUS
 62
     3
100
AcDbLine
 10
1781.401233179605
 20
420.0
 30
0.0
 11
1790.061487217457
 21
410.0
 31
0.0
  0
LINE
  5
518
330
1F
100
AcDbEntity
  8
Ｓ_１_１
  6
CONTINUOUS
 62
     3
100
AcDbLine
 10
1708.196152422735
 20
410.0
 30
0.0
 11
1713.196152422735
 21
410.0
 31
0.0
  0
LINE
  5
519
330
1F
100
AcDbEntity
  8
Ｓ_１_１
  6
CONTINUOUS
 62
     3
100
AcDbLine
 10
1784.061487217457
 20
410.0
 30
0.0
 11
1790.061487217457
 21
410.0
 31
0.0
  0
LINE
  5
51A
330
1F
100
AcDbEntity
  8
Ｓ_１_１
  6
CONTINUOUS
 62
     3
100
AcDbLine
 10
1784.061487217457
 20
410.0
 30
0.0
 11
1784.061487217457
 21
225.0000000000009
 31
0.0
  0
LINE
  5
51B
330
1F
100
AcDbEntity
  8
Ｓ_１_１
  6
CONTINUOUS
 62
     3
100
AcDbLine
 10
1790.061487217457
 20
410.0
 30
0.0
 11
1790.061487217457
 21
225.0000000000009
 31
0.0
  0
LINE
  5
51C
330
1F
100
AcDbEntity
  8
Ｓ_１_１
  6
CONTINUOUS
 62
     3
100
AcDbLine
 10
1415.938512782549
 20
410.0
 30
0.0
 11
1424.598766820399
 21
420.0
 31
0.0
  0
LINE
  5
51D
330
1F
100
AcDbEntity
  8
Ｓ_１_１
  6
CONTINUOUS
 62
     3
100
AcDbLine
 10
1418.598766820399
 20
420.0
 30
0.0
 11
1409.938512782549
 21
410.0
 31
0.0
  0
LINE
  5
51E
330
1F
100
AcDbEntity
  8
Ｓ_１_１
  6
CONTINUOUS
 62
     3
100
AcDbLine
 10
1415.938512782549
 20
410.0
 30
0.0
 11
1409.938512782549
 21
410.0
 31
0.0
  0
LINE
  5
51F
330
1F
100
AcDbEntity
  8
Ｓ_１_１
  6
CONTINUOUS
 62
     3
100
AcDbLine
 10
1415.938512782549
 20
410.0
 30
0.0
 11
1415.938512782549
 21
225.0000000000009
 31
0.0
  0
LINE
  5
520
330
1F
100
AcDbEntity
  8
Ｓ_１_１
  6
CONTINUOUS
 62
     3
100
AcDbLine
 10
1409.938512782549
 20
410.0
 30
0.0
 11
1409.938512782549
 21
225.0000000000009
 31
0.0
  0
LINE
  5
521
330
1F
100
AcDbEntity
  8
Ｓ_１_１
  6
CONTINUOUS
 62
     3
100
AcDbLine
 10
1716.000000000003
 20
432.0000000000009
 30
0.0
 11
1713.000000000003
 21
435.0000000000009
 31
0.0
  0
LINE
  5
522
330
1F
100
AcDbEntity
  8
Ｓ_１_１
  6
CONTINUOUS
 62
     3
100
AcDbLine
 10
1716.000000000003
 20
432.0000000000009
 30
0.0
 11
1716.000000000003
 21
420.0
 31
0.0
  0
LINE
  5
523
330
1F
100
AcDbEntity
  8
Ｓ_１_１
  6
CONTINUOUS
 62
     3
100
AcDbLine
 10
1484.000000000003
 20
432.0000000000009
 30
0.0
 11
1487.000000000003
 21
435.0000000000009
 31
0.0
  0
LINE
  5
524
330
1F
100
AcDbEntity
  8
Ｓ_１_１
  6
CONTINUOUS
 62
     3
100
AcDbLine
 10
1484.000000000003
 20
432.0000000000009
 30
0.0
 11
1484.000000000003
 21
420.0
 31
0.0
  0
LINE
  5
525
330
1F
100
AcDbEntity
  8
Ｓ_１_１
  6
CONTINUOUS
 62
     3
100
AcDbLine
 10
1781.401233179605
 20
420.0
 30
0.0
 11
1418.598766820399
 21
420.0
 31
0.0
  0
LINE
  5
526
330
1F
100
AcDbEntity
  8
Ｓ_１_１
  6
CONTINUOUS
 62
     3
100
AcDbLine
 10
1498.963702891789
 20
429.0
 30
0.0
 11
1498.963702891789
 21
420.0
 31
0.0
  0
LINE
  5
527
330
1F
100
AcDbEntity
  8
Ｓ_１_１
  6
CONTINUOUS
 62
     3
100
AcDbLine
 10
1562.500000000003
 20
585.0000381469699
 30
0.0
 11
1562.500000000003
 21
438.0
 31
0.0
  0
LINE
  5
528
330
1F
100
AcDbEntity
  8
Ｓ_１_１
  6
CONTINUOUS
 62
     3
100
AcDbLine
 10
1637.500000000003
 20
585.0000381469699
 30
0.0
 11
1637.500000000001
 21
438.0
 31
0.0
  0
LINE
  5
529
330
1F
100
AcDbEntity
  8
Ｓ_１_１
  6
CONTINUOUS
 62
     3
100
AcDbLine
 10
1562.500000000003
 20
585.0000381469699
 30
0.0
 11
1637.500000000005
 21
585.0000381469699
 31
0.0
  0
LINE
  5
52A
330
1F
100
AcDbEntity
  8
Ｓ_１_１
  6
CONTINUOUS
 62
     3
100
AcDbLine
 10
1637.500000000003
 20
543.0000305175781
 30
0.0
 11
1695.000000000003
 21
543.0000305175781
 31
0.0
  0
LINE
  5
52B
330
1F
100
AcDbEntity
  8
Ｓ_１_１
  6
CONTINUOUS
 62
     3
100
AcDbLine
 10
1692.999992370608
 20
545.0000381469736
 30
0.0
 11
1637.500000000003
 21
545.0000381469736
 31
0.0
  0
LINE
  5
52C
330
1F
100
AcDbEntity
  8
Ｓ_１_１
  6
CONTINUOUS
 62
     3
100
AcDbLine
 10
1660.00000000005
 20
547.0000457763672
 30
0.0
 11
1637.500000000003
 21
547.0000457763672
 31
0.0
  0
LINE
  5
52D
330
1F
100
AcDbEntity
  8
Ｓ_１_１
  6
CONTINUOUS
 62
     3
100
AcDbLine
 10
1637.500000000003
 20
550.0000381469736
 30
0.0
 11
1658.267953597311
 21
550.0000381469736
 31
0.0
  0
LINE
  5
52E
330
1F
100
AcDbEntity
  8
Ｓ_１_１
  6
CONTINUOUS
 62
     3
100
AcDbLine
 10
1637.500000000003
 20
557.3868326667198
 30
0.0
 11
1695.502740930451
 21
557.3868326667198
 31
0.0
  0
LINE
  5
52F
330
1F
100
AcDbEntity
  8
Ｓ_１_１
  6
CONTINUOUS
 62
     3
100
AcDbLine
 10
1697.500000000005
 20
559.4915045792095
 30
0.0
 11
1637.500000000003
 21
559.4915045792095
 31
0.0
  0
LINE
  5
530
330
1F
100
AcDbEntity
  8
Ｓ_１_１
  6
CONTINUOUS
 62
     3
100
AcDbLine
 10
1637.500000000003
 20
555.0000381469736
 30
0.0
 11
1649.95998845396
 21
555.0000381469736
 31
0.0
  0
LINE
  5
531
330
1F
100
AcDbEntity
  8
Ｓ_１_１
  6
CONTINUOUS
 62
     3
100
AcDbLine
 10
1505.000000000003
 20
543.0000305175781
 30
0.0
 11
1562.500000000003
 21
543.0000305175781
 31
0.0
  0
LINE
  5
532
330
1F
100
AcDbEntity
  8
Ｓ_１_１
  6
CONTINUOUS
 62
     3
100
AcDbLine
 10
1562.500000000003
 20
545.0000381469736
 30
0.0
 11
1507.000007629398
 21
545.0000381469736
 31
0.0
  0
LINE
  5
533
330
1F
100
AcDbEntity
  8
Ｓ_１_１
  6
CONTINUOUS
 62
     3
100
AcDbLine
 10
1562.500000000003
 20
547.0000457763672
 30
0.0
 11
1540.000000000003
 21
547.0000457763672
 31
0.0
  0
LINE
  5
534
330
1F
100
AcDbEntity
  8
Ｓ_１_１
  6
CONTINUOUS
 62
     3
100
AcDbLine
 10
1541.732046402694
 20
550.0000381469736
 30
0.0
 11
1562.500000000003
 21
550.0000381469736
 31
0.0
  0
LINE
  5
535
330
1F
100
AcDbEntity
  8
Ｓ_１_１
  6
CONTINUOUS
 62
     3
100
AcDbLine
 10
1550.040011546045
 20
555.0000381469736
 30
0.0
 11
1562.500000000003
 21
555.0000381469736
 31
0.0
  0
LINE
  5
536
330
1F
100
AcDbEntity
  8
Ｓ_１_１
  6
CONTINUOUS
 62
     3
100
AcDbLine
 10
1504.497259069516
 20
557.3868326667198
 30
0.0
 11
1562.500000000003
 21
557.3868326667198
 31
0.0
  0
LINE
  5
537
330
1F
100
AcDbEntity
  8
Ｓ_１_１
  6
CONTINUOUS
 62
     3
100
AcDbLine
 10
1562.500000000003
 20
559.4915045792095
 30
0.0
 11
1502.500000000003
 21
559.4915045792095
 31
0.0
  0
LINE
  5
538
330
1F
100
AcDbEntity
  8
Ｓ_１_１
  6
CONTINUOUS
 62
     3
100
AcDbLine
 10
1637.500000000003
 20
578.0000381469736
 30
0.0
 11
1715.000000000003
 21
578.0000381469736
 31
0.0
  0
LINE
  5
539
330
1F
100
AcDbEntity
  8
Ｓ_１_１
  6
CONTINUOUS
 62
     3
100
AcDbLine
 10
1485.000000000003
 20
578.0000381469736
 30
0.0
 11
1562.500000000003
 21
578.0000381469736
 31
0.0
  0
LINE
  5
53A
330
1F
100
AcDbEntity
  8
Ｓ_１_１
  6
CONTINUOUS
 62
     3
100
AcDbLine
 10
1684.999999999997
 20
438.0
 30
0.0
 11
1684.999999999997
 21
429.0
 31
0.0
  0
LINE
  5
53B
330
1F
100
AcDbEntity
  8
Ｓ_１_１
  6
CONTINUOUS
 62
     3
100
AcDbLine
 10
1684.999999999997
 20
435.0000000000009
 30
0.0
 11
1713.000000000003
 21
435.0000000000009
 31
0.0
  0
LINE
  5
53C
330
1F
100
AcDbEntity
  8
Ｓ_１_１
  6
CONTINUOUS
 62
     3
100
AcDbLine
 10
1716.000000000005
 20
432.0
 30
0.0
 11
1684.999999999997
 21
432.0
 31
0.0
  0
LINE
  5
53D
330
1F
100
AcDbEntity
  8
Ｓ_１_１
  6
CONTINUOUS
 62
     3
100
AcDbLine
 10
1684.999999999997
 20
438.0
 30
0.0
 11
1514.999999999992
 21
438.0
 31
0.0
  0
LINE
  5
53E
330
1F
100
AcDbEntity
  8
Ｓ_１_１
  6
CONTINUOUS
 62
     3
100
AcDbLine
 10
1487.000000000005
 20
435.0000000000009
 30
0.0
 11
1514.999999999992
 21
435.0000000000009
 31
0.0
  0
LINE
  5
53F
330
1F
100
AcDbEntity
  8
Ｓ_１_１
  6
CONTINUOUS
 62
     3
100
AcDbLine
 10
1514.999999999992
 20
432.0
 30
0.0
 11
1484.000000000003
 21
432.0
 31
0.0
  0
LINE
  5
540
330
1F
100
AcDbEntity
  8
Ｓ_１_１
  6
EXLTYPE7
 62
     2
100
AcDbLine
 10
1630.500000000003
 20
585.0000381469699
 30
0.0
 11
1630.500000000001
 21
438.0
 31
0.0
  0
LINE
  5
541
330
1F
100
AcDbEntity
  8
Ｓ_１_１
  6
EXLTYPE7
 62
     2
100
AcDbLine
 10
1569.500000000003
 20
585.0000381469699
 30
0.0
 11
1569.500000000003
 21
438.0
 31
0.0
  0
LINE
  5
542
330
1F
100
AcDbEntity
  8
Ｓ_１_１
  6
EXLTYPE7
 62
     2
100
AcDbLine
 10
1581.000000000003
 20
491.00002288819
 30
0.0
 11
1590.000000000003
 21
491.00002288819
 31
0.0
  0
LINE
  5
543
330
1F
100
AcDbEntity
  8
Ｓ_１_１
  6
EXLTYPE7
 62
     2
100
AcDbLine
 10
1581.000000000003
 20
451.00002288819
 30
0.0
 11
1590.000000000003
 21
451.00002288819
 31
0.0
  0
LINE
  5
544
330
1F
100
AcDbEntity
  8
Ｓ_１_１
  6
EXLTYPE7
 62
     2
100
AcDbLine
 10
1581.000000000003
 20
491.00002288819
 30
0.0
 11
1581.000000000003
 21
451.00002288819
 31
0.0
  0
LINE
  5
545
330
1F
100
AcDbEntity
  8
Ｓ_１_１
  6
EXLTYPE7
 62
     2
100
AcDbLine
 10
1590.000000000003
 20
491.00002288819
 30
0.0
 11
1590.000000000003
 21
451.00002288819
 31
0.0
  0
LINE
  5
546
330
1F
100
AcDbEntity
  8
Ｓ_１_１
  6
EXLTYPE7
 62
     2
100
AcDbLine
 10
1619.000000000001
 20
491.00002288819
 30
0.0
 11
1610.000000000003
 21
491.00002288819
 31
0.0
  0
LINE
  5
547
330
1F
100
AcDbEntity
  8
Ｓ_１_１
  6
EXLTYPE7
 62
     2
100
AcDbLine
 10
1619.000000000001
 20
451.00002288819
 30
0.0
 11
1610.000000000003
 21
451.00002288819
 31
0.0
  0
LINE
  5
548
330
1F
100
AcDbEntity
  8
Ｓ_１_１
  6
EXLTYPE7
 62
     2
100
AcDbLine
 10
1619.000000000003
 20
491.00002288819
 30
0.0
 11
1619.000000000003
 21
451.00002288819
 31
0.0
  0
LINE
  5
549
330
1F
100
AcDbEntity
  8
Ｓ_１_１
  6
EXLTYPE7
 62
     2
100
AcDbLine
 10
1610.000000000003
 20
491.00002288819
 30
0.0
 11
1610.000000000003
 21
451.00002288819
 31
0.0
  0
LINE
  5
54A
330
1F
100
AcDbEntity
  8
Ｓ_１_１
  6
CONTINUOUS
 62
     3
100
AcDbLine
 10
1630.000000000003
 20
734.0000000000009
 30
0.0
 11
1630.000000000003
 21
606.0000381469736
 31
0.0
  0
LINE
  5
54B
330
1F
100
AcDbEntity
  8
Ｓ_１_１
  6
CONTINUOUS
 62
     3
100
AcDbLine
 10
1655.000000000003
 20
734.0000000000009
 30
0.0
 11
1655.000000000003
 21
606.0000381469736
 31
0.0
  0
LINE
  5
54C
330
1F
100
AcDbEntity
  8
Ｓ_１_１
  6
CONTINUOUS
 62
     3
100
AcDbLine
 10
1570.000000000003
 20
734.0000000000009
 30
0.0
 11
1570.000000000003
 21
606.0000381469736
 31
0.0
  0
LINE
  5
54D
330
1F
100
AcDbEntity
  8
Ｓ_１_１
  6
CONTINUOUS
 62
     3
100
AcDbLine
 10
1545.000000000003
 20
734.0000000000009
 30
0.0
 11
1545.000000000003
 21
606.0000381469736
 31
0.0
  0
CIRCLE
  5
54E
330
1F
100
AcDbEntity
  8
Ｓ_１_１
  6
CONTINUOUS
 62
     3
100
AcDbCircle
 10
1775.000000000005
 20
694.0
 30
0.0
 40
20.0
  0
LINE
  5
54F
330
1F
100
AcDbEntity
  8
Ｓ_１_１
  6
CONTINUOUS
 62
     3
100
AcDbLine
 10
1725.000000000005
 20
734.0
 30
0.0
 11
1775.000000000003
 21
734.0
 31
0.0
  0
CIRCLE
  5
550
330
1F
100
AcDbEntity
  8
Ｓ_１_１
  6
CONTINUOUS
 62
     3
100
AcDbCircle
 10
1425.0
 20
694.0
 30
0.0
 40
20.0
  0
LINE
  5
551
330
1F
100
AcDbEntity
  8
Ｓ_１_１
  6
CONTINUOUS
 62
     3
100
AcDbLine
 10
1425.000000000005
 20
734.0000000000009
 30
0.0
 11
1725.000000000003
 21
734.0000000000009
 31
0.0
  0
LINE
  5
552
330
1F
100
AcDbEntity
  8
Ｓ_１_１
  6
CONTINUOUS
 62
     3
100
AcDbLine
 10
1655.000000000003
 20
714.0000000000009
 30
0.0
 11
1675.000000000003
 21
734.0000000000009
 31
0.0
  0
LINE
  5
553
330
1F
100
AcDbEntity
  8
Ｓ_１_１
  6
CONTINUOUS
 62
     3
100
AcDbLine
 10
1675.000000000003
 20
606.0000381469736
 30
0.0
 11
1655.000000000003
 21
626.0000381469736
 31
0.0
  0
LINE
  5
554
330
1F
100
AcDbEntity
  8
Ｓ_１_１
  6
CONTINUOUS
 62
     3
100
AcDbLine
 10
1545.000000000003
 20
714.0000000000009
 30
0.0
 11
1525.000000000003
 21
734.0000000000009
 31
0.0
  0
LINE
  5
555
330
1F
100
AcDbEntity
  8
Ｓ_１_１
  6
CONTINUOUS
 62
     3
100
AcDbLine
 10
1525.000000000003
 20
606.0000381469736
 30
0.0
 11
1545.000000000003
 21
626.0000381469736
 31
0.0
  0
LINE
  5
556
330
1F
100
AcDbEntity
  8
Ｓ_１_１
  6
CONTINUOUS
 62
     3
100
AcDbLine
 10
1630.000000000003
 20
683.99999999999
 30
0.0
 11
1655.000000000003
 21
683.99999999999
 31
0.0
  0
LINE
  5
557
330
1F
100
AcDbEntity
  8
Ｓ_１_１
  6
CONTINUOUS
 62
     3
100
AcDbLine
 10
1545.000000000003
 20
683.9999999999909
 30
0.0
 11
1570.000000000001
 21
683.9999999999909
 31
0.0
  0
LINE
  5
558
330
1F
100
AcDbEntity
  8
Ｓ_１_１
  6
EXLTYPE8
 62
     1
100
AcDbLine
 10
1600.000000000003
 20
757.2464202880901
 30
0.0
 11
1600.000000000003
 21
190.2464202880901
 31
0.0
  0
LINE
  5
559
330
1F
100
AcDbEntity
  8
Ｓ_１_１
  6
CONTINUOUS
 62
     3
100
AcDbLine
 10
1694.999999999999
 20
429.0
 30
0.0
 11
1498.963702891789
 21
428.9999999999981
 31
0.0
  0
LINE
  5
55A
330
1F
100
AcDbEntity
  8
Ｓ_１_１
  6
CONTINUOUS
 62
     3
100
AcDbLine
 10
1694.999999999996
 20
429.0
 30
0.0
 11
1694.999999999996
 21
420.0
 31
0.0
  0
LINE
  5
55B
330
1F
100
AcDbEntity
  8
Ｓ_１_１
  6
CONTINUOUS
 62
     3
100
AcDbLine
 10
1515.000000000007
 20
438.0
 30
0.0
 11
1515.000000000007
 21
429.0
 31
0.0
  0
LINE
  5
55C
330
1F
100
AcDbEntity
  8
Ｓ_１_１
  6
CONTINUOUS
 62
     3
100
AcDbLine
 10
1695.000000000003
 20
435.0000000000009
 30
0.0
 11
1695.000000000003
 21
543.0000305175781
 31
0.0
  0
LINE
  5
55D
330
1F
100
AcDbEntity
  8
Ｓ_１_１
  6
CONTINUOUS
 62
     3
100
AcDbLine
 10
1518.000000000001
 20
438.0
 30
0.0
 11
1518.000000000001
 21
440.4999999999999
 31
0.0
  0
LINE
  5
55E
330
1F
100
AcDbEntity
  8
Ｓ_１_１
  6
CONTINUOUS
 62
     3
100
AcDbLine
 10
1542.000000000001
 20
438.0
 30
0.0
 11
1542.000000000001
 21
440.4999999999999
 31
0.0
  0
LINE
  5
55F
330
1F
100
AcDbEntity
  8
Ｓ_１_１
  6
CONTINUOUS
 62
     3
100
AcDbLine
 10
1542.000000000001
 20
440.4999999999999
 30
0.0
 11
1518.000000000001
 21
440.4999999999999
 31
0.0
  0
LINE
  5
560
330
1F
100
AcDbEntity
  8
Ｓ_１_１
  6
CONTINUOUS
 62
     3
100
AcDbLine
 10
1542.000000000001
 20
420.0
 30
0.0
 11
1542.000000000001
 21
417.5
 31
0.0
  0
LINE
  5
561
330
1F
100
AcDbEntity
  8
Ｓ_１_１
  6
CONTINUOUS
 62
     3
100
AcDbLine
 10
1518.000000000001
 20
420.0
 30
0.0
 11
1518.000000000001
 21
417.5
 31
0.0
  0
LINE
  5
562
330
1F
100
AcDbEntity
  8
Ｓ_１_１
  6
CONTINUOUS
 62
     3
100
AcDbLine
 10
1518.000000000001
 20
417.5
 30
0.0
 11
1542.000000000001
 21
417.5
 31
0.0
  0
LINE
  5
563
330
1F
100
AcDbEntity
  8
Ｓ_１_１
  6
CONTINUOUS
 62
     3
100
AcDbLine
 10
1540.9696551146
 20
410.3485057760308
 30
0.0
 11
1539.5
 21
409.5
 31
0.0
  0
LINE
  5
564
330
1F
100
AcDbEntity
  8
Ｓ_１_１
  6
CONTINUOUS
 62
     3
100
AcDbLine
 10
1519.030344885402
 20
410.3485057760317
 30
0.0
 11
1520.500000000003
 21
409.5
 31
0.0
  0
LINE
  5
565
330
1F
100
AcDbEntity
  8
Ｓ_１_１
  6
CONTINUOUS
 62
     3
100
AcDbLine
 10
1519.030344885402
 20
410.3485057760317
 30
0.0
 11
1519.030344885402
 21
417.5
 31
0.0
  0
LINE
  5
566
330
1F
100
AcDbEntity
  8
Ｓ_１_１
  6
CONTINUOUS
 62
     3
100
AcDbLine
 10
1520.500000000001
 20
409.5
 30
0.0
 11
1539.500000000001
 21
409.5
 31
0.0
  0
LINE
  5
567
330
1F
100
AcDbEntity
  8
Ｓ_１_１
  6
CONTINUOUS
 62
     3
100
AcDbLine
 10
1540.969655114602
 20
410.3485057760308
 30
0.0
 11
1540.969655114602
 21
417.5
 31
0.0
  0
LINE
  5
568
330
1F
100
AcDbEntity
  8
Ｓ_１_１
  6
CONTINUOUS
 62
     3
100
AcDbLine
 10
1524.432719077991
 20
410.3485057760299
 30
0.0
 11
1524.432719077991
 21
417.5
 31
0.0
  0
LINE
  5
569
330
1F
100
AcDbEntity
  8
Ｓ_１_１
  6
CONTINUOUS
 62
     3
100
AcDbLine
 10
1535.567280922012
 20
410.3485057760299
 30
0.0
 11
1535.567280922012
 21
417.5
 31
0.0
  0
ARC
  5
56A
330
1F
100
AcDbEntity
  8
Ｓ_１_１
  6
CONTINUOUS
 62
     3
100
AcDbCircle
 10
1540.962349803399
 20
425.8158956141278
 30
0.0
 40
16.38129777028174
100
AcDbArc
 50
250.7710852792693
 51
264.8784182429786
  0
ARC
  5
56B
330
1F
100
AcDbEntity
  8
Ｓ_１_１
  6
CONTINUOUS
 62
     3
100
AcDbCircle
 10
1530.000000000001
 20
428.1884873459066
 30
0.0
 40
18.68848734590722
100
AcDbArc
 50
252.6685466643334
 51
287.3314533356664
  0
LINE
  5
56C
330
1F
100
AcDbEntity
  8
Ｓ_１_１
  6
CONTINUOUS
 62
     3
100
AcDbLine
 10
1519.030344885402
 20
449.6514942239683
 30
0.0
 11
1520.500000000003
 21
450.5
 31
0.0
  0
LINE
  5
56D
330
1F
100
AcDbEntity
  8
Ｓ_１_１
  6
CONTINUOUS
 62
     3
100
AcDbLine
 10
1540.9696551146
 20
449.6514942239683
 30
0.0
 11
1539.5
 21
450.5
 31
0.0
  0
LINE
  5
56E
330
1F
100
AcDbEntity
  8
Ｓ_１_１
  6
CONTINUOUS
 62
     3
100
AcDbLine
 10
1539.500000000001
 20
450.5
 30
0.0
 11
1520.500000000001
 21
450.5
 31
0.0
  0
ARC
  5
56F
330
1F
100
AcDbEntity
  8
Ｓ_１_１
  6
CONTINUOUS
 62
     3
100
AcDbCircle
 10
1519.037650196603
 20
434.1841043858712
 30
0.0
 40
16.38129777028174
100
AcDbArc
 50
70.7710852792697
 51
84.8784182429793
  0
ARC
  5
570
330
1F
100
AcDbEntity
  8
Ｓ_１_１
  6
CONTINUOUS
 62
     3
100
AcDbCircle
 10
1530.000000000001
 20
431.8115126540924
 30
0.0
 40
18.68848734590722
100
AcDbArc
 50
72.6685466643343
 51
107.3314533356669
  0
LINE
  5
571
330
1F
100
AcDbEntity
  8
Ｓ_１_１
  6
CONTINUOUS
 62
     3
100
AcDbLine
 10
1540.969655114602
 20
449.6514942239683
 30
0.0
 11
1540.969655114602
 21
440.4999999999999
 31
0.0
  0
LINE
  5
572
330
1F
100
AcDbEntity
  8
Ｓ_１_１
  6
CONTINUOUS
 62
     3
100
AcDbLine
 10
1535.567280922012
 20
449.6514942239701
 30
0.0
 11
1535.567280922012
 21
440.4999999999999
 31
0.0
  0
LINE
  5
573
330
1F
100
AcDbEntity
  8
Ｓ_１_１
  6
CONTINUOUS
 62
     3
100
AcDbLine
 10
1524.432719077991
 20
449.6514942239701
 30
0.0
 11
1524.432719077991
 21
440.4999999999999
 31
0.0
  0
LINE
  5
574
330
1F
100
AcDbEntity
  8
Ｓ_１_１
  6
CONTINUOUS
 62
     3
100
AcDbLine
 10
1519.030344885402
 20
449.6514942239701
 30
0.0
 11
1519.030344885402
 21
440.4999999999999
 31
0.0
  0
ARC
  5
575
330
1F
100
AcDbEntity
  8
Ｓ_１_１
  6
CONTINUOUS
 62
     3
100
AcDbCircle
 10
1540.962349803399
 20
434.1841043858712
 30
0.0
 40
16.38129777028174
100
AcDbArc
 50
95.12158175702145
 51
109.2289147207308
  0
ARC
  5
576
330
1F
100
AcDbEntity
  8
Ｓ_１_１
  6
CONTINUOUS
 62
     3
100
AcDbCircle
 10
1519.037650196603
 20
425.8158956141287
 30
0.0
 40
16.38129777028174
100
AcDbArc
 50
275.1215817570206
 51
289.2289147207306
  0
LINE
  5
577
330
1F
100
AcDbEntity
  8
Ｓ_１_１
  6
CONTINUOUS
 62
     3
100
AcDbLine
 10
1535.250000000001
 20
450.5
 30
0.0
 11
1535.250000000001
 21
457.5
 31
0.0
  0
LINE
  5
578
330
1F
100
AcDbEntity
  8
Ｓ_１_１
  6
CONTINUOUS
 62
     3
100
AcDbLine
 10
1524.750000000001
 20
450.5
 30
0.0
 11
1524.750000000001
 21
457.5
 31
0.0
  0
LINE
  5
579
330
1F
100
AcDbEntity
  8
Ｓ_１_１
  6
CONTINUOUS
 62
     3
100
AcDbLine
 10
1536.000000000001
 20
456.75
 30
0.0
 11
1536.000000000001
 21
450.5
 31
0.0
  0
LINE
  5
57A
330
1F
100
AcDbEntity
  8
Ｓ_１_１
  6
CONTINUOUS
 62
     3
100
AcDbLine
 10
1535.250000000001
 20
457.5
 30
0.0
 11
1536.000000000001
 21
456.75
 31
0.0
  0
LINE
  5
57B
330
1F
100
AcDbEntity
  8
Ｓ_１_１
  6
CONTINUOUS
 62
     3
100
AcDbLine
 10
1524.750000000001
 20
457.5
 30
0.0
 11
1524.000000000001
 21
456.75
 31
0.0
  0
LINE
  5
57C
330
1F
100
AcDbEntity
  8
Ｓ_１_１
  6
CONTINUOUS
 62
     3
100
AcDbLine
 10
1535.250000000001
 20
457.5
 30
0.0
 11
1524.750000000001
 21
457.5
 31
0.0
  0
LINE
  5
57D
330
1F
100
AcDbEntity
  8
Ｓ_１_１
  6
CONTINUOUS
 62
     3
100
AcDbLine
 10
1524.000000000001
 20
450.5
 30
0.0
 11
1524.000000000001
 21
456.75
 31
0.0
  0
LINE
  5
57E
330
1F
100
AcDbEntity
  8
Ｓ_１_１
  6
CONTINUOUS
 62
     3
100
AcDbLine
 10
1536.000000000001
 20
456.75
 30
0.0
 11
1524.000000000001
 21
456.75
 31
0.0
  0
LINE
  5
57F
330
1F
100
AcDbEntity
  8
Ｓ_１_１
  6
EXLTYPE6
 62
     1
100
AcDbLine
 10
1530.000000000001
 20
406.63357971191
 30
0.0
 11
1530.000000000001
 21
461.4735797119101
 31
0.0
  0
LINE
  5
580
330
1F
100
AcDbEntity
  8
Ｓ_１_１
  6
CONTINUOUS
 62
     3
100
AcDbLine
 10
1533.000000000012
 20
438.0
 30
0.0
 11
1533.000000000012
 21
440.4999999999999
 31
0.0
  0
LINE
  5
581
330
1F
100
AcDbEntity
  8
Ｓ_１_１
  6
CONTINUOUS
 62
     3
100
AcDbLine
 10
1557.000000000012
 20
438.0
 30
0.0
 11
1557.000000000012
 21
440.4999999999999
 31
0.0
  0
LINE
  5
582
330
1F
100
AcDbEntity
  8
Ｓ_１_１
  6
CONTINUOUS
 62
     3
100
AcDbLine
 10
1557.000000000012
 20
440.4999999999999
 30
0.0
 11
1533.000000000012
 21
440.4999999999999
 31
0.0
  0
LINE
  5
583
330
1F
100
AcDbEntity
  8
Ｓ_１_１
  6
CONTINUOUS
 62
     3
100
AcDbLine
 10
1557.000000000012
 20
420.0
 30
0.0
 11
1557.000000000012
 21
417.5
 31
0.0
  0
LINE
  5
584
330
1F
100
AcDbEntity
  8
Ｓ_１_１
  6
CONTINUOUS
 62
     3
100
AcDbLine
 10
1555.969655114611
 20
410.3485057760308
 30
0.0
 11
1554.500000000008
 21
409.5
 31
0.0
  0
LINE
  5
585
330
1F
100
AcDbEntity
  8
Ｓ_１_１
  6
CONTINUOUS
 62
     3
100
AcDbLine
 10
1555.969655114611
 20
410.3485057760308
 30
0.0
 11
1555.969655114611
 21
417.5
 31
0.0
  0
LINE
  5
586
330
1F
100
AcDbEntity
  8
Ｓ_１_１
  6
CONTINUOUS
 62
     3
100
AcDbLine
 10
1550.567280922021
 20
410.3485057760299
 30
0.0
 11
1550.567280922021
 21
417.5
 31
0.0
  0
ARC
  5
587
330
1F
100
AcDbEntity
  8
Ｓ_１_１
  6
CONTINUOUS
 62
     3
100
AcDbCircle
 10
1555.96234980341
 20
425.8158956141278
 30
0.0
 40
16.38129777028174
100
AcDbArc
 50
250.7710852792693
 51
264.8784182429786
  0
LINE
  5
588
330
1F
100
AcDbEntity
  8
Ｓ_１_１
  6
CONTINUOUS
 62
     3
100
AcDbLine
 10
1555.969655114611
 20
449.6514942239683
 30
0.0
 11
1554.500000000008
 21
450.5
 31
0.0
  0
LINE
  5
589
330
1F
100
AcDbEntity
  8
Ｓ_１_１
  6
CONTINUOUS
 62
     3
100
AcDbLine
 10
1554.500000000012
 20
450.5
 30
0.0
 11
1535.500000000012
 21
450.5
 31
0.0
  0
LINE
  5
58A
330
1F
100
AcDbEntity
  8
Ｓ_１_１
  6
CONTINUOUS
 62
     3
100
AcDbLine
 10
1555.969655114611
 20
449.6514942239683
 30
0.0
 11
1555.969655114611
 21
440.4999999999999
 31
0.0
  0
LINE
  5
58B
330
1F
100
AcDbEntity
  8
Ｓ_１_１
  6
CONTINUOUS
 62
     3
100
AcDbLine
 10
1550.567280922021
 20
449.6514942239701
 30
0.0
 11
1550.567280922021
 21
440.4999999999999
 31
0.0
  0
ARC
  5
58C
330
1F
100
AcDbEntity
  8
Ｓ_１_１
  6
CONTINUOUS
 62
     3
100
AcDbCircle
 10
1555.96234980341
 20
434.1841043858712
 30
0.0
 40
16.38129777028174
100
AcDbArc
 50
95.12158175702145
 51
109.2289147207308
  0
LINE
  5
58D
330
1F
100
AcDbEntity
  8
Ｓ_１_１
  6
CONTINUOUS
 62
     3
100
AcDbLine
 10
1550.250000000012
 20
450.5
 30
0.0
 11
1550.250000000012
 21
457.5
 31
0.0
  0
LINE
  5
58E
330
1F
100
AcDbEntity
  8
Ｓ_１_１
  6
CONTINUOUS
 62
     3
100
AcDbLine
 10
1539.750000000012
 20
450.5
 30
0.0
 11
1539.750000000012
 21
457.5
 31
0.0
  0
LINE
  5
58F
330
1F
100
AcDbEntity
  8
Ｓ_１_１
  6
CONTINUOUS
 62
     3
100
AcDbLine
 10
1551.000000000012
 20
456.75
 30
0.0
 11
1551.000000000012
 21
450.5
 31
0.0
  0
LINE
  5
590
330
1F
100
AcDbEntity
  8
Ｓ_１_１
  6
CONTINUOUS
 62
     3
100
AcDbLine
 10
1550.250000000012
 20
457.5
 30
0.0
 11
1551.000000000012
 21
456.75
 31
0.0
  0
LINE
  5
591
330
1F
100
AcDbEntity
  8
Ｓ_１_１
  6
CONTINUOUS
 62
     3
100
AcDbLine
 10
1539.750000000012
 20
457.5
 30
0.0
 11
1539.000000000012
 21
456.75
 31
0.0
  0
LINE
  5
592
330
1F
100
AcDbEntity
  8
Ｓ_１_１
  6
CONTINUOUS
 62
     3
100
AcDbLine
 10
1550.250000000012
 20
457.5
 30
0.0
 11
1539.750000000012
 21
457.5
 31
0.0
  0
LINE
  5
593
330
1F
100
AcDbEntity
  8
Ｓ_１_１
  6
CONTINUOUS
 62
     3
100
AcDbLine
 10
1539.000000000012
 20
450.5
 30
0.0
 11
1539.000000000012
 21
456.75
 31
0.0
  0
LINE
  5
594
330
1F
100
AcDbEntity
  8
Ｓ_１_１
  6
CONTINUOUS
 62
     3
100
AcDbLine
 10
1551.000000000012
 20
456.75
 30
0.0
 11
1539.000000000012
 21
456.75
 31
0.0
  0
LINE
  5
595
330
1F
100
AcDbEntity
  8
Ｓ_１_１
  6
EXLTYPE6
 62
     1
100
AcDbLine
 10
1545.000000000012
 20
406.63357971191
 30
0.0
 11
1545.000000000012
 21
461.4735797119101
 31
0.0
  0
ARC
  5
596
330
1F
100
AcDbEntity
  8
Ｓ_１_１
  6
CONTINUOUS
 62
     3
100
AcDbCircle
 10
1545.000000000012
 20
428.1884873459066
 30
0.0
 40
18.68848734590722
100
AcDbArc
 50
259.2857701477272
 51
287.3314533356664
  0
LINE
  5
597
330
1F
100
AcDbEntity
  8
Ｓ_１_１
  6
CONTINUOUS
 62
     3
100
AcDbLine
 10
1541.433999999995
 20
409.5
 30
0.0
 11
1554.500000000012
 21
409.5
 31
0.0
  0
LINE
  5
598
330
1F
100
AcDbEntity
  8
Ｓ_１_１
  6
CONTINUOUS
 62
     3
100
AcDbLine
 10
1542.879999999995
 20
417.5
 30
0.0
 11
1557.000000000012
 21
417.5
 31
0.0
  0
ARC
  5
599
330
1F
100
AcDbEntity
  8
Ｓ_１_１
  6
CONTINUOUS
 62
     3
100
AcDbCircle
 10
1545.000000000012
 20
431.8115126540924
 30
0.0
 40
18.68848734590722
100
AcDbArc
 50
72.6685466643343
 51
104.0382422898271
  0
LINE
  5
59A
330
1F
100
AcDbEntity
  8
Ｓ_１_１
  6
CONTINUOUS
 62
     3
100
AcDbLine
 10
1682.000000000003
 20
438.0
 30
0.0
 11
1682.000000000003
 21
440.4999999999999
 31
0.0
  0
LINE
  5
59B
330
1F
100
AcDbEntity
  8
Ｓ_１_１
  6
CONTINUOUS
 62
     3
100
AcDbLine
 10
1658.000000000003
 20
438.0
 30
0.0
 11
1658.000000000003
 21
440.4999999999999
 31
0.0
  0
LINE
  5
59C
330
1F
100
AcDbEntity
  8
Ｓ_１_１
  6
CONTINUOUS
 62
     3
100
AcDbLine
 10
1658.000000000003
 20
440.4999999999999
 30
0.0
 11
1682.000000000003
 21
440.4999999999999
 31
0.0
  0
LINE
  5
59D
330
1F
100
AcDbEntity
  8
Ｓ_１_１
  6
CONTINUOUS
 62
     3
100
AcDbLine
 10
1658.000000000003
 20
420.0
 30
0.0
 11
1658.000000000003
 21
417.5
 31
0.0
  0
LINE
  5
59E
330
1F
100
AcDbEntity
  8
Ｓ_１_１
  6
CONTINUOUS
 62
     3
100
AcDbLine
 10
1682.000000000003
 20
420.0
 30
0.0
 11
1682.000000000003
 21
417.5
 31
0.0
  0
LINE
  5
59F
330
1F
100
AcDbEntity
  8
Ｓ_１_１
  6
CONTINUOUS
 62
     3
100
AcDbLine
 10
1682.000000000003
 20
417.5
 30
0.0
 11
1658.000000000003
 21
417.5
 31
0.0
  0
LINE
  5
5A0
330
1F
100
AcDbEntity
  8
Ｓ_１_１
  6
CONTINUOUS
 62
     3
100
AcDbLine
 10
1659.030344885404
 20
410.3485057760308
 30
0.0
 11
1660.500000000005
 21
409.5
 31
0.0
  0
LINE
  5
5A1
330
1F
100
AcDbEntity
  8
Ｓ_１_１
  6
CONTINUOUS
 62
     3
100
AcDbLine
 10
1680.969655114602
 20
410.3485057760308
 30
0.0
 11
1679.500000000001
 21
409.5
 31
0.0
  0
LINE
  5
5A2
330
1F
100
AcDbEntity
  8
Ｓ_１_１
  6
CONTINUOUS
 62
     3
100
AcDbLine
 10
1680.969655114604
 20
410.3485057760308
 30
0.0
 11
1680.969655114604
 21
417.5
 31
0.0
  0
LINE
  5
5A3
330
1F
100
AcDbEntity
  8
Ｓ_１_１
  6
CONTINUOUS
 62
     3
100
AcDbLine
 10
1679.500000000003
 20
409.5
 30
0.0
 11
1660.500000000003
 21
409.5
 31
0.0
  0
LINE
  5
5A4
330
1F
100
AcDbEntity
  8
Ｓ_１_１
  6
CONTINUOUS
 62
     3
100
AcDbLine
 10
1659.030344885402
 20
410.3485057760308
 30
0.0
 11
1659.030344885402
 21
417.5
 31
0.0
  0
LINE
  5
5A5
330
1F
100
AcDbEntity
  8
Ｓ_１_１
  6
CONTINUOUS
 62
     3
100
AcDbLine
 10
1675.567280922013
 20
410.3485057760299
 30
0.0
 11
1675.567280922013
 21
417.5
 31
0.0
  0
LINE
  5
5A6
330
1F
100
AcDbEntity
  8
Ｓ_１_１
  6
CONTINUOUS
 62
     3
100
AcDbLine
 10
1664.432719077992
 20
410.3485057760299
 30
0.0
 11
1664.432719077992
 21
417.5
 31
0.0
  0
ARC
  5
5A7
330
1F
100
AcDbEntity
  8
Ｓ_１_１
  6
CONTINUOUS
 62
     3
100
AcDbCircle
 10
1659.037650196605
 20
425.8158956141278
 30
0.0
 40
16.38129777028174
100
AcDbArc
 50
275.1215817570198
 51
289.2289147207308
  0
ARC
  5
5A8
330
1F
100
AcDbEntity
  8
Ｓ_１_１
  6
CONTINUOUS
 62
     3
100
AcDbCircle
 10
1670.000000000003
 20
428.1884873459066
 30
0.0
 40
18.68848734590722
100
AcDbArc
 50
252.6685466643323
 51
287.3314533356651
  0
LINE
  5
5A9
330
1F
100
AcDbEntity
  8
Ｓ_１_１
  6
CONTINUOUS
 62
     3
100
AcDbLine
 10
1680.969655114602
 20
449.6514942239683
 30
0.0
 11
1679.500000000001
 21
450.5
 31
0.0
  0
LINE
  5
5AA
330
1F
100
AcDbEntity
  8
Ｓ_１_１
  6
CONTINUOUS
 62
     3
100
AcDbLine
 10
1659.030344885404
 20
449.6514942239683
 30
0.0
 11
1660.500000000005
 21
450.5
 31
0.0
  0
LINE
  5
5AB
330
1F
100
AcDbEntity
  8
Ｓ_１_１
  6
CONTINUOUS
 62
     3
100
AcDbLine
 10
1660.500000000003
 20
450.5
 30
0.0
 11
1679.500000000003
 21
450.5
 31
0.0
  0
ARC
  5
5AC
330
1F
100
AcDbEntity
  8
Ｓ_１_１
  6
CONTINUOUS
 62
     3
100
AcDbCircle
 10
1680.962349803401
 20
434.1841043858712
 30
0.0
 40
16.38129777028174
100
AcDbArc
 50
95.12158175702145
 51
109.2289147207308
  0
ARC
  5
5AD
330
1F
100
AcDbEntity
  8
Ｓ_１_１
  6
CONTINUOUS
 62
     3
100
AcDbCircle
 10
1670.000000000003
 20
431.8115126540924
 30
0.0
 40
18.68848734590722
100
AcDbArc
 50
72.66854666433362
 51
107.3314533356664
  0
LINE
  5
5AE
330
1F
100
AcDbEntity
  8
Ｓ_１_１
  6
CONTINUOUS
 62
     3
100
AcDbLine
 10
1659.030344885402
 20
449.6514942239683
 30
0.0
 11
1659.030344885402
 21
440.4999999999999
 31
0.0
  0
LINE
  5
5AF
330
1F
100
AcDbEntity
  8
Ｓ_１_１
  6
CONTINUOUS
 62
     3
100
AcDbLine
 10
1664.432719077992
 20
449.6514942239701
 30
0.0
 11
1664.432719077992
 21
440.4999999999999
 31
0.0
  0
LINE
  5
5B0
330
1F
100
AcDbEntity
  8
Ｓ_１_１
  6
CONTINUOUS
 62
     3
100
AcDbLine
 10
1675.567280922013
 20
449.6514942239701
 30
0.0
 11
1675.567280922013
 21
440.4999999999999
 31
0.0
  0
LINE
  5
5B1
330
1F
100
AcDbEntity
  8
Ｓ_１_１
  6
CONTINUOUS
 62
     3
100
AcDbLine
 10
1680.969655114604
 20
449.6514942239701
 30
0.0
 11
1680.969655114604
 21
440.4999999999999
 31
0.0
  0
ARC
  5
5B2
330
1F
100
AcDbEntity
  8
Ｓ_１_１
  6
CONTINUOUS
 62
     3
100
AcDbCircle
 10
1659.037650196605
 20
434.1841043858712
 30
0.0
 40
16.38129777028174
100
AcDbArc
 50
70.77108527927074
 51
84.87841824297854
  0
ARC
  5
5B3
330
1F
100
AcDbEntity
  8
Ｓ_１_１
  6
CONTINUOUS
 62
     3
100
AcDbCircle
 10
1680.962349803401
 20
425.8158956141278
 30
0.0
 40
16.38129777028174
100
AcDbArc
 50
250.7710852792693
 51
264.8784182429786
  0
LINE
  5
5B4
330
1F
100
AcDbEntity
  8
Ｓ_１_１
  6
CONTINUOUS
 62
     3
100
AcDbLine
 10
1664.750000000003
 20
450.5
 30
0.0
 11
1664.750000000003
 21
457.5
 31
0.0
  0
LINE
  5
5B5
330
1F
100
AcDbEntity
  8
Ｓ_１_１
  6
CONTINUOUS
 62
     3
100
AcDbLine
 10
1675.250000000003
 20
450.5
 30
0.0
 11
1675.250000000003
 21
457.5
 31
0.0
  0
LINE
  5
5B6
330
1F
100
AcDbEntity
  8
Ｓ_１_１
  6
CONTINUOUS
 62
     3
100
AcDbLine
 10
1664.000000000003
 20
456.75
 30
0.0
 11
1664.000000000003
 21
450.5
 31
0.0
  0
LINE
  5
5B7
330
1F
100
AcDbEntity
  8
Ｓ_１_１
  6
CONTINUOUS
 62
     3
100
AcDbLine
 10
1664.750000000003
 20
457.5
 30
0.0
 11
1664.000000000003
 21
456.75
 31
0.0
  0
LINE
  5
5B8
330
1F
100
AcDbEntity
  8
Ｓ_１_１
  6
CONTINUOUS
 62
     3
100
AcDbLine
 10
1675.250000000003
 20
457.5
 30
0.0
 11
1676.000000000003
 21
456.75
 31
0.0
  0
LINE
  5
5B9
330
1F
100
AcDbEntity
  8
Ｓ_１_１
  6
CONTINUOUS
 62
     3
100
AcDbLine
 10
1664.750000000003
 20
457.5
 30
0.0
 11
1675.250000000003
 21
457.5
 31
0.0
  0
LINE
  5
5BA
330
1F
100
AcDbEntity
  8
Ｓ_１_１
  6
CONTINUOUS
 62
     3
100
AcDbLine
 10
1676.000000000003
 20
450.5
 30
0.0
 11
1676.000000000003
 21
456.75
 31
0.0
  0
LINE
  5
5BB
330
1F
100
AcDbEntity
  8
Ｓ_１_１
  6
CONTINUOUS
 62
     3
100
AcDbLine
 10
1664.000000000003
 20
456.75
 30
0.0
 11
1676.000000000003
 21
456.75
 31
0.0
  0
LINE
  5
5BC
330
1F
100
AcDbEntity
  8
Ｓ_１_１
  6
EXLTYPE6
 62
     1
100
AcDbLine
 10
1670.000000000003
 20
406.63357971191
 30
0.0
 11
1670.000000000003
 21
461.4735797119101
 31
0.0
  0
LINE
  5
5BD
330
1F
100
AcDbEntity
  8
Ｓ_１_１
  6
CONTINUOUS
 62
     3
100
AcDbLine
 10
1666.999999999994
 20
438.0
 30
0.0
 11
1666.999999999994
 21
440.4999999999999
 31
0.0
  0
LINE
  5
5BE
330
1F
100
AcDbEntity
  8
Ｓ_１_１
  6
CONTINUOUS
 62
     3
100
AcDbLine
 10
1642.999999999994
 20
438.0
 30
0.0
 11
1642.999999999994
 21
440.4999999999999
 31
0.0
  0
LINE
  5
5BF
330
1F
100
AcDbEntity
  8
Ｓ_１_１
  6
CONTINUOUS
 62
     3
100
AcDbLine
 10
1642.999999999994
 20
440.4999999999999
 30
0.0
 11
1666.999999999994
 21
440.4999999999999
 31
0.0
  0
LINE
  5
5C0
330
1F
100
AcDbEntity
  8
Ｓ_１_１
  6
CONTINUOUS
 62
     3
100
AcDbLine
 10
1642.999999999994
 20
420.0
 30
0.0
 11
1642.999999999994
 21
417.5
 31
0.0
  0
LINE
  5
5C1
330
1F
100
AcDbEntity
  8
Ｓ_１_１
  6
CONTINUOUS
 62
     3
100
AcDbLine
 10
1644.030344885393
 20
410.3485057760308
 30
0.0
 11
1645.499999999996
 21
409.5
 31
0.0
  0
LINE
  5
5C2
330
1F
100
AcDbEntity
  8
Ｓ_１_１
  6
CONTINUOUS
 62
     3
100
AcDbLine
 10
1644.030344885393
 20
410.3485057760308
 30
0.0
 11
1644.030344885393
 21
417.5
 31
0.0
  0
LINE
  5
5C3
330
1F
100
AcDbEntity
  8
Ｓ_１_１
  6
CONTINUOUS
 62
     3
100
AcDbLine
 10
1649.432719077984
 20
410.3485057760299
 30
0.0
 11
1649.432719077984
 21
417.5
 31
0.0
  0
ARC
  5
5C4
330
1F
100
AcDbEntity
  8
Ｓ_１_１
  6
CONTINUOUS
 62
     3
100
AcDbCircle
 10
1644.037650196594
 20
425.8158956141278
 30
0.0
 40
16.38129777028174
100
AcDbArc
 50
275.1215817570214
 51
289.228914720731
  0
LINE
  5
5C5
330
1F
100
AcDbEntity
  8
Ｓ_１_１
  6
CONTINUOUS
 62
     3
100
AcDbLine
 10
1644.030344885393
 20
449.6514942239683
 30
0.0
 11
1645.499999999996
 21
450.5
 31
0.0
  0
LINE
  5
5C6
330
1F
100
AcDbEntity
  8
Ｓ_１_１
  6
CONTINUOUS
 62
     3
100
AcDbLine
 10
1645.499999999994
 20
450.5
 30
0.0
 11
1664.499999999994
 21
450.5
 31
0.0
  0
LINE
  5
5C7
330
1F
100
AcDbEntity
  8
Ｓ_１_１
  6
CONTINUOUS
 62
     3
100
AcDbLine
 10
1644.030344885393
 20
449.6514942239683
 30
0.0
 11
1644.030344885393
 21
440.4999999999999
 31
0.0
  0
LINE
  5
5C8
330
1F
100
AcDbEntity
  8
Ｓ_１_１
  6
CONTINUOUS
 62
     3
100
AcDbLine
 10
1649.432719077984
 20
449.6514942239701
 30
0.0
 11
1649.432719077984
 21
440.4999999999999
 31
0.0
  0
ARC
  5
5C9
330
1F
100
AcDbEntity
  8
Ｓ_１_１
  6
CONTINUOUS
 62
     3
100
AcDbCircle
 10
1644.037650196594
 20
434.1841043858712
 30
0.0
 40
16.38129777028174
100
AcDbArc
 50
70.77108527927074
 51
84.87841824297854
  0
LINE
  5
5CA
330
1F
100
AcDbEntity
  8
Ｓ_１_１
  6
CONTINUOUS
 62
     3
100
AcDbLine
 10
1649.749999999994
 20
450.5
 30
0.0
 11
1649.749999999994
 21
457.5
 31
0.0
  0
LINE
  5
5CB
330
1F
100
AcDbEntity
  8
Ｓ_１_１
  6
CONTINUOUS
 62
     3
100
AcDbLine
 10
1660.249999999994
 20
450.5
 30
0.0
 11
1660.249999999994
 21
457.5
 31
0.0
  0
LINE
  5
5CC
330
1F
100
AcDbEntity
  8
Ｓ_１_１
  6
CONTINUOUS
 62
     3
100
AcDbLine
 10
1648.999999999994
 20
456.75
 30
0.0
 11
1648.999999999994
 21
450.5
 31
0.0
  0
LINE
  5
5CD
330
1F
100
AcDbEntity
  8
Ｓ_１_１
  6
CONTINUOUS
 62
     3
100
AcDbLine
 10
1649.749999999994
 20
457.5
 30
0.0
 11
1648.999999999994
 21
456.75
 31
0.0
  0
LINE
  5
5CE
330
1F
100
AcDbEntity
  8
Ｓ_１_１
  6
CONTINUOUS
 62
     3
100
AcDbLine
 10
1660.249999999994
 20
457.5
 30
0.0
 11
1660.999999999994
 21
456.75
 31
0.0
  0
LINE
  5
5CF
330
1F
100
AcDbEntity
  8
Ｓ_１_１
  6
CONTINUOUS
 62
     3
100
AcDbLine
 10
1649.749999999994
 20
457.5
 30
0.0
 11
1660.249999999994
 21
457.5
 31
0.0
  0
LINE
  5
5D0
330
1F
100
AcDbEntity
  8
Ｓ_１_１
  6
CONTINUOUS
 62
     3
100
AcDbLine
 10
1660.999999999994
 20
450.5
 30
0.0
 11
1660.999999999994
 21
456.75
 31
0.0
  0
LINE
  5
5D1
330
1F
100
AcDbEntity
  8
Ｓ_１_１
  6
CONTINUOUS
 62
     3
100
AcDbLine
 10
1648.999999999994
 20
456.75
 30
0.0
 11
1660.999999999994
 21
456.75
 31
0.0
  0
LINE
  5
5D2
330
1F
100
AcDbEntity
  8
Ｓ_１_１
  6
EXLTYPE6
 62
     1
100
AcDbLine
 10
1654.999999999994
 20
406.63357971191
 30
0.0
 11
1654.999999999992
 21
461.4735797119101
 31
0.0
  0
ARC
  5
5D3
330
1F
100
AcDbEntity
  8
Ｓ_１_１
  6
CONTINUOUS
 62
     3
100
AcDbCircle
 10
1654.999999999994
 20
428.1884873459066
 30
0.0
 40
18.68848734590722
100
AcDbArc
 50
252.6685466643336
 51
280.7142298522714
  0
LINE
  5
5D4
330
1F
100
AcDbEntity
  8
Ｓ_１_１
  6
CONTINUOUS
 62
     3
100
AcDbLine
 10
1658.566000000009
 20
409.5
 30
0.0
 11
1645.499999999994
 21
409.5
 31
0.0
  0
LINE
  5
5D5
330
1F
100
AcDbEntity
  8
Ｓ_１_１
  6
CONTINUOUS
 62
     3
100
AcDbLine
 10
1657.120000000009
 20
417.5
 30
0.0
 11
1642.999999999994
 21
417.5
 31
0.0
  0
ARC
  5
5D6
330
1F
100
AcDbEntity
  8
Ｓ_１_１
  6
CONTINUOUS
 62
     3
100
AcDbCircle
 10
1654.999999999994
 20
431.8115126540924
 30
0.0
 40
18.68848734590722
100
AcDbArc
 50
75.96175771017299
 51
107.3314533356664
  0
ELLIPSE
  5
5D7
330
1F
100
AcDbEntity
  8
Ｓ_１_１
  6
CONTINUOUS
 62
     3
100
AcDbEllipse
 10
1749.420471066075
 20
380.0
 30
0.0
 11
-3.673940397442059E-15
 21
-20.0
 31
0.0
210
0.0
220
0.0
230
1.0
 40
0.8660254037844993
 41
0.0
 42
6.283185307179586
  0
ELLIPSE
  5
5D8
330
1F
100
AcDbEntity
  8
Ｓ_１_１
  6
CONTINUOUS
 62
     3
100
AcDbEllipse
 10
1755.420471066075
 20
380.0
 30
0.0
 11
-3.673940397442059E-15
 21
-20.0
 31
0.0
210
0.0
220
0.0
230
1.0
 40
0.8660254037844993
 41
3.315675664226261
 42
6.109102296543119
  0
LINE
  5
5D9
330
1F
100
AcDbEntity
  8
Ｓ_１_１
  6
EXLTYPE6
 62
     1
100
AcDbLine
 10
1725.999999999996
 20
380.0
 30
0.0
 11
1773.399999999995
 21
379.9999999999991
 31
0.0
  0
ELLIPSE
  5
5DA
330
1F
100
AcDbEntity
  8
Ｓ_１_１
  6
CONTINUOUS
 62
     3
100
AcDbEllipse
 10
1749.420471066075
 20
280.0
 30
0.0
 11
-3.673940397442059E-15
 21
-20.0
 31
0.0
210
0.0
220
0.0
230
1.0
 40
0.8660254037844993
 41
0.0
 42
6.283185307179586
  0
ELLIPSE
  5
5DB
330
1F
100
AcDbEntity
  8
Ｓ_１_１
  6
CONTINUOUS
 62
     3
100
AcDbEllipse
 10
1755.420471066075
 20
280.0
 30
0.0
 11
-3.673940397442059E-15
 21
-20.0
 31
0.0
210
0.0
220
0.0
230
1.0
 40
0.8660254037844993
 41
3.315675664226261
 42
6.109102296543119
  0
LINE
  5
5DC
330
1F
100
AcDbEntity
  8
Ｓ_１_１
  6
EXLTYPE6
 62
     1
100
AcDbLine
 10
1725.999999999996
 20
280.0
 30
0.0
 11
1773.399999999995
 21
279.9999999999991
 31
0.0
  0
LINE
  5
5DD
330
1F
100
AcDbEntity
  8
Ｓ_１_１
  6
CONTINUOUS
 62
     3
100
AcDbLine
 10
1415.938512782549
 20
410.0
 30
0.0
 11
1409.938512782549
 21
410.0
 31
0.0
  0
ELLIPSE
  5
5DE
330
1F
100
AcDbEntity
  8
Ｓ_１_１
  6
CONTINUOUS
 62
     3
100
AcDbEllipse
 10
1450.579528933929
 20
380.0
 30
0.0
 11
-3.673940397442059E-15
 21
-20.0
 31
0.0
210
0.0
220
0.0
230
1.0
 40
0.8660254037844993
 41
0.0
 42
6.283185307179586
  0
ELLIPSE
  5
5DF
330
1F
100
AcDbEntity
  8
Ｓ_１_１
  6
CONTINUOUS
 62
     3
100
AcDbEllipse
 10
1444.579528933929
 20
380.0
 30
0.0
 11
-3.673940397442059E-15
 21
-20.0
 31
0.0
210
0.0
220
0.0
230
1.0
 40
0.8660254037844993
 41
0.1740830106364672
 42
2.967509642953326
  0
LINE
  5
5E0
330
1F
100
AcDbEntity
  8
Ｓ_１_１
  6
EXLTYPE6
 62
     1
100
AcDbLine
 10
1474.000000000009
 20
380.0
 30
0.0
 11
1426.600000000009
 21
380.0
 31
0.0
  0
ELLIPSE
  5
5E1
330
1F
100
AcDbEntity
  8
Ｓ_１_１
  6
CONTINUOUS
 62
     3
100
AcDbEllipse
 10
1450.579528933929
 20
280.0
 30
0.0
 11
-3.673940397442059E-15
 21
-20.0
 31
0.0
210
0.0
220
0.0
230
1.0
 40
0.8660254037844993
 41
0.0
 42
6.283185307179586
  0
ELLIPSE
  5
5E2
330
1F
100
AcDbEntity
  8
Ｓ_１_１
  6
CONTINUOUS
 62
     3
100
AcDbEllipse
 10
1444.579528933929
 20
280.0
 30
0.0
 11
-3.673940397442059E-15
 21
-20.0
 31
0.0
210
0.0
220
0.0
230
1.0
 40
0.8660254037844993
 41
0.1740830106364672
 42
2.967509642953326
  0
LINE
  5
5E3
330
1F
100
AcDbEntity
  8
Ｓ_１_１
  6
EXLTYPE6
 62
     1
100
AcDbLine
 10
1474.000000000009
 20
280.0
 30
0.0
 11
1426.600000000009
 21
280.0
 31
0.0
  0
ELLIPSE
  5
5E4
330
1F
100
AcDbEntity
  8
Ｓ_１_１
  6
CONTINUOUS
 62
     3
100
AcDbEllipse
 10
1682.803847577326
 20
380.0
 30
0.0
 11
-3.673940397442059E-15
 21
-20.0
 31
0.0
210
0.0
220
0.0
230
1.0
 40
0.5
 41
0.0
 42
6.283185307179586
  0
ELLIPSE
  5
5E5
330
1F
100
AcDbEntity
  8
Ｓ_１_１
  6
CONTINUOUS
 62
     3
100
AcDbEllipse
 10
1693.196152422735
 20
380.0
 30
0.0
 11
-3.673940397442059E-15
 21
-20.0
 31
0.0
210
0.0
220
0.0
230
1.0
 40
0.5
 41
3.68799321772757
 42
5.736784743041812
  0
LINE
  5
5E6
330
1F
100
AcDbEntity
  8
Ｓ_１_１
  6
EXLTYPE6
 62
     1
100
AcDbLine
 10
1699.119999999995
 20
380.0
 30
0.0
 11
1667.199999999995
 21
380.0
 31
0.0
  0
LINE
  5
5E7
330
1F
100
AcDbEntity
  8
Ｓ_１_１
  6
EXLTYPE6
 62
     1
100
AcDbLine
 10
1682.803847577326
 20
403.8128710937599
 30
0.0
 11
1682.803847577326
 21
356.5928710937596
 31
0.0
  0
ELLIPSE
  5
5E8
330
1F
100
AcDbEntity
  8
Ｓ_１_１
  6
CONTINUOUS
 62
     3
100
AcDbEllipse
 10
1517.196152422679
 20
380.0
 30
0.0
 11
-3.673940397442059E-15
 21
-20.0
 31
0.0
210
0.0
220
0.0
230
1.0
 40
0.5
 41
0.0
 42
6.283185307179586
  0
ELLIPSE
  5
5E9
330
1F
100
AcDbEntity
  8
Ｓ_１_１
  6
CONTINUOUS
 62
     3
100
AcDbEllipse
 10
1506.80384757727
 20
380.0
 30
0.0
 11
-3.673940397442059E-15
 21
-20.0
 31
0.0
210
0.0
220
0.0
230
1.0
 40
0.5
 41
0.5464005641377705
 42
2.595192089452023
  0
LINE
  5
5EA
330
1F
100
AcDbEntity
  8
Ｓ_１_１
  6
EXLTYPE6
 62
     1
100
AcDbLine
 10
1500.88000000001
 20
380.0
 30
0.0
 11
1532.80000000001
 21
380.0
 31
0.0
  0
LINE
  5
5EB
330
1F
100
AcDbEntity
  8
Ｓ_１_１
  6
EXLTYPE6
 62
     1
100
AcDbLine
 10
1517.196152422679
 20
403.8128710937599
 30
0.0
 11
1517.196152422679
 21
356.5928710937596
 31
0.0
  0
ELLIPSE
  5
5EC
330
1F
100
AcDbEntity
  8
Ｓ_１_１
  6
CONTINUOUS
 62
     3
100
AcDbEllipse
 10
1682.803847577326
 20
280.0
 30
0.0
 11
-3.673940397442059E-15
 21
-20.0
 31
0.0
210
0.0
220
0.0
230
1.0
 40
0.5
 41
0.0
 42
6.283185307179586
  0
ELLIPSE
  5
5ED
330
1F
100
AcDbEntity
  8
Ｓ_１_１
  6
CONTINUOUS
 62
     3
100
AcDbEllipse
 10
1693.196152422735
 20
280.0
 30
0.0
 11
-3.673940397442059E-15
 21
-20.0
 31
0.0
210
0.0
220
0.0
230
1.0
 40
0.5
 41
3.68799321772757
 42
5.736784743041812
  0
LINE
  5
5EE
330
1F
100
AcDbEntity
  8
Ｓ_１_１
  6
EXLTYPE6
 62
     1
100
AcDbLine
 10
1699.119999999995
 20
280.0
 30
0.0
 11
1667.199999999995
 21
280.0
 31
0.0
  0
LINE
  5
5EF
330
1F
100
AcDbEntity
  8
Ｓ_１_１
  6
EXLTYPE6
 62
     1
100
AcDbLine
 10
1682.803847577326
 20
303.8128710937599
 30
0.0
 11
1682.803847577326
 21
256.5928710937596
 31
0.0
  0
ELLIPSE
  5
5F0
330
1F
100
AcDbEntity
  8
Ｓ_１_１
  6
CONTINUOUS
 62
     3
100
AcDbEllipse
 10
1517.196152422679
 20
280.0
 30
0.0
 11
-3.673940397442059E-15
 21
-20.0
 31
0.0
210
0.0
220
0.0
230
1.0
 40
0.5
 41
0.0
 42
6.283185307179586
  0
ELLIPSE
  5
5F1
330
1F
100
AcDbEntity
  8
Ｓ_１_１
  6
CONTINUOUS
 62
     3
100
AcDbEllipse
 10
1506.80384757727
 20
280.0
 30
0.0
 11
-3.673940397442059E-15
 21
-20.0
 31
0.0
210
0.0
220
0.0
230
1.0
 40
0.5
 41
0.5464005641377705
 42
2.595192089452023
  0
LINE
  5
5F2
330
1F
100
AcDbEntity
  8
Ｓ_１_１
  6
EXLTYPE6
 62
     1
100
AcDbLine
 10
1500.88000000001
 20
280.0
 30
0.0
 11
1532.80000000001
 21
280.0
 31
0.0
  0
LINE
  5
5F3
330
1F
100
AcDbEntity
  8
Ｓ_１_１
  6
EXLTYPE6
 62
     1
100
AcDbLine
 10
1517.196152422679
 20
303.8128710937599
 30
0.0
 11
1517.196152422679
 21
256.5928710937596
 31
0.0
  0
LINE
  5
5F4
330
1F
100
AcDbEntity
  8
Ｓ_１_１
  6
CONTINUOUS
 62
     3
100
AcDbLine
 10
1547.1961524227
 20
240.0000000000018
 30
0.0
 11
1532.1961524227
 21
225.0000000000009
 31
0.0
  0
LINE
  5
5F5
330
1F
100
AcDbEntity
  8
Ｓ_１_１
  6
CONTINUOUS
 62
     3
100
AcDbLine
 10
1652.803847577326
 20
240.0000000000009
 30
0.0
 11
1667.803847577326
 21
225.0000000000009
 31
0.0
  0
LINE
  5
5F6
330
1F
100
AcDbEntity
  8
Ｓ_１_１
  6
CONTINUOUS
 62
     3
100
AcDbLine
 10
1652.803847577315
 20
407.5328710937592
 30
0.0
 11
1652.803847577315
 21
240.00000000001
 31
0.0
  0
LINE
  5
5F7
330
1F
100
AcDbEntity
  8
Ｓ_１_１
  6
CONTINUOUS
 62
     3
100
AcDbLine
 10
1547.196152422689
 20
409.5
 30
0.0
 11
1547.196152422689
 21
239.99999999999
 31
0.0
  0
LINE
  5
5F8
330
1F
100
AcDbEntity
  8
Ｓ_１_１
  6
EXLTYPE6
 62
     1
100
AcDbLine
 10
1450.579528933929
 20
305.7728710937599
 30
0.0
 11
1450.579528933929
 21
255.9728710937597
 31
0.0
  0
LINE
  5
5F9
330
1F
100
AcDbEntity
  8
Ｓ_１_１
  6
EXLTYPE6
 62
     1
100
AcDbLine
 10
1450.579528933929
 20
405.73287109376
 30
0.0
 11
1450.579528933929
 21
356.1728710937605
 31
0.0
  0
LINE
  5
5FA
330
1F
100
AcDbEntity
  8
Ｓ_１_１
  6
EXLTYPE6
 62
     1
100
AcDbLine
 10
1749.420471066075
 20
404.5928710937596
 30
0.0
 11
1749.420471066075
 21
355.7528710937595
 31
0.0
  0
LINE
  5
5FB
330
1F
100
AcDbEntity
  8
Ｓ_１_１
  6
EXLTYPE6
 62
     1
100
AcDbLine
 10
1749.420471066075
 20
305.4128710937593
 30
0.0
 11
1749.420471066075
 21
255.4928710937593
 31
0.0
  0
ARC
  5
5FC
330
1F
100
AcDbEntity
  8
Ｓ_１_１
  6
CONTINUOUS
 62
     3
100
AcDbCircle
 10
1600.000000000005
 20
225.0
 30
0.0
 40
35.0
100
AcDbArc
 50
0.0000000000014897
 51
179.9999999999986
  0
LINE
  5
5FD
330
1F
100
AcDbEntity
  8
Ｓ_１_１
  6
CONTINUOUS
 62
     3
100
AcDbLine
 10
1633.541019662503
 20
235.0
 30
0.0
 11
1657.803847577326
 21
235.0
 31
0.0
  0
LINE
  5
5FE
330
1F
100
AcDbEntity
  8
Ｓ_１_１
  6
CONTINUOUS
 62
     3
100
AcDbLine
 10
1542.196152422699
 20
235.0
 30
0.0
 11
1566.458980337509
 21
235.0
 31
0.0
  0
LINE
  5
5FF
330
1F
100
AcDbEntity
  8
Ｓ_１_１
  6
EXLTYPE7
 62
     2
100
AcDbLine
 10
1705.000000000003
 20
734.0000000000009
 30
0.0
 11
1705.000000000003
 21
606.0000381469736
 31
0.0
  0
LINE
  5
600
330
1F
100
AcDbEntity
  8
Ｓ_１_１
  6
EXLTYPE7
 62
     2
100
AcDbLine
 10
1495.000000000001
 20
734.0000000000009
 30
0.0
 11
1495.000000000001
 21
606.0000381469736
 31
0.0
  0
LINE
  5
601
330
1F
100
AcDbEntity
  8
Ｓ_１_１
  6
CONTINUOUS
 62
     3
100
AcDbLine
 10
1505.000114440912
 20
492.0000076293963
 30
0.0
 11
1499.000091552728
 21
486.0000228881854
 31
0.0
  0
LINE
  5
602
330
1F
100
AcDbEntity
  8
Ｓ_１_１
  6
CONTINUOUS
 62
     3
100
AcDbLine
 10
1505.000114440912
 20
450.0000381469736
 30
0.0
 11
1499.000091552728
 21
456.0000228881854
 31
0.0
  0
LINE
  5
603
330
1F
100
AcDbEntity
  8
Ｓ_１_１
  6
CONTINUOUS
 62
     3
100
AcDbLine
 10
1491.000099182123
 20
486.0000228881854
 30
0.0
 11
1490.000114440912
 21
485.0000381469735
 31
0.0
  0
LINE
  5
604
330
1F
100
AcDbEntity
  8
Ｓ_１_１
  6
CONTINUOUS
 62
     3
100
AcDbLine
 10
1490.000114440912
 20
485.0000381469735
 30
0.0
 11
1490.000114440912
 21
457.0000076293964
 31
0.0
  0
LINE
  5
605
330
1F
100
AcDbEntity
  8
Ｓ_１_１
  6
CONTINUOUS
 62
     3
100
AcDbLine
 10
1499.000091552728
 20
486.0000228881854
 30
0.0
 11
1491.000099182123
 21
486.0000228881854
 31
0.0
  0
LINE
  5
606
330
1F
100
AcDbEntity
  8
Ｓ_１_１
  6
CONTINUOUS
 62
     3
100
AcDbLine
 10
1499.000091552728
 20
456.0000228881854
 30
0.0
 11
1491.000099182123
 21
456.0000228881854
 31
0.0
  0
LINE
  5
607
330
1F
100
AcDbEntity
  8
Ｓ_１_１
  6
CONTINUOUS
 62
     3
100
AcDbLine
 10
1490.000114440912
 20
457.0000076293964
 30
0.0
 11
1491.000099182123
 21
456.0000228881854
 31
0.0
  0
LINE
  5
608
330
1F
100
AcDbEntity
  8
Ｓ_１_１
  6
CONTINUOUS
 62
     3
100
AcDbLine
 10
1491.000099182123
 20
486.0000228881854
 30
0.0
 11
1491.000099182123
 21
456.0000228881854
 31
0.0
  0
ARC
  5
609
330
1F
100
AcDbEntity
  8
Ｓ_１_１
  6
CONTINUOUS
 62
     3
100
AcDbCircle
 10
1470.956001281732
 20
471.0000228881854
 30
0.0
 40
40.0
100
AcDbArc
 50
328.3317725884766
 51
31.66822604503175
  0
ARC
  5
60A
330
1F
100
AcDbEntity
  8
Ｓ_１_１
  6
CONTINUOUS
 62
     3
100
AcDbCircle
 10
1473.019332885736
 20
471.0000228881854
 30
0.0
 40
30.0
100
AcDbArc
 50
330.0000053121176
 51
29.99999332139184
  0
LINE
  5
60B
330
1F
100
AcDbEntity
  8
Ｓ_１_１
  6
CONTINUOUS
 62
     3
100
AcDbLine
 10
1505.000000000003
 20
435.0000000000009
 30
0.0
 11
1505.000000000003
 21
450.0001525871558
 31
0.0
  0
LINE
  5
60C
330
1F
100
AcDbEntity
  8
Ｓ_１_１
  6
CONTINUOUS
 62
     3
100
AcDbLine
 10
1505.000000000003
 20
491.9998931892142
 30
0.0
 11
1505.000000000003
 21
543.0000305175781
 31
0.0
  0
LINE
  5
60D
330
1F
100
AcDbEntity
  8
Ｓ_１_１
  6
CONTINUOUS
 62
     3
100
AcDbLine
 10
1730.000000000003
 20
750.0000000000009
 30
0.0
 11
1730.000000000003
 21
734.0000000000009
 31
0.0
  0
LINE
  5
60E
330
1F
100
AcDbEntity
  8
Ｓ_１_１
  6
CONTINUOUS
 62
     3
100
AcDbLine
 10
1730.000000000003
 20
606.0000381469736
 30
0.0
 11
1730.000000000003
 21
590.0000381469736
 31
0.0
  0
LINE
  5
60F
330
1F
100
AcDbEntity
  8
Ｓ_１_１
  6
CONTINUOUS
 62
     3
100
AcDbLine
 10
1800.1966805655
 20
662.9335021529541
 30
0.0
 11
1730.000000000005
 21
606.0000381469699
 31
0.0
  0
ARC
  5
610
330
1F
100
AcDbEntity
  8
Ｓ_１_１
  6
CONTINUOUS
 62
     3
100
AcDbCircle
 10
1775.000000000005
 20
694.0
 30
0.0
 40
40.0
100
AcDbArc
 50
309.0440002551487
 51
90.00000000000456
  0
LINE
  5
611
330
1F
100
AcDbEntity
  8
Ｓ_１_１
  6
CONTINUOUS
 62
     3
100
AcDbLine
 10
1470.000000000003
 20
750.0000000000009
 30
0.0
 11
1470.000000000003
 21
734.0000000000009
 31
0.0
  0
LINE
  5
612
330
1F
100
AcDbEntity
  8
Ｓ_１_１
  6
CONTINUOUS
 62
     3
100
AcDbLine
 10
1470.000000000003
 20
606.0000381469736
 30
0.0
 11
1470.000000000003
 21
590.0000381469736
 31
0.0
  0
LINE
  5
613
330
1F
100
AcDbEntity
  8
Ｓ_１_１
  6
CONTINUOUS
 62
     3
100
AcDbLine
 10
1470.000000000003
 20
750.0000000000009
 30
0.0
 11
1730.000000000003
 21
750.0000000000009
 31
0.0
  0
LINE
  5
614
330
1F
100
AcDbEntity
  8
Ｓ_１_１
  6
CONTINUOUS
 62
     3
100
AcDbLine
 10
1470.000000000003
 20
606.0000381469736
 30
0.0
 11
1730.000000000003
 21
606.0000381469736
 31
0.0
  0
LINE
  5
615
330
1F
100
AcDbEntity
  8
Ｓ_１_１
  6
CONTINUOUS
 62
     3
100
AcDbLine
 10
1470.000000000003
 20
590.0000381469736
 30
0.0
 11
1730.000000000003
 21
590.0000381469736
 31
0.0
  0
LINE
  5
616
330
1F
100
AcDbEntity
  8
Ｓ_１_１
  6
CONTINUOUS
 62
     3
100
AcDbLine
 10
1399.803319434508
 20
662.9335021529532
 30
0.0
 11
1470.000000000005
 21
606.0000381469699
 31
0.0
  0
ARC
  5
617
330
1F
100
AcDbEntity
  8
Ｓ_１_１
  6
CONTINUOUS
 62
     3
100
AcDbCircle
 10
1425.0
 20
694.0
 30
0.0
 40
40.0
100
AcDbArc
 50
89.9999999999958
 51
230.9559997448536
  0
LINE
  5
618
330
1F
100
AcDbEntity
  8
Ｓ_１_１
  6
CONTINUOUS
 62
     3
100
AcDbLine
 10
1720.000000000003
 20
750.0000000000009
 30
0.0
 11
1720.000000000003
 21
734.0000000000009
 31
0.0
  0
LINE
  5
619
330
1F
100
AcDbEntity
  8
Ｓ_１_１
  6
CONTINUOUS
 62
     3
100
AcDbLine
 10
1720.000000000003
 20
606.0000381469736
 30
0.0
 11
1720.000000000003
 21
590.0000381469736
 31
0.0
  0
LINE
  5
61A
330
1F
100
AcDbEntity
  8
Ｓ_１_１
  6
CONTINUOUS
 62
     3
100
AcDbLine
 10
1480.000000000003
 20
750.0000000000009
 30
0.0
 11
1480.000000000003
 21
734.0000000000009
 31
0.0
  0
LINE
  5
61B
330
1F
100
AcDbEntity
  8
Ｓ_１_１
  6
CONTINUOUS
 62
     3
100
AcDbLine
 10
1480.000000000003
 20
606.0000381469736
 30
0.0
 11
1480.000000000003
 21
590.0000381469736
 31
0.0
  0
LINE
  5
61C
330
1F
100
AcDbEntity
  8
Ｓ_１_１
  6
EXLTYPE6
 62
     1
100
AcDbLine
 10
1455.0
 20
694.0000000000009
 30
0.0
 11
1395.0
 21
694.0000000000002
 31
0.0
  0
LINE
  5
61D
330
1F
100
AcDbEntity
  8
Ｓ_１_１
  6
EXLTYPE6
 62
     1
100
AcDbLine
 10
1425.000000000003
 20
724.0
 30
0.0
 11
1425.000000000003
 21
664.0
 31
0.0
  0
LINE
  5
61E
330
1F
100
AcDbEntity
  8
Ｓ_１_１
  6
EXLTYPE6
 62
     1
100
AcDbLine
 10
1745.0
 20
694.0000000000009
 30
0.0
 11
1805.0
 21
694.0000000000009
 31
0.0
  0
LINE
  5
61F
330
1F
100
AcDbEntity
  8
Ｓ_１_１
  6
EXLTYPE6
 62
     1
100
AcDbLine
 10
1775.000000000003
 20
724.0
 30
0.0
 11
1775.000000000003
 21
664.0
 31
0.0
  0
LEADER
  5
620
330
1F
100
AcDbEntity
  8
Ｓ_１_１
  6
CONTINUOUS
 62
     2
100
AcDbLeader
  3
ISO-25
 76
     2
 10
840.0
 20
160.0
 30
0.0
 10
840.0
 20
109.2
 30
0.0
1001
ACAD
1000
DSTYLE
1002
{
1070
     5
1000
EX_NORM
1070
    41
1040
18.0
1070
   341
1005
7C
1002
}
  0
TEXT
  5
621
330
1F
100
AcDbEntity
  8
Ｓ_１_１
  6
CONTINUOUS
 62
     4
100
AcDbText
 10
848.5999999999997
 20
114.796875
 30
0.0
 40
20.77742494226328
  1
A
 41
0.999230769230769
  7
EXCADTTF1
 72
     5
 11
862.0999999999997
 21
114.796875
 31
0.0
100
AcDbText
  0
TEXT
  5
622
330
1F
100
AcDbEntity
  8
Ｓ_１_１
  6
CONTINUOUS
 62
     4
100
AcDbText
 10
1840.0
 20
963.796875
 30
0.0
 40
20.77742494226328
  1
A矢示図
 41
0.999230769230769
  7
EXCADTTF1
 72
     5
 11
1934.5
 21
963.796875
 31
0.0
100
AcDbText
  0
LINE
  5
623
330
1F
100
AcDbEntity
  8
Ｓ_１_１
  6
CONTINUOUS
 62
     3
100
AcDbLine
 10
1840.0
 20
960.0
 30
0.0
 11
1935.2
 21
960.0
 31
0.0
  0
ARC
  5
624
330
1F
100
AcDbEntity
  8
Ｓ_１_１
  6
CONTINUOUS
 62
     3
100
AcDbCircle
 10
840.0000000000024
 20
557.0000457763672
 30
0.0
 40
50.0000047683716
100
AcDbArc
 50
182.2924513068578
 51
188.0478543043201
  0
ARC
  5
625
330
1F
100
AcDbEntity
  8
Ｓ_１_１
  6
EXLTYPE0
 62
     2
100
AcDbCircle
 10
840.0000000000024
 20
557.0000457763672
 30
0.0
 40
50.0000047683716
100
AcDbArc
 50
188.0478543043202
 51
351.9521456956799
  0
TEXT
  5
626
330
1F
100
AcDbEntity
  8
Ｓ_１_１
  6
CONTINUOUS
 62
     4
100
AcDbText
 10
398.4
 20
1354.5645975258
 30
0.0
 40
20.77742494226328
  1
8-26キリ
 41
0.999230769230769
  7
EXCADTTF1
 72
     5
 11
506.4
 21
1354.5645975258
 31
0.0
100
AcDbText
  0
LEADER
  5
627
330
1F
100
AcDbEntity
  8
Ｓ_１_１
  6
CONTINUOUS
 62
     2
100
AcDbLeader
  3
ISO-25
 76
     3
 10
582.1631698405702
 20
1270.372275211
 30
0.0
 10
504.7677225257801
 20
1347.7677225258
 30
0.0
 10
398.4
 20
1347.7677225258
 30
0.0
1001
ACAD
1000
DSTYLE
1002
{
1070
     5
1000
EX_NORM
1070
    41
1040
18.0
1070
   341
1005
7C
1002
}
  0
TEXT
  5
628
330
1F
100
AcDbEntity
  8
Ｓ_１_１
  6
CONTINUOUS
 62
     4
100
AcDbText
 10
1263.0
 20
1430.0400834541
 30
0.0
 40
20.77742494226328
  1
8-26キリ
 41
0.999230769230769
  7
EXCADTTF1
 72
     5
 11
1371.0
 21
1430.0400834541
 31
0.0
100
AcDbText
  0
LEADER
  5
629
330
1F
100
AcDbEntity
  8
Ｓ_１_１
  6
CONTINUOUS
 62
     2
100
AcDbLeader
  3
ISO-25
 76
     3
 10
1426.6426737662
 20
1334.9576652998
 30
0.0
 10
1375.6709916605
 20
1423.2432084541
 30
0.0
 10
1263.0
 20
1423.2432084541
 30
0.0
1001
ACAD
1000
DSTYLE
1002
{
1070
     5
1000
EX_NORM
1070
    41
1040
18.0
1070
   341
1005
7C
1002
}
  0
LINE
  5
62A
330
1F
100
AcDbEntity
  8
Ｓ_１_１
  6
CONTINUOUS
 62
     3
100
AcDbLine
 10
1483.637838440891
 20
459.5000228881898
 30
0.0
 11
1483.637838440891
 21
471.0000228881897
 31
0.0
  0
LINE
  5
62B
330
1F
100
AcDbEntity
  8
Ｓ_１_１
  6
CONTINUOUS
 62
     3
100
AcDbLine
 10
1483.637838440891
 20
471.0000228881897
 30
0.0
 11
1483.637838440891
 21
482.5000228881898
 31
0.0
  0
LINE
  5
62C
330
1F
100
AcDbEntity
  8
Ｓ_１_１
  6
CONTINUOUS
 62
     3
100
AcDbLine
 10
1482.637838440891
 20
483.5000228881898
 30
0.0
 11
1467.137838440891
 21
483.5000228881898
 31
0.0
  0
LINE
  5
62D
330
1F
100
AcDbEntity
  8
Ｓ_１_１
  6
CONTINUOUS
 62
     3
100
AcDbLine
 10
1451.637838440891
 20
483.5000228881898
 30
0.0
 11
1467.137838440891
 21
483.5000228881898
 31
0.0
  0
LINE
  5
62E
330
1F
100
AcDbEntity
  8
Ｓ_１_１
  6
CONTINUOUS
 62
     3
100
AcDbLine
 10
1450.637838440891
 20
459.5000228881898
 30
0.0
 11
1450.637838440891
 21
471.0000228881897
 31
0.0
  0
LINE
  5
62F
330
1F
100
AcDbEntity
  8
Ｓ_１_１
  6
CONTINUOUS
 62
     3
100
AcDbLine
 10
1450.637838440891
 20
471.0000228881897
 30
0.0
 11
1450.637838440891
 21
482.5000228881898
 31
0.0
  0
LINE
  5
630
330
1F
100
AcDbEntity
  8
Ｓ_１_１
  6
CONTINUOUS
 62
     3
100
AcDbLine
 10
1450.637836882191
 20
482.5000242570898
 30
0.0
 11
1451.637837016591
 21
483.5000243070897
 31
0.0
  0
LINE
  5
631
330
1F
100
AcDbEntity
  8
Ｓ_１_１
  6
CONTINUOUS
 62
     3
100
AcDbLine
 10
1482.637839537991
 20
483.5000236748895
 30
0.0
 11
1483.637839250891
 21
482.5000238777895
 31
0.0
  0
LINE
  5
632
330
1F
100
AcDbEntity
  8
Ｓ_１_１
  6
CONTINUOUS
 62
     3
100
AcDbLine
 10
1482.637838365091
 20
458.5000229362898
 30
0.0
 11
1483.637838407891
 21
459.5000230633898
 31
0.0
  0
LINE
  5
633
330
1F
100
AcDbEntity
  8
Ｓ_１_１
  6
CONTINUOUS
 62
     3
100
AcDbLine
 10
1482.637838440891
 20
458.5000228881898
 30
0.0
 11
1467.137838440891
 21
458.5000228881898
 31
0.0
  0
LINE
  5
634
330
1F
100
AcDbEntity
  8
Ｓ_１_１
  6
CONTINUOUS
 62
     3
100
AcDbLine
 10
1450.637837978091
 20
459.5000225997899
 30
0.0
 11
1451.637837775191
 21
458.5000228868897
 31
0.0
  0
LINE
  5
635
330
1F
100
AcDbEntity
  8
Ｓ_１_１
  6
CONTINUOUS
 62
     3
100
AcDbLine
 10
1451.637838440891
 20
458.5000228881898
 30
0.0
 11
1467.137838440891
 21
458.5000228881898
 31
0.0
  0
LINE
  5
636
330
1F
100
AcDbEntity
  8
Ｓ_１_１
  6
CONTINUOUS
 62
     3
100
AcDbLine
 10
1451.637838440891
 20
458.5000228881898
 30
0.0
 11
1451.637838440891
 21
483.5000228881898
 31
0.0
  0
LINE
  5
637
330
1F
100
AcDbEntity
  8
Ｓ_１_１
  6
CONTINUOUS
 62
     3
100
AcDbLine
 10
1482.637838440891
 20
458.5000228881898
 30
0.0
 11
1482.637838440891
 21
483.5000228881898
 31
0.0
  0
LINE
  5
638
330
1F
100
AcDbEntity
  8
Ｓ_１_１
  6
CONTINUOUS
 62
     3
100
AcDbLine
 10
1449.27556644088
 20
479.2648848881897
 30
0.0
 11
1449.27556644088
 21
462.7351678881899
 31
0.0
  0
LINE
  5
639
330
1F
100
AcDbEntity
  8
Ｓ_１_１
  6
CONTINUOUS
 62
     3
100
AcDbLine
 10
1443.13786544088
 20
463.8201418881898
 30
0.0
 11
1449.27557844088
 21
463.4365338881901
 31
0.0
  0
LINE
  5
63A
330
1F
100
AcDbEntity
  8
Ｓ_１_１
  6
CONTINUOUS
 62
     3
100
AcDbLine
 10
1443.13784744088
 20
463.11877188819
 30
0.0
 11
1450.63786144088
 21
462.6500208881901
 31
0.0
  0
LINE
  5
63B
330
1F
100
AcDbEntity
  8
Ｓ_１_１
  6
CONTINUOUS
 62
     3
100
AcDbLine
 10
1449.27555844088
 20
463.43654888819
 30
0.0
 11
1450.63784144088
 21
462.65003388819
 31
0.0
  0
LINE
  5
63C
330
1F
100
AcDbEntity
  8
Ｓ_１_１
  6
CONTINUOUS
 62
     3
100
AcDbLine
 10
1443.13783544088
 20
478.8812728881896
 30
0.0
 11
1450.63788044088
 21
479.3500258881898
 31
0.0
  0
LINE
  5
63D
330
1F
100
AcDbEntity
  8
Ｓ_１_１
  6
CONTINUOUS
 62
     3
100
AcDbLine
 10
1450.63785744088
 20
479.35001188819
 30
0.0
 11
1449.27558744088
 21
478.5635058881897
 31
0.0
  0
LINE
  5
63E
330
1F
100
AcDbEntity
  8
Ｓ_１_１
  6
CONTINUOUS
 62
     3
100
AcDbLine
 10
1443.13785344088
 20
478.1799108881899
 30
0.0
 11
1449.27559644088
 21
478.5635198881899
 31
0.0
  0
LINE
  5
63F
330
1F
100
AcDbEntity
  8
Ｓ_１_１
  6
CONTINUOUS
 62
     3
100
AcDbLine
 10
1490.0001294409
 20
478.2510118881899
 30
0.0
 11
1485.0001194409
 21
478.5635128881897
 31
0.0
  0
LINE
  5
640
330
1F
100
AcDbEntity
  8
Ｓ_１_１
  6
CONTINUOUS
 62
     3
100
AcDbLine
 10
1490.0001174409
 20
478.9523758881899
 30
0.0
 11
1483.6378664409
 21
479.35001588819
 31
0.0
  0
LINE
  5
641
330
1F
100
AcDbEntity
  8
Ｓ_１_１
  6
CONTINUOUS
 62
     3
100
AcDbLine
 10
1485.0001104409
 20
479.2648848881897
 30
0.0
 11
1485.0001104409
 21
462.7351678881899
 31
0.0
  0
LINE
  5
642
330
1F
100
AcDbEntity
  8
Ｓ_１_１
  6
CONTINUOUS
 62
     3
100
AcDbLine
 10
1483.6378194409
 20
479.3500348881901
 30
0.0
 11
1485.0001024409
 21
478.5635208881897
 31
0.0
  0
LINE
  5
643
330
1F
100
AcDbEntity
  8
Ｓ_１_１
  6
CONTINUOUS
 62
     3
100
AcDbLine
 10
1490.0001174409
 20
463.7490368881898
 30
0.0
 11
1485.0001074409
 21
463.4365358881899
 31
0.0
  0
LINE
  5
644
330
1F
100
AcDbEntity
  8
Ｓ_１_１
  6
CONTINUOUS
 62
     3
100
AcDbLine
 10
1490.0001044409
 20
463.0476728881899
 30
0.0
 11
1483.6378544409
 21
462.6500328881901
 31
0.0
  0
LINE
  5
645
330
1F
100
AcDbEntity
  8
Ｓ_１_１
  6
CONTINUOUS
 62
     3
100
AcDbLine
 10
1485.0001184409
 20
463.4365258881901
 30
0.0
 11
1483.6378484409
 21
462.6500188881898
 31
0.0
  0
ARC
  5
646
330
1F
100
AcDbEntity
  8
Ｓ_１_１
  6
CONTINUOUS
 62
     3
100
AcDbCircle
 10
1442.271672440882
 20
481.3923113881795
 30
0.0
 40
6.133925000000001
100
AcDbArc
 50
145.6154380000004
 51
214.3845830000003
  0
ARC
  5
647
330
1F
100
AcDbEntity
  8
Ｓ_１_１
  6
CONTINUOUS
 62
     3
100
AcDbCircle
 10
1459.065984440881
 20
471.0000073881795
 30
0.0
 40
22.927938
100
AcDbArc
 50
162.411858
 51
197.5881660000002
  0
ARC
  5
648
330
1F
100
AcDbEntity
  8
Ｓ_１_１
  6
CONTINUOUS
 62
     3
100
AcDbCircle
 10
1437.003972440882
 20
460.6076733881799
 30
0.0
 40
6.133925000000001
100
AcDbArc
 50
325.6154019999991
 51
34.38456099999978
  0
ARC
  5
649
330
1F
100
AcDbEntity
  8
Ｓ_１_１
  6
CONTINUOUS
 62
     3
100
AcDbCircle
 10
1399.138005440881
 20
466.50000738818
 30
0.0
 40
1.0
100
AcDbArc
 50
179.9999779999953
 51
269.9999749999977
  0
ARC
  5
64A
330
1F
100
AcDbEntity
  8
Ｓ_１_１
  6
CONTINUOUS
 62
     3
100
AcDbCircle
 10
1442.271672440882
 20
460.6076733881799
 30
0.0
 40
6.133925000000001
100
AcDbArc
 50
145.6153689999997
 51
214.384513999999
  0
ARC
  5
64B
330
1F
100
AcDbEntity
  8
Ｓ_１_１
  6
CONTINUOUS
 62
     3
100
AcDbCircle
 10
1420.209905440881
 20
471.0000073881795
 30
0.0
 40
22.927942
100
AcDbArc
 50
342.4118210000002
 51
17.58811500000014
  0
ARC
  5
64C
330
1F
100
AcDbEntity
  8
Ｓ_１_１
  6
CONTINUOUS
 62
     3
100
AcDbCircle
 10
1437.003972440882
 20
481.3923113881795
 30
0.0
 40
6.133925000000001
100
AcDbArc
 50
325.6154159999999
 51
34.38457399999984
  0
ARC
  5
64D
330
1F
100
AcDbEntity
  8
Ｓ_１_１
  6
CONTINUOUS
 62
     3
100
AcDbCircle
 10
1399.138005440881
 20
475.4999773881794
 30
0.0
 40
1.0
100
AcDbArc
 50
89.99999700000235
 51
179.9999780000017
  0
LINE
  5
64E
330
1F
100
AcDbEntity
  8
Ｓ_１_１
  6
CONTINUOUS
 62
     3
100
AcDbLine
 10
1396.137883440882
 20
469.5000383881796
 30
0.0
 11
1396.137883440882
 21
472.5000073881795
 31
0.0
  0
LINE
  5
64F
330
1F
100
AcDbEntity
  8
Ｓ_１_１
  6
CONTINUOUS
 62
     3
100
AcDbLine
 10
1443.137761440882
 20
459.00000738818
 30
0.0
 11
1443.137761440882
 21
482.9999773881794
 31
0.0
  0
LINE
  5
650
330
1F
100
AcDbEntity
  8
Ｓ_１_１
  6
CONTINUOUS
 62
     3
100
AcDbLine
 10
1399.138005440881
 20
465.4999773881798
 30
0.0
 11
1408.137761440882
 21
465.4999773881798
 31
0.0
  0
LINE
  5
651
330
1F
100
AcDbEntity
  8
Ｓ_１_１
  6
CONTINUOUS
 62
     3
100
AcDbLine
 10
1408.137761440882
 20
465.4999773881798
 30
0.0
 11
1408.137761440882
 21
476.5000073881795
 31
0.0
  0
LINE
  5
652
330
1F
100
AcDbEntity
  8
Ｓ_１_１
  6
CONTINUOUS
 62
     3
100
AcDbLine
 10
1411.638005440881
 20
462.00003838818
 30
0.0
 11
1413.637883440882
 21
462.00003838818
 31
0.0
  0
LINE
  5
653
330
1F
100
AcDbEntity
  8
Ｓ_１_１
  6
CONTINUOUS
 62
     3
100
AcDbLine
 10
1411.638005440881
 20
480.0000073881795
 30
0.0
 11
1413.637883440882
 21
480.0000073881795
 31
0.0
  0
LINE
  5
654
330
1F
100
AcDbEntity
  8
Ｓ_１_１
  6
CONTINUOUS
 62
     3
100
AcDbLine
 10
1427.137883440882
 20
459.75000738818
 30
0.0
 11
1427.137883440882
 21
482.2500073881795
 31
0.0
  0
LINE
  5
655
330
1F
100
AcDbEntity
  8
Ｓ_１_１
  6
CONTINUOUS
 62
     3
100
AcDbLine
 10
1427.637883440882
 20
482.7500073881795
 30
0.0
 11
1436.137883440882
 21
482.7500073881795
 31
0.0
  0
LINE
  5
656
330
1F
100
AcDbEntity
  8
Ｓ_１_１
  6
CONTINUOUS
 62
     3
100
AcDbLine
 10
1427.637883440882
 20
459.2499773881798
 30
0.0
 11
1436.137883440882
 21
459.2499773881798
 31
0.0
  0
LINE
  5
657
330
1F
100
AcDbEntity
  8
Ｓ_１_１
  6
CONTINUOUS
 62
     3
100
AcDbLine
 10
1442.065909440882
 20
457.1436393881797
 30
0.0
 11
1443.137686440881
 21
459.00001138818
 31
0.0
  0
LINE
  5
658
330
1F
100
AcDbEntity
  8
Ｓ_１_１
  6
CONTINUOUS
 62
     3
100
AcDbLine
 10
1436.137692440881
 20
482.9999343881794
 30
0.0
 11
1437.209531440882
 21
484.8564123881795
 31
0.0
  0
LINE
  5
659
330
1F
100
AcDbEntity
  8
Ｓ_１_１
  6
CONTINUOUS
 62
     3
100
AcDbLine
 10
1443.137728440881
 20
482.9999763881794
 30
0.0
 11
1442.065951440881
 21
484.8563493881796
 31
0.0
  0
LINE
  5
65A
330
1F
100
AcDbEntity
  8
Ｓ_１_１
  6
CONTINUOUS
 62
     3
100
AcDbLine
 10
1437.209391440882
 20
457.1436463881799
 30
0.0
 11
1436.137614440881
 21
459.00001938818
 31
0.0
  0
LINE
  5
65B
330
1F
100
AcDbEntity
  8
Ｓ_１_１
  6
CONTINUOUS
 62
     3
100
AcDbLine
 10
1437.209661440882
 20
484.8564223881792
 30
0.0
 11
1442.065984440881
 21
484.8564223881792
 31
0.0
  0
LINE
  5
65C
330
1F
100
AcDbEntity
  8
Ｓ_１_１
  6
CONTINUOUS
 62
     3
100
AcDbLine
 10
1437.209661440882
 20
477.9282303881794
 30
0.0
 11
1442.065984440881
 21
477.9282303881794
 31
0.0
  0
LINE
  5
65D
330
1F
100
AcDbEntity
  8
Ｓ_１_１
  6
CONTINUOUS
 62
     3
100
AcDbLine
 10
1437.209661440882
 20
464.0718763881799
 30
0.0
 11
1442.065984440881
 21
464.0718763881799
 31
0.0
  0
LINE
  5
65E
330
1F
100
AcDbEntity
  8
Ｓ_１_１
  6
CONTINUOUS
 62
     3
100
AcDbLine
 10
1437.209661440882
 20
457.1436083881798
 30
0.0
 11
1442.065984440881
 21
457.1436083881798
 31
0.0
  0
LINE
  5
65F
330
1F
100
AcDbEntity
  8
Ｓ_１_１
  6
CONTINUOUS
 62
     3
100
AcDbLine
 10
1436.137883440882
 20
459.00000738818
 30
0.0
 11
1436.137883440882
 21
482.9999773881794
 31
0.0
  0
LINE
  5
660
330
1F
100
AcDbEntity
  8
Ｓ_１_１
  6
CONTINUOUS
 62
     3
100
AcDbLine
 10
1398.137761440881
 20
466.50000738818
 30
0.0
 11
1398.137761440881
 21
475.4999773881794
 31
0.0
  0
LINE
  5
661
330
1F
100
AcDbEntity
  8
Ｓ_１_１
  6
CONTINUOUS
 62
     3
100
AcDbLine
 10
1396.137696440881
 20
472.4998663881796
 30
0.0
 11
1398.137741440881
 21
474.4999113881793
 31
0.0
  0
LINE
  5
662
330
1F
100
AcDbEntity
  8
Ｓ_１_１
  6
CONTINUOUS
 62
     3
100
AcDbLine
 10
1398.137698440882
 20
467.4998393881799
 30
0.0
 11
1396.137739440881
 21
469.4997983881792
 31
0.0
  0
LINE
  5
663
330
1F
100
AcDbEntity
  8
Ｓ_１_１
  6
CONTINUOUS
 62
     3
100
AcDbLine
 10
1416.638005440881
 20
463.50000738818
 30
0.0
 11
1416.638005440881
 21
478.5000073881795
 31
0.0
  0
LINE
  5
664
330
1F
100
AcDbEntity
  8
Ｓ_１_１
  6
CONTINUOUS
 62
     3
100
AcDbLine
 10
1415.137883440882
 20
463.50000738818
 30
0.0
 11
1415.137883440882
 21
478.5000073881795
 31
0.0
  0
LINE
  5
665
330
1F
100
AcDbEntity
  8
Ｓ_１_１
  6
CONTINUOUS
 62
     3
100
AcDbLine
 10
1411.638005440881
 20
462.00003838818
 30
0.0
 11
1411.638005440881
 21
480.0000073881795
 31
0.0
  0
LINE
  5
666
330
1F
100
AcDbEntity
  8
Ｓ_１_１
  6
CONTINUOUS
 62
     3
100
AcDbLine
 10
1418.137761440882
 20
480.0000073881795
 30
0.0
 11
1427.137883440882
 21
480.0000073881795
 31
0.0
  0
LINE
  5
667
330
1F
100
AcDbEntity
  8
Ｓ_１_１
  6
CONTINUOUS
 62
     3
100
AcDbLine
 10
1418.137761440882
 20
462.00003838818
 30
0.0
 11
1427.137883440882
 21
462.00003838818
 31
0.0
  0
LINE
  5
668
330
1F
100
AcDbEntity
  8
Ｓ_１_１
  6
CONTINUOUS
 62
     3
100
AcDbLine
 10
1413.637862440881
 20
461.9998953881798
 30
0.0
 11
1415.137875440882
 21
463.4999073881798
 31
0.0
  0
LINE
  5
669
330
1F
100
AcDbEntity
  8
Ｓ_１_１
  6
CONTINUOUS
 62
     3
100
AcDbLine
 10
1415.137876440881
 20
478.4999733881794
 30
0.0
 11
1413.637993440881
 21
479.9998563881794
 31
0.0
  0
LINE
  5
66A
330
1F
100
AcDbEntity
  8
Ｓ_１_１
  6
CONTINUOUS
 62
     3
100
AcDbLine
 10
1413.637883440882
 20
462.00003838818
 30
0.0
 11
1413.637883440882
 21
480.0000073881795
 31
0.0
  0
LINE
  5
66B
330
1F
100
AcDbEntity
  8
Ｓ_１_１
  6
CONTINUOUS
 62
     3
100
AcDbLine
 10
1418.137728440881
 20
462.0000093881797
 30
0.0
 11
1416.637845440881
 21
463.4998923881797
 31
0.0
  0
LINE
  5
66C
330
1F
100
AcDbEntity
  8
Ｓ_１_１
  6
CONTINUOUS
 62
     3
100
AcDbLine
 10
1416.637887440882
 20
478.4998593881794
 30
0.0
 11
1418.137899440881
 21
479.9998723881793
 31
0.0
  0
LINE
  5
66D
330
1F
100
AcDbEntity
  8
Ｓ_１_１
  6
CONTINUOUS
 62
     3
100
AcDbLine
 10
1427.637883440882
 20
459.2499773881798
 30
0.0
 11
1427.637883440882
 21
482.7500073881795
 31
0.0
  0
LINE
  5
66E
330
1F
100
AcDbEntity
  8
Ｓ_１_１
  6
CONTINUOUS
 62
     3
100
AcDbLine
 10
1418.137761440882
 20
462.00003838818
 30
0.0
 11
1418.137761440882
 21
480.0000073881795
 31
0.0
  0
LINE
  5
66F
330
1F
100
AcDbEntity
  8
Ｓ_１_１
  6
CONTINUOUS
 62
     3
100
AcDbLine
 10
1415.137883440882
 20
463.50000738818
 30
0.0
 11
1416.638005440881
 21
463.50000738818
 31
0.0
  0
LINE
  5
670
330
1F
100
AcDbEntity
  8
Ｓ_１_１
  6
CONTINUOUS
 62
     3
100
AcDbLine
 10
1415.137883440882
 20
478.5000073881795
 30
0.0
 11
1416.638005440881
 21
478.5000073881795
 31
0.0
  0
LINE
  5
671
330
1F
100
AcDbEntity
  8
Ｓ_１_１
  6
CONTINUOUS
 62
     3
100
AcDbLine
 10
1427.137794440881
 20
482.2499033881793
 30
0.0
 11
1427.637740440881
 21
482.7498503881796
 31
0.0
  0
LINE
  5
672
330
1F
100
AcDbEntity
  8
Ｓ_１_１
  6
CONTINUOUS
 62
     3
100
AcDbLine
 10
1427.637792440882
 20
459.24993238818
 30
0.0
 11
1427.137883440882
 21
459.7498303881801
 31
0.0
  0
LINE
  5
673
330
1F
100
AcDbEntity
  8
Ｓ_１_１
  6
CONTINUOUS
 62
     3
100
AcDbLine
 10
1411.637774440881
 20
461.9999663881798
 30
0.0
 11
1408.137760440881
 21
465.4999803881799
 31
0.0
  0
LINE
  5
674
330
1F
100
AcDbEntity
  8
Ｓ_１_１
  6
CONTINUOUS
 62
     3
100
AcDbLine
 10
1408.137974440881
 20
476.4998573881797
 30
0.0
 11
1411.637946440881
 21
479.9998283881794
 31
0.0
  0
LINE
  5
675
330
1F
100
AcDbEntity
  8
Ｓ_１_１
  6
CONTINUOUS
 62
     3
100
AcDbLine
 10
1399.138005440881
 20
476.5000073881795
 30
0.0
 11
1408.137761440882
 21
476.5000073881795
 31
0.0
  0
CIRCLE
  5
676
330
1F
100
AcDbEntity
  8
Ｓ_１_１
  6
CONTINUOUS
 62
     3
100
AcDbCircle
 10
1467.13783844089
 20
471.0000228881897
 30
0.0
 40
10.0
  0
POLYLINE
  5
677
330
1F
100
AcDbEntity
  8
Ｓ_１_１
  6
CONTINUOUS
 62
     3
100
AcDb2dPolyline
 66
     1
 10
0.0
 20
0.0
 30
0.0
 70
   128
  0
VERTEX
  5
678
330
677
100
AcDbEntity
  8
Ｓ_１_１
  6
CONTINUOUS
 62
     3
100
AcDbVertex
100
AcDb2dVertex
 10
1457.63783844089
 20
471.0000228881897
 30
0.0
  0
VERTEX
  5
679
330
677
100
AcDbEntity
  8
Ｓ_１_１
  6
CONTINUOUS
 62
     3
100
AcDbVertex
100
AcDb2dVertex
 10
1462.38783844089
 20
462.7727815522378
 30
0.0
  0
VERTEX
  5
67A
330
677
100
AcDbEntity
  8
Ｓ_１_１
  6
CONTINUOUS
 62
     3
100
AcDbVertex
100
AcDb2dVertex
 10
1471.88783844089
 20
462.7727815522378
 30
0.0
  0
VERTEX
  5
67B
330
677
100
AcDbEntity
  8
Ｓ_１_１
  6
CONTINUOUS
 62
     3
100
AcDbVertex
100
AcDb2dVertex
 10
1476.63783844089
 20
471.0000228881897
 30
0.0
  0
VERTEX
  5
67C
330
677
100
AcDbEntity
  8
Ｓ_１_１
  6
CONTINUOUS
 62
     3
100
AcDbVertex
100
AcDb2dVertex
 10
1471.88783844089
 20
479.2272642241422
 30
0.0
  0
VERTEX
  5
67D
330
677
100
AcDbEntity
  8
Ｓ_１_１
  6
CONTINUOUS
 62
     3
100
AcDbVertex
100
AcDb2dVertex
 10
1462.38783844089
 20
479.2272642241422
 30
0.0
  0
VERTEX
  5
67E
330
677
100
AcDbEntity
  8
Ｓ_１_１
  6
CONTINUOUS
 62
     3
100
AcDbVertex
100
AcDb2dVertex
 10
1457.63783844089
 20
471.0000228881897
 30
0.0
  0
SEQEND
  5
67F
330
677
100
AcDbEntity
  8
Ｓ_１_１
  6
CONTINUOUS
 62
     3
  0
CIRCLE
  5
680
330
1F
100
AcDbEntity
  8
Ｓ_１_１
  6
CONTINUOUS
 62
     3
100
AcDbCircle
 10
1467.13783844089
 20
471.0000228881897
 30
0.0
 40
8.227241335951572
  0
ARC
  5
681
330
1F
100
AcDbEntity
  8
Ｓ_１_１
  6
CONTINUOUS
 62
     3
100
AcDbCircle
 10
1467.13783844089
 20
471.0000228881897
 30
0.0
 40
8.999999915700016
100
AcDbArc
 50
186.0835974972829
 51
233.9164025027172
  0
ARC
  5
682
330
1F
100
AcDbEntity
  8
Ｓ_１_１
  6
CONTINUOUS
 62
     3
100
AcDbCircle
 10
1467.13783844089
 20
471.0000228881897
 30
0.0
 40
8.999999915700016
100
AcDbArc
 50
246.0835974972827
 51
293.9164025027173
  0
ARC
  5
683
330
1F
100
AcDbEntity
  8
Ｓ_１_１
  6
CONTINUOUS
 62
     3
100
AcDbCircle
 10
1467.13783844089
 20
471.0000228881897
 30
0.0
 40
8.999999915700016
100
AcDbArc
 50
306.0835974972829
 51
353.9164025027171
  0
ARC
  5
684
330
1F
100
AcDbEntity
  8
Ｓ_１_１
  6
CONTINUOUS
 62
     3
100
AcDbCircle
 10
1467.13783844089
 20
471.0000228881897
 30
0.0
 40
8.999999915700016
100
AcDbArc
 50
6.083597497282877
 51
53.91640250271725
  0
ARC
  5
685
330
1F
100
AcDbEntity
  8
Ｓ_１_１
  6
CONTINUOUS
 62
     3
100
AcDbCircle
 10
1467.13783844089
 20
471.0000228881897
 30
0.0
 40
8.999999915700016
100
AcDbArc
 50
66.08359749728265
 51
113.9164025027174
  0
ARC
  5
686
330
1F
100
AcDbEntity
  8
Ｓ_１_１
  6
CONTINUOUS
 62
     3
100
AcDbCircle
 10
1467.13783844089
 20
471.0000228881897
 30
0.0
 40
8.999999915700016
100
AcDbArc
 50
126.0835974972829
 51
173.9164025027172
  0
CIRCLE
  5
687
330
1F
100
AcDbEntity
  8
Ｓ_１_１
  6
CONTINUOUS
 62
     3
100
AcDbCircle
 10
1467.13783844089
 20
471.0000228881897
 30
0.0
 40
5.0
  0
CIRCLE
  5
688
330
1F
100
AcDbEntity
  8
Ｓ_１_１
  6
CONTINUOUS
 62
     3
100
AcDbCircle
 10
1467.13783844089
 20
471.0000228881897
 30
0.0
 40
4.25
  0
LINE
  5
689
330
1F
100
AcDbEntity
  8
Ｓ_１_１
  6
EXLTYPE2
 62
     1
100
AcDbLine
 10
1467.137838440891
 20
484.0000228881898
 30
0.0
 11
1467.137838440891
 21
458.0000228881898
 31
0.0
  0
LINE
  5
68A
330
1F
100
AcDbEntity
  8
Ｓ_１_１
  6
EXLTYPE8
 62
     1
100
AcDbLine
 10
1390.98
 20
471.0000228881854
 30
0.0
 11
1514.956703186029
 21
471.0000228881854
 31
0.0
  0
LINE
  5
68B
330
1F
100
AcDbEntity
  8
Ｓ_１_１
  6
CONTINUOUS
 62
     3
100
AcDbLine
 10
889.0000000000007
 20
475.2500228881891
 30
0.0
 11
894.0000000000007
 21
475.2500228881891
 31
0.0
  0
LINE
  5
68C
330
1F
100
AcDbEntity
  8
Ｓ_１_１
  6
CONTINUOUS
 62
     3
100
AcDbLine
 10
889.0000000000007
 20
466.7500228881892
 30
0.0
 11
894.0000000000007
 21
466.7500228881892
 31
0.0
  0
LINE
  5
68D
330
1F
100
AcDbEntity
  8
Ｓ_１_１
  6
CONTINUOUS
 62
     3
100
AcDbLine
 10
889.0000000000007
 20
466.0000228881892
 30
0.0
 11
893.2500000000007
 21
466.0000228881892
 31
0.0
  0
LINE
  5
68E
330
1F
100
AcDbEntity
  8
Ｓ_１_１
  6
CONTINUOUS
 62
     3
100
AcDbLine
 10
889.0000000000007
 20
476.0000228881891
 30
0.0
 11
893.2500000000007
 21
476.0000228881891
 31
0.0
  0
LINE
  5
68F
330
1F
100
AcDbEntity
  8
Ｓ_１_１
  6
CONTINUOUS
 62
     3
100
AcDbLine
 10
894.0000000000007
 20
466.7500228881892
 30
0.0
 11
894.0000000000007
 21
475.2500228881891
 31
0.0
  0
LINE
  5
690
330
1F
100
AcDbEntity
  8
Ｓ_１_１
  6
CONTINUOUS
 62
     3
100
AcDbLine
 10
893.2500000000007
 20
466.0000228881892
 30
0.0
 11
893.2500000000007
 21
476.0000228881891
 31
0.0
  0
LINE
  5
691
330
1F
100
AcDbEntity
  8
Ｓ_１_１
  6
CONTINUOUS
 62
     3
100
AcDbLine
 10
893.2500025577008
 20
466.000024013189
 30
0.0
 11
894.0000006565008
 21
466.750022175189
 31
0.0
  0
LINE
  5
692
330
1F
100
AcDbEntity
  8
Ｓ_１_１
  6
CONTINUOUS
 62
     3
100
AcDbLine
 10
894.0000016470005
 20
475.2500248134889
 30
0.0
 11
893.2500014619006
 21
476.0000249352889
 31
0.0
  0
LINE
  5
693
330
1F
100
AcDbEntity
  8
Ｓ_１_１
  6
CONTINUOUS
 62
     3
100
AcDbLine
 10
882.0000000000007
 20
471.0000228881892
 30
0.0
 11
882.0000000000007
 21
481.0000228881892
 31
0.0
  0
LINE
  5
694
330
1F
100
AcDbEntity
  8
Ｓ_１_１
  6
CONTINUOUS
 62
     3
100
AcDbLine
 10
882.0000000000007
 20
461.0000228881891
 30
0.0
 11
882.0000000000007
 21
471.0000228881892
 31
0.0
  0
LINE
  5
695
330
1F
100
AcDbEntity
  8
Ｓ_１_１
  6
CONTINUOUS
 62
     3
100
AcDbLine
 10
882.0000005510007
 20
481.000022337189
 30
0.0
 11
883.0000005800005
 21
480.0000222238888
 31
0.0
  0
LINE
  5
696
330
1F
100
AcDbEntity
  8
Ｓ_１_１
  6
CONTINUOUS
 62
     3
100
AcDbLine
 10
883.0000002849008
 20
462.0000230887891
 30
0.0
 11
882.0000004877008
 21
461.0000233758889
 31
0.0
  0
LINE
  5
697
330
1F
100
AcDbEntity
  8
Ｓ_１_１
  6
CONTINUOUS
 62
     3
100
AcDbLine
 10
883.0000000000007
 20
462.0000230887891
 30
0.0
 11
883.0000000000007
 21
471.0000228881892
 31
0.0
  0
LINE
  5
698
330
1F
100
AcDbEntity
  8
Ｓ_１_１
  6
CONTINUOUS
 62
     3
100
AcDbLine
 10
883.0000000000007
 20
471.0000228881892
 30
0.0
 11
883.0000000000007
 21
480.0000222238888
 31
0.0
  0
LINE
  5
699
330
1F
100
AcDbEntity
  8
Ｓ_１_１
  6
CONTINUOUS
 62
     3
100
AcDbLine
 10
852.5000000000002
 20
481.0000228881892
 30
0.0
 11
882.0000000000007
 21
481.0000228881892
 31
0.0
  0
LINE
  5
69A
330
1F
100
AcDbEntity
  8
Ｓ_１_１
  6
CONTINUOUS
 62
     3
100
AcDbLine
 10
888.9999981656007
 20
478.4924355513891
 30
0.0
 11
887.9999979724004
 21
480.5000221410888
 31
0.0
  0
LINE
  5
69B
330
1F
100
AcDbEntity
  8
Ｓ_１_１
  6
CONTINUOUS
 62
     3
100
AcDbLine
 10
888.9999995145005
 20
463.507609132189
 30
0.0
 11
887.9999993213007
 21
461.5000225424889
 31
0.0
  0
LINE
  5
69C
330
1F
100
AcDbEntity
  8
Ｓ_１_１
  6
CONTINUOUS
 62
     3
100
AcDbLine
 10
882.9999999766006
 20
478.4924361943891
 30
0.0
 11
884.0000001698006
 21
480.5000227840889
 31
0.0
  0
LINE
  5
69D
330
1F
100
AcDbEntity
  8
Ｓ_１_１
  6
CONTINUOUS
 62
     3
100
AcDbLine
 10
882.9999984859007
 20
463.507608773889
 30
0.0
 11
883.9999985375003
 21
461.5000224686888
 31
0.0
  0
LINE
  5
69E
330
1F
100
AcDbEntity
  8
Ｓ_１_１
  6
CONTINUOUS
 62
     3
100
AcDbLine
 10
884.0000000000006
 20
461.5000228881892
 30
0.0
 11
888.0000000000007
 21
461.5000228881892
 31
0.0
  0
LINE
  5
69F
330
1F
100
AcDbEntity
  8
Ｓ_１_１
  6
CONTINUOUS
 62
     3
100
AcDbLine
 10
884.0000000000006
 20
480.5000228881891
 30
0.0
 11
888.0000000000007
 21
480.5000228881891
 31
0.0
  0
LINE
  5
6A0
330
1F
100
AcDbEntity
  8
Ｓ_１_１
  6
CONTINUOUS
 62
     3
100
AcDbLine
 10
889.0000000000007
 20
471.0000228881892
 30
0.0
 11
889.0000000000007
 21
478.4924367268891
 31
0.0
  0
LINE
  5
6A1
330
1F
100
AcDbEntity
  8
Ｓ_１_１
  6
CONTINUOUS
 62
     3
100
AcDbLine
 10
889.0000000000007
 20
463.5076090494891
 30
0.0
 11
889.0000000000007
 21
471.0000228881892
 31
0.0
  0
ARC
  5
6A2
330
1F
100
AcDbEntity
  8
Ｓ_１_１
  6
CONTINUOUS
 62
     3
100
AcDbCircle
 10
898.5416666667008
 20
471.0000228881892
 30
0.0
 40
15.5416666667
100
AcDbArc
 50
159.3345163543002
 51
159.3345238904477
  0
ARC
  5
6A3
330
1F
100
AcDbEntity
  8
Ｓ_１_１
  6
CONTINUOUS
 62
     3
100
AcDbCircle
 10
873.4583333333004
 20
471.0000228881892
 30
0.0
 40
15.5416666667
100
AcDbArc
 50
20.66547610955293
 51
20.66547840939962
  0
ARC
  5
6A4
330
1F
100
AcDbEntity
  8
Ｓ_１_１
  6
CONTINUOUS
 62
     3
100
AcDbCircle
 10
898.5416666667008
 20
471.0000228881892
 30
0.0
 40
15.5416666667
100
AcDbArc
 50
162.8126324028145
 51
197.1873680951787
  0
ARC
  5
6A5
330
1F
100
AcDbEntity
  8
Ｓ_１_１
  6
CONTINUOUS
 62
     3
100
AcDbCircle
 10
898.5416666667008
 20
471.0000228881892
 30
0.0
 40
15.5416666667
100
AcDbArc
 50
200.6654786560356
 51
200.6654800033002
  0
ARC
  5
6A6
330
1F
100
AcDbEntity
  8
Ｓ_１_１
  6
CONTINUOUS
 62
     3
100
AcDbCircle
 10
873.4583333333004
 20
471.0000228881892
 30
0.0
 40
15.5416666667
100
AcDbArc
 50
342.8126319048212
 51
17.18736759718547
  0
LINE
  5
6A7
330
1F
100
AcDbEntity
  8
Ｓ_１_１
  6
CONTINUOUS
 62
     3
100
AcDbLine
 10
888.3059641178627
 20
475.5925453828692
 30
0.0
 11
883.6940358821386
 21
475.5925453828692
 31
0.0
  0
LINE
  5
6A8
330
1F
100
AcDbEntity
  8
Ｓ_１_１
  6
CONTINUOUS
 62
     3
100
AcDbLine
 10
888.3059640779463
 20
466.4075002644591
 30
0.0
 11
883.6940359220549
 21
466.4075002644591
 31
0.0
  0
ARC
  5
6A9
330
1F
100
AcDbEntity
  8
Ｓ_１_１
  6
CONTINUOUS
 62
     3
100
AcDbCircle
 10
883.0000000000007
 20
463.507605734199
 30
0.0
 40
6.000000000001596
100
AcDbArc
 50
0.0000417559226242
 51
28.90218407791362
  0
ARC
  5
6AA
330
1F
100
AcDbEntity
  8
Ｓ_１_１
  6
CONTINUOUS
 62
     3
100
AcDbCircle
 10
889.0000000000007
 20
463.507610106869
 30
0.0
 40
6.000000000001596
100
AcDbArc
 50
151.0978636188124
 51
180.0000417558857
  0
ARC
  5
6AB
330
1F
100
AcDbEntity
  8
Ｓ_１_１
  6
CONTINUOUS
 62
     3
100
AcDbCircle
 10
889.0000000000007
 20
478.492436241369
 30
0.0
 40
6.000000000000005
100
AcDbArc
 50
179.9999920172612
 51
208.9021440266621
  0
ARC
  5
6AC
330
1F
100
AcDbEntity
  8
Ｓ_１_１
  6
CONTINUOUS
 62
     3
100
AcDbCircle
 10
883.0000000000007
 20
478.492436241369
 30
0.0
 40
6.000000000001596
100
AcDbArc
 50
331.0978559733464
 51
0.0
  0
LINE
  5
6AD
330
1F
100
AcDbEntity
  8
Ｓ_１_１
  6
CONTINUOUS
 62
     3
100
AcDbLine
 10
852.5000000000002
 20
461.0000228881891
 30
0.0
 11
882.0000000000007
 21
461.0000228881891
 31
0.0
  0
LINE
  5
6AE
330
1F
100
AcDbEntity
  8
Ｓ_１_１
  6
CONTINUOUS
 62
     3
100
AcDbLine
 10
827.5
 20
483.50002288819
 30
0.0
 11
827.5
 21
458.5000228881901
 31
0.0
  0
LINE
  5
6AF
330
1F
100
AcDbEntity
  8
Ｓ_１_１
  6
CONTINUOUS
 62
     3
100
AcDbLine
 10
852.4999999999999
 20
483.50002288819
 30
0.0
 11
852.4999999999999
 21
458.50002288819
 31
0.0
  0
ARC
  5
6B0
330
1F
100
AcDbEntity
  8
Ｓ_１_１
  6
CONTINUOUS
 62
     3
100
AcDbCircle
 10
840.0000000000061
 20
471.0000228881899
 30
0.0
 40
15.0
100
AcDbArc
 50
56.44269023807936
 51
123.5573097619206
  0
ARC
  5
6B1
330
1F
100
AcDbEntity
  8
Ｓ_１_１
  6
CONTINUOUS
 62
     3
100
AcDbCircle
 10
840.0000000000061
 20
471.0000228881899
 30
0.0
 40
15.0
100
AcDbArc
 50
146.4426902381223
 51
213.5573097618778
  0
ARC
  5
6B2
330
1F
100
AcDbEntity
  8
Ｓ_１_１
  6
CONTINUOUS
 62
     3
100
AcDbCircle
 10
840.0000000000061
 20
471.0000228881899
 30
0.0
 40
15.0
100
AcDbArc
 50
236.4426902380792
 51
303.5573097619207
  0
ARC
  5
6B3
330
1F
100
AcDbEntity
  8
Ｓ_１_１
  6
CONTINUOUS
 62
     3
100
AcDbCircle
 10
840.0000000000061
 20
471.0000228881899
 30
0.0
 40
15.0
100
AcDbArc
 50
326.4426902380361
 51
33.55730976196409
  0
LINE
  5
6B4
330
1F
100
AcDbEntity
  8
Ｓ_１_１
  6
CONTINUOUS
 62
     3
100
AcDbLine
 10
827.5
 20
458.50002288819
 30
0.0
 11
837.6506350946164
 21
458.50002288819
 31
0.0
  0
LINE
  5
6B5
330
1F
100
AcDbEntity
  8
Ｓ_１_１
  6
CONTINUOUS
 62
     3
100
AcDbLine
 10
842.349364905396
 20
458.50002288819
 30
0.0
 11
852.4999999999999
 21
458.50002288819
 31
0.0
  0
LINE
  5
6B6
330
1F
100
AcDbEntity
  8
Ｓ_１_１
  6
CONTINUOUS
 62
     3
100
AcDbLine
 10
828.4999999999999
 20
459.5000228881899
 30
0.0
 11
835.9185842870478
 21
459.5000228881899
 31
0.0
  0
LINE
  5
6B7
330
1F
100
AcDbEntity
  8
Ｓ_１_１
  6
CONTINUOUS
 62
     3
100
AcDbLine
 10
844.0814157129646
 20
459.5000228881899
 30
0.0
 11
851.5000000000001
 21
459.5000228881899
 31
0.0
  0
LINE
  5
6B8
330
1F
100
AcDbEntity
  8
Ｓ_１_１
  6
CONTINUOUS
 62
     3
100
AcDbLine
 10
828.4999999999999
 20
463.7831445233234
 30
0.0
 11
828.4999999999999
 21
459.5000228881899
 31
0.0
  0
LINE
  5
6B9
330
1F
100
AcDbEntity
  8
Ｓ_１_１
  6
CONTINUOUS
 62
     3
100
AcDbLine
 10
828.4999999999999
 20
482.50002288819
 30
0.0
 11
828.4999999999999
 21
478.2169012530566
 31
0.0
  0
LINE
  5
6BA
330
1F
100
AcDbEntity
  8
Ｓ_１_１
  6
CONTINUOUS
 62
     3
100
AcDbLine
 10
851.5000000000001
 20
482.50002288819
 30
0.0
 11
851.5000000000001
 21
478.2169012530637
 31
0.0
  0
LINE
  5
6BB
330
1F
100
AcDbEntity
  8
Ｓ_１_１
  6
CONTINUOUS
 62
     3
100
AcDbLine
 10
851.5000000000001
 20
463.7831445233163
 30
0.0
 11
851.5000000000001
 21
459.5000228881899
 31
0.0
  0
LINE
  5
6BC
330
1F
100
AcDbEntity
  8
Ｓ_１_１
  6
CONTINUOUS
 62
     3
100
AcDbLine
 10
828.4999999999999
 20
482.50002288819
 30
0.0
 11
835.9185842870478
 21
482.50002288819
 31
0.0
  0
LINE
  5
6BD
330
1F
100
AcDbEntity
  8
Ｓ_１_１
  6
CONTINUOUS
 62
     3
100
AcDbLine
 10
827.5
 20
483.50002288819
 30
0.0
 11
837.6506350946164
 21
483.50002288819
 31
0.0
  0
LINE
  5
6BE
330
1F
100
AcDbEntity
  8
Ｓ_１_１
  6
CONTINUOUS
 62
     3
100
AcDbLine
 10
842.349364905396
 20
483.50002288819
 30
0.0
 11
852.4999999999999
 21
483.50002288819
 31
0.0
  0
LINE
  5
6BF
330
1F
100
AcDbEntity
  8
Ｓ_１_１
  6
CONTINUOUS
 62
     3
100
AcDbLine
 10
844.0814157129646
 20
482.50002288819
 30
0.0
 11
851.5000000000001
 21
482.50002288819
 31
0.0
  0
LINE
  5
6C0
330
1F
100
AcDbEntity
  8
Ｓ_１_１
  6
EXLTYPE8
 62
     1
100
AcDbLine
 10
820.5331068038946
 20
471.0000228881854
 30
0.0
 11
897.4799999999999
 21
471.0000228881854
 31
0.0
  0
POLYLINE
  5
6C1
330
1F
100
AcDbEntity
  8
Ｓ_１_１
  6
CONTINUOUS
 62
     3
100
AcDb2dPolyline
 66
     1
 10
0.0
 20
0.0
 30
0.0
 70
   128
  0
VERTEX
  5
6C2
330
6C1
100
AcDbEntity
  8
Ｓ_１_１
  6
CONTINUOUS
 62
     3
100
AcDbVertex
100
AcDb2dVertex
 10
1464.251087094952
 20
471.00002288819
 30
0.0
  0
VERTEX
  5
6C3
330
6C1
100
AcDbEntity
  8
Ｓ_１_１
  6
CONTINUOUS
 62
     3
100
AcDbVertex
100
AcDb2dVertex
 10
1465.694462767926
 20
468.50002288819
 30
0.0
  0
VERTEX
  5
6C4
330
6C1
100
AcDbEntity
  8
Ｓ_１_１
  6
CONTINUOUS
 62
     3
100
AcDbVertex
100
AcDb2dVertex
 10
1468.581214113874
 20
468.50002288819
 30
0.0
  0
VERTEX
  5
6C5
330
6C1
100
AcDbEntity
  8
Ｓ_１_１
  6
CONTINUOUS
 62
     3
100
AcDbVertex
100
AcDb2dVertex
 10
1470.024589786848
 20
471.00002288819
 30
0.0
  0
VERTEX
  5
6C6
330
6C1
100
AcDbEntity
  8
Ｓ_１_１
  6
CONTINUOUS
 62
     3
100
AcDbVertex
100
AcDb2dVertex
 10
1468.581214113874
 20
473.50002288819
 30
0.0
  0
VERTEX
  5
6C7
330
6C1
100
AcDbEntity
  8
Ｓ_１_１
  6
CONTINUOUS
 62
     3
100
AcDbVertex
100
AcDb2dVertex
 10
1465.694462767926
 20
473.50002288819
 30
0.0
  0
VERTEX
  5
6C8
330
6C1
100
AcDbEntity
  8
Ｓ_１_１
  6
CONTINUOUS
 62
     3
100
AcDbVertex
100
AcDb2dVertex
 10
1464.251087094952
 20
471.00002288819
 30
0.0
  0
SEQEND
  5
6C9
330
6C1
100
AcDbEntity
  8
Ｓ_１_１
  6
CONTINUOUS
 62
     3
  0
ENDSEC
  0
SECTION
  2
OBJECTS
  0
DICTIONARY
  5
C
330
0
100
AcDbDictionary
  3
ACAD_GROUP
350
D
  3
ACAD_LAYOUT
350
1A
  3
ACAD_MATERIAL
350
43
  3
ACAD_MLEADERSTYLE
350
6B
  3
ACAD_MLINESTYLE
350
17
  3
ACAD_PLOTSETTINGS
350
19
  3
ACAD_SCALELIST
350
47
  3
ACAD_VISUALSTYLE
350
2A
  3
ACDBHEADERROUNDTRIPXREC
350
6CA
  3
ACDBVARIABLEDICTIONARY
350
6EB
  0
DICTIONARY
  5
6F6
330
8
100
AcDbDictionary
280
     1
  3
ACAD_XREC_ROUNDTRIP
360
6F7
  0
DICTIONARY
  5
D
102
{ACAD_REACTORS
330
C
102
}
330
C
100
AcDbDictionary
  0
DICTIONARY
  5
1A
102
{ACAD_REACTORS
330
C
102
}
330
C
100
AcDbDictionary
  0
DICTIONARY
  5
43
102
{ACAD_REACTORS
330
C
102
}
330
C
100
AcDbDictionary
  3
BYBLOCK
350
45
  3
BYLAYER
350
44
  3
GLOBAL
350
46
  0
DICTIONARY
  5
6B
102
{ACAD_REACTORS
330
C
102
}
330
C
100
AcDbDictionary
  3
STANDARD
350
6C
  0
DICTIONARY
  5
17
102
{ACAD_REACTORS
330
C
102
}
330
C
100
AcDbDictionary
  3
STANDARD
350
18
  0
DICTIONARY
  5
19
102
{ACAD_REACTORS
330
C
102
}
330
C
100
AcDbDictionary
  0
DICTIONARY
  5
47
102
{ACAD_REACTORS
330
C
102
}
330
C
100
AcDbDictionary
  3
A0
350
48
  3
A1
350
49
  3
A2
350
4A
  3
A3
350
4B
  3
A4
350
4C
  3
A5
350
4D
  3
A6
350
4E
  3
A7
350
4F
  3
A8
350
50
  3
A9
350
51
  3
B0
350
52
  3
B1
350
53
  3
B2
350
54
  3
B3
350
55
  3
B4
350
56
  3
B5
350
57
  3
B6
350
58
  3
B7
350
59
  3
B8
350
5A
  3
B9
350
5B
  3
C0
350
5C
  3
C1
350
5D
  3
C2
350
5E
  3
C3
350
5F
  3
C4
350
60
  3
C5
350
61
  3
C6
350
62
  3
C7
350
63
  3
C8
350
64
  3
C9
350
65
  3
D0
350
66
  3
D1
350
67
  3
D2
350
68
  0
DICTIONARY
  5
2A
102
{ACAD_REACTORS
330
C
102
}
330
C
100
AcDbDictionary
  3
2DWIREFRAME
350
2F
  3
BASIC
350
32
  3
BRIGHTEN
350
36
  3
COLORCHANGE
350
3A
  3
CONCEPTUAL
350
34
  3
DIM
350
35
  3
EDGECOLOROFF
350
3D
  3
FACEPATTERN
350
39
  3
FLAT
350
2B
  3
FLATWITHEDGES
350
2C
  3
GOURAUD
350
2D
  3
GOURAUDWITHEDGES
350
2E
  3
HIDDEN
350
31
  3
JITTEROFF
350
3B
  3
LINEPATTERN
350
38
  3
OVERHANGOFF
350
3C
  3
REALISTIC
350
33
  3
SHADED
350
42
  3
SHADED_WITH_EDGES
350
41
  3
SHADES_OF_GRAY
350
3E
  3
SKETCHY
350
3F
  3
THICKEN
350
37
  3
WIREFRAME
350
30
  3
X-RAY
350
40
  0
DICTIONARY
  5
6CA
102
{ACAD_REACTORS
330
C
102
}
330
C
100
AcDbDictionary
  3
CEPSNID
350
6D4
  3
CEPSNTYPE
350
6D3
  3
DIMSTYLEDATA
350
6EA
  3
FINGERPRINTGUID
350
6D5
  3
HYPERLINKBASE
350
6CD
  3
INSUNITS
350
6D2
  3
LAYOUTDICT
350
6CF
  3
LWETCUNION
350
6D1
  3
PLOTSETDICT
350
6D0
  3
PSVPSCALE
350
6D7
  3
PUCSBASE
350
6DA
  3
PUCSORGBACK
350
6E0
  3
PUCSORGBOTTOM
350
6DC
  3
PUCSORGFRONT
350
6DF
  3
PUCSORGLEFT
350
6DD
  3
PUCSORGRIGHT
350
6DE
  3
PUCSORGTOP
350
6DB
  3
PUCSORTHOREF
350
6D8
  3
PUCSORTHOVIEW
350
6D9
  3
STYLESHEET
350
6CE
  3
TSTACKALIGN
350
6CB
  3
TSTACKSIZE
350
6CC
  3
UCSBASE
350
6E3
  3
UCSORGBACK
350
6E9
  3
UCSORGBOTTOM
350
6E5
  3
UCSORGFRONT
350
6E8
  3
UCSORGLEFT
350
6E6
  3
UCSORGRIGHT
350
6E7
  3
UCSORGTOP
350
6E4
  3
UCSORTHOREF
350
6E1
  3
UCSORTHOVIEW
350
6E2
  3
VERSIONGUID
350
6D6
  0
DICTIONARY
  5
6EB
102
{ACAD_REACTORS
330
C
102
}
330
C
100
AcDbDictionary
  3
CANNOSCALE
350
6F8
  3
CENTEREXE
350
6F2
  3
CENTERLTYPEFILE
350
6F3
  3
CMLEADERSTYLE
350
6ED
  3
CTABLESTYLE
350
6EC
  3
DIMASSOC
350
6F4
  3
HIDETEXT
350
6F5
  3
MSLTSCALE
350
6F9
  3
PSOLHEIGHT
350
6EF
  3
PSOLWIDTH
350
6EE
  0
XRECORD
  5
6F7
102
{ACAD_REACTORS
330
6F6
102
}
330
6F6
100
AcDbXrecord
102
VTR_0.000_0.000_1.000_1.000_VISUALSTYLE
340
2F
102
VTR_0.000_0.000_1.000_1.000_GRIDDISPLAY
 70
     3
102
VTR_0.000_0.000_1.000_1.000_GRIDMAJOR
 70
     5
102
VTR_0.000_0.000_1.000_1.000_DEFAULTLIGHTING
280
     1
102
VTR_0.000_0.000_1.000_1.000_DEFAULTLIGHTINGTYPE
 70
     1
102
VTR_0.000_0.000_1.000_1.000_BRIGHTNESS
141
0.0
102
VTR_0.000_0.000_1.000_1.000_CONTRAST
142
0.0
  0
MATERIAL
  5
45
102
{ACAD_REACTORS
330
43
102
}
102
{ACAD_XDICTIONARY
360
6FC
102
}
330
43
100
AcDbMaterial
  1
BYBLOCK
  0
MATERIAL
  5
44
102
{ACAD_REACTORS
330
43
102
}
102
{ACAD_XDICTIONARY
360
6FA
102
}
330
43
100
AcDbMaterial
  1
BYLAYER
  0
MATERIAL
  5
46
102
{ACAD_REACTORS
330
43
102
}
102
{ACAD_XDICTIONARY
360
6FE
102
}
330
43
100
AcDbMaterial
  1
GLOBAL
  0
ACAD_PROXY_OBJECT
  5
6C
102
{ACAD_REACTORS
330
6B
102
}
330
6B
100
AcDbProxyObject
 90
      499
 91
      505
 93
      610
310
40901902A4063FBFFFFFE0000000000000020400000000000020404214DD185B99185C990000000000000104090141901A00000000000004100000000000000041025764000000000000039000
340
14
340
0
340
11
340
0
 94
        0
1001
ACAD_MLEADERVER
1070
     2
  0
MLINESTYLE
  5
18
102
{ACAD_REACTORS
330
17
102
}
330
17
100
AcDbMlineStyle
  2
Standard
 70
     0
  3

 62
   256
 51
90.0
 52
90.0
 71
     2
 49
0.5
 62
   256
  6
BYLAYER
 49
-0.5
 62
   256
  6
BYLAYER
  0
ACAD_PROXY_OBJECT
  5
48
102
{ACAD_REACTORS
330
47
102
}
330
47
100
AcDbProxyObject
 90
      499
 91
      503
 93
       41
310
903313A31580
  0
ACAD_PROXY_OBJECT
  5
49
102
{ACAD_REACTORS
330
47
102
}
330
47
100
AcDbProxyObject
 90
      499
 91
      503
 93
      105
310
903313A324000000000000004000
  0
ACAD_PROXY_OBJECT
  5
4A
102
{ACAD_REACTORS
330
47
102
}
330
47
100
AcDbProxyObject
 90
      499
 91
      503
 93
      105
310
903313A344000000000000104000
  0
ACAD_PROXY_OBJECT
  5
4B
102
{ACAD_REACTORS
330
47
102
}
330
47
100
AcDbProxyObject
 90
      499
 91
      503
 93
      105
310
903313A354000000000000144000
  0
ACAD_PROXY_OBJECT
  5
4C
102
{ACAD_REACTORS
330
47
102
}
330
47
100
AcDbProxyObject
 90
      499
 91
      503
 93
      105
310
903313A384000000000000204000
  0
ACAD_PROXY_OBJECT
  5
4D
102
{ACAD_REACTORS
330
47
102
}
330
47
100
AcDbProxyObject
 90
      499
 91
      503
 93
      113
310
904313A31304000000000000244000
  0
ACAD_PROXY_OBJECT
  5
4E
102
{ACAD_REACTORS
330
47
102
}
330
47
100
AcDbProxyObject
 90
      499
 91
      503
 93
      113
310
904313A31364000000000000304000
  0
ACAD_PROXY_OBJECT
  5
4F
102
{ACAD_REACTORS
330
47
102
}
330
47
100
AcDbProxyObject
 90
      499
 91
      503
 93
      113
310
904313A32304000000000000344000
  0
ACAD_PROXY_OBJECT
  5
50
102
{ACAD_REACTORS
330
47
102
}
330
47
100
AcDbProxyObject
 90
      499
 91
      503
 93
      113
310
904313A333040000000000003E4000
  0
ACAD_PROXY_OBJECT
  5
51
102
{ACAD_REACTORS
330
47
102
}
330
47
100
AcDbProxyObject
 90
      499
 91
      503
 93
      113
310
904313A34304000000000000444000
  0
ACAD_PROXY_OBJECT
  5
52
102
{ACAD_REACTORS
330
47
102
}
330
47
100
AcDbProxyObject
 90
      499
 91
      503
 93
      113
310
904313A35304000000000000494000
  0
ACAD_PROXY_OBJECT
  5
53
102
{ACAD_REACTORS
330
47
102
}
330
47
100
AcDbProxyObject
 90
      499
 91
      503
 93
      121
310
905313A3130304000000000000594000
  0
ACAD_PROXY_OBJECT
  5
54
102
{ACAD_REACTORS
330
47
102
}
330
47
100
AcDbProxyObject
 90
      499
 91
      503
 93
      105
310
903323A310000000000000010100
  0
ACAD_PROXY_OBJECT
  5
55
102
{ACAD_REACTORS
330
47
102
}
330
47
100
AcDbProxyObject
 90
      499
 91
      503
 93
      105
310
903343A310000000000000410100
  0
ACAD_PROXY_OBJECT
  5
56
102
{ACAD_REACTORS
330
47
102
}
330
47
100
AcDbProxyObject
 90
      499
 91
      503
 93
      105
310
903383A310000000000000810100
  0
ACAD_PROXY_OBJECT
  5
57
102
{ACAD_REACTORS
330
47
102
}
330
47
100
AcDbProxyObject
 90
      499
 91
      503
 93
      113
310
90431303A310000000000000910100
  0
ACAD_PROXY_OBJECT
  5
58
102
{ACAD_REACTORS
330
47
102
}
330
47
100
AcDbProxyObject
 90
      499
 91
      503
 93
      121
310
9053130303A310000000000001650100
  0
ACAD_PROXY_OBJECT
  5
59
102
{ACAD_REACTORS
330
47
102
}
330
47
100
AcDbProxyObject
 90
      499
 91
      503
 93
      257
310
90E312F31323822203D2031272D3022000000000000200FC000000000000284000
  0
ACAD_PROXY_OBJECT
  5
5A
102
{ACAD_REACTORS
330
47
102
}
330
47
100
AcDbProxyObject
 90
      499
 91
      503
 93
      249
310
90D312F363422203D2031272D3022000000000000240FC000000000000284000
  0
ACAD_PROXY_OBJECT
  5
5B
102
{ACAD_REACTORS
330
47
102
}
330
47
100
AcDbProxyObject
 90
      499
 91
      503
 93
      249
310
90D312F333222203D2031272D3022000000000000280FC000000000000284000
  0
ACAD_PROXY_OBJECT
  5
5C
102
{ACAD_REACTORS
330
47
102
}
330
47
100
AcDbProxyObject
 90
      499
 91
      503
 93
      249
310
90D312F313622203D2031272D30220000000000002C0FC000000000000284000
  0
ACAD_PROXY_OBJECT
  5
5D
102
{ACAD_REACTORS
330
47
102
}
330
47
100
AcDbProxyObject
 90
      499
 91
      503
 93
      249
310
90D332F333222203D2031272D30220000000000002E0FC000000000000284000
  0
ACAD_PROXY_OBJECT
  5
5E
102
{ACAD_REACTORS
330
47
102
}
330
47
100
AcDbProxyObject
 90
      499
 91
      503
 93
      241
310
90C312F3822203D2031272D3022000000000000300FC000000000000284000
  0
ACAD_PROXY_OBJECT
  5
5F
102
{ACAD_REACTORS
330
47
102
}
330
47
100
AcDbProxyObject
 90
      499
 91
      503
 93
      249
310
90D332F313622203D2031272D3022000000000000320FC000000000000284000
  0
ACAD_PROXY_OBJECT
  5
60
102
{ACAD_REACTORS
330
47
102
}
330
47
100
AcDbProxyObject
 90
      499
 91
      503
 93
      241
310
90C312F3422203D2031272D3022000000000000340FC000000000000284000
  0
ACAD_PROXY_OBJECT
  5
61
102
{ACAD_REACTORS
330
47
102
}
330
47
100
AcDbProxyObject
 90
      499
 91
      503
 93
      241
310
90C332F3822203D2031272D3022000000000000360FC000000000000284000
  0
ACAD_PROXY_OBJECT
  5
62
102
{ACAD_REACTORS
330
47
102
}
330
47
100
AcDbProxyObject
 90
      499
 91
      503
 93
      241
310
90C312F3222203D2031272D3022000000000000380FC000000000000284000
  0
ACAD_PROXY_OBJECT
  5
63
102
{ACAD_REACTORS
330
47
102
}
330
47
100
AcDbProxyObject
 90
      499
 91
      503
 93
      241
310
90C332F3422203D2031272D30220000000000003A0FC000000000000284000
  0
ACAD_PROXY_OBJECT
  5
64
102
{ACAD_REACTORS
330
47
102
}
330
47
100
AcDbProxyObject
 90
      499
 91
      503
 93
      161
310
90A3122203D2031272D30224000000000000284000
  0
ACAD_PROXY_OBJECT
  5
65
102
{ACAD_REACTORS
330
47
102
}
330
47
100
AcDbProxyObject
 90
      499
 91
      503
 93
      257
310
90E312D312F3222203D2031272D30220000000000003E0FC000000000000284000
  0
ACAD_PROXY_OBJECT
  5
66
102
{ACAD_REACTORS
330
47
102
}
330
47
100
AcDbProxyObject
 90
      499
 91
      503
 93
      225
310
90A3322203D2031272D302200000000000002100000000000000284000
  0
ACAD_PROXY_OBJECT
  5
67
102
{ACAD_REACTORS
330
47
102
}
330
47
100
AcDbProxyObject
 90
      499
 91
      503
 93
      225
310
90A3622203D2031272D302200000000000006100000000000000284000
  0
ACAD_PROXY_OBJECT
  5
68
102
{ACAD_REACTORS
330
47
102
}
330
47
100
AcDbProxyObject
 90
      499
 91
      503
 93
      249
310
90D31272D3022203D2031272D30220000000000000A100000000000000284000
  0
ACAD_PROXY_OBJECT
  5
2F
102
{ACAD_REACTORS
330
2A
102
}
330
2A
100
AcDbProxyObject
 90
      499
 91
      501
 93
      436
310
42CC9915DA5C99599C985B595049028333333333333E33F0000000000000F90107901411070040501600405405064090741402480A0340
1001
ACAD
1000
AcDbSavedByObjectVersion
1070
     0
  0
ACAD_PROXY_OBJECT
  5
32
102
{ACAD_REACTORS
330
2A
102
}
330
2A
100
AcDbProxyObject
 90
      499
 91
      501
 93
      388
310
4150985CDA58D07406404333333333333E33F0000000000000F90107A41107004050150841D405064090741402480A0350
1001
ACAD
1000
AcDbSavedByObjectVersion
1070
     0
  0
ACAD_PROXY_OBJECT
  5
36
102
{ACAD_REACTORS
330
2A
102
}
330
2A
100
AcDbProxyObject
 90
      499
 91
      501
 93
      428
310
42109C9A59DA1D195B90C409028333333333333E33F0000000000000F9010790141107004050150841D405064090741402480A029950
1001
ACAD
1000
AcDbSavedByObjectVersion
1070
     0
  0
ACAD_PROXY_OBJECT
  5
3A
102
{ACAD_REACTORS
330
2A
102
}
330
2A
100
AcDbProxyObject
 90
      499
 91
      501
 93
      452
310
42D0DBDB1BDC90DA185B99D95104090240C333333333333E33F0000000000000F90108901411070040501508421405064090741402480A0350
1001
ACAD
1000
AcDbSavedByObjectVersion
1070
     0
  0
ACAD_PROXY_OBJECT
  5
34
102
{ACAD_REACTORS
330
2A
102
}
330
2A
100
AcDbProxyObject
 90
      499
 91
      501
 93
      500
310
4290DBDB98D95C1D1D585B10940D028333333333333E33F0000000000000F90107902409070040501000000000018199010841D405064090740C02480A0340
1001
ACAD
1000
AcDbSavedByObjectVersion
1070
     0
  0
ACAD_PROXY_OBJECT
  5
35
102
{ACAD_REACTORS
330
2A
102
}
330
2A
100
AcDbProxyObject
 90
      499
 91
      501
 93
      412
310
40D11A5B50B409028333333333333E33F0000000000000F9010790141107004050150841D405064090741402480A02677FFFFFD0
1001
ACAD
1000
AcDbSavedByObjectVersion
1070
     0
  0
ACAD_PROXY_OBJECT
  5
3D
102
{ACAD_REACTORS
330
2A
102
}
330
2A
100
AcDbProxyObject
 90
      499
 91
      501
 93
      452
310
43115919D950DBDB1BDC93D999916409028333333333333E33F0000000000000F9010790141107004050150841D405064090741402480A0350
1001
ACAD
1000
AcDbSavedByObjectVersion
1070
     0
  0
ACAD_PROXY_OBJECT
  5
39
102
{ACAD_REACTORS
330
2A
102
}
330
2A
100
AcDbProxyObject
 90
      499
 91
      501
 93
      444
310
42D19858D95C185D1D195C9B90F409028333333333333E33F0000000000000F9010790141107004050150841D405064090741402480A0350
1001
ACAD
1000
AcDbSavedByObjectVersion
1070
     0
  0
ACAD_PROXY_OBJECT
  5
2B
102
{ACAD_REACTORS
330
2A
102
}
330
2A
100
AcDbProxyObject
 90
      499
 91
      501
 93
      380
310
41119B185D240901404333333333333E33F0000000000000F9010740A907004050150841D405064090741402480A1B50
1001
ACAD
1000
AcDbSavedByObjectVersion
1070
     0
  0
ACAD_PROXY_OBJECT
  5
2C
102
{ACAD_REACTORS
330
2A
102
}
330
2A
100
AcDbProxyObject
 90
      499
 91
      501
 93
      468
310
43519B185D15DA5D1A115919D95CD0140901404333333333333E33F0000000000000F90107409019070040501600405405064090741402480A1B50
1001
ACAD
1000
AcDbSavedByObjectVersion
1070
     0
  0
ACAD_PROXY_OBJECT
  5
2D
102
{ACAD_REACTORS
330
2A
102
}
330
2A
100
AcDbProxyObject
 90
      499
 91
      501
 93
      404
310
41D1DBDD5C985D5910240902404333333333333E33F0000000000000F9010740A9070040501641D405064090741402480A1B50
1001
ACAD
1000
AcDbSavedByObjectVersion
1070
     0
  0
ACAD_PROXY_OBJECT
  5
2E
102
{ACAD_REACTORS
330
2A
102
}
330
2A
100
AcDbProxyObject
 90
      499
 91
      501
 93
      492
310
4411DBDD5C985D5915DA5D1A115919D95CD0340902404333333333333E33F0000000000000F90107409019070040501600405405064090741402480A1B50
1001
ACAD
1000
AcDbSavedByObjectVersion
1070
     0
  0
ACAD_PROXY_OBJECT
  5
31
102
{ACAD_REACTORS
330
2A
102
}
330
2A
100
AcDbProxyObject
 90
      499
 91
      501
 93
      476
310
41921A5919195B90640502408333333333333E33F0000000000000F901079024090700405020000000000001110200405405064090740C02480A0340
1001
ACAD
1000
AcDbSavedByObjectVersion
1070
     0
  0
ACAD_PROXY_OBJECT
  5
3B
102
{ACAD_REACTORS
330
2A
102
}
330
2A
100
AcDbProxyObject
 90
      499
 91
      501
 93
      428
310
42529A5D1D195C93D999914409028333333333333E33F0000000000000F9010790141107004050150A41D405064090741402480A0350
1001
ACAD
1000
AcDbSavedByObjectVersion
1070
     0
  0
ACAD_PROXY_OBJECT
  5
38
102
{ACAD_REACTORS
330
2A
102
}
330
2A
100
AcDbProxyObject
 90
      499
 91
      501
 93
      444
310
42D31A5B995C185D1D195C9B90E409028333333333333E33F0000000000000F9010790141107004050750841D405064090741402483A0350
1001
ACAD
1000
AcDbSavedByObjectVersion
1070
     0
  0
ACAD_PROXY_OBJECT
  5
3C
102
{ACAD_REACTORS
330
2A
102
}
330
2A
100
AcDbProxyObject
 90
      499
 91
      501
 93
      444
310
42D3DD995C9A185B99D3D999915409028333333333333E33F0000000000000F9010790141107004050150941D405064090741402480A0350
1001
ACAD
1000
AcDbSavedByObjectVersion
1070
     0
  0
ACAD_PROXY_OBJECT
  5
33
102
{ACAD_REACTORS
330
2A
102
}
330
2A
100
AcDbProxyObject
 90
      499
 91
      501
 93
      428
310
425499585B1A5CDD1A58D08409038333333333333E33F0000000000000F9010740A907004050150800405405064090740C02480A1B40
1001
ACAD
1000
AcDbSavedByObjectVersion
1070
     0
  0
ACAD_PROXY_OBJECT
  5
42
102
{ACAD_REACTORS
330
2A
102
}
330
2A
100
AcDbProxyObject
 90
      499
 91
      501
 93
      420
310
4194DA1859195911B40902404333333333333E33F0000000000000F9010740A41107004050150800405405064090840C02480A0B40
1001
ACAD
1000
AcDbSavedByObjectVersion
1070
     0
  0
ACAD_PROXY_OBJECT
  5
41
102
{ACAD_REACTORS
330
2A
102
}
330
2A
100
AcDbProxyObject
 90
      499
 91
      501
 93
      516
310
4454DA18591959081DDA5D1A08195919D95CD1A40902404333333333333E33F0000000000000F901074090142907004050250800405405064090740C02480A0B40
1001
ACAD
1000
AcDbSavedByObjectVersion
1070
     0
  0
ACAD_PROXY_OBJECT
  5
3E
102
{ACAD_REACTORS
330
2A
102
}
330
2A
100
AcDbProxyObject
 90
      499
 91
      501
 93
      532
310
4394DA1859195CC81BD98811DC985E5174090240C333333333333E33F0000000000000F901079024090741D01000000000000111010841D405064090740C02480A0340
1001
ACAD
1000
AcDbSavedByObjectVersion
1070
     0
  0
ACAD_PROXY_OBJECT
  5
3F
102
{ACAD_REACTORS
330
2A
102
}
330
2A
100
AcDbProxyObject
 90
      499
 91
      501
 93
      476
310
41D4DAD95D18DA1E51840502408333333333333E33F0000000000000F901079024090741D01000000000000111010B41D405064090741802480A0340
1001
ACAD
1000
AcDbSavedByObjectVersion
1070
     0
  0
ACAD_PROXY_OBJECT
  5
37
102
{ACAD_REACTORS
330
2A
102
}
330
2A
100
AcDbProxyObject
 90
      499
 91
      501
 93
      412
310
41D51A1A58DAD95B90D409028333333333333E33F0000000000000F9010790141107004050150C41D405064090741402480A0350
1001
ACAD
1000
AcDbSavedByObjectVersion
1070
     0
  0
ACAD_PROXY_OBJECT
  5
30
102
{ACAD_REACTORS
330
2A
102
}
330
2A
100
AcDbProxyObject
 90
      499
 91
      501
 93
      420
310
4255DA5C99599C985B595059028333333333333E33F0000000000000F90107901411070040501600405405064090740C02480A0340
1001
ACAD
1000
AcDbSavedByObjectVersion
1070
     0
  0
ACAD_PROXY_OBJECT
  5
40
102
{ACAD_REACTORS
330
2A
102
}
330
2A
100
AcDbProxyObject
 90
      499
 91
      501
 93
      404
310
41560B54985E51940902404000000000000E03F0000000000000F9010740501907004050150841D405064090740C02480A1B40
1001
ACAD
1000
AcDbSavedByObjectVersion
1070
     0
  0
XRECORD
  5
6D4
102
{ACAD_REACTORS
330
6CA
102
}
330
6CA
100
AcDbXrecord
340
0
  0
XRECORD
  5
6D3
102
{ACAD_REACTORS
330
6CA
102
}
330
6CA
100
AcDbXrecord
 90
        0
  0
XRECORD
  5
6EA
102
{ACAD_REACTORS
330
6CA
102
}
330
6CA
100
AcDbXrecord
1000
DSTYLE
1002
{
1070
   340
340
11
1002
}
  0
XRECORD
  5
6D5
102
{ACAD_REACTORS
330
6CA
102
}
330
6CA
100
AcDbXrecord
  1
{921f8cfb-7478-429a-a54e-2a455df397d9}
  0
XRECORD
  5
6CD
102
{ACAD_REACTORS
330
6CA
102
}
330
6CA
100
AcDbXrecord
  1

  0
XRECORD
  5
6D2
102
{ACAD_REACTORS
330
6CA
102
}
330
6CA
100
AcDbXrecord
 90
        4
  0
XRECORD
  5
6CF
102
{ACAD_REACTORS
330
6CA
102
}
330
6CA
100
AcDbXrecord
340
1A
  0
XRECORD
  5
6D1
102
{ACAD_REACTORS
330
6CA
102
}
330
6CA
100
AcDbXrecord
 90
    10781
  0
XRECORD
  5
6D0
102
{ACAD_REACTORS
330
6CA
102
}
330
6CA
100
AcDbXrecord
340
19
  0
XRECORD
  5
6D7
102
{ACAD_REACTORS
330
6CA
102
}
330
6CA
100
AcDbXrecord
 40
0.0
  0
XRECORD
  5
6DA
102
{ACAD_REACTORS
330
6CA
102
}
330
6CA
100
AcDbXrecord
340
0
  0
XRECORD
  5
6E0
102
{ACAD_REACTORS
330
6CA
102
}
330
6CA
100
AcDbXrecord
 10
0.0
 20
0.0
 30
0.0
  0
XRECORD
  5
6DC
102
{ACAD_REACTORS
330
6CA
102
}
330
6CA
100
AcDbXrecord
 10
0.0
 20
0.0
 30
0.0
  0
XRECORD
  5
6DF
102
{ACAD_REACTORS
330
6CA
102
}
330
6CA
100
AcDbXrecord
 10
0.0
 20
0.0
 30
0.0
  0
XRECORD
  5
6DD
102
{ACAD_REACTORS
330
6CA
102
}
330
6CA
100
AcDbXrecord
 10
0.0
 20
0.0
 30
0.0
  0
XRECORD
  5
6DE
102
{ACAD_REACTORS
330
6CA
102
}
330
6CA
100
AcDbXrecord
 10
0.0
 20
0.0
 30
0.0
  0
XRECORD
  5
6DB
102
{ACAD_REACTORS
330
6CA
102
}
330
6CA
100
AcDbXrecord
 10
0.0
 20
0.0
 30
0.0
  0
XRECORD
  5
6D8
102
{ACAD_REACTORS
330
6CA
102
}
330
6CA
100
AcDbXrecord
340
0
  0
XRECORD
  5
6D9
102
{ACAD_REACTORS
330
6CA
102
}
330
6CA
100
AcDbXrecord
 70
     0
  0
XRECORD
  5
6CE
102
{ACAD_REACTORS
330
6CA
102
}
330
6CA
100
AcDbXrecord
  1

  0
XRECORD
  5
6CB
102
{ACAD_REACTORS
330
6CA
102
}
330
6CA
100
AcDbXrecord
 90
        1
  0
XRECORD
  5
6CC
102
{ACAD_REACTORS
330
6CA
102
}
330
6CA
100
AcDbXrecord
 90
       70
  0
XRECORD
  5
6E3
102
{ACAD_REACTORS
330
6CA
102
}
330
6CA
100
AcDbXrecord
340
0
  0
XRECORD
  5
6E9
102
{ACAD_REACTORS
330
6CA
102
}
330
6CA
100
AcDbXrecord
 10
0.0
 20
0.0
 30
0.0
  0
XRECORD
  5
6E5
102
{ACAD_REACTORS
330
6CA
102
}
330
6CA
100
AcDbXrecord
 10
0.0
 20
0.0
 30
0.0
  0
XRECORD
  5
6E8
102
{ACAD_REACTORS
330
6CA
102
}
330
6CA
100
AcDbXrecord
 10
0.0
 20
0.0
 30
0.0
  0
XRECORD
  5
6E6
102
{ACAD_REACTORS
330
6CA
102
}
330
6CA
100
AcDbXrecord
 10
0.0
 20
0.0
 30
0.0
  0
XRECORD
  5
6E7
102
{ACAD_REACTORS
330
6CA
102
}
330
6CA
100
AcDbXrecord
 10
0.0
 20
0.0
 30
0.0
  0
XRECORD
  5
6E4
102
{ACAD_REACTORS
330
6CA
102
}
330
6CA
100
AcDbXrecord
 10
0.0
 20
0.0
 30
0.0
  0
XRECORD
  5
6E1
102
{ACAD_REACTORS
330
6CA
102
}
330
6CA
100
AcDbXrecord
340
0
  0
XRECORD
  5
6E2
102
{ACAD_REACTORS
330
6CA
102
}
330
6CA
100
AcDbXrecord
 70
     0
  0
XRECORD
  5
6D6
102
{ACAD_REACTORS
330
6CA
102
}
330
6CA
100
AcDbXrecord
  1
{FAEB1C32-E019-11D5-929B-00C0DF256EC4}
  0
DICTIONARYVAR
  5
6F8
102
{ACAD_REACTORS
330
6EB
102
}
330
6EB
100
DictionaryVariables
280
     0
  1
1:1
  0
DICTIONARYVAR
  5
6F2
102
{ACAD_REACTORS
330
6EB
102
}
330
6EB
100
DictionaryVariables
280
     0
  1
3.500000
  0
DICTIONARYVAR
  5
6F3
102
{ACAD_REACTORS
330
6EB
102
}
330
6EB
100
DictionaryVariables
280
     0
  1
acadiso.lin
  0
DICTIONARYVAR
  5
6ED
102
{ACAD_REACTORS
330
6EB
102
}
330
6EB
100
DictionaryVariables
280
     0
  1
Standard
  0
DICTIONARYVAR
  5
6EC
102
{ACAD_REACTORS
330
6EB
102
}
330
6EB
100
DictionaryVariables
280
     0
  1
Standard
  0
DICTIONARYVAR
  5
6F4
102
{ACAD_REACTORS
330
6EB
102
}
330
6EB
100
DictionaryVariables
280
     0
  1
2
  0
DICTIONARYVAR
  5
6F5
102
{ACAD_REACTORS
330
6EB
102
}
330
6EB
100
DictionaryVariables
280
     0
  1
1
  0
DICTIONARYVAR
  5
6F9
102
{ACAD_REACTORS
330
6EB
102
}
330
6EB
100
DictionaryVariables
280
     0
  1
1
  0
DICTIONARYVAR
  5
6EF
102
{ACAD_REACTORS
330
6EB
102
}
330
6EB
100
DictionaryVariables
280
     0
  1
80.000000
  0
DICTIONARYVAR
  5
6EE
102
{ACAD_REACTORS
330
6EB
102
}
330
6EB
100
DictionaryVariables
280
     0
  1
5.000000
  0
DICTIONARY
  5
6FC
330
45
100
AcDbDictionary
280
     1
  3
ACAD_XREC_ROUNDTRIP
360
6FD
  0
DICTIONARY
  5
6FA
330
44
100
AcDbDictionary
280
     1
  3
ACAD_XREC_ROUNDTRIP
360
6FB
  0
DICTIONARY
  5
6FE
330
46
100
AcDbDictionary
280
     1
  3
ACAD_XREC_ROUNDTRIP
360
6FF
  0
XRECORD
  5
6FD
102
{ACAD_REACTORS
330
6FC
102
}
330
6FC
100
AcDbXrecord
102
MATERIAL
148
0.0
149
0.0
149
0.0
 93
        0
 94
      127
282
     0
 72
     1
 77
     1
171
     1
175
     1
179
     1
273
     0
  0
XRECORD
  5
6FB
102
{ACAD_REACTORS
330
6FA
102
}
330
6FA
100
AcDbXrecord
102
MATERIAL
148
0.0
149
0.0
149
0.0
 93
        0
 94
      127
282
     0
 72
     1
 77
     1
171
     1
175
     1
179
     1
273
     0
  0
XRECORD
  5
6FF
102
{ACAD_REACTORS
330
6FE
102
}
330
6FE
100
AcDbXrecord
102
MATERIAL
148
0.0
149
0.0
149
0.0
 93
        0
 94
      127
282
     0
 72
     1
 77
     1
171
     1
175
     1
179
     1
273
     0
  0
ENDSEC
  0
EOF
