  0
SECTION
  2
HEADER
  9
$ACADVER
  1
AC1014
  9
$ACADMAINTVER
 70
     9
  9
$DWGCODEPAGE
  3
ANSI_932
  9
$INSBASE
 10
0.0
 20
0.0
 30
0.0
  9
$EXTMIN
 10
60.0
 20
60.0
 30
0.0
  9
$EXTMAX
 10
2460.0
 20
1722.0
 30
0.0
  9
$LIMMIN
 10
0.0
 20
0.0
  9
$LIMMAX
 10
420.0
 20
297.0
  9
$ORTHOMODE
 70
     0
  9
$REGENMODE
 70
     1
  9
$FILLMODE
 70
     1
  9
$QTEXTMODE
 70
     0
  9
$MIRRTEXT
 70
     1
  9
$DRAGMODE
 70
     2
  9
$LTSCALE
 40
1.0
  9
$OSMODE
 70
    37
  9
$ATTMODE
 70
     1
  9
$TEXTSIZE
 40
2.5
  9
$TRACEWID
 40
1.0
  9
$TEXTSTYLE
  7
STANDARD
  9
$CLAYER
  8
Ｓ_１_１
  9
$CELTYPE
  6
BYLAYER
  9
$CECOLOR
 62
   256
  9
$CELTSCALE
 40
1.0
  9
$DELOBJ
 70
     1
  9
$DISPSILH
 70
     0
  9
$DIMSCALE
 40
1.0
  9
$DIMASZ
 40
2.5
  9
$DIMEXO
 40
0.625
  9
$DIMDLI
 40
3.75
  9
$DIMRND
 40
0.0
  9
$DIMDLE
 40
0.0
  9
$DIMEXE
 40
1.25
  9
$DIMTP
 40
0.0
  9
$DIMTM
 40
0.0
  9
$DIMTXT
 40
2.5
  9
$DIMCEN
 40
2.5
  9
$DIMTSZ
 40
0.0
  9
$DIMTOL
 70
     0
  9
$DIMLIM
 70
     0
  9
$DIMTIH
 70
     0
  9
$DIMTOH
 70
     0
  9
$DIMSE1
 70
     0
  9
$DIMSE2
 70
     0
  9
$DIMTAD
 70
     1
  9
$DIMZIN
 70
     8
  9
$DIMBLK
  1

  9
$DIMASO
 70
     1
  9
$DIMSHO
 70
     1
  9
$DIMPOST
  1

  9
$DIMAPOST
  1

  9
$DIMALT
 70
     0
  9
$DIMALTD
 70
     3
  9
$DIMALTF
 40
0.03937007874016
  9
$DIMLFAC
 40
1.0
  9
$DIMTOFL
 70
     1
  9
$DIMTVP
 40
0.0
  9
$DIMTIX
 70
     0
  9
$DIMSOXD
 70
     0
  9
$DIMSAH
 70
     0
  9
$DIMBLK1
  1

  9
$DIMBLK2
  1

  9
$DIMSTYLE
  2
ISO-25
  9
$DIMCLRD
 70
     0
  9
$DIMCLRE
 70
     0
  9
$DIMCLRT
 70
     0
  9
$DIMTFAC
 40
1.0
  9
$DIMGAP
 40
0.625
  9
$DIMJUST
 70
     0
  9
$DIMSD1
 70
     0
  9
$DIMSD2
 70
     0
  9
$DIMTOLJ
 70
     0
  9
$DIMTZIN
 70
     8
  9
$DIMALTZ
 70
     0
  9
$DIMALTTZ
 70
     0
  9
$DIMFIT
 70
     3
  9
$DIMUPT
 70
     0
  9
$DIMUNIT
 70
     2
  9
$DIMDEC
 70
     2
  9
$DIMTDEC
 70
     2
  9
$DIMALTU
 70
     2
  9
$DIMALTTD
 70
     3
  9
$DIMTXSTY
  7
STANDARD
  9
$DIMAUNIT
 70
     0
  9
$LUNITS
 70
     2
  9
$LUPREC
 70
     4
  9
$SKETCHINC
 40
1.0
  9
$FILLETRAD
 40
10.0
  9
$AUNITS
 70
     0
  9
$AUPREC
 70
     0
  9
$MENU
  1
.
  9
$ELEVATION
 40
0.0
  9
$PELEVATION
 40
0.0
  9
$THICKNESS
 40
0.0
  9
$LIMCHECK
 70
     0
  9
$CHAMFERA
 40
0.0
  9
$CHAMFERB
 40
0.0
  9
$CHAMFERC
 40
0.0
  9
$CHAMFERD
 40
0.0
  9
$SKPOLY
 70
     0
  9
$TDCREATE
 40
2459586.418457269
  9
$TDUPDATE
 40
2459586.418459444
  9
$TDINDWG
 40
0.0000000116
  9
$TDUSRTIMER
 40
0.0000000116
  9
$USRTIMER
 70
     1
  9
$ANGBASE
 50
0.0
  9
$ANGDIR
 70
     0
  9
$PDMODE
 70
     0
  9
$PDSIZE
 40
0.0
  9
$PLINEWID
 40
0.0
  9
$COORDS
 70
     1
  9
$SPLFRAME
 70
     0
  9
$SPLINETYPE
 70
     6
  9
$SPLINESEGS
 70
     8
  9
$ATTDIA
 70
     0
  9
$ATTREQ
 70
     1
  9
$HANDLING
 70
     1
  9
$HANDSEED
  5
565
  9
$SURFTAB1
 70
     6
  9
$SURFTAB2
 70
     6
  9
$SURFTYPE
 70
     6
  9
$SURFU
 70
     6
  9
$SURFV
 70
     6
  9
$UCSNAME
  2

  9
$UCSORG
 10
0.0
 20
0.0
 30
0.0
  9
$UCSXDIR
 10
1.0
 20
0.0
 30
0.0
  9
$UCSYDIR
 10
0.0
 20
1.0
 30
0.0
  9
$PUCSNAME
  2

  9
$PUCSORG
 10
0.0
 20
0.0
 30
0.0
  9
$PUCSXDIR
 10
1.0
 20
0.0
 30
0.0
  9
$PUCSYDIR
 10
0.0
 20
1.0
 30
0.0
  9
$USERI1
 70
     0
  9
$USERI2
 70
     0
  9
$USERI3
 70
     0
  9
$USERI4
 70
     0
  9
$USERI5
 70
     0
  9
$USERR1
 40
0.0
  9
$USERR2
 40
0.0
  9
$USERR3
 40
0.0
  9
$USERR4
 40
0.0
  9
$USERR5
 40
0.0
  9
$WORLDVIEW
 70
     1
  9
$SHADEDGE
 70
     3
  9
$SHADEDIF
 70
    70
  9
$TILEMODE
 70
     1
  9
$MAXACTVP
 70
    64
  9
$PINSBASE
 10
0.0
 20
0.0
 30
0.0
  9
$PLIMCHECK
 70
     0
  9
$PEXTMIN
 10
1.000000000000000E+20
 20
1.000000000000000E+20
 30
1.000000000000000E+20
  9
$PEXTMAX
 10
-1.000000000000000E+20
 20
-1.000000000000000E+20
 30
-1.000000000000000E+20
  9
$PLIMMIN
 10
0.0
 20
0.0
  9
$PLIMMAX
 10
420.0
 20
297.0
  9
$UNITMODE
 70
     0
  9
$VISRETAIN
 70
     1
  9
$PLINEGEN
 70
     0
  9
$PSLTSCALE
 70
     1
  9
$TREEDEPTH
 70
  3020
  9
$PICKSTYLE
 70
     1
  9
$CMLSTYLE
  2
STANDARD
  9
$CMLJUST
 70
     0
  9
$CMLSCALE
 40
20.0
  9
$PROXYGRAPHICS
 70
     1
  9
$MEASUREMENT
 70
     1
  0
ENDSEC
  0
SECTION
  2
CLASSES
  0
CLASS
  1
ACDBDICTIONARYWDFLT
  2
AcDbDictionaryWithDefault
  3
ObjectDBX Classes
 90
        0
280
     0
281
     0
  0
CLASS
  1
VISUALSTYLE
  2
AcDbVisualStyle
  3
ObjectDBX Classes
 90
     4095
280
     0
281
     0
  0
CLASS
  1
MATERIAL
  2
AcDbMaterial
  3
ObjectDBX Classes
 90
     1153
280
     0
281
     0
  0
CLASS
  1
SCALE
  2
AcDbScale
  3
ObjectDBX Classes
 90
     1153
280
     0
281
     0
  0
CLASS
  1
TABLESTYLE
  2
AcDbTableStyle
  3
ObjectDBX Classes
 90
     4095
280
     0
281
     0
  0
CLASS
  1
MLEADERSTYLE
  2
AcDbMLeaderStyle
  3
ACDB_MLEADERSTYLE_CLASS
 90
     4095
280
     0
281
     0
  0
CLASS
  1
SUN
  2
AcDbSun
  3
SCENEOE
 90
     1153
280
     0
281
     0
  0
CLASS
  1
DICTIONARYVAR
  2
AcDbDictionaryVar
  3
ObjectDBX Classes
 90
        0
280
     0
281
     0
  0
CLASS
  1
XRECORD
  2
AcDbXrecord
  3
ObjectDBX Classes
 90
        0
280
     0
281
     0
  0
CLASS
  1
LWPOLYLINE
  2
AcDbPolyline
  3
ObjectDBX Classes
 90
        0
280
     0
281
     1
  0
CLASS
  1
HATCH
  2
AcDbHatch
  3
ObjectDBX Classes
 90
        0
280
     0
281
     1
  0
CLASS
  1
ACDBPLACEHOLDER
  2
AcDbPlaceHolder
  3
ObjectDBX Classes
 90
        0
280
     0
281
     0
  0
CLASS
  1
LAYOUT
  2
AcDbLayout
  3
ObjectDBX Classes
 90
        0
280
     0
281
     0
  0
ENDSEC
  0
SECTION
  2
TABLES
  0
TABLE
  2
VPORT
  5
8
102
{ACAD_XDICTIONARY
360
55A
102
}
330
0
100
AcDbSymbolTable
 70
     1
  0
VPORT
  5
29
330
8
100
AcDbSymbolTableRecord
100
AcDbViewportTableRecord
  2
*ACTIVE
 70
     0
 10
0.0
 20
0.0
 11
1.0
 21
1.0
 12
1260.0
 22
891.0
 13
0.0
 23
0.0
 14
10.0
 24
10.0
 15
10.0
 25
10.0
 16
0.0
 26
0.0
 36
1.0
 17
0.0
 27
0.0
 37
0.0
 40
1662.0
 41
1.444043321299639
 42
50.0
 43
0.0
 44
0.0
 50
0.0
 51
0.0
 71
     0
 72
  1000
 73
     1
 74
     3
 75
     0
 76
     0
 77
     0
 78
     0
  0
ENDTAB
  0
TABLE
  2
LTYPE
  5
5
330
0
100
AcDbSymbolTable
 70
    13
  0
LTYPE
  5
14
330
5
100
AcDbSymbolTableRecord
100
AcDbLinetypeTableRecord
  2
BYBLOCK
 70
     0
  3

 72
    65
 73
     0
 40
0.0
  0
LTYPE
  5
15
330
5
100
AcDbSymbolTableRecord
100
AcDbLinetypeTableRecord
  2
BYLAYER
 70
     0
  3

 72
    65
 73
     0
 40
0.0
  0
LTYPE
  5
16
330
5
100
AcDbSymbolTableRecord
100
AcDbLinetypeTableRecord
  2
CONTINUOUS
 70
     0
  3
Solid line
 72
    65
 73
     0
 40
0.0
  0
LTYPE
  5
6E
330
5
100
AcDbSymbolTableRecord
100
AcDbLinetypeTableRecord
  2
EXLTYPE0
 70
     0
  3
破線
 72
    65
 73
     2
 40
4.0
 49
3.0
 74
     0
 49
-1.0
 74
     0
  0
LTYPE
  5
6F
330
5
100
AcDbSymbolTableRecord
100
AcDbLinetypeTableRecord
  2
EXLTYPE1
 70
     0
  3
点線
 72
    65
 73
     2
 40
2.0
 49
1.0
 74
     0
 49
-1.0
 74
     0
  0
LTYPE
  5
70
330
5
100
AcDbSymbolTableRecord
100
AcDbLinetypeTableRecord
  2
EXLTYPE2
 70
     0
  3
一点鎖線
 72
    65
 73
     4
 40
13.0
 49
10.0
 74
     0
 49
-1.0
 74
     0
 49
1.0
 74
     0
 49
-1.0
 74
     0
  0
LTYPE
  5
71
330
5
100
AcDbSymbolTableRecord
100
AcDbLinetypeTableRecord
  2
EXLTYPE3
 70
     0
  3
二点鎖線
 72
    65
 73
     6
 40
15.0
 49
10.0
 74
     0
 49
-1.0
 74
     0
 49
1.0
 74
     0
 49
-1.0
 74
     0
 49
1.0
 74
     0
 49
-1.0
 74
     0
  0
LTYPE
  5
72
330
5
100
AcDbSymbolTableRecord
100
AcDbLinetypeTableRecord
  2
EXLTYPE4
 70
     0
  3
一点鎖線2
 72
    65
 73
     4
 40
3.5
 49
2.0
 74
     0
 49
-0.5
 74
     0
 49
0.5
 74
     0
 49
-0.5
 74
     0
  0
LTYPE
  5
73
330
5
100
AcDbSymbolTableRecord
100
AcDbLinetypeTableRecord
  2
EXLTYPE5
 70
     0
  3
二点鎖線2
 72
    65
 73
     6
 40
4.5
 49
2.0
 74
     0
 49
-0.5
 74
     0
 49
0.5
 74
     0
 49
-0.5
 74
     0
 49
0.5
 74
     0
 49
-0.5
 74
     0
  0
LTYPE
  5
74
330
5
100
AcDbSymbolTableRecord
100
AcDbLinetypeTableRecord
  2
EXLTYPE6
 70
     0
  3
一点鎖線5
 72
    65
 73
     4
 40
13.0
 49
10.0
 74
     0
 49
-1.0
 74
     0
 49
1.0
 74
     0
 49
-1.0
 74
     0
  0
LTYPE
  5
75
330
5
100
AcDbSymbolTableRecord
100
AcDbLinetypeTableRecord
  2
EXLTYPE7
 70
     0
  3
破線7
 72
    65
 73
     2
 40
2.5
 49
1.5
 74
     0
 49
-1.0
 74
     0
  0
LTYPE
  5
76
330
5
100
AcDbSymbolTableRecord
100
AcDbLinetypeTableRecord
  2
EXLTYPE8
 70
     0
  3
一点鎖線4
 72
    65
 73
     4
 40
13.0
 49
10.0
 74
     0
 49
-1.0
 74
     0
 49
1.0
 74
     0
 49
-1.0
 74
     0
  0
LTYPE
  5
77
330
5
100
AcDbSymbolTableRecord
100
AcDbLinetypeTableRecord
  2
EXLTYPE9
 70
     0
  3
破線2
 72
    65
 73
     2
 40
2.5
 49
1.5
 74
     0
 49
-1.0
 74
     0
  0
LTYPE
  5
78
330
5
100
AcDbSymbolTableRecord
100
AcDbLinetypeTableRecord
  2
EXLTYPE10
 70
     0
  3
一点鎖線3
 72
    65
 73
     4
 40
13.0
 49
10.0
 74
     0
 49
-1.0
 74
     0
 49
1.0
 74
     0
 49
-1.0
 74
     0
  0
LTYPE
  5
79
330
5
100
AcDbSymbolTableRecord
100
AcDbLinetypeTableRecord
  2
EXLTYPE11
 70
     0
  3
破線5
 72
    65
 73
     2
 40
2.5
 49
1.5
 74
     0
 49
-1.0
 74
     0
  0
ENDTAB
  0
TABLE
  2
LAYER
  5
2
330
0
100
AcDbSymbolTable
 70
     4
  0
LAYER
  5
10
330
2
100
AcDbSymbolTableRecord
100
AcDbLayerTableRecord
  2
0
 70
     0
 62
     7
  6
CONTINUOUS
  0
LAYER
  5
7C
330
2
100
AcDbSymbolTableRecord
100
AcDbLayerTableRecord
  2
図面枠
 70
     4
 62
     7
  6
CONTINUOUS
  0
LAYER
  5
7D
330
2
100
AcDbSymbolTableRecord
100
AcDbLayerTableRecord
  2
Ｓ_１_１
 70
     0
 62
     7
  6
CONTINUOUS
  0
LAYER
  5
21A
330
2
100
AcDbSymbolTableRecord
100
AcDbLayerTableRecord
  2
DEFPOINTS
 70
     0
 62
     7
  6
CONTINUOUS
  0
ENDTAB
  0
TABLE
  2
STYLE
  5
3
330
0
100
AcDbSymbolTable
 70
     5
  0
STYLE
  5
11
330
3
100
AcDbSymbolTableRecord
100
AcDbTextStyleTableRecord
  2
STANDARD
 70
     0
 40
0.0
 41
1.0
 50
0.0
 71
     0
 42
2.5
  3
monotxt
  4
extfont
  0
STYLE
  5
7A
330
3
100
AcDbSymbolTableRecord
100
AcDbTextStyleTableRecord
  2
EXCADSTD
 70
     0
 40
0.0
 41
1.0
 50
0.0
 71
     0
 42
2.5
  3
monotxt
  4
extfont
  0
STYLE
  5
7B
330
3
100
AcDbSymbolTableRecord
100
AcDbTextStyleTableRecord
  2
EXCADVERT
 70
     4
 40
0.0
 41
1.0
 50
0.0
 71
     0
 42
2.5
  3
monotxt
  4
extfont
  0
STYLE
  5
E0
330
3
100
AcDbSymbolTableRecord
100
AcDbTextStyleTableRecord
  2
EXCADTTF1
 70
     0
 40
0.0
 41
1.0
 50
0.0
 71
     0
 42
2.5
  3
msgothic.ttc
  4

1001
ACAD
1000
MS Gothic
1071
    32817
  0
STYLE
  5
218
330
3
100
AcDbSymbolTableRecord
100
AcDbTextStyleTableRecord
  2
EXCADDIM1
 70
     0
 40
0.0
 41
1.0
 50
0.0
 71
     0
 42
2.5
  3
msgothic.ttc
  4

1001
ACAD
1000
MS Gothic
1071
    32817
  0
ENDTAB
  0
TABLE
  2
VIEW
  5
6
330
0
100
AcDbSymbolTable
 70
     0
  0
ENDTAB
  0
TABLE
  2
UCS
  5
7
330
0
100
AcDbSymbolTable
 70
     0
  0
ENDTAB
  0
TABLE
  2
APPID
  5
9
330
0
100
AcDbSymbolTable
 70
     2
  0
APPID
  5
12
330
9
100
AcDbSymbolTableRecord
100
AcDbRegAppTableRecord
  2
ACAD
 70
     0
  0
APPID
  5
564
330
9
100
AcDbSymbolTableRecord
100
AcDbRegAppTableRecord
  2
ACAD_MLEADERVER
 70
     0
  0
ENDTAB
  0
TABLE
  2
DIMSTYLE
  5
A
330
0
100
AcDbSymbolTable
 70
     1
  0
DIMSTYLE
105
27
102
{ACAD_REACTORS
330
219
330
229
330
236
330
243
330
252
330
25F
330
26C
330
279
330
286
330
293
330
2A0
330
2AD
330
2BA
330
2C7
330
2D4
330
2E1
330
2EE
330
2FB
330
308
330
315
330
322
330
32F
330
33C
102
}
330
A
100
AcDbSymbolTableRecord
100
AcDbDimStyleTableRecord
  2
ISO-25
 70
     0
  3

  4

  5

  6

  7

 40
1.0
 41
2.5
 42
0.625
 43
3.75
 44
1.25
 45
0.0
 46
0.0
 47
0.0
 48
0.0
140
2.5
141
2.5
142
0.0
143
0.03937007874016
144
1.0
145
0.0
146
1.0
147
0.625
 71
     0
 72
     0
 73
     0
 74
     0
 75
     0
 76
     0
 77
     1
 78
     8
170
     0
171
     3
172
     1
173
     0
174
     0
175
     0
176
     0
177
     0
178
     0
270
     2
271
     2
272
     2
273
     2
274
     3
340
11
275
     0
280
     0
281
     0
282
     0
283
     0
284
     8
285
     0
286
     0
287
     5
288
     0
  0
ENDTAB
  0
TABLE
  2
BLOCK_RECORD
  5
1
330
0
100
AcDbSymbolTable
 70
    37
  0
BLOCK_RECORD
  5
1F
330
1
100
AcDbSymbolTableRecord
100
AcDbBlockTableRecord
  2
*MODEL_SPACE
  0
BLOCK_RECORD
  5
1B
330
1
100
AcDbSymbolTableRecord
100
AcDbBlockTableRecord
  2
*PAPER_SPACE
  0
BLOCK_RECORD
  5
7E
330
1
100
AcDbSymbolTableRecord
100
AcDbBlockTableRecord
  2
EX_NORM
  0
BLOCK_RECORD
  5
81
330
1
100
AcDbSymbolTableRecord
100
AcDbBlockTableRecord
  2
EX_BNORM
  0
BLOCK_RECORD
  5
84
330
1
100
AcDbSymbolTableRecord
100
AcDbBlockTableRecord
  2
EX_BCIR
  0
BLOCK_RECORD
  5
87
330
1
100
AcDbSymbolTableRecord
100
AcDbBlockTableRecord
  2
EX_RCIVIL
  0
BLOCK_RECORD
  5
8A
330
1
100
AcDbSymbolTableRecord
100
AcDbBlockTableRecord
  2
EX_SLANT
  0
BLOCK_RECORD
  5
8D
330
1
100
AcDbSymbolTableRecord
100
AcDbBlockTableRecord
  2
EX_NONE
  0
BLOCK_RECORD
  5
90
330
1
100
AcDbSymbolTableRecord
100
AcDbBlockTableRecord
  2
EX_CIVIL
  0
BLOCK_RECORD
  5
93
330
1
100
AcDbSymbolTableRecord
100
AcDbBlockTableRecord
  2
EX_WCIR
  0
BLOCK_RECORD
  5
96
330
1
100
AcDbSymbolTableRecord
100
AcDbBlockTableRecord
  2
EX_WCIR2
  0
BLOCK_RECORD
  5
99
330
1
100
AcDbSymbolTableRecord
100
AcDbBlockTableRecord
  2
EX_WNORM
  0
BLOCK_RECORD
  5
9C
330
1
100
AcDbSymbolTableRecord
100
AcDbBlockTableRecord
  2
EX_NNORM
  0
BLOCK_RECORD
  5
9F
330
1
100
AcDbSymbolTableRecord
100
AcDbBlockTableRecord
  2
EX_BBOX
  0
BLOCK_RECORD
  5
A2
330
1
100
AcDbSymbolTableRecord
100
AcDbBlockTableRecord
  2
EX_WBOX
  0
BLOCK_RECORD
  5
A5
330
1
100
AcDbSymbolTableRecord
100
AcDbBlockTableRecord
  2
EX_INTEGRAL
  0
BLOCK_RECORD
  5
21B
330
1
100
AcDbSymbolTableRecord
100
AcDbBlockTableRecord
  2
*D15
  0
BLOCK_RECORD
  5
22A
330
1
100
AcDbSymbolTableRecord
100
AcDbBlockTableRecord
  2
*D16
  0
BLOCK_RECORD
  5
237
330
1
100
AcDbSymbolTableRecord
100
AcDbBlockTableRecord
  2
*D17
  0
BLOCK_RECORD
  5
244
330
1
100
AcDbSymbolTableRecord
100
AcDbBlockTableRecord
  2
*D18
  0
BLOCK_RECORD
  5
253
330
1
100
AcDbSymbolTableRecord
100
AcDbBlockTableRecord
  2
*D19
  0
BLOCK_RECORD
  5
260
330
1
100
AcDbSymbolTableRecord
100
AcDbBlockTableRecord
  2
*D20
  0
BLOCK_RECORD
  5
26D
330
1
100
AcDbSymbolTableRecord
100
AcDbBlockTableRecord
  2
*D21
  0
BLOCK_RECORD
  5
27A
330
1
100
AcDbSymbolTableRecord
100
AcDbBlockTableRecord
  2
*D22
  0
BLOCK_RECORD
  5
287
330
1
100
AcDbSymbolTableRecord
100
AcDbBlockTableRecord
  2
*D23
  0
BLOCK_RECORD
  5
294
330
1
100
AcDbSymbolTableRecord
100
AcDbBlockTableRecord
  2
*D24
  0
BLOCK_RECORD
  5
2A1
330
1
100
AcDbSymbolTableRecord
100
AcDbBlockTableRecord
  2
*D25
  0
BLOCK_RECORD
  5
2AE
330
1
100
AcDbSymbolTableRecord
100
AcDbBlockTableRecord
  2
*D26
  0
BLOCK_RECORD
  5
2BB
330
1
100
AcDbSymbolTableRecord
100
AcDbBlockTableRecord
  2
*D27
  0
BLOCK_RECORD
  5
2C8
330
1
100
AcDbSymbolTableRecord
100
AcDbBlockTableRecord
  2
*D28
  0
BLOCK_RECORD
  5
2D5
330
1
100
AcDbSymbolTableRecord
100
AcDbBlockTableRecord
  2
*D29
  0
BLOCK_RECORD
  5
2E2
330
1
100
AcDbSymbolTableRecord
100
AcDbBlockTableRecord
  2
*D30
  0
BLOCK_RECORD
  5
2EF
330
1
100
AcDbSymbolTableRecord
100
AcDbBlockTableRecord
  2
*D31
  0
BLOCK_RECORD
  5
2FC
330
1
100
AcDbSymbolTableRecord
100
AcDbBlockTableRecord
  2
*D32
  0
BLOCK_RECORD
  5
309
330
1
100
AcDbSymbolTableRecord
100
AcDbBlockTableRecord
  2
*D33
  0
BLOCK_RECORD
  5
316
330
1
100
AcDbSymbolTableRecord
100
AcDbBlockTableRecord
  2
*D34
  0
BLOCK_RECORD
  5
323
330
1
100
AcDbSymbolTableRecord
100
AcDbBlockTableRecord
  2
*D35
  0
BLOCK_RECORD
  5
330
330
1
100
AcDbSymbolTableRecord
100
AcDbBlockTableRecord
  2
*D36
  0
BLOCK_RECORD
  5
33D
330
1
100
AcDbSymbolTableRecord
100
AcDbBlockTableRecord
  2
*D37
  0
ENDTAB
  0
ENDSEC
  0
SECTION
  2
BLOCKS
  0
BLOCK
  5
20
330
1F
100
AcDbEntity
  8
0
100
AcDbBlockBegin
  2
*MODEL_SPACE
 70
     0
 10
0.0
 20
0.0
 30
0.0
  3
*MODEL_SPACE
  1

  0
ENDBLK
  5
21
330
1F
100
AcDbEntity
  8
0
100
AcDbBlockEnd
  0
BLOCK
  5
1C
330
1B
100
AcDbEntity
 67
     1
  8
0
100
AcDbBlockBegin
  2
*PAPER_SPACE
 70
     0
 10
0.0
 20
0.0
 30
0.0
  3
*PAPER_SPACE
  1

  0
ENDBLK
  5
1D
330
1B
100
AcDbEntity
 67
     1
  8
0
100
AcDbBlockEnd
  0
BLOCK
  5
7F
330
7E
100
AcDbEntity
  8
0
100
AcDbBlockBegin
  2
EX_NORM
 70
     0
 10
0.0
 20
0.0
 30
0.0
  3
EX_NORM
  1

  0
LINE
  5
A8
330
7E
100
AcDbEntity
  8
0
  6
CONTINUOUS
 62
     0
100
AcDbLine
 10
0.0
 20
0.0
 30
0.0
 11
-1.0
 21
0.0
 31
0.0
  0
LINE
  5
A9
330
7E
100
AcDbEntity
  8
0
  6
CONTINUOUS
 62
     0
100
AcDbLine
 10
0.0
 20
0.0
 30
0.0
 11
-1.0
 21
0.166666667
 31
0.0
  0
LINE
  5
AA
330
7E
100
AcDbEntity
  8
0
  6
CONTINUOUS
 62
     0
100
AcDbLine
 10
0.0
 20
0.0
 30
0.0
 11
-1.0
 21
-0.166666667
 31
0.0
  0
ENDBLK
  5
80
330
7E
100
AcDbEntity
  8
0
100
AcDbBlockEnd
  0
BLOCK
  5
82
330
81
100
AcDbEntity
  8
0
100
AcDbBlockBegin
  2
EX_BNORM
 70
     0
 10
0.0
 20
0.0
 30
0.0
  3
EX_BNORM
  1

  0
LINE
  5
AB
330
81
100
AcDbEntity
  8
0
  6
CONTINUOUS
 62
     0
100
AcDbLine
 10
0.0
 20
0.0
 30
0.0
 11
-1.0
 21
0.0
 31
0.0
  0
LINE
  5
AC
330
81
100
AcDbEntity
  8
0
  6
CONTINUOUS
 62
     0
100
AcDbLine
 10
0.0
 20
0.0
 30
0.0
 11
-1.0
 21
0.166666667
 31
0.0
  0
LINE
  5
AD
330
81
100
AcDbEntity
  8
0
  6
CONTINUOUS
 62
     0
100
AcDbLine
 10
0.0
 20
0.0
 30
0.0
 11
-1.0
 21
-0.166666667
 31
0.0
  0
LINE
  5
AE
330
81
100
AcDbEntity
  8
0
  6
CONTINUOUS
 62
     0
100
AcDbLine
 10
0.0
 20
0.0
 30
0.0
 11
-1.0
 21
0.083333333
 31
0.0
  0
LINE
  5
AF
330
81
100
AcDbEntity
  8
0
  6
CONTINUOUS
 62
     0
100
AcDbLine
 10
0.0
 20
0.0
 30
0.0
 11
-1.0
 21
-0.083333333
 31
0.0
  0
LINE
  5
B0
330
81
100
AcDbEntity
  8
0
  6
CONTINUOUS
 62
     0
100
AcDbLine
 10
-1.0
 20
0.166666667
 30
0.0
 11
-1.0
 21
-0.166666667
 31
0.0
  0
ENDBLK
  5
83
330
81
100
AcDbEntity
  8
0
100
AcDbBlockEnd
  0
BLOCK
  5
85
330
84
100
AcDbEntity
  8
0
100
AcDbBlockBegin
  2
EX_BCIR
 70
     0
 10
0.0
 20
0.0
 30
0.0
  3
EX_BCIR
  1

  0
LINE
  5
B1
330
84
100
AcDbEntity
  8
0
  6
CONTINUOUS
 62
     0
100
AcDbLine
 10
0.0
 20
0.0
 30
0.0
 11
-1.0
 21
0.0
 31
0.0
  0
CIRCLE
  5
B2
330
84
100
AcDbEntity
  8
0
  6
CONTINUOUS
 62
     0
100
AcDbCircle
 10
0.0
 20
0.0
 30
0.0
 40
0.5
  0
CIRCLE
  5
B3
330
84
100
AcDbEntity
  8
0
  6
CONTINUOUS
 62
     0
100
AcDbCircle
 10
0.0
 20
0.0
 30
0.0
 40
0.25
  0
ENDBLK
  5
86
330
84
100
AcDbEntity
  8
0
100
AcDbBlockEnd
  0
BLOCK
  5
88
330
87
100
AcDbEntity
  8
0
100
AcDbBlockBegin
  2
EX_RCIVIL
 70
     0
 10
0.0
 20
0.0
 30
0.0
  3
EX_RCIVIL
  1

  0
LINE
  5
B4
330
87
100
AcDbEntity
  8
0
  6
CONTINUOUS
 62
     0
100
AcDbLine
 10
0.0
 20
0.0
 30
0.0
 11
-1.0
 21
0.0
 31
0.0
  0
LINE
  5
B5
330
87
100
AcDbEntity
  8
0
  6
CONTINUOUS
 62
     0
100
AcDbLine
 10
-1.0
 20
-0.25
 30
0.0
 11
0.0
 21
-0.25
 31
0.0
  0
LINE
  5
B6
330
87
100
AcDbEntity
  8
0
  6
CONTINUOUS
 62
     0
100
AcDbLine
 10
-1.0
 20
-0.125
 30
0.0
 11
0.0
 21
-0.125
 31
0.0
  0
ENDBLK
  5
89
330
87
100
AcDbEntity
  8
0
100
AcDbBlockEnd
  0
BLOCK
  5
8B
330
8A
100
AcDbEntity
  8
0
100
AcDbBlockBegin
  2
EX_SLANT
 70
     0
 10
0.0
 20
0.0
 30
0.0
  3
EX_SLANT
  1

  0
LINE
  5
B7
330
8A
100
AcDbEntity
  8
0
  6
CONTINUOUS
 62
     0
100
AcDbLine
 10
0.0
 20
0.0
 30
0.0
 11
-1.0
 21
0.0
 31
0.0
  0
LINE
  5
B8
330
8A
100
AcDbEntity
  8
0
  6
CONTINUOUS
 62
     0
100
AcDbLine
 10
0.707106781
 20
0.707106781
 30
0.0
 11
-0.707106781
 21
-0.707106781
 31
0.0
  0
ENDBLK
  5
8C
330
8A
100
AcDbEntity
  8
0
100
AcDbBlockEnd
  0
BLOCK
  5
8E
330
8D
100
AcDbEntity
  8
0
100
AcDbBlockBegin
  2
EX_NONE
 70
     0
 10
0.0
 20
0.0
 30
0.0
  3
EX_NONE
  1

  0
LINE
  5
B9
330
8D
100
AcDbEntity
  8
0
  6
CONTINUOUS
 62
     0
100
AcDbLine
 10
0.0
 20
0.0
 30
0.0
 11
-1.0
 21
0.0
 31
0.0
  0
ENDBLK
  5
8F
330
8D
100
AcDbEntity
  8
0
100
AcDbBlockEnd
  0
BLOCK
  5
91
330
90
100
AcDbEntity
  8
0
100
AcDbBlockBegin
  2
EX_CIVIL
 70
     0
 10
0.0
 20
0.0
 30
0.0
  3
EX_CIVIL
  1

  0
LINE
  5
BA
330
90
100
AcDbEntity
  8
0
  6
CONTINUOUS
 62
     0
100
AcDbLine
 10
0.0
 20
0.0
 30
0.0
 11
-1.0
 21
0.0
 31
0.0
  0
LINE
  5
BB
330
90
100
AcDbEntity
  8
0
  6
CONTINUOUS
 62
     0
100
AcDbLine
 10
-1.0
 20
0.25
 30
0.0
 11
0.0
 21
0.25
 31
0.0
  0
LINE
  5
BC
330
90
100
AcDbEntity
  8
0
  6
CONTINUOUS
 62
     0
100
AcDbLine
 10
-1.0
 20
0.125
 30
0.0
 11
0.0
 21
0.125
 31
0.0
  0
ENDBLK
  5
92
330
90
100
AcDbEntity
  8
0
100
AcDbBlockEnd
  0
BLOCK
  5
94
330
93
100
AcDbEntity
  8
0
100
AcDbBlockBegin
  2
EX_WCIR
 70
     0
 10
0.0
 20
0.0
 30
0.0
  3
EX_WCIR
  1

  0
LINE
  5
BD
330
93
100
AcDbEntity
  8
0
  6
CONTINUOUS
 62
     0
100
AcDbLine
 10
0.0
 20
0.0
 30
0.0
 11
-1.0
 21
0.0
 31
0.0
  0
CIRCLE
  5
BE
330
93
100
AcDbEntity
  8
0
  6
CONTINUOUS
 62
     0
100
AcDbCircle
 10
0.0
 20
0.0
 30
0.0
 40
0.5
  0
ENDBLK
  5
95
330
93
100
AcDbEntity
  8
0
100
AcDbBlockEnd
  0
BLOCK
  5
97
330
96
100
AcDbEntity
  8
0
100
AcDbBlockBegin
  2
EX_WCIR2
 70
     0
 10
0.0
 20
0.0
 30
0.0
  3
EX_WCIR2
  1

  0
LINE
  5
BF
330
96
100
AcDbEntity
  8
0
  6
CONTINUOUS
 62
     0
100
AcDbLine
 10
-0.5
 20
0.0
 30
0.0
 11
-1.0
 21
0.0
 31
0.0
  0
CIRCLE
  5
C0
330
96
100
AcDbEntity
  8
0
  6
CONTINUOUS
 62
     0
100
AcDbCircle
 10
0.0
 20
0.0
 30
0.0
 40
0.5
  0
ENDBLK
  5
98
330
96
100
AcDbEntity
  8
0
100
AcDbBlockEnd
  0
BLOCK
  5
9A
330
99
100
AcDbEntity
  8
0
100
AcDbBlockBegin
  2
EX_WNORM
 70
     0
 10
0.0
 20
0.0
 30
0.0
  3
EX_WNORM
  1

  0
LINE
  5
C1
330
99
100
AcDbEntity
  8
0
  6
CONTINUOUS
 62
     0
100
AcDbLine
 10
-1.0
 20
0.0
 30
0.0
 11
-1.0
 21
0.0
 31
0.0
  0
LINE
  5
C2
330
99
100
AcDbEntity
  8
0
  6
CONTINUOUS
 62
     0
100
AcDbLine
 10
0.0
 20
0.0
 30
0.0
 11
-1.0
 21
0.166666667
 31
0.0
  0
LINE
  5
C3
330
99
100
AcDbEntity
  8
0
  6
CONTINUOUS
 62
     0
100
AcDbLine
 10
0.0
 20
0.0
 30
0.0
 11
-1.0
 21
-0.166666667
 31
0.0
  0
LINE
  5
C4
330
99
100
AcDbEntity
  8
0
  6
CONTINUOUS
 62
     0
100
AcDbLine
 10
-1.0
 20
0.166666667
 30
0.0
 11
-1.0
 21
-0.166666667
 31
0.0
  0
ENDBLK
  5
9B
330
99
100
AcDbEntity
  8
0
100
AcDbBlockEnd
  0
BLOCK
  5
9D
330
9C
100
AcDbEntity
  8
0
100
AcDbBlockBegin
  2
EX_NNORM
 70
     0
 10
0.0
 20
0.0
 30
0.0
  3
EX_NNORM
  1

  0
LINE
  5
C5
330
9C
100
AcDbEntity
  8
0
  6
CONTINUOUS
 62
     0
100
AcDbLine
 10
0.0
 20
0.0
 30
0.0
 11
-1.0
 21
0.0
 31
0.0
  0
LINE
  5
C6
330
9C
100
AcDbEntity
  8
0
  6
CONTINUOUS
 62
     0
100
AcDbLine
 10
0.0
 20
0.0
 30
0.0
 11
-1.0
 21
0.166666667
 31
0.0
  0
LINE
  5
C7
330
9C
100
AcDbEntity
  8
0
  6
CONTINUOUS
 62
     0
100
AcDbLine
 10
0.0
 20
0.0
 30
0.0
 11
-1.0
 21
-0.166666667
 31
0.0
  0
LINE
  5
C8
330
9C
100
AcDbEntity
  8
0
  6
CONTINUOUS
 62
     0
100
AcDbLine
 10
-1.0
 20
0.166666667
 30
0.0
 11
-1.0
 21
-0.166666667
 31
0.0
  0
ENDBLK
  5
9E
330
9C
100
AcDbEntity
  8
0
100
AcDbBlockEnd
  0
BLOCK
  5
A0
330
9F
100
AcDbEntity
  8
0
100
AcDbBlockBegin
  2
EX_BBOX
 70
     0
 10
0.0
 20
0.0
 30
0.0
  3
EX_BBOX
  1

  0
LINE
  5
C9
330
9F
100
AcDbEntity
  8
0
  6
CONTINUOUS
 62
     0
100
AcDbLine
 10
0.0
 20
0.0
 30
0.0
 11
-1.0
 21
0.0
 31
0.0
  0
LINE
  5
CA
330
9F
100
AcDbEntity
  8
0
  6
CONTINUOUS
 62
     0
100
AcDbLine
 10
-0.5
 20
0.5
 30
0.0
 11
0.5
 21
0.5
 31
0.0
  0
LINE
  5
CB
330
9F
100
AcDbEntity
  8
0
  6
CONTINUOUS
 62
     0
100
AcDbLine
 10
0.5
 20
0.5
 30
0.0
 11
0.5
 21
-0.5
 31
0.0
  0
LINE
  5
CC
330
9F
100
AcDbEntity
  8
0
  6
CONTINUOUS
 62
     0
100
AcDbLine
 10
0.5
 20
-0.5
 30
0.0
 11
-0.5
 21
-0.5
 31
0.0
  0
LINE
  5
CD
330
9F
100
AcDbEntity
  8
0
  6
CONTINUOUS
 62
     0
100
AcDbLine
 10
-0.5
 20
-0.5
 30
0.0
 11
-0.5
 21
0.5
 31
0.0
  0
LINE
  5
CE
330
9F
100
AcDbEntity
  8
0
  6
CONTINUOUS
 62
     0
100
AcDbLine
 10
-0.25
 20
0.25
 30
0.0
 11
0.25
 21
0.25
 31
0.0
  0
LINE
  5
CF
330
9F
100
AcDbEntity
  8
0
  6
CONTINUOUS
 62
     0
100
AcDbLine
 10
0.25
 20
0.25
 30
0.0
 11
0.25
 21
-0.25
 31
0.0
  0
LINE
  5
D0
330
9F
100
AcDbEntity
  8
0
  6
CONTINUOUS
 62
     0
100
AcDbLine
 10
0.25
 20
-0.25
 30
0.0
 11
-0.25
 21
-0.25
 31
0.0
  0
LINE
  5
D1
330
9F
100
AcDbEntity
  8
0
  6
CONTINUOUS
 62
     0
100
AcDbLine
 10
-0.25
 20
-0.25
 30
0.0
 11
-0.25
 21
0.25
 31
0.0
  0
ENDBLK
  5
A1
330
9F
100
AcDbEntity
  8
0
100
AcDbBlockEnd
  0
BLOCK
  5
A3
330
A2
100
AcDbEntity
  8
0
100
AcDbBlockBegin
  2
EX_WBOX
 70
     0
 10
0.0
 20
0.0
 30
0.0
  3
EX_WBOX
  1

  0
LINE
  5
D2
330
A2
100
AcDbEntity
  8
0
  6
CONTINUOUS
 62
     0
100
AcDbLine
 10
-0.5
 20
0.0
 30
0.0
 11
-1.0
 21
0.0
 31
0.0
  0
LINE
  5
D3
330
A2
100
AcDbEntity
  8
0
  6
CONTINUOUS
 62
     0
100
AcDbLine
 10
-0.5
 20
0.5
 30
0.0
 11
0.5
 21
0.5
 31
0.0
  0
LINE
  5
D4
330
A2
100
AcDbEntity
  8
0
  6
CONTINUOUS
 62
     0
100
AcDbLine
 10
0.5
 20
0.5
 30
0.0
 11
0.5
 21
-0.5
 31
0.0
  0
LINE
  5
D5
330
A2
100
AcDbEntity
  8
0
  6
CONTINUOUS
 62
     0
100
AcDbLine
 10
0.5
 20
-0.5
 30
0.0
 11
-0.5
 21
-0.5
 31
0.0
  0
LINE
  5
D6
330
A2
100
AcDbEntity
  8
0
  6
CONTINUOUS
 62
     0
100
AcDbLine
 10
-0.5
 20
-0.5
 30
0.0
 11
-0.5
 21
0.5
 31
0.0
  0
ENDBLK
  5
A4
330
A2
100
AcDbEntity
  8
0
100
AcDbBlockEnd
  0
BLOCK
  5
A6
330
A5
100
AcDbEntity
  8
0
100
AcDbBlockBegin
  2
EX_INTEGRAL
 70
     0
 10
0.0
 20
0.0
 30
0.0
  3
EX_INTEGRAL
  1

  0
LINE
  5
D7
330
A5
100
AcDbEntity
  8
0
  6
CONTINUOUS
 62
     0
100
AcDbLine
 10
0.0
 20
0.0
 30
0.0
 11
-1.0
 21
0.0
 31
0.0
  0
ARC
  5
D8
330
A5
100
AcDbEntity
  8
0
  6
CONTINUOUS
 62
     0
100
AcDbCircle
 10
0.542115
 20
0.164992
 30
0.0
 40
0.56667
100
AcDbArc
 50
73.07249033629006
 51
196.9275130221199
  0
ARC
  5
D9
330
A5
100
AcDbEntity
  8
0
  6
CONTINUOUS
 62
     0
100
AcDbCircle
 10
-0.542115
 20
-0.164992
 30
0.0
 40
0.56667
100
AcDbArc
 50
253.0724869220464
 51
16.9275130559125
  0
ENDBLK
  5
A7
330
A5
100
AcDbEntity
  8
0
100
AcDbBlockEnd
  0
BLOCK
  5
21C
330
21B
100
AcDbEntity
  8
0
100
AcDbBlockBegin
  2
*D15
 70
     1
 10
0.0
 20
0.0
 30
0.0
  3
*D15
  1

  0
LINE
  5
21E
330
21B
100
AcDbEntity
  8
Ｓ_１_１
  6
CONTINUOUS
 62
     2
100
AcDbLine
 10
426.0000699900792
 20
740.0001030000201
 30
0.0
 11
354.0
 21
740.0001030000201
 31
0.0
  0
LINE
  5
21F
330
21B
100
AcDbEntity
  8
Ｓ_１_１
  6
CONTINUOUS
 62
     2
100
AcDbLine
 10
426.0000699900792
 20
715.0001030000201
 30
0.0
 11
354.0
 21
715.0001030000201
 31
0.0
  0
LINE
  5
220
330
21B
100
AcDbEntity
  8
Ｓ_１_１
  6
CONTINUOUS
 62
     2
100
AcDbLine
 10
360.0
 20
740.0001030000201
 30
0.0
 11
360.0
 21
715.0001030000201
 31
0.0
  0
LINE
  5
221
330
21B
100
AcDbEntity
  8
Ｓ_１_１
  6
CONTINUOUS
 62
     2
100
AcDbLine
 10
360.0
 20
758.0001030000201
 30
0.0
 11
360.0
 21
776.0001030000201
 31
0.0
  0
LINE
  5
222
330
21B
100
AcDbEntity
  8
Ｓ_１_１
  6
CONTINUOUS
 62
     2
100
AcDbLine
 10
360.0
 20
697.0001030000201
 30
0.0
 11
360.0
 21
679.0001030000201
 31
0.0
  0
INSERT
  5
223
330
21B
100
AcDbEntity
  8
Ｓ_１_１
 62
     2
100
AcDbBlockReference
  2
EX_NORM
 10
360.0
 20
740.0001030000201
 30
0.0
 41
18.0
 42
18.0
 43
18.0
 50
270.0
  0
INSERT
  5
224
330
21B
100
AcDbEntity
  8
Ｓ_１_１
 62
     2
100
AcDbBlockReference
  2
EX_NORM
 10
360.0
 20
715.0001030000201
 30
0.0
 41
18.0
 42
18.0
 43
18.0
 50
90.0
  0
MTEXT
  5
225
330
21B
100
AcDbEntity
  8
Ｓ_１_１
 62
     2
100
AcDbMText
 10
343.5000000000002
 20
771.5001030000201
 30
0.0
 40
20.77742494226328
 41
0.0
 71
     5
 72
     1
  1
25
  7
EXCADDIM1
 11
0.0
 21
1.0
 31
0.0
  0
POINT
  5
226
330
21B
100
AcDbEntity
  8
DEFPOINTS
 62
     0
100
AcDbPoint
 10
435.0000699900792
 20
740.0001030000201
 30
0.0
  0
POINT
  5
227
330
21B
100
AcDbEntity
  8
DEFPOINTS
 62
     0
100
AcDbPoint
 10
435.0000699900792
 20
715.0001030000201
 30
0.0
  0
POINT
  5
228
330
21B
100
AcDbEntity
  8
DEFPOINTS
 62
     0
100
AcDbPoint
 10
360.0
 20
715.0001030000201
 30
0.0
  0
ENDBLK
  5
21D
330
21B
100
AcDbEntity
  8
0
100
AcDbBlockEnd
  0
BLOCK
  5
22B
330
22A
100
AcDbEntity
  8
0
100
AcDbBlockBegin
  2
*D16
 70
     1
 10
0.0
 20
0.0
 30
0.0
  3
*D16
  1

  0
LINE
  5
22D
330
22A
100
AcDbEntity
  8
Ｓ_１_１
  6
CONTINUOUS
 62
     2
100
AcDbLine
 10
546.00016999008
 20
555.00010299998
 30
0.0
 11
354.0
 21
555.00010299998
 31
0.0
  0
LINE
  5
22E
330
22A
100
AcDbEntity
  8
Ｓ_１_１
  6
CONTINUOUS
 62
     2
100
AcDbLine
 10
601.50006999008
 20
410.00000000002
 30
0.0
 11
354.0
 21
410.0000000000201
 31
0.0
  0
LINE
  5
22F
330
22A
100
AcDbEntity
  8
Ｓ_１_１
  6
CONTINUOUS
 62
     2
100
AcDbLine
 10
360.0
 20
537.00010299998
 30
0.0
 11
360.0
 21
428.0000000000201
 31
0.0
  0
INSERT
  5
230
330
22A
100
AcDbEntity
  8
Ｓ_１_１
 62
     2
100
AcDbBlockReference
  2
EX_NORM
 10
360.0
 20
555.00010299998
 30
0.0
 41
18.0
 42
18.0
 43
18.0
 50
90.0
  0
INSERT
  5
231
330
22A
100
AcDbEntity
  8
Ｓ_１_１
 62
     2
100
AcDbBlockReference
  2
EX_NORM
 10
360.0
 20
410.0000000000201
 30
0.0
 41
18.0
 42
18.0
 43
18.0
 50
270.0
  0
MTEXT
  5
232
330
22A
100
AcDbEntity
  8
Ｓ_１_１
 62
     2
100
AcDbMText
 10
343.5000000000001
 20
482.5000515
 30
0.0
 40
20.77742494226328
 41
0.0
 71
     5
 72
     1
  1
145
  7
EXCADDIM1
 11
0.0
 21
1.0
 31
0.0
  0
POINT
  5
233
330
22A
100
AcDbEntity
  8
DEFPOINTS
 62
     0
100
AcDbPoint
 10
555.00016999008
 20
555.00010299998
 30
0.0
  0
POINT
  5
234
330
22A
100
AcDbEntity
  8
DEFPOINTS
 62
     0
100
AcDbPoint
 10
610.50006999008
 20
410.00000000002
 30
0.0
  0
POINT
  5
235
330
22A
100
AcDbEntity
  8
DEFPOINTS
 62
     0
100
AcDbPoint
 10
360.0
 20
410.0000000000201
 30
0.0
  0
ENDBLK
  5
22C
330
22A
100
AcDbEntity
  8
0
100
AcDbBlockEnd
  0
BLOCK
  5
238
330
237
100
AcDbEntity
  8
0
100
AcDbBlockBegin
  2
*D17
 70
     1
 10
0.0
 20
0.0
 30
0.0
  3
*D17
  1

  0
LINE
  5
23A
330
237
100
AcDbEntity
  8
Ｓ_１_１
  6
CONTINUOUS
 62
     2
100
AcDbLine
 10
601.50006999008
 20
410.00000000002
 30
0.0
 11
354.0
 21
410.00000000002
 31
0.0
  0
LINE
  5
23B
330
237
100
AcDbEntity
  8
Ｓ_１_１
  6
CONTINUOUS
 62
     2
100
AcDbLine
 10
516.00006999008
 20
225.0
 30
0.0
 11
354.0
 21
225.0
 31
0.0
  0
LINE
  5
23C
330
237
100
AcDbEntity
  8
Ｓ_１_１
  6
CONTINUOUS
 62
     2
100
AcDbLine
 10
360.0
 20
392.00000000002
 30
0.0
 11
360.0
 21
243.0
 31
0.0
  0
INSERT
  5
23D
330
237
100
AcDbEntity
  8
Ｓ_１_１
 62
     2
100
AcDbBlockReference
  2
EX_NORM
 10
360.0
 20
410.00000000002
 30
0.0
 41
18.0
 42
18.0
 43
18.0
 50
90.0
  0
INSERT
  5
23E
330
237
100
AcDbEntity
  8
Ｓ_１_１
 62
     2
100
AcDbBlockReference
  2
EX_NORM
 10
360.0
 20
225.0
 30
0.0
 41
18.0
 42
18.0
 43
18.0
 50
270.0
  0
MTEXT
  5
23F
330
237
100
AcDbEntity
  8
Ｓ_１_１
 62
     2
100
AcDbMText
 10
343.5
 20
317.50000000001
 30
0.0
 40
20.77742494226328
 41
0.0
 71
     5
 72
     1
  1
185
  7
EXCADDIM1
 11
0.0
 21
1.0
 31
0.0
  0
POINT
  5
240
330
237
100
AcDbEntity
  8
DEFPOINTS
 62
     0
100
AcDbPoint
 10
610.50006999008
 20
410.00000000002
 30
0.0
  0
POINT
  5
241
330
237
100
AcDbEntity
  8
DEFPOINTS
 62
     0
100
AcDbPoint
 10
525.00006999008
 20
225.0
 30
0.0
  0
POINT
  5
242
330
237
100
AcDbEntity
  8
DEFPOINTS
 62
     0
100
AcDbPoint
 10
360.0
 20
225.0
 30
0.0
  0
ENDBLK
  5
239
330
237
100
AcDbEntity
  8
0
100
AcDbBlockEnd
  0
BLOCK
  5
245
330
244
100
AcDbEntity
  8
0
100
AcDbBlockBegin
  2
*D18
 70
     1
 10
0.0
 20
0.0
 30
0.0
  3
*D18
  1

  0
LINE
  5
247
330
244
100
AcDbEntity
  8
Ｓ_１_１
  6
CONTINUOUS
 62
     2
100
AcDbLine
 10
516.0000699900772
 20
199.9999999999997
 30
0.0
 11
354.0
 21
199.9999999999997
 31
0.0
  0
LINE
  5
248
330
244
100
AcDbEntity
  8
Ｓ_１_１
  6
CONTINUOUS
 62
     2
100
AcDbLine
 10
516.0000699900772
 20
224.9999999999997
 30
0.0
 11
354.0
 21
224.9999999999997
 31
0.0
  0
LINE
  5
249
330
244
100
AcDbEntity
  8
Ｓ_１_１
  6
CONTINUOUS
 62
     2
100
AcDbLine
 10
360.0
 20
199.9999999999997
 30
0.0
 11
360.0
 21
224.9999999999997
 31
0.0
  0
LINE
  5
24A
330
244
100
AcDbEntity
  8
Ｓ_１_１
  6
CONTINUOUS
 62
     2
100
AcDbLine
 10
360.0
 20
181.9999999999997
 30
0.0
 11
360.0
 21
163.9999999999997
 31
0.0
  0
LINE
  5
24B
330
244
100
AcDbEntity
  8
Ｓ_１_１
  6
CONTINUOUS
 62
     2
100
AcDbLine
 10
360.0
 20
242.9999999999997
 30
0.0
 11
360.0
 21
260.9999999999997
 31
0.0
  0
INSERT
  5
24C
330
244
100
AcDbEntity
  8
Ｓ_１_１
 62
     2
100
AcDbBlockReference
  2
EX_NORM
 10
360.0
 20
199.9999999999997
 30
0.0
 41
18.0
 42
18.0
 43
18.0
 50
90.0
  0
INSERT
  5
24D
330
244
100
AcDbEntity
  8
Ｓ_１_１
 62
     2
100
AcDbBlockReference
  2
EX_NORM
 10
360.0
 20
224.9999999999997
 30
0.0
 41
18.0
 42
18.0
 43
18.0
 50
270.0
  0
MTEXT
  5
24E
330
244
100
AcDbEntity
  8
Ｓ_１_１
 62
     2
100
AcDbMText
 10
343.5000000000001
 20
168.4999999999996
 30
0.0
 40
20.77742494226328
 41
0.0
 71
     5
 72
     1
  1
25
  7
EXCADDIM1
 11
0.0
 21
1.0
 31
0.0
  0
POINT
  5
24F
330
244
100
AcDbEntity
  8
DEFPOINTS
 62
     0
100
AcDbPoint
 10
525.0000699900772
 20
199.9999999999997
 30
0.0
  0
POINT
  5
250
330
244
100
AcDbEntity
  8
DEFPOINTS
 62
     0
100
AcDbPoint
 10
525.0000699900772
 20
224.9999999999997
 30
0.0
  0
POINT
  5
251
330
244
100
AcDbEntity
  8
DEFPOINTS
 62
     0
100
AcDbPoint
 10
360.0
 20
224.9999999999997
 30
0.0
  0
ENDBLK
  5
246
330
244
100
AcDbEntity
  8
0
100
AcDbBlockEnd
  0
BLOCK
  5
254
330
253
100
AcDbEntity
  8
0
100
AcDbBlockBegin
  2
*D19
 70
     1
 10
0.0
 20
0.0
 30
0.0
  3
*D19
  1

  0
LINE
  5
256
330
253
100
AcDbEntity
  8
Ｓ_１_１
  6
CONTINUOUS
 62
     2
100
AcDbLine
 10
516.00006999008
 20
200.0
 30
0.0
 11
314.0
 21
200.0
 31
0.0
  0
LINE
  5
257
330
253
100
AcDbEntity
  8
Ｓ_１_１
  6
CONTINUOUS
 62
     2
100
AcDbLine
 10
546.00016999008
 20
555.00010299998
 30
0.0
 11
314.0
 21
555.00010299998
 31
0.0
  0
LINE
  5
258
330
253
100
AcDbEntity
  8
Ｓ_１_１
  6
CONTINUOUS
 62
     2
100
AcDbLine
 10
320.0
 20
218.0
 30
0.0
 11
320.0
 21
537.00010299998
 31
0.0
  0
INSERT
  5
259
330
253
100
AcDbEntity
  8
Ｓ_１_１
 62
     2
100
AcDbBlockReference
  2
EX_NORM
 10
320.0
 20
200.0
 30
0.0
 41
18.0
 42
18.0
 43
18.0
 50
270.0
  0
INSERT
  5
25A
330
253
100
AcDbEntity
  8
Ｓ_１_１
 62
     2
100
AcDbBlockReference
  2
EX_NORM
 10
320.0
 20
555.00010299998
 30
0.0
 41
18.0
 42
18.0
 43
18.0
 50
90.0
  0
MTEXT
  5
25B
330
253
100
AcDbEntity
  8
Ｓ_１_１
 62
     2
100
AcDbMText
 10
303.5000000000001
 20
377.5000514999899
 30
0.0
 40
20.77742494226328
 41
0.0
 71
     5
 72
     1
  1
355
  7
EXCADDIM1
 11
0.0
 21
1.0
 31
0.0
  0
POINT
  5
25C
330
253
100
AcDbEntity
  8
DEFPOINTS
 62
     0
100
AcDbPoint
 10
525.00006999008
 20
200.0
 30
0.0
  0
POINT
  5
25D
330
253
100
AcDbEntity
  8
DEFPOINTS
 62
     0
100
AcDbPoint
 10
555.00016999008
 20
555.00010299998
 30
0.0
  0
POINT
  5
25E
330
253
100
AcDbEntity
  8
DEFPOINTS
 62
     0
100
AcDbPoint
 10
320.0
 20
555.00010299998
 30
0.0
  0
ENDBLK
  5
255
330
253
100
AcDbEntity
  8
0
100
AcDbBlockEnd
  0
BLOCK
  5
261
330
260
100
AcDbEntity
  8
0
100
AcDbBlockBegin
  2
*D20
 70
     1
 10
0.0
 20
0.0
 30
0.0
  3
*D20
  1

  0
LINE
  5
263
330
260
100
AcDbEntity
  8
Ｓ_１_１
  6
CONTINUOUS
 62
     2
100
AcDbLine
 10
546.00016999008
 20
555.00010299998
 30
0.0
 11
314.0
 21
555.00010299998
 31
0.0
  0
LINE
  5
264
330
260
100
AcDbEntity
  8
Ｓ_１_１
  6
CONTINUOUS
 62
     2
100
AcDbLine
 10
426.00006999008
 20
740.00010300002
 30
0.0
 11
314.0
 21
740.00010300002
 31
0.0
  0
LINE
  5
265
330
260
100
AcDbEntity
  8
Ｓ_１_１
  6
CONTINUOUS
 62
     2
100
AcDbLine
 10
320.0
 20
573.00010299998
 30
0.0
 11
320.0
 21
722.00010300002
 31
0.0
  0
INSERT
  5
266
330
260
100
AcDbEntity
  8
Ｓ_１_１
 62
     2
100
AcDbBlockReference
  2
EX_NORM
 10
320.0
 20
555.00010299998
 30
0.0
 41
18.0
 42
18.0
 43
18.0
 50
270.0
  0
INSERT
  5
267
330
260
100
AcDbEntity
  8
Ｓ_１_１
 62
     2
100
AcDbBlockReference
  2
EX_NORM
 10
320.0
 20
740.00010300002
 30
0.0
 41
18.0
 42
18.0
 43
18.0
 50
90.0
  0
MTEXT
  5
268
330
260
100
AcDbEntity
  8
Ｓ_１_１
 62
     2
100
AcDbMText
 10
303.5000000000001
 20
647.500103
 30
0.0
 40
20.77742494226328
 41
0.0
 71
     5
 72
     1
  1
185
  7
EXCADDIM1
 11
0.0
 21
1.0
 31
0.0
  0
POINT
  5
269
330
260
100
AcDbEntity
  8
DEFPOINTS
 62
     0
100
AcDbPoint
 10
555.00016999008
 20
555.00010299998
 30
0.0
  0
POINT
  5
26A
330
260
100
AcDbEntity
  8
DEFPOINTS
 62
     0
100
AcDbPoint
 10
435.00006999008
 20
740.00010300002
 30
0.0
  0
POINT
  5
26B
330
260
100
AcDbEntity
  8
DEFPOINTS
 62
     0
100
AcDbPoint
 10
320.0
 20
740.00010300002
 30
0.0
  0
ENDBLK
  5
262
330
260
100
AcDbEntity
  8
0
100
AcDbBlockEnd
  0
BLOCK
  5
26E
330
26D
100
AcDbEntity
  8
0
100
AcDbBlockBegin
  2
*D21
 70
     1
 10
0.0
 20
0.0
 30
0.0
  3
*D21
  1

  0
LINE
  5
270
330
26D
100
AcDbEntity
  8
Ｓ_１_１
  6
CONTINUOUS
 62
     2
100
AcDbLine
 10
426.00006999008
 20
740.00010300002
 30
0.0
 11
274.0000000000001
 21
740.00010300002
 31
0.0
  0
LINE
  5
271
330
26D
100
AcDbEntity
  8
Ｓ_１_１
  6
CONTINUOUS
 62
     2
100
AcDbLine
 10
516.00006999008
 20
200.0
 30
0.0
 11
274.0
 21
200.0
 31
0.0
  0
LINE
  5
272
330
26D
100
AcDbEntity
  8
Ｓ_１_１
  6
CONTINUOUS
 62
     2
100
AcDbLine
 10
280.0000000000001
 20
722.00010300002
 30
0.0
 11
280.0
 21
218.0
 31
0.0
  0
INSERT
  5
273
330
26D
100
AcDbEntity
  8
Ｓ_１_１
 62
     2
100
AcDbBlockReference
  2
EX_NORM
 10
280.0000000000001
 20
740.00010300002
 30
0.0
 41
18.0
 42
18.0
 43
18.0
 50
90.0
  0
INSERT
  5
274
330
26D
100
AcDbEntity
  8
Ｓ_１_１
 62
     2
100
AcDbBlockReference
  2
EX_NORM
 10
280.0
 20
200.0
 30
0.0
 41
18.0
 42
18.0
 43
18.0
 50
270.0
  0
MTEXT
  5
275
330
26D
100
AcDbEntity
  8
Ｓ_１_１
 62
     2
100
AcDbMText
 10
263.5000000000001
 20
470.00005150001
 30
0.0
 40
20.77742494226328
 41
0.0
 71
     5
 72
     1
  1
540
  7
EXCADDIM1
 11
1.052655704045410E-16
 21
1.0
 31
0.0
  0
POINT
  5
276
330
26D
100
AcDbEntity
  8
DEFPOINTS
 62
     0
100
AcDbPoint
 10
435.00006999008
 20
740.00010300002
 30
0.0
  0
POINT
  5
277
330
26D
100
AcDbEntity
  8
DEFPOINTS
 62
     0
100
AcDbPoint
 10
525.00006999008
 20
200.0
 30
0.0
  0
POINT
  5
278
330
26D
100
AcDbEntity
  8
DEFPOINTS
 62
     0
100
AcDbPoint
 10
280.0
 20
200.0
 30
0.0
  0
ENDBLK
  5
26F
330
26D
100
AcDbEntity
  8
0
100
AcDbBlockEnd
  0
BLOCK
  5
27B
330
27A
100
AcDbEntity
  8
0
100
AcDbBlockBegin
  2
*D22
 70
     1
 10
0.0
 20
0.0
 30
0.0
  3
*D22
  1

  0
LINE
  5
27D
330
27A
100
AcDbEntity
  8
Ｓ_１_１
  6
CONTINUOUS
 62
     2
100
AcDbLine
 10
480.9999999999999
 20
1010.0000000001
 30
0.0
 11
354.0
 21
1010.0000000001
 31
0.0
  0
LINE
  5
27E
330
27A
100
AcDbEntity
  8
Ｓ_１_１
  6
CONTINUOUS
 62
     2
100
AcDbLine
 10
480.9999999999999
 20
1310.0000000001
 30
0.0
 11
354.0
 21
1310.0000000001
 31
0.0
  0
LINE
  5
27F
330
27A
100
AcDbEntity
  8
Ｓ_１_１
  6
CONTINUOUS
 62
     2
100
AcDbLine
 10
360.0
 20
1028.0000000001
 30
0.0
 11
360.0
 21
1292.0000000001
 31
0.0
  0
INSERT
  5
280
330
27A
100
AcDbEntity
  8
Ｓ_１_１
 62
     2
100
AcDbBlockReference
  2
EX_NORM
 10
360.0
 20
1010.0000000001
 30
0.0
 41
18.0
 42
18.0
 43
18.0
 50
270.0
  0
INSERT
  5
281
330
27A
100
AcDbEntity
  8
Ｓ_１_１
 62
     2
100
AcDbBlockReference
  2
EX_NORM
 10
360.0
 20
1310.0000000001
 30
0.0
 41
18.0
 42
18.0
 43
18.0
 50
90.0
  0
MTEXT
  5
282
330
27A
100
AcDbEntity
  8
Ｓ_１_１
 62
     2
100
AcDbMText
 10
343.5000000000001
 20
1160.0000000001
 30
0.0
 40
20.77742494226328
 41
0.0
 71
     5
 72
     1
  1
300
  7
EXCADDIM1
 11
0.0
 21
1.0
 31
0.0
  0
POINT
  5
283
330
27A
100
AcDbEntity
  8
DEFPOINTS
 62
     0
100
AcDbPoint
 10
489.9999999999999
 20
1010.0000000001
 30
0.0
  0
POINT
  5
284
330
27A
100
AcDbEntity
  8
DEFPOINTS
 62
     0
100
AcDbPoint
 10
489.9999999999999
 20
1310.0000000001
 30
0.0
  0
POINT
  5
285
330
27A
100
AcDbEntity
  8
DEFPOINTS
 62
     0
100
AcDbPoint
 10
360.0
 20
1310.0000000001
 30
0.0
  0
ENDBLK
  5
27C
330
27A
100
AcDbEntity
  8
0
100
AcDbBlockEnd
  0
BLOCK
  5
288
330
287
100
AcDbEntity
  8
0
100
AcDbBlockBegin
  2
*D23
 70
     1
 10
0.0
 20
0.0
 30
0.0
  3
*D23
  1

  0
LINE
  5
28A
330
287
100
AcDbEntity
  8
Ｓ_１_１
  6
CONTINUOUS
 62
     2
100
AcDbLine
 10
511.000061078
 20
1325.0000000001
 30
0.0
 11
314.0
 21
1325.0000000001
 31
0.0
  0
LINE
  5
28B
330
287
100
AcDbEntity
  8
Ｓ_１_１
  6
CONTINUOUS
 62
     2
100
AcDbLine
 10
511.000061078
 20
994.9999999999999
 30
0.0
 11
314.0
 21
994.9999999999999
 31
0.0
  0
LINE
  5
28C
330
287
100
AcDbEntity
  8
Ｓ_１_１
  6
CONTINUOUS
 62
     2
100
AcDbLine
 10
320.0
 20
1307.0000000001
 30
0.0
 11
320.0
 21
1013.0
 31
0.0
  0
INSERT
  5
28D
330
287
100
AcDbEntity
  8
Ｓ_１_１
 62
     2
100
AcDbBlockReference
  2
EX_NORM
 10
320.0
 20
1325.0000000001
 30
0.0
 41
18.0
 42
18.0
 43
18.0
 50
90.0
  0
INSERT
  5
28E
330
287
100
AcDbEntity
  8
Ｓ_１_１
 62
     2
100
AcDbBlockReference
  2
EX_NORM
 10
320.0
 20
994.9999999999999
 30
0.0
 41
18.0
 42
18.0
 43
18.0
 50
270.0
  0
MTEXT
  5
28F
330
287
100
AcDbEntity
  8
Ｓ_１_１
 62
     2
100
AcDbMText
 10
303.5000000000001
 20
1160.00000000005
 30
0.0
 40
20.77742494226328
 41
0.0
 71
     5
 72
     1
  1
330
  7
EXCADDIM1
 11
0.0
 21
1.0
 31
0.0
  0
POINT
  5
290
330
287
100
AcDbEntity
  8
DEFPOINTS
 62
     0
100
AcDbPoint
 10
520.000061078
 20
1325.0000000001
 30
0.0
  0
POINT
  5
291
330
287
100
AcDbEntity
  8
DEFPOINTS
 62
     0
100
AcDbPoint
 10
520.000061078
 20
994.9999999999999
 30
0.0
  0
POINT
  5
292
330
287
100
AcDbEntity
  8
DEFPOINTS
 62
     0
100
AcDbPoint
 10
320.0
 20
994.9999999999999
 30
0.0
  0
ENDBLK
  5
289
330
287
100
AcDbEntity
  8
0
100
AcDbBlockEnd
  0
BLOCK
  5
295
330
294
100
AcDbEntity
  8
0
100
AcDbBlockBegin
  2
*D24
 70
     1
 10
0.0
 20
0.0
 30
0.0
  3
*D24
  1

  0
LINE
  5
297
330
294
100
AcDbEntity
  8
Ｓ_１_１
  6
CONTINUOUS
 62
     2
100
AcDbLine
 10
510.0
 20
1339.0
 30
0.0
 11
510.0
 21
1486.0
 31
0.0
  0
LINE
  5
298
330
294
100
AcDbEntity
  8
Ｓ_１_１
  6
CONTINUOUS
 62
     2
100
AcDbLine
 10
710.0
 20
1339.0
 30
0.0
 11
710.0
 21
1486.0
 31
0.0
  0
LINE
  5
299
330
294
100
AcDbEntity
  8
Ｓ_１_１
  6
CONTINUOUS
 62
     2
100
AcDbLine
 10
528.0
 20
1480.0
 30
0.0
 11
692.0
 21
1480.0
 31
0.0
  0
INSERT
  5
29A
330
294
100
AcDbEntity
  8
Ｓ_１_１
 62
     2
100
AcDbBlockReference
  2
EX_NORM
 10
510.0
 20
1480.0
 30
0.0
 41
18.0
 42
18.0
 43
18.0
 50
180.0
  0
INSERT
  5
29B
330
294
100
AcDbEntity
  8
Ｓ_１_１
 62
     2
100
AcDbBlockReference
  2
EX_NORM
 10
710.0
 20
1480.0
 30
0.0
 41
18.0
 42
18.0
 43
18.0
  0
MTEXT
  5
29C
330
294
100
AcDbEntity
  8
Ｓ_１_１
 62
     2
100
AcDbMText
 10
610.0000000000001
 20
1496.5
 30
0.0
 40
20.77742494226328
 41
0.0
 71
     5
 72
     1
  1
200
  7
EXCADDIM1
  0
POINT
  5
29D
330
294
100
AcDbEntity
  8
DEFPOINTS
 62
     0
100
AcDbPoint
 10
510.0
 20
1330.0
 30
0.0
  0
POINT
  5
29E
330
294
100
AcDbEntity
  8
DEFPOINTS
 62
     0
100
AcDbPoint
 10
710.0
 20
1330.0
 30
0.0
  0
POINT
  5
29F
330
294
100
AcDbEntity
  8
DEFPOINTS
 62
     0
100
AcDbPoint
 10
710.0
 20
1480.0
 30
0.0
  0
ENDBLK
  5
296
330
294
100
AcDbEntity
  8
0
100
AcDbBlockEnd
  0
BLOCK
  5
2A2
330
2A1
100
AcDbEntity
  8
0
100
AcDbBlockBegin
  2
*D25
 70
     1
 10
0.0
 20
0.0
 30
0.0
  3
*D25
  1

  0
LINE
  5
2A4
330
2A1
100
AcDbEntity
  8
Ｓ_１_１
  6
CONTINUOUS
 62
     2
100
AcDbLine
 10
710.0
 20
1339.0
 30
0.0
 11
710.0
 21
1486.0
 31
0.0
  0
LINE
  5
2A5
330
2A1
100
AcDbEntity
  8
Ｓ_１_１
  6
CONTINUOUS
 62
     2
100
AcDbLine
 10
810.0
 20
1339.0
 30
0.0
 11
810.0
 21
1486.0
 31
0.0
  0
LINE
  5
2A6
330
2A1
100
AcDbEntity
  8
Ｓ_１_１
  6
CONTINUOUS
 62
     2
100
AcDbLine
 10
728.0
 20
1480.0
 30
0.0
 11
792.0
 21
1480.0
 31
0.0
  0
INSERT
  5
2A7
330
2A1
100
AcDbEntity
  8
Ｓ_１_１
 62
     2
100
AcDbBlockReference
  2
EX_NORM
 10
710.0
 20
1480.0
 30
0.0
 41
18.0
 42
18.0
 43
18.0
 50
180.0
  0
INSERT
  5
2A8
330
2A1
100
AcDbEntity
  8
Ｓ_１_１
 62
     2
100
AcDbBlockReference
  2
EX_NORM
 10
810.0
 20
1480.0
 30
0.0
 41
18.0
 42
18.0
 43
18.0
  0
MTEXT
  5
2A9
330
2A1
100
AcDbEntity
  8
Ｓ_１_１
 62
     2
100
AcDbMText
 10
760.0000000000001
 20
1496.5
 30
0.0
 40
20.77742494226328
 41
0.0
 71
     5
 72
     1
  1
100
  7
EXCADDIM1
  0
POINT
  5
2AA
330
2A1
100
AcDbEntity
  8
DEFPOINTS
 62
     0
100
AcDbPoint
 10
710.0
 20
1330.0
 30
0.0
  0
POINT
  5
2AB
330
2A1
100
AcDbEntity
  8
DEFPOINTS
 62
     0
100
AcDbPoint
 10
810.0
 20
1330.0
 30
0.0
  0
POINT
  5
2AC
330
2A1
100
AcDbEntity
  8
DEFPOINTS
 62
     0
100
AcDbPoint
 10
810.0
 20
1480.0
 30
0.0
  0
ENDBLK
  5
2A3
330
2A1
100
AcDbEntity
  8
0
100
AcDbBlockEnd
  0
BLOCK
  5
2AF
330
2AE
100
AcDbEntity
  8
0
100
AcDbBlockBegin
  2
*D26
 70
     1
 10
0.0
 20
0.0
 30
0.0
  3
*D26
  1

  0
LINE
  5
2B1
330
2AE
100
AcDbEntity
  8
Ｓ_１_１
  6
CONTINUOUS
 62
     2
100
AcDbLine
 10
810.0
 20
1339.0
 30
0.0
 11
810.0
 21
1486.0
 31
0.0
  0
LINE
  5
2B2
330
2AE
100
AcDbEntity
  8
Ｓ_１_１
  6
CONTINUOUS
 62
     2
100
AcDbLine
 10
1010.0
 20
1339.0
 30
0.0
 11
1010.0
 21
1486.0
 31
0.0
  0
LINE
  5
2B3
330
2AE
100
AcDbEntity
  8
Ｓ_１_１
  6
CONTINUOUS
 62
     2
100
AcDbLine
 10
828.0
 20
1480.0
 30
0.0
 11
991.9999999999999
 21
1480.0
 31
0.0
  0
INSERT
  5
2B4
330
2AE
100
AcDbEntity
  8
Ｓ_１_１
 62
     2
100
AcDbBlockReference
  2
EX_NORM
 10
810.0
 20
1480.0
 30
0.0
 41
18.0
 42
18.0
 43
18.0
 50
180.0
  0
INSERT
  5
2B5
330
2AE
100
AcDbEntity
  8
Ｓ_１_１
 62
     2
100
AcDbBlockReference
  2
EX_NORM
 10
1010.0
 20
1480.0
 30
0.0
 41
18.0
 42
18.0
 43
18.0
  0
MTEXT
  5
2B6
330
2AE
100
AcDbEntity
  8
Ｓ_１_１
 62
     2
100
AcDbMText
 10
910.0000000000001
 20
1496.5
 30
0.0
 40
20.77742494226328
 41
0.0
 71
     5
 72
     1
  1
200
  7
EXCADDIM1
  0
POINT
  5
2B7
330
2AE
100
AcDbEntity
  8
DEFPOINTS
 62
     0
100
AcDbPoint
 10
810.0
 20
1330.0
 30
0.0
  0
POINT
  5
2B8
330
2AE
100
AcDbEntity
  8
DEFPOINTS
 62
     0
100
AcDbPoint
 10
1010.0
 20
1330.0
 30
0.0
  0
POINT
  5
2B9
330
2AE
100
AcDbEntity
  8
DEFPOINTS
 62
     0
100
AcDbPoint
 10
1010.0
 20
1480.0
 30
0.0
  0
ENDBLK
  5
2B0
330
2AE
100
AcDbEntity
  8
0
100
AcDbBlockEnd
  0
BLOCK
  5
2BC
330
2BB
100
AcDbEntity
  8
0
100
AcDbBlockBegin
  2
*D27
 70
     1
 10
0.0
 20
0.0
 30
0.0
  3
*D27
  1

  0
LINE
  5
2BE
330
2BB
100
AcDbEntity
  8
Ｓ_１_１
  6
CONTINUOUS
 62
     2
100
AcDbLine
 10
435.00000000001
 20
1343.9999
 30
0.0
 11
435.00000000001
 21
1526.0
 31
0.0
  0
LINE
  5
2BF
330
2BB
100
AcDbEntity
  8
Ｓ_１_１
  6
CONTINUOUS
 62
     2
100
AcDbLine
 10
1085.0
 20
1343.9999
 30
0.0
 11
1085.0
 21
1526.0
 31
0.0
  0
LINE
  5
2C0
330
2BB
100
AcDbEntity
  8
Ｓ_１_１
  6
CONTINUOUS
 62
     2
100
AcDbLine
 10
453.00000000001
 20
1520.0
 30
0.0
 11
1067.0
 21
1520.0
 31
0.0
  0
INSERT
  5
2C1
330
2BB
100
AcDbEntity
  8
Ｓ_１_１
 62
     2
100
AcDbBlockReference
  2
EX_NORM
 10
435.00000000001
 20
1520.0
 30
0.0
 41
18.0
 42
18.0
 43
18.0
 50
180.0
  0
INSERT
  5
2C2
330
2BB
100
AcDbEntity
  8
Ｓ_１_１
 62
     2
100
AcDbBlockReference
  2
EX_NORM
 10
1085.0
 20
1520.0
 30
0.0
 41
18.0
 42
18.0
 43
18.0
  0
MTEXT
  5
2C3
330
2BB
100
AcDbEntity
  8
Ｓ_１_１
 62
     2
100
AcDbMText
 10
760.000000000005
 20
1536.5
 30
0.0
 40
20.77742494226328
 41
0.0
 71
     5
 72
     1
  1
650
  7
EXCADDIM1
  0
POINT
  5
2C4
330
2BB
100
AcDbEntity
  8
DEFPOINTS
 62
     0
100
AcDbPoint
 10
435.00000000001
 20
1334.9999
 30
0.0
  0
POINT
  5
2C5
330
2BB
100
AcDbEntity
  8
DEFPOINTS
 62
     0
100
AcDbPoint
 10
1085.0
 20
1334.9999
 30
0.0
  0
POINT
  5
2C6
330
2BB
100
AcDbEntity
  8
DEFPOINTS
 62
     0
100
AcDbPoint
 10
1085.0
 20
1520.0
 30
0.0
  0
ENDBLK
  5
2BD
330
2BB
100
AcDbEntity
  8
0
100
AcDbBlockEnd
  0
BLOCK
  5
2C9
330
2C8
100
AcDbEntity
  8
0
100
AcDbBlockBegin
  2
*D28
 70
     1
 10
0.0
 20
0.0
 30
0.0
  3
*D28
  1

  0
LINE
  5
2CB
330
2C8
100
AcDbEntity
  8
Ｓ_１_１
  6
CONTINUOUS
 62
     2
100
AcDbLine
 10
540.000061078
 20
965.9999999998997
 30
0.0
 11
540.000061078
 21
834.0
 31
0.0
  0
LINE
  5
2CC
330
2C8
100
AcDbEntity
  8
Ｓ_１_１
  6
CONTINUOUS
 62
     2
100
AcDbLine
 10
650.000061078
 20
965.9999999998997
 30
0.0
 11
650.000061078
 21
834.0
 31
0.0
  0
LINE
  5
2CD
330
2C8
100
AcDbEntity
  8
Ｓ_１_１
  6
CONTINUOUS
 62
     2
100
AcDbLine
 10
558.000061078
 20
840.0
 30
0.0
 11
632.000061078
 21
840.0
 31
0.0
  0
INSERT
  5
2CE
330
2C8
100
AcDbEntity
  8
Ｓ_１_１
 62
     2
100
AcDbBlockReference
  2
EX_NORM
 10
540.000061078
 20
840.0
 30
0.0
 41
18.0
 42
18.0
 43
18.0
 50
180.0
  0
INSERT
  5
2CF
330
2C8
100
AcDbEntity
  8
Ｓ_１_１
 62
     2
100
AcDbBlockReference
  2
EX_NORM
 10
650.000061078
 20
840.0
 30
0.0
 41
18.0
 42
18.0
 43
18.0
  0
MTEXT
  5
2D0
330
2C8
100
AcDbEntity
  8
Ｓ_１_１
 62
     2
100
AcDbMText
 10
595.0000610780002
 20
856.5
 30
0.0
 40
20.77742494226328
 41
0.0
 71
     5
 72
     1
  1
110
  7
EXCADDIM1
  0
POINT
  5
2D1
330
2C8
100
AcDbEntity
  8
DEFPOINTS
 62
     0
100
AcDbPoint
 10
540.000061078
 20
974.9999999998997
 30
0.0
  0
POINT
  5
2D2
330
2C8
100
AcDbEntity
  8
DEFPOINTS
 62
     0
100
AcDbPoint
 10
650.000061078
 20
974.9999999998997
 30
0.0
  0
POINT
  5
2D3
330
2C8
100
AcDbEntity
  8
DEFPOINTS
 62
     0
100
AcDbPoint
 10
650.000061078
 20
840.0
 30
0.0
  0
ENDBLK
  5
2CA
330
2C8
100
AcDbEntity
  8
0
100
AcDbBlockEnd
  0
BLOCK
  5
2D6
330
2D5
100
AcDbEntity
  8
0
100
AcDbBlockBegin
  2
*D29
 70
     1
 10
0.0
 20
0.0
 30
0.0
  3
*D29
  1

  0
LINE
  5
2D8
330
2D5
100
AcDbEntity
  8
Ｓ_１_１
  6
CONTINUOUS
 62
     2
100
AcDbLine
 10
650.000061078
 20
965.9999999998997
 30
0.0
 11
650.000061078
 21
834.0
 31
0.0
  0
LINE
  5
2D9
330
2D5
100
AcDbEntity
  8
Ｓ_１_１
  6
CONTINUOUS
 62
     2
100
AcDbLine
 10
870.000061078
 20
965.9999999998997
 30
0.0
 11
870.000061078
 21
834.0
 31
0.0
  0
LINE
  5
2DA
330
2D5
100
AcDbEntity
  8
Ｓ_１_１
  6
CONTINUOUS
 62
     2
100
AcDbLine
 10
668.000061078
 20
840.0
 30
0.0
 11
852.000061078
 21
840.0
 31
0.0
  0
INSERT
  5
2DB
330
2D5
100
AcDbEntity
  8
Ｓ_１_１
 62
     2
100
AcDbBlockReference
  2
EX_NORM
 10
650.000061078
 20
840.0
 30
0.0
 41
18.0
 42
18.0
 43
18.0
 50
180.0
  0
INSERT
  5
2DC
330
2D5
100
AcDbEntity
  8
Ｓ_１_１
 62
     2
100
AcDbBlockReference
  2
EX_NORM
 10
870.000061078
 20
840.0
 30
0.0
 41
18.0
 42
18.0
 43
18.0
  0
MTEXT
  5
2DD
330
2D5
100
AcDbEntity
  8
Ｓ_１_１
 62
     2
100
AcDbMText
 10
760.0000610780002
 20
856.5
 30
0.0
 40
20.77742494226328
 41
0.0
 71
     5
 72
     1
  1
220
  7
EXCADDIM1
  0
POINT
  5
2DE
330
2D5
100
AcDbEntity
  8
DEFPOINTS
 62
     0
100
AcDbPoint
 10
650.000061078
 20
974.9999999998997
 30
0.0
  0
POINT
  5
2DF
330
2D5
100
AcDbEntity
  8
DEFPOINTS
 62
     0
100
AcDbPoint
 10
870.000061078
 20
974.9999999998997
 30
0.0
  0
POINT
  5
2E0
330
2D5
100
AcDbEntity
  8
DEFPOINTS
 62
     0
100
AcDbPoint
 10
870.000061078
 20
840.0
 30
0.0
  0
ENDBLK
  5
2D7
330
2D5
100
AcDbEntity
  8
0
100
AcDbBlockEnd
  0
BLOCK
  5
2E3
330
2E2
100
AcDbEntity
  8
0
100
AcDbBlockBegin
  2
*D30
 70
     1
 10
0.0
 20
0.0
 30
0.0
  3
*D30
  1

  0
LINE
  5
2E5
330
2E2
100
AcDbEntity
  8
Ｓ_１_１
  6
CONTINUOUS
 62
     2
100
AcDbLine
 10
870.000061078
 20
965.9999999998997
 30
0.0
 11
870.000061078
 21
834.0
 31
0.0
  0
LINE
  5
2E6
330
2E2
100
AcDbEntity
  8
Ｓ_１_１
  6
CONTINUOUS
 62
     2
100
AcDbLine
 10
980.0000610779999
 20
965.9999999998997
 30
0.0
 11
980.0000610779999
 21
834.0
 31
0.0
  0
LINE
  5
2E7
330
2E2
100
AcDbEntity
  8
Ｓ_１_１
  6
CONTINUOUS
 62
     2
100
AcDbLine
 10
888.000061078
 20
840.0
 30
0.0
 11
962.0000610779999
 21
840.0
 31
0.0
  0
INSERT
  5
2E8
330
2E2
100
AcDbEntity
  8
Ｓ_１_１
 62
     2
100
AcDbBlockReference
  2
EX_NORM
 10
870.000061078
 20
840.0
 30
0.0
 41
18.0
 42
18.0
 43
18.0
 50
180.0
  0
INSERT
  5
2E9
330
2E2
100
AcDbEntity
  8
Ｓ_１_１
 62
     2
100
AcDbBlockReference
  2
EX_NORM
 10
980.0000610779999
 20
840.0
 30
0.0
 41
18.0
 42
18.0
 43
18.0
  0
MTEXT
  5
2EA
330
2E2
100
AcDbEntity
  8
Ｓ_１_１
 62
     2
100
AcDbMText
 10
925.000061078
 20
856.5
 30
0.0
 40
20.77742494226328
 41
0.0
 71
     5
 72
     1
  1
110
  7
EXCADDIM1
  0
POINT
  5
2EB
330
2E2
100
AcDbEntity
  8
DEFPOINTS
 62
     0
100
AcDbPoint
 10
870.000061078
 20
974.9999999998997
 30
0.0
  0
POINT
  5
2EC
330
2E2
100
AcDbEntity
  8
DEFPOINTS
 62
     0
100
AcDbPoint
 10
980.0000610779999
 20
974.9999999998997
 30
0.0
  0
POINT
  5
2ED
330
2E2
100
AcDbEntity
  8
DEFPOINTS
 62
     0
100
AcDbPoint
 10
980.0000610779999
 20
840.0
 30
0.0
  0
ENDBLK
  5
2E4
330
2E2
100
AcDbEntity
  8
0
100
AcDbBlockEnd
  0
BLOCK
  5
2F0
330
2EF
100
AcDbEntity
  8
0
100
AcDbBlockBegin
  2
*D31
 70
     1
 10
0.0
 20
0.0
 30
0.0
  3
*D31
  1

  0
LINE
  5
2F2
330
2EF
100
AcDbEntity
  8
Ｓ_１_１
  6
CONTINUOUS
 62
     2
100
AcDbLine
 10
1406.0
 20
1325.0
 30
0.0
 11
1274.0
 21
1325.0
 31
0.0
  0
LINE
  5
2F3
330
2EF
100
AcDbEntity
  8
Ｓ_１_１
  6
CONTINUOUS
 62
     2
100
AcDbLine
 10
1406.0
 20
994.9999999999999
 30
0.0
 11
1274.0
 21
994.9999999999999
 31
0.0
  0
LINE
  5
2F4
330
2EF
100
AcDbEntity
  8
Ｓ_１_１
  6
CONTINUOUS
 62
     2
100
AcDbLine
 10
1280.0
 20
1307.0
 30
0.0
 11
1280.0
 21
1013.0
 31
0.0
  0
INSERT
  5
2F5
330
2EF
100
AcDbEntity
  8
Ｓ_１_１
 62
     2
100
AcDbBlockReference
  2
EX_NORM
 10
1280.0
 20
1325.0
 30
0.0
 41
18.0
 42
18.0
 43
18.0
 50
90.0
  0
INSERT
  5
2F6
330
2EF
100
AcDbEntity
  8
Ｓ_１_１
 62
     2
100
AcDbBlockReference
  2
EX_NORM
 10
1280.0
 20
994.9999999999999
 30
0.0
 41
18.0
 42
18.0
 43
18.0
 50
270.0
  0
MTEXT
  5
2F7
330
2EF
100
AcDbEntity
  8
Ｓ_１_１
 62
     2
100
AcDbMText
 10
1263.5
 20
1160.0
 30
0.0
 40
20.77742494226328
 41
0.0
 71
     5
 72
     1
  1
330
  7
EXCADDIM1
 11
0.0
 21
1.0
 31
0.0
  0
POINT
  5
2F8
330
2EF
100
AcDbEntity
  8
DEFPOINTS
 62
     0
100
AcDbPoint
 10
1415.0
 20
1325.0
 30
0.0
  0
POINT
  5
2F9
330
2EF
100
AcDbEntity
  8
DEFPOINTS
 62
     0
100
AcDbPoint
 10
1415.0
 20
994.9999999999999
 30
0.0
  0
POINT
  5
2FA
330
2EF
100
AcDbEntity
  8
DEFPOINTS
 62
     0
100
AcDbPoint
 10
1280.0
 20
994.9999999999999
 30
0.0
  0
ENDBLK
  5
2F1
330
2EF
100
AcDbEntity
  8
0
100
AcDbBlockEnd
  0
BLOCK
  5
2FD
330
2FC
100
AcDbEntity
  8
0
100
AcDbBlockBegin
  2
*D32
 70
     1
 10
0.0
 20
0.0
 30
0.0
  3
*D32
  1

  0
LINE
  5
2FF
330
2FC
100
AcDbEntity
  8
Ｓ_１_１
  6
CONTINUOUS
 62
     2
100
AcDbLine
 10
1371.0
 20
1360.0
 30
0.0
 11
1234.0
 21
1360.0
 31
0.0
  0
LINE
  5
300
330
2FC
100
AcDbEntity
  8
Ｓ_１_１
  6
CONTINUOUS
 62
     2
100
AcDbLine
 10
1371.0
 20
960.0
 30
0.0
 11
1234.0
 21
960.0
 31
0.0
  0
LINE
  5
301
330
2FC
100
AcDbEntity
  8
Ｓ_１_１
  6
CONTINUOUS
 62
     2
100
AcDbLine
 10
1240.0
 20
1342.0
 30
0.0
 11
1240.0
 21
978.0
 31
0.0
  0
INSERT
  5
302
330
2FC
100
AcDbEntity
  8
Ｓ_１_１
 62
     2
100
AcDbBlockReference
  2
EX_NORM
 10
1240.0
 20
1360.0
 30
0.0
 41
18.0
 42
18.0
 43
18.0
 50
90.0
  0
INSERT
  5
303
330
2FC
100
AcDbEntity
  8
Ｓ_１_１
 62
     2
100
AcDbBlockReference
  2
EX_NORM
 10
1240.0
 20
960.0
 30
0.0
 41
18.0
 42
18.0
 43
18.0
 50
270.0
  0
MTEXT
  5
304
330
2FC
100
AcDbEntity
  8
Ｓ_１_１
 62
     2
100
AcDbMText
 10
1223.5
 20
1160.0
 30
0.0
 40
20.77742494226328
 41
0.0
 71
     5
 72
     1
  1
400
  7
EXCADDIM1
 11
0.0
 21
1.0
 31
0.0
  0
POINT
  5
305
330
2FC
100
AcDbEntity
  8
DEFPOINTS
 62
     0
100
AcDbPoint
 10
1380.0
 20
1360.0
 30
0.0
  0
POINT
  5
306
330
2FC
100
AcDbEntity
  8
DEFPOINTS
 62
     0
100
AcDbPoint
 10
1380.0
 20
960.0
 30
0.0
  0
POINT
  5
307
330
2FC
100
AcDbEntity
  8
DEFPOINTS
 62
     0
100
AcDbPoint
 10
1240.0
 20
960.0
 30
0.0
  0
ENDBLK
  5
2FE
330
2FC
100
AcDbEntity
  8
0
100
AcDbBlockEnd
  0
BLOCK
  5
30A
330
309
100
AcDbEntity
  8
0
100
AcDbBlockBegin
  2
*D33
 70
     1
 10
0.0
 20
0.0
 30
0.0
  3
*D33
  1

  0
LINE
  5
30C
330
309
100
AcDbEntity
  8
Ｓ_１_１
  6
CONTINUOUS
 62
     2
100
AcDbLine
 10
1371.0
 20
1395.0
 30
0.0
 11
1194.0
 21
1395.0
 31
0.0
  0
LINE
  5
30D
330
309
100
AcDbEntity
  8
Ｓ_１_１
  6
CONTINUOUS
 62
     2
100
AcDbLine
 10
1371.0
 20
924.9999999999998
 30
0.0
 11
1194.0
 21
924.9999999999998
 31
0.0
  0
LINE
  5
30E
330
309
100
AcDbEntity
  8
Ｓ_１_１
  6
CONTINUOUS
 62
     2
100
AcDbLine
 10
1200.0
 20
1377.0
 30
0.0
 11
1200.0
 21
942.9999999999998
 31
0.0
  0
INSERT
  5
30F
330
309
100
AcDbEntity
  8
Ｓ_１_１
 62
     2
100
AcDbBlockReference
  2
EX_NORM
 10
1200.0
 20
1395.0
 30
0.0
 41
18.0
 42
18.0
 43
18.0
 50
90.0
  0
INSERT
  5
310
330
309
100
AcDbEntity
  8
Ｓ_１_１
 62
     2
100
AcDbBlockReference
  2
EX_NORM
 10
1200.0
 20
924.9999999999998
 30
0.0
 41
18.0
 42
18.0
 43
18.0
 50
270.0
  0
MTEXT
  5
311
330
309
100
AcDbEntity
  8
Ｓ_１_１
 62
     2
100
AcDbMText
 10
1183.5
 20
1160.0
 30
0.0
 40
20.77742494226328
 41
0.0
 71
     5
 72
     1
  1
470
  7
EXCADDIM1
 11
0.0
 21
1.0
 31
0.0
  0
POINT
  5
312
330
309
100
AcDbEntity
  8
DEFPOINTS
 62
     0
100
AcDbPoint
 10
1380.0
 20
1395.0
 30
0.0
  0
POINT
  5
313
330
309
100
AcDbEntity
  8
DEFPOINTS
 62
     0
100
AcDbPoint
 10
1380.0
 20
924.9999999999998
 30
0.0
  0
POINT
  5
314
330
309
100
AcDbEntity
  8
DEFPOINTS
 62
     0
100
AcDbPoint
 10
1200.0
 20
924.9999999999998
 30
0.0
  0
ENDBLK
  5
30B
330
309
100
AcDbEntity
  8
0
100
AcDbBlockEnd
  0
BLOCK
  5
317
330
316
100
AcDbEntity
  8
0
100
AcDbBlockBegin
  2
*D34
 70
     1
 10
0.0
 20
0.0
 30
0.0
  3
*D34
  1

  0
LINE
  5
319
330
316
100
AcDbEntity
  8
Ｓ_１_１
  6
CONTINUOUS
 62
     2
100
AcDbLine
 10
1435.0
 20
1354.0
 30
0.0
 11
1435.0
 21
1486.0
 31
0.0
  0
LINE
  5
31A
330
316
100
AcDbEntity
  8
Ｓ_１_１
  6
CONTINUOUS
 62
     2
100
AcDbLine
 10
1765.0
 20
1354.0
 30
0.0
 11
1765.0
 21
1486.0
 31
0.0
  0
LINE
  5
31B
330
316
100
AcDbEntity
  8
Ｓ_１_１
  6
CONTINUOUS
 62
     2
100
AcDbLine
 10
1453.0
 20
1480.0
 30
0.0
 11
1747.0
 21
1480.0
 31
0.0
  0
INSERT
  5
31C
330
316
100
AcDbEntity
  8
Ｓ_１_１
 62
     2
100
AcDbBlockReference
  2
EX_NORM
 10
1435.0
 20
1480.0
 30
0.0
 41
18.0
 42
18.0
 43
18.0
 50
180.0
  0
INSERT
  5
31D
330
316
100
AcDbEntity
  8
Ｓ_１_１
 62
     2
100
AcDbBlockReference
  2
EX_NORM
 10
1765.0
 20
1480.0
 30
0.0
 41
18.0
 42
18.0
 43
18.0
  0
MTEXT
  5
31E
330
316
100
AcDbEntity
  8
Ｓ_１_１
 62
     2
100
AcDbMText
 10
1600.0
 20
1496.5
 30
0.0
 40
20.77742494226328
 41
0.0
 71
     5
 72
     1
  1
330
  7
EXCADDIM1
  0
POINT
  5
31F
330
316
100
AcDbEntity
  8
DEFPOINTS
 62
     0
100
AcDbPoint
 10
1435.0
 20
1345.0
 30
0.0
  0
POINT
  5
320
330
316
100
AcDbEntity
  8
DEFPOINTS
 62
     0
100
AcDbPoint
 10
1765.0
 20
1345.0
 30
0.0
  0
POINT
  5
321
330
316
100
AcDbEntity
  8
DEFPOINTS
 62
     0
100
AcDbPoint
 10
1765.0
 20
1480.0
 30
0.0
  0
ENDBLK
  5
318
330
316
100
AcDbEntity
  8
0
100
AcDbBlockEnd
  0
BLOCK
  5
324
330
323
100
AcDbEntity
  8
0
100
AcDbBlockBegin
  2
*D35
 70
     1
 10
0.0
 20
0.0
 30
0.0
  3
*D35
  1

  0
LINE
  5
326
330
323
100
AcDbEntity
  8
Ｓ_１_１
  6
CONTINUOUS
 62
     2
100
AcDbLine
 10
1400.0
 20
1389.0
 30
0.0
 11
1400.0
 21
1526.0
 31
0.0
  0
LINE
  5
327
330
323
100
AcDbEntity
  8
Ｓ_１_１
  6
CONTINUOUS
 62
     2
100
AcDbLine
 10
1800.0
 20
1389.0
 30
0.0
 11
1800.0
 21
1526.0
 31
0.0
  0
LINE
  5
328
330
323
100
AcDbEntity
  8
Ｓ_１_１
  6
CONTINUOUS
 62
     2
100
AcDbLine
 10
1418.0
 20
1520.0
 30
0.0
 11
1782.0
 21
1520.0
 31
0.0
  0
INSERT
  5
329
330
323
100
AcDbEntity
  8
Ｓ_１_１
 62
     2
100
AcDbBlockReference
  2
EX_NORM
 10
1400.0
 20
1520.0
 30
0.0
 41
18.0
 42
18.0
 43
18.0
 50
180.0
  0
INSERT
  5
32A
330
323
100
AcDbEntity
  8
Ｓ_１_１
 62
     2
100
AcDbBlockReference
  2
EX_NORM
 10
1800.0
 20
1520.0
 30
0.0
 41
18.0
 42
18.0
 43
18.0
  0
MTEXT
  5
32B
330
323
100
AcDbEntity
  8
Ｓ_１_１
 62
     2
100
AcDbMText
 10
1600.0
 20
1536.5
 30
0.0
 40
20.77742494226328
 41
0.0
 71
     5
 72
     1
  1
400
  7
EXCADDIM1
  0
POINT
  5
32C
330
323
100
AcDbEntity
  8
DEFPOINTS
 62
     0
100
AcDbPoint
 10
1400.0
 20
1380.0
 30
0.0
  0
POINT
  5
32D
330
323
100
AcDbEntity
  8
DEFPOINTS
 62
     0
100
AcDbPoint
 10
1800.0
 20
1380.0
 30
0.0
  0
POINT
  5
32E
330
323
100
AcDbEntity
  8
DEFPOINTS
 62
     0
100
AcDbPoint
 10
1800.0
 20
1520.0
 30
0.0
  0
ENDBLK
  5
325
330
323
100
AcDbEntity
  8
0
100
AcDbBlockEnd
  0
BLOCK
  5
331
330
330
100
AcDbEntity
  8
0
100
AcDbBlockBegin
  2
*D36
 70
     1
 10
0.0
 20
0.0
 30
0.0
  3
*D36
  1

  0
LINE
  5
333
330
330
100
AcDbEntity
  8
Ｓ_１_１
  6
CONTINUOUS
 62
     2
100
AcDbLine
 10
1365.0
 20
1389.0
 30
0.0
 11
1365.0
 21
1566.0
 31
0.0
  0
LINE
  5
334
330
330
100
AcDbEntity
  8
Ｓ_１_１
  6
CONTINUOUS
 62
     2
100
AcDbLine
 10
1835.0
 20
1389.0
 30
0.0
 11
1835.0
 21
1566.0
 31
0.0
  0
LINE
  5
335
330
330
100
AcDbEntity
  8
Ｓ_１_１
  6
CONTINUOUS
 62
     2
100
AcDbLine
 10
1383.0
 20
1560.0
 30
0.0
 11
1817.0
 21
1560.0
 31
0.0
  0
INSERT
  5
336
330
330
100
AcDbEntity
  8
Ｓ_１_１
 62
     2
100
AcDbBlockReference
  2
EX_NORM
 10
1365.0
 20
1560.0
 30
0.0
 41
18.0
 42
18.0
 43
18.0
 50
180.0
  0
INSERT
  5
337
330
330
100
AcDbEntity
  8
Ｓ_１_１
 62
     2
100
AcDbBlockReference
  2
EX_NORM
 10
1835.0
 20
1560.0
 30
0.0
 41
18.0
 42
18.0
 43
18.0
  0
MTEXT
  5
338
330
330
100
AcDbEntity
  8
Ｓ_１_１
 62
     2
100
AcDbMText
 10
1600.0
 20
1576.5
 30
0.0
 40
20.77742494226328
 41
0.0
 71
     5
 72
     1
  1
470
  7
EXCADDIM1
  0
POINT
  5
339
330
330
100
AcDbEntity
  8
DEFPOINTS
 62
     0
100
AcDbPoint
 10
1365.0
 20
1380.0
 30
0.0
  0
POINT
  5
33A
330
330
100
AcDbEntity
  8
DEFPOINTS
 62
     0
100
AcDbPoint
 10
1835.0
 20
1380.0
 30
0.0
  0
POINT
  5
33B
330
330
100
AcDbEntity
  8
DEFPOINTS
 62
     0
100
AcDbPoint
 10
1835.0
 20
1560.0
 30
0.0
  0
ENDBLK
  5
332
330
330
100
AcDbEntity
  8
0
100
AcDbBlockEnd
  0
BLOCK
  5
33E
330
33D
100
AcDbEntity
  8
0
100
AcDbBlockBegin
  2
*D37
 70
     1
 10
0.0
 20
0.0
 30
0.0
  3
*D37
  1

  0
LINE
  5
340
330
33D
100
AcDbEntity
  8
Ｓ_１_１
  6
CONTINUOUS
 62
     2
100
AcDbLine
 10
1345.944207152218
 20
369.0000000000197
 30
0.0
 11
1345.944207152218
 21
486.0
 31
0.0
  0
LINE
  5
341
330
33D
100
AcDbEntity
  8
Ｓ_１_１
  6
CONTINUOUS
 62
     2
100
AcDbLine
 10
1854.050753558983
 20
369.0000000000197
 30
0.0
 11
1854.050753558983
 21
486.0
 31
0.0
  0
LINE
  5
342
330
33D
100
AcDbEntity
  8
Ｓ_１_１
  6
CONTINUOUS
 62
     2
100
AcDbLine
 10
1363.944207152218
 20
480.0
 30
0.0
 11
1836.050753558983
 21
480.0
 31
0.0
  0
INSERT
  5
343
330
33D
100
AcDbEntity
  8
Ｓ_１_１
 62
     2
100
AcDbBlockReference
  2
EX_NORM
 10
1345.944207152218
 20
480.0
 30
0.0
 41
18.0
 42
18.0
 43
18.0
 50
180.0
  0
INSERT
  5
344
330
33D
100
AcDbEntity
  8
Ｓ_１_１
 62
     2
100
AcDbBlockReference
  2
EX_NORM
 10
1854.050753558983
 20
480.0
 30
0.0
 41
18.0
 42
18.0
 43
18.0
  0
MTEXT
  5
345
330
33D
100
AcDbEntity
  8
Ｓ_１_１
 62
     2
100
AcDbMText
 10
1905.800753558983
 20
496.5
 30
0.0
 40
20.77742494226328
 41
0.0
 71
     5
 72
     1
  1
(508)
  7
EXCADDIM1
  0
POINT
  5
346
330
33D
100
AcDbEntity
  8
DEFPOINTS
 62
     0
100
AcDbPoint
 10
1345.944207152218
 20
360.0000000000197
 30
0.0
  0
POINT
  5
347
330
33D
100
AcDbEntity
  8
DEFPOINTS
 62
     0
100
AcDbPoint
 10
1854.050753558983
 20
360.0000000000197
 30
0.0
  0
POINT
  5
348
330
33D
100
AcDbEntity
  8
DEFPOINTS
 62
     0
100
AcDbPoint
 10
1854.050753558983
 20
480.0
 30
0.0
  0
ENDBLK
  5
33F
330
33D
100
AcDbEntity
  8
0
100
AcDbBlockEnd
  0
ENDSEC
  0
SECTION
  2
ENTITIES
  0
LINE
  5
DA
330
1F
100
AcDbEntity
  8
図面枠
  6
CONTINUOUS
 62
     5
100
AcDbLine
 10
60.0
 20
60.0
 30
0.0
 11
2460.0
 21
60.0
 31
0.0
  0
LINE
  5
DB
330
1F
100
AcDbEntity
  8
図面枠
  6
CONTINUOUS
 62
     5
100
AcDbLine
 10
2460.0
 20
60.0
 30
0.0
 11
2460.0
 21
1722.0
 31
0.0
  0
LINE
  5
DC
330
1F
100
AcDbEntity
  8
図面枠
  6
CONTINUOUS
 62
     5
100
AcDbLine
 10
2460.0
 20
1722.0
 30
0.0
 11
60.00000000000031
 21
1722.0
 31
0.0
  0
LINE
  5
DD
330
1F
100
AcDbEntity
  8
図面枠
  6
CONTINUOUS
 62
     5
100
AcDbLine
 10
60.00000000000031
 20
1722.0
 30
0.0
 11
60.0
 21
60.0
 31
0.0
  0
LINE
  5
DE
330
1F
100
AcDbEntity
  8
図面枠
  6
CONTINUOUS
 62
     3
100
AcDbLine
 10
2430.0
 20
144.0
 30
0.0
 11
2430.0
 21
90.0
 31
0.0
  0
LINE
  5
DF
330
1F
100
AcDbEntity
  8
図面枠
  6
CONTINUOUS
 62
     3
100
AcDbLine
 10
90.00000000000009
 20
1692.0
 30
0.0
 11
90.00000000000009
 21
1638.0
 31
0.0
  0
TEXT
  5
E1
330
1F
100
AcDbEntity
  8
図面枠
  6
CONTINUOUS
 62
     4
100
AcDbText
 10
2322.0
 20
1628.296875
 30
0.0
 40
20.77742494226328
  1
kN
 41
0.999230769230769
  7
EXCADTTF1
 72
     5
 11
2349.0
 21
1628.296875
 31
0.0
100
AcDbText
  0
TEXT
  5
E2
330
1F
100
AcDbEntity
  8
図面枠
  6
CONTINUOUS
 62
     4
100
AcDbText
 10
1962.0
 20
1628.296875
 30
0.0
 40
20.77742494226328
  1
能力
 41
0.999230769230769
  7
EXCADTTF1
 72
     5
 11
2016.0
 21
1628.296875
 31
0.0
100
AcDbText
  0
TEXT
  5
E3
330
1F
100
AcDbEntity
  8
図面枠
  6
CONTINUOUS
 62
     4
100
AcDbText
 10
2122.5
 20
1664.296875
 30
0.0
 40
20.77742494226328
  1
仕　　　様
 41
0.9992307692307689
  7
EXCADTTF1
 72
     5
 11
2257.5
 21
1664.296875
 31
0.0
100
AcDbText
  0
LINE
  5
E4
330
1F
100
AcDbEntity
  8
図面枠
  6
CONTINUOUS
 62
     3
100
AcDbLine
 10
1950.0
 20
1692.0
 30
0.0
 11
2430.0
 21
1692.0
 31
0.0
  0
LINE
  5
E5
330
1F
100
AcDbEntity
  8
図面枠
  6
CONTINUOUS
 62
     3
100
AcDbLine
 10
1950.0
 20
1656.0
 30
0.0
 11
2430.0
 21
1656.0
 31
0.0
  0
TEXT
  5
E6
330
1F
100
AcDbEntity
  8
図面枠
  6
CONTINUOUS
 62
     4
100
AcDbText
 10
2322.0
 20
1592.296875
 30
0.0
 40
20.77742494226328
  1
mm
 41
0.999230769230769
  7
EXCADTTF1
 72
     5
 11
2349.0
 21
1592.296875
 31
0.0
100
AcDbText
  0
TEXT
  5
E7
330
1F
100
AcDbEntity
  8
図面枠
  6
CONTINUOUS
 62
     4
100
AcDbText
 10
2322.0
 20
1556.296875
 30
0.0
 40
20.77742494226328
  1
mm
 41
0.999230769230769
  7
EXCADTTF1
 72
     5
 11
2349.0
 21
1556.296875
 31
0.0
100
AcDbText
  0
TEXT
  5
E8
330
1F
100
AcDbEntity
  8
図面枠
  6
CONTINUOUS
 62
     4
100
AcDbText
 10
2322.0
 20
1520.296875
 30
0.0
 40
20.77742494226328
  1
mm
 41
0.999230769230769
  7
EXCADTTF1
 72
     5
 11
2349.0
 21
1520.296875
 31
0.0
100
AcDbText
  0
TEXT
  5
E9
330
1F
100
AcDbEntity
  8
図面枠
  6
CONTINUOUS
 62
     4
100
AcDbText
 10
1962.0
 20
1592.296875
 30
0.0
 40
20.77742494226328
  1
ストローク
 41
0.9992307692307689
  7
EXCADTTF1
 72
     5
 11
2097.0
 21
1592.296875
 31
0.0
100
AcDbText
  0
TEXT
  5
EA
330
1F
100
AcDbEntity
  8
図面枠
  6
CONTINUOUS
 62
     4
100
AcDbText
 10
1962.0
 20
1556.296875
 30
0.0
 40
20.77742494226328
  1
最低機械高
 41
0.9992307692307689
  7
EXCADTTF1
 72
     5
 11
2097.0
 21
1556.296875
 31
0.0
100
AcDbText
  0
TEXT
  5
EB
330
1F
100
AcDbEntity
  8
図面枠
  6
CONTINUOUS
 62
     4
100
AcDbText
 10
1962.0
 20
1520.296875
 30
0.0
 40
20.77742494226328
  1
シリンダー外径
 41
0.9992307692307688
  7
EXCADTTF1
 72
     5
 11
2151.0
 21
1520.296875
 31
0.0
100
AcDbText
  0
LINE
  5
EC
330
1F
100
AcDbEntity
  8
図面枠
  6
CONTINUOUS
 62
     2
100
AcDbLine
 10
1950.0
 20
1620.0
 30
0.0
 11
2430.0
 21
1620.0
 31
0.0
  0
LINE
  5
ED
330
1F
100
AcDbEntity
  8
図面枠
  6
CONTINUOUS
 62
     2
100
AcDbLine
 10
1950.0
 20
1584.0
 30
0.0
 11
2430.0
 21
1584.0
 31
0.0
  0
LINE
  5
EE
330
1F
100
AcDbEntity
  8
図面枠
  6
CONTINUOUS
 62
     2
100
AcDbLine
 10
1950.0
 20
1548.0
 30
0.0
 11
2430.0
 21
1548.0
 31
0.0
  0
LINE
  5
EF
330
1F
100
AcDbEntity
  8
図面枠
  6
CONTINUOUS
 62
     2
100
AcDbLine
 10
1950.0
 20
1512.0
 30
0.0
 11
2430.0
 21
1512.0
 31
0.0
  0
TEXT
  5
F0
330
1F
100
AcDbEntity
  8
図面枠
  6
CONTINUOUS
 62
     4
100
AcDbText
 10
2322.0
 20
1484.296875
 30
0.0
 40
20.77742494226328
  1
cm
 41
0.999230769230769
  7
EXCADTTF1
 72
     5
 11
2349.0
 21
1484.296875
 31
0.0
100
AcDbText
  0
TEXT
  5
F1
330
1F
100
AcDbEntity
  8
図面枠
  6
CONTINUOUS
 62
     4
100
AcDbText
 10
2340.900000000001
 20
1497.05859388411
 30
0.0
 40
9.349840196579397
  1
2
 41
0.9992308790346205
  7
EXCADTTF1
 72
     5
 11
2346.975
 21
1497.05859388411
 31
0.0
100
AcDbText
  0
TEXT
  5
F2
330
1F
100
AcDbEntity
  8
図面枠
  6
CONTINUOUS
 62
     4
100
AcDbText
 10
2244.0
 20
1628.296875
 30
0.0
 40
20.77742494226328
  1
2000
 41
0.999230769230769
  7
EXCADTTF1
 72
     5
 11
2298.0
 21
1628.296875
 31
0.0
100
AcDbText
  0
TEXT
  5
F3
330
1F
100
AcDbEntity
  8
図面枠
  6
CONTINUOUS
 62
     4
100
AcDbText
 10
2257.5
 20
1592.296875
 30
0.0
 40
20.77742494226328
  1
115
 41
0.999230769230769
  7
EXCADTTF1
 72
     5
 11
2298.0
 21
1592.296875
 31
0.0
100
AcDbText
  0
TEXT
  5
F4
330
1F
100
AcDbEntity
  8
図面枠
  6
CONTINUOUS
 62
     4
100
AcDbText
 10
2257.5
 20
1520.296875
 30
0.0
 40
20.77742494226328
  1
258
 41
0.999230769230769
  7
EXCADTTF1
 72
     5
 11
2298.0
 21
1520.296875
 31
0.0
100
AcDbText
  0
LINE
  5
F5
330
1F
100
AcDbEntity
  8
図面枠
  6
CONTINUOUS
 62
     3
100
AcDbLine
 10
1164.0
 20
1692.0
 30
0.0
 11
1164.0
 21
1638.0
 31
0.0
  0
LINE
  5
F6
330
1F
100
AcDbEntity
  8
図面枠
  6
CONTINUOUS
 62
     3
100
AcDbLine
 10
90.00000000000009
 20
1692.0
 30
0.0
 11
1164.0
 21
1692.0
 31
0.0
  0
LINE
  5
F7
330
1F
100
AcDbEntity
  8
図面枠
  6
CONTINUOUS
 62
     3
100
AcDbLine
 10
90.00000000000009
 20
1638.0
 30
0.0
 11
1164.0
 21
1638.0
 31
0.0
  0
LINE
  5
F8
330
1F
100
AcDbEntity
  8
図面枠
  6
CONTINUOUS
 62
     3
100
AcDbLine
 10
2178.0
 20
144.0
 30
0.0
 11
2178.0
 21
90.0
 31
0.0
  0
LINE
  5
F9
330
1F
100
AcDbEntity
  8
図面枠
  6
CONTINUOUS
 62
     3
100
AcDbLine
 10
2178.0
 20
144.0
 30
0.0
 11
2430.0
 21
144.0
 31
0.0
  0
LINE
  5
FA
330
1F
100
AcDbEntity
  8
図面枠
  6
CONTINUOUS
 62
     3
100
AcDbLine
 10
2178.0
 20
90.0
 30
0.0
 11
2430.0
 21
90.0
 31
0.0
  0
TEXT
  5
FB
330
1F
100
AcDbEntity
  8
図面枠
  6
CONTINUOUS
 62
     4
100
AcDbText
 10
2257.5
 20
1556.296875
 30
0.0
 40
20.77742494226328
  1
540
 41
0.999230769230769
  7
EXCADTTF1
 72
     5
 11
2298.0
 21
1556.296875
 31
0.0
100
AcDbText
  0
TEXT
  5
FC
330
1F
100
AcDbEntity
  8
図面枠
  6
CONTINUOUS
 62
     4
100
AcDbText
 10
114.0
 20
1652.0625
 30
0.0
 40
27.70323325635104
  1
2000kN115ストローク仮受け用油圧ジャッキ　球面回転ヘッド型
 41
0.9992307692307698
  7
EXCADTTF1
 72
     5
 11
1140.0
 21
1652.0625
 31
0.0
100
AcDbText
  0
TEXT
  5
FD
330
1F
100
AcDbEntity
  8
図面枠
  6
CONTINUOUS
 62
     4
100
AcDbText
 10
2196.0
 20
104.0625
 30
0.0
 40
27.70323325635104
  1
RJ-20011.5-B
 41
0.9992307692307693
  7
EXCADTTF1
 72
     5
 11
2412.0
 21
104.0625
 31
0.0
100
AcDbText
  0
TEXT
  5
FE
330
1F
100
AcDbEntity
  8
図面枠
  6
CONTINUOUS
 62
     4
100
AcDbText
 10
2322.0
 20
1448.296875
 30
0.0
 40
20.77742494226328
  1
MPa
 41
0.999230769230769
  7
EXCADTTF1
 72
     5
 11
2362.5
 21
1448.296875
 31
0.0
100
AcDbText
  0
TEXT
  5
FF
330
1F
100
AcDbEntity
  8
図面枠
  6
CONTINUOUS
 62
     4
100
AcDbText
 10
1962.0
 20
1484.296875
 30
0.0
 40
20.77742494226328
  1
受圧面積
 41
0.999230769230769
  7
EXCADTTF1
 72
     5
 11
2070.0
 21
1484.296875
 31
0.0
100
AcDbText
  0
TEXT
  5
100
330
1F
100
AcDbEntity
  8
図面枠
  6
CONTINUOUS
 62
     4
100
AcDbText
 10
1962.0
 20
1448.296875
 30
0.0
 40
20.77742494226328
  1
最高使用圧力
 41
0.9992307692307689
  7
EXCADTTF1
 72
     5
 11
2124.0
 21
1448.296875
 31
0.0
100
AcDbText
  0
LINE
  5
101
330
1F
100
AcDbEntity
  8
図面枠
  6
CONTINUOUS
 62
     2
100
AcDbLine
 10
1950.0
 20
1476.0
 30
0.0
 11
2430.0
 21
1476.0
 31
0.0
  0
TEXT
  5
102
330
1F
100
AcDbEntity
  8
図面枠
  6
CONTINUOUS
 62
     4
100
AcDbText
 10
2244.0
 20
1448.296875
 30
0.0
 40
20.77742494226328
  1
60.6
 41
0.999230769230769
  7
EXCADTTF1
 72
     5
 11
2298.0
 21
1448.296875
 31
0.0
100
AcDbText
  0
TEXT
  5
103
330
1F
100
AcDbEntity
  8
図面枠
  6
CONTINUOUS
 62
     4
100
AcDbText
 10
2322.0
 20
1376.296875
 30
0.0
 40
20.77742494226328
  1
kg
 41
0.999230769230769
  7
EXCADTTF1
 72
     5
 11
2349.0
 21
1376.296875
 31
0.0
100
AcDbText
  0
TEXT
  5
104
330
1F
100
AcDbEntity
  8
図面枠
  6
CONTINUOUS
 62
     4
100
AcDbText
 10
1962.0
 20
1412.296875
 30
0.0
 40
20.77742494226328
  1
所要油量
 41
0.999230769230769
  7
EXCADTTF1
 72
     5
 11
2070.0
 21
1412.296875
 31
0.0
100
AcDbText
  0
LINE
  5
105
330
1F
100
AcDbEntity
  8
図面枠
  6
CONTINUOUS
 62
     2
100
AcDbLine
 10
1950.0
 20
1440.0
 30
0.0
 11
2430.0
 21
1440.0
 31
0.0
  0
LINE
  5
106
330
1F
100
AcDbEntity
  8
図面枠
  6
CONTINUOUS
 62
     2
100
AcDbLine
 10
1950.0
 20
1404.0
 30
0.0
 11
2430.0
 21
1404.0
 31
0.0
  0
TEXT
  5
107
330
1F
100
AcDbEntity
  8
図面枠
  6
CONTINUOUS
 62
     4
100
AcDbText
 10
1962.0
 20
1376.296875
 30
0.0
 40
20.77742494226328
  1
重量
 41
0.999230769230769
  7
EXCADTTF1
 72
     5
 11
2016.0
 21
1376.296875
 31
0.0
100
AcDbText
  0
TEXT
  5
108
330
1F
100
AcDbEntity
  8
図面枠
  6
CONTINUOUS
 62
     4
100
AcDbText
 10
1962.0
 20
1340.296875
 30
0.0
 40
20.77742494226328
  1
ユニバーサル
 41
0.9992307692307689
  7
EXCADTTF1
 72
     5
 11
2124.0
 21
1340.296875
 31
0.0
100
AcDbText
  0
TEXT
  5
109
330
1F
100
AcDbEntity
  8
図面枠
  6
CONTINUOUS
 62
     4
100
AcDbText
 10
1962.0
 20
1313.296875
 30
0.0
 40
20.77742494226328
  1
振り角
 41
0.999230769230769
  7
EXCADTTF1
 72
     5
 11
2043.0
 21
1313.296875
 31
0.0
100
AcDbText
  0
TEXT
  5
10A
330
1F
100
AcDbEntity
  8
図面枠
  6
CONTINUOUS
 62
     4
100
AcDbText
 10
2257.5
 20
1340.296875
 30
0.0
 40
20.77742494226328
  1
±3
 41
0.999230769230769
  7
EXCADTTF1
 72
     5
 11
2298.0
 21
1340.296875
 31
0.0
100
AcDbText
  0
TEXT
  5
10B
330
1F
100
AcDbEntity
  8
図面枠
  6
CONTINUOUS
 62
     4
100
AcDbText
 10
2322.0
 20
1340.296875
 30
0.0
 40
20.77742494226328
  1
°
 41
0.999230769230769
  7
EXCADTTF1
 72
     5
 11
2349.0
 21
1340.296875
 31
0.0
100
AcDbText
  0
TEXT
  5
10C
330
1F
100
AcDbEntity
  8
図面枠
  6
CONTINUOUS
 62
     4
100
AcDbText
 10
2322.0
 20
1304.296875
 30
0.0
 40
20.77742494226328
  1
%%%
 41
0.999230769230769
  7
EXCADTTF1
 72
     5
 11
2335.5
 21
1304.296875
 31
0.0
100
AcDbText
  0
TEXT
  5
10D
330
1F
100
AcDbEntity
  8
図面枠
  6
CONTINUOUS
 62
     4
100
AcDbText
 10
2257.5
 20
1304.296875
 30
0.0
 40
20.77742494226328
  1
±5
 41
0.999230769230769
  7
EXCADTTF1
 72
     5
 11
2298.0
 21
1304.296875
 31
0.0
100
AcDbText
  0
LINE
  5
10E
330
1F
100
AcDbEntity
  8
図面枠
  6
CONTINUOUS
 62
     2
100
AcDbLine
 10
2190.0
 20
1332.0
 30
0.0
 11
2430.0
 21
1332.0
 31
0.0
  0
LINE
  5
10F
330
1F
100
AcDbEntity
  8
図面枠
  6
CONTINUOUS
 62
     3
100
AcDbLine
 10
1950.0
 20
1296.0
 30
0.0
 11
2430.0
 21
1296.0
 31
0.0
  0
LINE
  5
110
330
1F
100
AcDbEntity
  8
図面枠
  6
CONTINUOUS
 62
     2
100
AcDbLine
 10
1950.0
 20
1368.0
 30
0.0
 11
2430.0
 21
1368.0
 31
0.0
  0
TEXT
  5
111
330
1F
100
AcDbEntity
  8
図面枠
  6
CONTINUOUS
 62
     4
100
AcDbText
 10
2322.0
 20
1412.296875
 30
0.0
 40
20.77742494226328
  1
L
 41
0.999230769230769
  7
EXCADTTF1
 72
     5
 11
2335.5
 21
1412.296875
 31
0.0
100
AcDbText
  0
TEXT
  5
112
330
1F
100
AcDbEntity
  8
図面枠
  6
CONTINUOUS
 62
     4
100
AcDbText
 10
2257.5
 20
1412.296875
 30
0.0
 40
20.77742494226328
  1
3.8
 41
0.999230769230769
  7
EXCADTTF1
 72
     5
 11
2298.0
 21
1412.296875
 31
0.0
100
AcDbText
  0
TEXT
  5
113
330
1F
100
AcDbEntity
  8
図面枠
  6
CONTINUOUS
 62
     4
100
AcDbText
 10
2230.5
 20
1484.296875
 30
0.0
 40
20.77742494226328
  1
330.1
 41
0.9992307692307689
  7
EXCADTTF1
 72
     5
 11
2298.0
 21
1484.296875
 31
0.0
100
AcDbText
  0
TEXT
  5
114
330
1F
100
AcDbEntity
  8
図面枠
  6
CONTINUOUS
 62
     4
100
AcDbText
 10
2230.5
 20
1376.296875
 30
0.0
 40
20.77742494226328
  1
約352
 41
0.9992307692307689
  7
EXCADTTF1
 72
     5
 11
2298.0
 21
1376.296875
 31
0.0
100
AcDbText
  0
TEXT
  5
115
330
1F
100
AcDbEntity
  8
図面枠
  6
CONTINUOUS
 62
     4
100
AcDbText
 10
1915.199999999999
 20
1227.196874999997
 30
0.0
 40
20.77742494226328
  1
※）球面回転ヘッドの為、無負荷ジャッキ
 41
0.9992307692307687
  7
EXCADTTF1
 72
     5
 11
2428.199999999999
 21
1227.196874999997
 31
0.0
100
AcDbText
  0
TEXT
  5
116
330
1F
100
AcDbEntity
  8
図面枠
  6
CONTINUOUS
 62
     4
100
AcDbText
 10
1915.199999999999
 20
1200.196874999997
 30
0.0
 40
20.77742494226328
  1
　　作動時にヘッドが急に傾く場合があり
 41
0.9992307692307687
  7
EXCADTTF1
 72
     5
 11
2428.199999999999
 21
1200.196874999997
 31
0.0
100
AcDbText
  0
TEXT
  5
117
330
1F
100
AcDbEntity
  8
図面枠
  6
CONTINUOUS
 62
     4
100
AcDbText
 10
1915.199999999999
 20
1173.196874999997
 30
0.0
 40
20.77742494226328
  1
　　ます。必要に応じて搭載物の転倒防止
 41
0.9992307692307687
  7
EXCADTTF1
 72
     5
 11
2428.199999999999
 21
1173.196874999997
 31
0.0
100
AcDbText
  0
TEXT
  5
118
330
1F
100
AcDbEntity
  8
図面枠
  6
CONTINUOUS
 62
     4
100
AcDbText
 10
1915.199999999999
 20
1146.196874999997
 30
0.0
 40
20.77742494226328
  1
　　を行ってください。
 41
0.9992307692307687
  7
EXCADTTF1
 72
     5
 11
2212.199999999999
 21
1146.196874999997
 31
0.0
100
AcDbText
  0
LINE
  5
119
330
1F
100
AcDbEntity
  8
図面枠
  6
CONTINUOUS
 62
     3
100
AcDbLine
 10
1950.0
 20
1692.0
 30
0.0
 11
1950.0
 21
1296.0
 31
0.0
  0
LINE
  5
11A
330
1F
100
AcDbEntity
  8
図面枠
  6
CONTINUOUS
 62
     2
100
AcDbLine
 10
2190.0
 20
1656.0
 30
0.0
 11
2190.0
 21
1296.0
 31
0.0
  0
LINE
  5
11B
330
1F
100
AcDbEntity
  8
図面枠
  6
CONTINUOUS
 62
     2
100
AcDbLine
 10
2310.0
 20
1656.0
 30
0.0
 11
2310.0
 21
1296.0
 31
0.0
  0
LINE
  5
11C
330
1F
100
AcDbEntity
  8
図面枠
  6
CONTINUOUS
 62
     3
100
AcDbLine
 10
2430.0
 20
1692.0
 30
0.0
 11
2430.0
 21
1296.0
 31
0.0
  0
LEADER
  5
11D
330
1F
100
AcDbEntity
  8
Ｓ_１_１
  6
CONTINUOUS
 62
     2
100
AcDbLeader
  3
ISO-25
 76
     2
 10
760.0
 20
160.0
 30
0.0
 10
760.0
 20
109.2
 30
0.0
1001
ACAD
1000
DSTYLE
1002
{
1070
     5
1000
EX_NORM
1070
    41
1040
18.0
1070
   341
1005
7E
1002
}
  0
TEXT
  5
11E
330
1F
100
AcDbEntity
  8
Ｓ_１_１
  6
CONTINUOUS
 62
     4
100
AcDbText
 10
768.5999999999998
 20
114.796875
 30
0.0
 40
20.77742494226328
  1
A
 41
0.999230769230769
  7
EXCADTTF1
 72
     5
 11
782.0999999999998
 21
114.796875
 31
0.0
100
AcDbText
  0
ARC
  5
11F
330
1F
100
AcDbEntity
  8
Ｓ_１_１
  6
CONTINUOUS
 62
     3
100
AcDbCircle
 10
821.0000699900772
 20
595.00010300002
 30
0.0
 40
1.0
100
AcDbArc
 50
0.0
 51
90.00000000000001
  0
LINE
  5
120
330
1F
100
AcDbEntity
  8
Ｓ_１_１
  6
CONTINUOUS
 62
     3
100
AcDbLine
 10
822.0000699900772
 20
595.00010300002
 30
0.0
 11
822.0000699900772
 21
580.00010300002
 31
0.0
  0
LINE
  5
121
330
1F
100
AcDbEntity
  8
Ｓ_１_１
  6
CONTINUOUS
 62
     3
100
AcDbLine
 10
799.0000699900771
 20
596.00010300002
 30
0.0
 11
821.0000699900772
 21
596.00010300002
 31
0.0
  0
ARC
  5
122
330
1F
100
AcDbEntity
  8
Ｓ_１_１
  6
CONTINUOUS
 62
     3
100
AcDbCircle
 10
799.0000699900771
 20
595.00010300002
 30
0.0
 40
1.0
100
AcDbArc
 50
90.00000000000001
 51
180.0
  0
LINE
  5
123
330
1F
100
AcDbEntity
  8
Ｓ_１_１
  6
CONTINUOUS
 62
     3
100
AcDbLine
 10
798.0000699900772
 20
595.00010300002
 30
0.0
 11
798.0000699900772
 21
580.00010300002
 31
0.0
  0
ARC
  5
124
330
1F
100
AcDbEntity
  8
Ｓ_１_１
  6
CONTINUOUS
 62
     3
100
AcDbCircle
 10
721.0000699900772
 20
595.00010300002
 30
0.0
 40
1.0
100
AcDbArc
 50
0.0
 51
90.00000000000001
  0
LINE
  5
125
330
1F
100
AcDbEntity
  8
Ｓ_１_１
  6
CONTINUOUS
 62
     3
100
AcDbLine
 10
722.0000699900772
 20
595.00010300002
 30
0.0
 11
722.0000699900772
 21
580.00010300002
 31
0.0
  0
LINE
  5
126
330
1F
100
AcDbEntity
  8
Ｓ_１_１
  6
CONTINUOUS
 62
     3
100
AcDbLine
 10
699.0000699900772
 20
596.00010300002
 30
0.0
 11
721.0000699900772
 21
596.00010300002
 31
0.0
  0
ARC
  5
127
330
1F
100
AcDbEntity
  8
Ｓ_１_１
  6
CONTINUOUS
 62
     3
100
AcDbCircle
 10
699.0000699900772
 20
595.00010300002
 30
0.0
 40
1.0
100
AcDbArc
 50
90.00000000000001
 51
180.0
  0
LINE
  5
128
330
1F
100
AcDbEntity
  8
Ｓ_１_１
  6
CONTINUOUS
 62
     3
100
AcDbLine
 10
698.0000699900772
 20
595.00010300002
 30
0.0
 11
698.0000699900772
 21
580.00010300002
 31
0.0
  0
LINE
  5
129
330
1F
100
AcDbEntity
  8
Ｓ_１_１
  6
CONTINUOUS
 62
     3
100
AcDbLine
 10
690.0001699900783
 20
513.0001029999818
 30
0.0
 11
690.0001699900783
 21
510.0000029999824
 31
0.0
  0
LINE
  5
12A
330
1F
100
AcDbEntity
  8
Ｓ_１_１
  6
CONTINUOUS
 62
     3
100
AcDbLine
 10
830.0004699900779
 20
513.0001029999818
 30
0.0
 11
878.0030699900778
 21
515.5160029999821
 31
0.0
  0
LINE
  5
12B
330
1F
100
AcDbEntity
  8
Ｓ_１_１
  6
CONTINUOUS
 62
     3
100
AcDbLine
 10
641.9974699900774
 20
515.5160029999821
 30
0.0
 11
878.0030699900778
 21
515.5160029999821
 31
0.0
  0
LINE
  5
12C
330
1F
100
AcDbEntity
  8
Ｓ_１_１
  6
CONTINUOUS
 62
     3
100
AcDbLine
 10
880.0002699900793
 20
517.620702999982
 30
0.0
 11
878.0030699900778
 21
515.5160029999821
 31
0.0
  0
LINE
  5
12D
330
1F
100
AcDbEntity
  8
Ｓ_１_１
  6
CONTINUOUS
 62
     3
100
AcDbLine
 10
830.0004699900779
 20
513.0001029999818
 30
0.0
 11
830.0002699900795
 21
510.0000029999824
 31
0.0
  0
LINE
  5
12E
330
1F
100
AcDbEntity
  8
Ｓ_１_１
  6
CONTINUOUS
 62
     3
100
AcDbLine
 10
830.0004699900779
 20
513.0001029999818
 30
0.0
 11
690.0001699900783
 21
513.0001029999818
 31
0.0
  0
LINE
  5
12F
330
1F
100
AcDbEntity
  8
Ｓ_１_１
  6
CONTINUOUS
 62
     3
100
AcDbLine
 10
641.9974699900774
 20
515.5160029999821
 30
0.0
 11
640.0001699900783
 21
517.620702999982
 31
0.0
  0
LINE
  5
130
330
1F
100
AcDbEntity
  8
Ｓ_１_１
  6
CONTINUOUS
 62
     3
100
AcDbLine
 10
690.0001699900783
 20
513.0001029999818
 30
0.0
 11
641.9974699900774
 21
515.5160029999821
 31
0.0
  0
LINE
  5
131
330
1F
100
AcDbEntity
  8
Ｓ_１_１
  6
CONTINUOUS
 62
     3
100
AcDbLine
 10
841.3453679900774
 20
510.0000029999824
 30
0.0
 11
678.6547689900797
 21
510.0000029999824
 31
0.0
  0
LINE
  5
132
330
1F
100
AcDbEntity
  8
Ｓ_１_１
  6
CONTINUOUS
 62
     3
100
AcDbLine
 10
677.5000699900772
 20
507.9999999999815
 30
0.0
 11
677.5000699900772
 21
505.0000029999825
 31
0.0
  0
LINE
  5
133
330
1F
100
AcDbEntity
  8
Ｓ_１_１
  6
CONTINUOUS
 62
     3
100
AcDbLine
 10
842.5000679900764
 20
507.9999999999815
 30
0.0
 11
842.5000679900764
 21
505.0000029999825
 31
0.0
  0
LINE
  5
134
330
1F
100
AcDbEntity
  8
Ｓ_１_１
  6
CONTINUOUS
 62
     3
100
AcDbLine
 10
886.0000709900775
 20
505.0000029999825
 30
0.0
 11
634.0000669900799
 21
505.0000029999825
 31
0.0
  0
LINE
  5
135
330
1F
100
AcDbEntity
  8
Ｓ_１_１
  6
CONTINUOUS
 62
     3
100
AcDbLine
 10
889.0000629900785
 20
502.0000009999818
 30
0.0
 11
631.0000749900789
 21
502.0000009999818
 31
0.0
  0
LINE
  5
136
330
1F
100
AcDbEntity
  8
Ｓ_１_１
  6
CONTINUOUS
 62
     3
100
AcDbLine
 10
889.0000709900775
 20
502.0000049999813
 30
0.0
 11
886.0000719900778
 21
505.000003999981
 31
0.0
  0
LINE
  5
137
330
1F
100
AcDbEntity
  8
Ｓ_１_１
  6
CONTINUOUS
 62
     3
100
AcDbLine
 10
634.0000759900793
 20
505.000006999982
 30
0.0
 11
631.0000709900776
 21
502.0000009999818
 31
0.0
  0
LINE
  5
138
330
1F
100
AcDbEntity
  8
Ｓ_１_１
  6
CONTINUOUS
 62
     3
100
AcDbLine
 10
842.5000679900764
 20
507.9999999999815
 30
0.0
 11
677.5000699900772
 21
507.9999999999815
 31
0.0
  0
LINE
  5
139
330
1F
100
AcDbEntity
  8
Ｓ_１_１
  6
CONTINUOUS
 62
     3
100
AcDbLine
 10
677.5000719900779
 20
507.9999989999811
 30
0.0
 11
678.6547709900767
 21
509.9999969999823
 31
0.0
  0
LINE
  5
13A
330
1F
100
AcDbEntity
  8
Ｓ_１_１
  6
CONTINUOUS
 62
     3
100
AcDbLine
 10
842.5000629900785
 20
508.0000079999824
 30
0.0
 11
841.3453639900797
 21
510.0000059999817
 31
0.0
  0
LINE
  5
13B
330
1F
100
AcDbEntity
  8
Ｓ_１_１
  6
CONTINUOUS
 62
     3
100
AcDbLine
 10
525.0000699900772
 20
199.9999999999997
 30
0.0
 11
525.0000699900772
 21
224.9999999999997
 31
0.0
  0
LINE
  5
13C
330
1F
100
AcDbEntity
  8
Ｓ_１_１
  6
CONTINUOUS
 62
     3
100
AcDbLine
 10
995.0000699900772
 20
224.9999999999997
 30
0.0
 11
995.0000699900772
 21
199.9999999999997
 31
0.0
  0
LINE
  5
13D
330
1F
100
AcDbEntity
  8
Ｓ_１_１
  6
CONTINUOUS
 62
     3
100
AcDbLine
 10
525.0000699900772
 20
199.9999999999997
 30
0.0
 11
995.0000699900772
 21
199.9999999999997
 31
0.0
  0
LINE
  5
13E
330
1F
100
AcDbEntity
  8
Ｓ_１_１
  6
CONTINUOUS
 62
     3
100
AcDbLine
 10
995.0000699900772
 20
224.9999999999997
 30
0.0
 11
525.0000699900772
 21
224.9999999999997
 31
0.0
  0
LINE
  5
13F
330
1F
100
AcDbEntity
  8
Ｓ_１_１
  6
CONTINUOUS
 62
     3
100
AcDbLine
 10
964.9999699900761
 20
580.00010300002
 30
0.0
 11
555.000169990082
 21
580.00010300002
 31
0.0
  0
LINE
  5
140
330
1F
100
AcDbEntity
  8
Ｓ_１_１
  6
CONTINUOUS
 62
     3
100
AcDbLine
 10
964.9999699900761
 20
580.00010300002
 30
0.0
 11
964.9999699900761
 21
555.0001029999818
 31
0.0
  0
LINE
  5
141
330
1F
100
AcDbEntity
  8
Ｓ_１_１
  6
CONTINUOUS
 62
     3
100
AcDbLine
 10
555.000169990082
 20
580.00010300002
 30
0.0
 11
555.000169990082
 21
555.0001029999818
 31
0.0
  0
LINE
  5
142
330
1F
100
AcDbEntity
  8
Ｓ_１_１
  6
CONTINUOUS
 62
     3
100
AcDbLine
 10
435.0000699900791
 20
740.0001030000201
 30
0.0
 11
435.0000699900791
 21
715.0001030000201
 31
0.0
  0
LINE
  5
143
330
1F
100
AcDbEntity
  8
Ｓ_１_１
  6
CONTINUOUS
 62
     3
100
AcDbLine
 10
1085.000069990079
 20
740.0001030000201
 30
0.0
 11
435.0000699900791
 21
740.0001030000201
 31
0.0
  0
LINE
  5
144
330
1F
100
AcDbEntity
  8
Ｓ_１_１
  6
CONTINUOUS
 62
     3
100
AcDbLine
 10
1085.000069990079
 20
715.0001030000201
 30
0.0
 11
435.0000699900791
 21
715.0001030000201
 31
0.0
  0
LINE
  5
145
330
1F
100
AcDbEntity
  8
Ｓ_１_１
  6
CONTINUOUS
 62
     3
100
AcDbLine
 10
1085.000069990079
 20
740.0001030000201
 30
0.0
 11
1085.000069990079
 21
715.0001030000201
 31
0.0
  0
LINE
  5
146
330
1F
100
AcDbEntity
  8
Ｓ_１_１
  6
CONTINUOUS
 62
     3
100
AcDbLine
 10
455.0000699900791
 20
715.0001030000201
 30
0.0
 11
455.0000699900791
 21
680.00010300002
 31
0.0
  0
LINE
  5
147
330
1F
100
AcDbEntity
  8
Ｓ_１_１
  6
CONTINUOUS
 62
     3
100
AcDbLine
 10
572.5000699900772
 20
580.00010300002
 30
0.0
 11
572.5000699900772
 21
715.0001030000201
 31
0.0
  0
LINE
  5
148
330
1F
100
AcDbEntity
  8
Ｓ_１_１
  6
CONTINUOUS
 62
     3
100
AcDbLine
 10
597.5000699900772
 20
580.00010300002
 30
0.0
 11
597.5000699900772
 21
715.0001030000201
 31
0.0
  0
LINE
  5
149
330
1F
100
AcDbEntity
  8
Ｓ_１_１
  6
CONTINUOUS
 62
     3
100
AcDbLine
 10
747.5000699900772
 20
580.00010300002
 30
0.0
 11
747.5000699900772
 21
715.0001030000201
 31
0.0
  0
LINE
  5
14A
330
1F
100
AcDbEntity
  8
Ｓ_１_１
  6
CONTINUOUS
 62
     3
100
AcDbLine
 10
772.5000699900772
 20
580.00010300002
 30
0.0
 11
772.5000699900772
 21
715.0001030000201
 31
0.0
  0
LINE
  5
14B
330
1F
100
AcDbEntity
  8
Ｓ_１_１
  6
CONTINUOUS
 62
     3
100
AcDbLine
 10
922.5000699900772
 20
580.00010300002
 30
0.0
 11
922.5000699900772
 21
715.0001030000201
 31
0.0
  0
LINE
  5
14C
330
1F
100
AcDbEntity
  8
Ｓ_１_１
  6
CONTINUOUS
 62
     3
100
AcDbLine
 10
947.5000699900771
 20
580.00010300002
 30
0.0
 11
947.5000699900771
 21
715.0001030000201
 31
0.0
  0
LINE
  5
14D
330
1F
100
AcDbEntity
  8
Ｓ_１_１
  6
CONTINUOUS
 62
     3
100
AcDbLine
 10
1065.000069990077
 20
715.0001030000201
 30
0.0
 11
1065.000069990077
 21
680.00010300002
 31
0.0
  0
LINE
  5
14E
330
1F
100
AcDbEntity
  8
Ｓ_１_１
  6
CONTINUOUS
 62
     3
100
AcDbLine
 10
455.0000699900791
 20
680.00010300002
 30
0.0
 11
555.0001699900783
 21
580.00010300002
 31
0.0
  0
LINE
  5
14F
330
1F
100
AcDbEntity
  8
Ｓ_１_１
  6
CONTINUOUS
 62
     3
100
AcDbLine
 10
964.9999699900798
 20
580.00010300002
 30
0.0
 11
1065.000069990079
 21
680.00010300002
 31
0.0
  0
LINE
  5
150
330
1F
100
AcDbEntity
  8
Ｓ_１_１
  6
CONTINUOUS
 62
     3
100
AcDbLine
 10
880.0002699900793
 20
517.620702999982
 30
0.0
 11
640.0001699900783
 21
517.620702999982
 31
0.0
  0
LINE
  5
151
330
1F
100
AcDbEntity
  8
Ｓ_１_１
  6
CONTINUOUS
 62
     3
100
AcDbLine
 10
572.5000699900772
 20
680.00010300002
 30
0.0
 11
597.5000699900772
 21
680.00010300002
 31
0.0
  0
LINE
  5
152
330
1F
100
AcDbEntity
  8
Ｓ_１_１
  6
CONTINUOUS
 62
     3
100
AcDbLine
 10
747.5000699900772
 20
680.00010300002
 30
0.0
 11
772.5000699900772
 21
680.00010300002
 31
0.0
  0
LINE
  5
153
330
1F
100
AcDbEntity
  8
Ｓ_１_１
  6
CONTINUOUS
 62
     3
100
AcDbLine
 10
922.5000699900772
 20
680.00010300002
 30
0.0
 11
947.5000699900771
 21
680.00010300002
 31
0.0
  0
LINE
  5
154
330
1F
100
AcDbEntity
  8
Ｓ_１_１
  6
CONTINUOUS
 62
     3
100
AcDbLine
 10
912.5000699900789
 20
407.0000000000197
 30
0.0
 11
607.500069990079
 21
407.0000000000197
 31
0.0
  0
LINE
  5
155
330
1F
100
AcDbEntity
  8
Ｓ_１_１
  6
CONTINUOUS
 62
     3
100
AcDbLine
 10
912.5000699900789
 20
407.0000000000197
 30
0.0
 11
909.5000699900772
 21
410.0000000000197
 31
0.0
  0
LINE
  5
156
330
1F
100
AcDbEntity
  8
Ｓ_１_１
  6
CONTINUOUS
 62
     3
100
AcDbLine
 10
909.5000699900772
 20
410.0000000000197
 30
0.0
 11
610.5000699900772
 21
410.0000000000197
 31
0.0
  0
LINE
  5
157
330
1F
100
AcDbEntity
  8
Ｓ_１_１
  6
CONTINUOUS
 62
     3
100
AcDbLine
 10
607.500069990079
 20
407.0000000000197
 30
0.0
 11
610.5000699900772
 21
410.0000000000197
 31
0.0
  0
LINE
  5
158
330
1F
100
AcDbEntity
  8
Ｓ_１_１
  6
CONTINUOUS
 62
     3
100
AcDbLine
 10
631.0000749900789
 20
502.0000009999818
 30
0.0
 11
631.0000749900789
 21
410.0000000000197
 31
0.0
  0
LINE
  5
159
330
1F
100
AcDbEntity
  8
Ｓ_１_１
  6
CONTINUOUS
 62
     3
100
AcDbLine
 10
607.500069990079
 20
407.0000000000197
 30
0.0
 11
607.500069990079
 21
395.0000000000197
 31
0.0
  0
LINE
  5
15A
330
1F
100
AcDbEntity
  8
Ｓ_１_１
  6
CONTINUOUS
 62
     3
100
AcDbLine
 10
912.5000699900789
 20
407.0000000000197
 30
0.0
 11
912.5000699900789
 21
395.0000000000197
 31
0.0
  0
LINE
  5
15B
330
1F
100
AcDbEntity
  8
Ｓ_１_１
  6
CONTINUOUS
 62
     3
100
AcDbLine
 10
745.0000699900772
 20
470.0000009999818
 30
0.0
 11
745.0000699900772
 21
419.9999144020108
 31
0.0
  0
LINE
  5
15C
330
1F
100
AcDbEntity
  8
Ｓ_１_１
  6
CONTINUOUS
 62
     3
100
AcDbLine
 10
775.0000699900771
 20
470.0000009999818
 30
0.0
 11
775.0000699900771
 21
419.9999144020108
 31
0.0
  0
LINE
  5
15D
330
1F
100
AcDbEntity
  8
Ｓ_１_１
  6
CONTINUOUS
 62
     3
100
AcDbLine
 10
745.0000699900772
 20
470.0000009999818
 30
0.0
 11
733.0000699900772
 21
470.0000009999818
 31
0.0
  0
LINE
  5
15E
330
1F
100
AcDbEntity
  8
Ｓ_１_１
  6
CONTINUOUS
 62
     3
100
AcDbLine
 10
775.0000699900771
 20
470.0000009999818
 30
0.0
 11
787.0000699900771
 21
470.0000009999818
 31
0.0
  0
LINE
  5
15F
330
1F
100
AcDbEntity
  8
Ｓ_１_１
  6
CONTINUOUS
 62
     3
100
AcDbLine
 10
745.0000699900772
 20
419.9999144020108
 30
0.0
 11
733.0000699900772
 21
419.9999144020108
 31
0.0
  0
LINE
  5
160
330
1F
100
AcDbEntity
  8
Ｓ_１_１
  6
CONTINUOUS
 62
     3
100
AcDbLine
 10
787.0000699900771
 20
419.9999144020108
 30
0.0
 11
775.0000699900771
 21
419.9999144020108
 31
0.0
  0
LINE
  5
161
330
1F
100
AcDbEntity
  8
Ｓ_１_１
  6
CONTINUOUS
 62
     3
100
AcDbLine
 10
733.000069990079
 20
470.0000009999818
 30
0.0
 11
733.000069990079
 21
419.9999144020108
 31
0.0
  0
LINE
  5
162
330
1F
100
AcDbEntity
  8
Ｓ_１_１
  6
CONTINUOUS
 62
     3
100
AcDbLine
 10
787.000069990079
 20
470.0000009999818
 30
0.0
 11
787.000069990079
 21
419.9999144020108
 31
0.0
  0
LINE
  5
163
330
1F
100
AcDbEntity
  8
Ｓ_１_１
  6
CONTINUOUS
 62
     3
100
AcDbLine
 10
899.9999699900761
 20
530.0001029999818
 30
0.0
 11
620.0001699900783
 21
530.0001029999818
 31
0.0
  0
LINE
  5
164
330
1F
100
AcDbEntity
  8
Ｓ_１_１
  6
CONTINUOUS
 62
     3
100
AcDbLine
 10
620.0001699900783
 20
555.0001029999818
 30
0.0
 11
620.0001699900783
 21
530.0001029999818
 31
0.0
  0
LINE
  5
165
330
1F
100
AcDbEntity
  8
Ｓ_１_１
  6
CONTINUOUS
 62
     3
100
AcDbLine
 10
899.9999699900761
 20
555.0001029999818
 30
0.0
 11
899.9999699900761
 21
530.0001029999818
 31
0.0
  0
LINE
  5
166
330
1F
100
AcDbEntity
  8
Ｓ_１_１
  6
CONTINUOUS
 62
     3
100
AcDbLine
 10
640.0001699900783
 20
530.0001029999818
 30
0.0
 11
640.0001699900783
 21
517.620702999982
 31
0.0
  0
LINE
  5
167
330
1F
100
AcDbEntity
  8
Ｓ_１_１
  6
CONTINUOUS
 62
     3
100
AcDbLine
 10
880.0002699900793
 20
530.0001029999818
 30
0.0
 11
880.0002699900793
 21
517.620702999982
 31
0.0
  0
LINE
  5
168
330
1F
100
AcDbEntity
  8
Ｓ_１_１
  6
CONTINUOUS
 62
     3
100
AcDbLine
 10
555.0001699900783
 20
555.00010299998
 30
0.0
 11
964.9999699900798
 21
555.00010299998
 31
0.0
  0
LINE
  5
169
330
1F
100
AcDbEntity
  8
Ｓ_１_１
  6
CONTINUOUS
 62
     3
100
AcDbLine
 10
665.4828947703388
 20
225.0000000000106
 30
0.0
 11
665.4828947703388
 21
305.502525316953
 31
0.0
  0
LINE
  5
16A
330
1F
100
AcDbEntity
  8
Ｓ_１_１
  6
CONTINUOUS
 62
     3
100
AcDbLine
 10
676.5694491606207
 20
225.0000000000106
 30
0.0
 11
676.5694491606207
 21
305.502525316953
 31
0.0
  0
LINE
  5
16B
330
1F
100
AcDbEntity
  8
Ｓ_１_１
  6
CONTINUOUS
 62
     3
100
AcDbLine
 10
665.4828947703388
 20
305.502525316953
 30
0.0
 11
676.5694491606207
 21
305.502525316953
 31
0.0
  0
ELLIPSE
  5
16C
330
1F
100
AcDbEntity
  8
Ｓ_１_１
  6
CONTINUOUS
 62
     3
100
AcDbEllipse
 10
674.6560319987946
 20
360.0000000000106
 30
0.0
 11
-2.755455298081553E-15
 21
-15.00000000000005
 31
0.0
210
0.0
220
0.0
230
1.0
 40
0.3826834323650844
 41
0.0
 42
6.283185307179586
  0
LINE
  5
16D
330
1F
100
AcDbEntity
  8
Ｓ_１_１
  6
CONTINUOUS
 62
     3
100
AcDbLine
 10
663.5694776085782
 20
395.0000000000106
 30
0.0
 11
676.5037910634962
 21
395.0000000000106
 31
0.0
  0
LINE
  5
16E
330
1F
100
AcDbEntity
  8
Ｓ_１_１
  6
CONTINUOUS
 62
     3
100
AcDbLine
 10
676.5694491605789
 20
305.5025253169512
 30
0.0
 11
665.1851002461879
 21
335.2512626585409
 31
0.0
  0
LINE
  5
16F
330
1F
100
AcDbEntity
  8
Ｓ_１_１
  6
CONTINUOUS
 62
     3
100
AcDbLine
 10
665.4828947703788
 20
305.5025253169512
 30
0.0
 11
654.0985458559878
 21
335.2512626585409
 31
0.0
  0
ELLIPSE
  5
170
330
1F
100
AcDbEntity
  8
Ｓ_１_１
  6
CONTINUOUS
 62
     3
100
AcDbEllipse
 10
663.5694776085782
 20
360.0000000000197
 30
0.0
 11
-1.339999044624049E-14
 21
34.99999999999
 31
0.0
210
0.0
220
0.0
230
1.0
 40
0.3826834323658259
 41
0.0
 42
2.356194490190622
  0
ELLIPSE
  5
171
330
1F
100
AcDbEntity
  8
Ｓ_１_１
  6
CONTINUOUS
 62
     3
100
AcDbEllipse
 10
674.6560319987782
 20
360.0000000000197
 30
0.0
 11
-1.339999044624049E-14
 21
34.99999999999
 31
0.0
210
0.0
220
0.0
230
1.0
 40
0.3826834323658259
 41
0.0
 42
2.356194490190632
  0
LINE
  5
172
330
1F
100
AcDbEntity
  8
Ｓ_１_１
  6
CONTINUOUS
 62
     3
100
AcDbLine
 10
707.184123749779
 20
395.0000000000106
 30
0.0
 11
707.184123749779
 21
224.9999999999997
 31
0.0
  0
LINE
  5
173
330
1F
100
AcDbEntity
  8
Ｓ_１_１
  6
CONTINUOUS
 62
     3
100
AcDbLine
 10
676.5037910634962
 20
395.0000000000106
 30
0.0
 11
707.184123749779
 21
395.0000000000106
 31
0.0
  0
LINE
  5
174
330
1F
100
AcDbEntity
  8
Ｓ_１_１
  6
CONTINUOUS
 62
     3
100
AcDbLine
 10
854.5172452098193
 20
225.0000000000106
 30
0.0
 11
854.5172452098193
 21
305.502525316953
 31
0.0
  0
LINE
  5
175
330
1F
100
AcDbEntity
  8
Ｓ_１_１
  6
CONTINUOUS
 62
     3
100
AcDbLine
 10
843.4306908195392
 20
225.0000000000106
 30
0.0
 11
843.4306908195392
 21
305.502525316953
 31
0.0
  0
LINE
  5
176
330
1F
100
AcDbEntity
  8
Ｓ_１_１
  6
CONTINUOUS
 62
     3
100
AcDbLine
 10
854.5172452098193
 20
305.502525316953
 30
0.0
 11
843.4306908195392
 21
305.502525316953
 31
0.0
  0
ELLIPSE
  5
177
330
1F
100
AcDbEntity
  8
Ｓ_１_１
  6
CONTINUOUS
 62
     3
100
AcDbEllipse
 10
845.3441079813635
 20
360.0000000000106
 30
0.0
 11
-2.755455298081553E-15
 21
-15.00000000000005
 31
0.0
210
0.0
220
0.0
230
1.0
 40
0.3826834323650844
 41
0.0
 42
6.283185307179586
  0
LINE
  5
178
330
1F
100
AcDbEntity
  8
Ｓ_１_１
  6
CONTINUOUS
 62
     3
100
AcDbLine
 10
856.4306623715818
 20
395.0000000000106
 30
0.0
 11
843.4963489166655
 21
395.0000000000106
 31
0.0
  0
LINE
  5
179
330
1F
100
AcDbEntity
  8
Ｓ_１_１
  6
CONTINUOUS
 62
     3
100
AcDbLine
 10
843.430690819581
 20
305.5025253169512
 30
0.0
 11
854.8150397339701
 21
335.2512626585409
 31
0.0
  0
LINE
  5
17A
330
1F
100
AcDbEntity
  8
Ｓ_１_１
  6
CONTINUOUS
 62
     3
100
AcDbLine
 10
854.5172452097811
 20
305.5025253169512
 30
0.0
 11
865.9015941241703
 21
335.2512626585409
 31
0.0
  0
ELLIPSE
  5
17B
330
1F
100
AcDbEntity
  8
Ｓ_１_１
  6
CONTINUOUS
 62
     3
100
AcDbEllipse
 10
856.4306623715818
 20
360.0000000000197
 30
0.0
 11
-1.339999044624049E-14
 21
34.99999999999
 31
0.0
210
0.0
220
0.0
230
1.0
 40
0.3826834323658259
 41
3.92699081698897
 42
6.283185307179586
  0
ELLIPSE
  5
17C
330
1F
100
AcDbEntity
  8
Ｓ_１_１
  6
CONTINUOUS
 62
     3
100
AcDbEllipse
 10
845.3441079813816
 20
360.0000000000197
 30
0.0
 11
-1.339999044624049E-14
 21
34.99999999999
 31
0.0
210
0.0
220
0.0
230
1.0
 40
0.3826834323658259
 41
3.926990816988953
 42
6.283185307179586
  0
LINE
  5
17D
330
1F
100
AcDbEntity
  8
Ｓ_１_１
  6
CONTINUOUS
 62
     3
100
AcDbLine
 10
812.8160162303826
 20
395.0000000000106
 30
0.0
 11
812.8160162303809
 21
224.9999999999997
 31
0.0
  0
LINE
  5
17E
330
1F
100
AcDbEntity
  8
Ｓ_１_１
  6
CONTINUOUS
 62
     3
100
AcDbLine
 10
843.4963489166655
 20
395.0000000000106
 30
0.0
 11
812.8160162303826
 21
395.0000000000106
 31
0.0
  0
LINE
  5
17F
330
1F
100
AcDbEntity
  8
Ｓ_１_１
  6
CONTINUOUS
 62
     3
100
AcDbLine
 10
977.0981618930307
 20
225.0000000000106
 30
0.0
 11
977.0981618930307
 21
305.502525316953
 31
0.0
  0
LINE
  5
180
330
1F
100
AcDbEntity
  8
Ｓ_１_１
  6
CONTINUOUS
 62
     3
100
AcDbLine
 10
972.5059607046312
 20
225.0000000000106
 30
0.0
 11
972.5059607046312
 21
305.502525316953
 31
0.0
  0
LINE
  5
181
330
1F
100
AcDbEntity
  8
Ｓ_１_１
  6
CONTINUOUS
 62
     3
100
AcDbLine
 10
977.0981618930307
 20
305.502525316953
 30
0.0
 11
972.5059607046312
 21
305.502525316953
 31
0.0
  0
ELLIPSE
  5
182
330
1F
100
AcDbEntity
  8
Ｓ_１_１
  6
CONTINUOUS
 62
     3
100
AcDbEllipse
 10
977.1253583671567
 20
360.0000000000106
 30
0.0
 11
-2.755455298081554E-15
 21
-15.00000000000005
 31
0.0
210
0.0
220
0.0
230
1.0
 40
0.9238795325112851
 41
0.0
 42
6.283185307179586
  0
ELLIPSE
  5
183
330
1F
100
AcDbEntity
  8
Ｓ_１_１
  6
CONTINUOUS
 62
     3
100
AcDbEllipse
 10
981.7175595555269
 20
360.0000000000106
 30
0.0
 11
-2.755455298081542E-15
 21
-14.99999999999998
 31
0.0
210
0.0
220
0.0
230
1.0
 40
0.923879532511285
 41
3.30804565559539
 42
6.116732305173993
  0
LINE
  5
184
330
1F
100
AcDbEntity
  8
Ｓ_１_１
  6
CONTINUOUS
 62
     3
100
AcDbLine
 10
977.0981618930307
 20
305.5025253169493
 30
0.0
 11
1004.582411440929
 21
335.2512626585373
 31
0.0
  0
LINE
  5
185
330
1F
100
AcDbEntity
  8
Ｓ_１_１
  6
CONTINUOUS
 62
     3
100
AcDbLine
 10
972.5059607046312
 20
305.5025253169493
 30
0.0
 11
999.9902102525446
 21
335.2512626585227
 31
0.0
  0
ELLIPSE
  5
186
330
1F
100
AcDbEntity
  8
Ｓ_１_１
  6
CONTINUOUS
 62
     3
100
AcDbEllipse
 10
981.7175595555307
 20
360.0000000000197
 30
0.0
 11
-1.339999044624049E-14
 21
34.99999999999
 31
0.0
210
0.0
220
0.0
230
1.0
 40
0.9238795325125508
 41
3.926990816988816
 42
6.283185307179586
  0
ELLIPSE
  5
187
330
1F
100
AcDbEntity
  8
Ｓ_１_１
  6
CONTINUOUS
 62
     3
100
AcDbEllipse
 10
977.1253583671603
 20
360.0000000000197
 30
0.0
 11
-1.339999044624049E-14
 21
34.99999999999
 31
0.0
210
0.0
220
0.0
230
1.0
 40
0.9238795325125508
 41
3.926990816988269
 42
6.283185307179586
  0
LINE
  5
188
330
1F
100
AcDbEntity
  8
Ｓ_１_１
  6
CONTINUOUS
 62
     3
100
AcDbLine
 10
981.7175595555307
 20
395.0000000000106
 30
0.0
 11
898.595598103682
 21
395.0000000000106
 31
0.0
  0
LINE
  5
189
330
1F
100
AcDbEntity
  8
Ｓ_１_１
  6
CONTINUOUS
 62
     3
100
AcDbLine
 10
898.595598103682
 20
395.0000000000106
 30
0.0
 11
898.595598103682
 21
224.9999999999997
 31
0.0
  0
LINE
  5
18A
330
1F
100
AcDbEntity
  8
Ｓ_１_１
  6
CONTINUOUS
 62
     3
100
AcDbLine
 10
542.9019780871274
 20
225.0000000000106
 30
0.0
 11
542.9019780871274
 21
305.502525316953
 31
0.0
  0
LINE
  5
18B
330
1F
100
AcDbEntity
  8
Ｓ_１_１
  6
CONTINUOUS
 62
     3
100
AcDbLine
 10
547.4941792755287
 20
225.0000000000106
 30
0.0
 11
547.4941792755287
 21
305.502525316953
 31
0.0
  0
LINE
  5
18C
330
1F
100
AcDbEntity
  8
Ｓ_１_１
  6
CONTINUOUS
 62
     3
100
AcDbLine
 10
542.9019780871274
 20
305.502525316953
 30
0.0
 11
547.4941792755287
 21
305.502525316953
 31
0.0
  0
ELLIPSE
  5
18D
330
1F
100
AcDbEntity
  8
Ｓ_１_１
  6
CONTINUOUS
 62
     3
100
AcDbEllipse
 10
542.8747816130015
 20
360.0000000000106
 30
0.0
 11
-2.755455298081554E-15
 21
-15.00000000000005
 31
0.0
210
0.0
220
0.0
230
1.0
 40
0.9238795325112851
 41
0.0
 42
6.283185307179586
  0
ELLIPSE
  5
18E
330
1F
100
AcDbEntity
  8
Ｓ_１_１
  6
CONTINUOUS
 62
     3
100
AcDbEllipse
 10
538.2825804246311
 20
360.0000000000106
 30
0.0
 11
-2.755455298081542E-15
 21
-14.99999999999998
 31
0.0
210
0.0
220
0.0
230
1.0
 40
0.923879532511285
 41
0.1664530020055955
 42
2.975139651584199
  0
LINE
  5
18F
330
1F
100
AcDbEntity
  8
Ｓ_１_１
  6
CONTINUOUS
 62
     3
100
AcDbLine
 10
542.9019780871274
 20
305.5025253169512
 30
0.0
 11
515.4177285392304
 21
335.2512626585373
 31
0.0
  0
LINE
  5
190
330
1F
100
AcDbEntity
  8
Ｓ_１_１
  6
CONTINUOUS
 62
     3
100
AcDbLine
 10
547.4941792755269
 20
305.5025253169512
 30
0.0
 11
520.0099297276136
 21
335.2512626585245
 31
0.0
  0
ELLIPSE
  5
191
330
1F
100
AcDbEntity
  8
Ｓ_１_１
  6
CONTINUOUS
 62
     3
100
AcDbEllipse
 10
538.2825804246274
 20
360.0000000000197
 30
0.0
 11
-1.339999044624049E-14
 21
34.99999999999
 31
0.0
210
0.0
220
0.0
230
1.0
 40
0.9238795325125508
 41
0.0
 42
2.35619449019077
  0
ELLIPSE
  5
192
330
1F
100
AcDbEntity
  8
Ｓ_１_１
  6
CONTINUOUS
 62
     3
100
AcDbEllipse
 10
542.8747816129978
 20
360.0000000000197
 30
0.0
 11
-1.339999044624049E-14
 21
34.99999999999
 31
0.0
210
0.0
220
0.0
230
1.0
 40
0.9238795325125508
 41
0.0
 42
2.356194490191315
  0
LINE
  5
193
330
1F
100
AcDbEntity
  8
Ｓ_１_１
  6
CONTINUOUS
 62
     3
100
AcDbLine
 10
538.2825804246274
 20
395.0000000000106
 30
0.0
 11
621.4045418764779
 21
395.0000000000106
 31
0.0
  0
LINE
  5
194
330
1F
100
AcDbEntity
  8
Ｓ_１_１
  6
CONTINUOUS
 62
     3
100
AcDbLine
 10
621.4045418764779
 20
395.0000000000106
 30
0.0
 11
621.4045418764779
 21
224.9999999999997
 31
0.0
  0
LINE
  5
195
330
1F
100
AcDbEntity
  8
Ｓ_１_１
  6
CONTINUOUS
 62
     3
100
AcDbLine
 10
1532.997480355602
 20
580.000102999979
 30
0.0
 11
1532.997480355602
 21
715.0001029999792
 31
0.0
  0
LINE
  5
196
330
1F
100
AcDbEntity
  8
Ｓ_１_１
  6
CONTINUOUS
 62
     3
100
AcDbLine
 10
1564.997480355602
 20
580.000102999979
 30
0.0
 11
1564.997480355602
 21
715.0001029999792
 31
0.0
  0
LINE
  5
197
330
1F
100
AcDbEntity
  8
Ｓ_１_１
  6
CONTINUOUS
 62
     3
100
AcDbLine
 10
1532.997480355602
 20
680.00010300002
 30
0.0
 11
1564.997480355602
 21
680.00010300002
 31
0.0
  0
ARC
  5
198
330
1F
100
AcDbEntity
  8
Ｓ_１_１
  6
CONTINUOUS
 62
     3
100
AcDbCircle
 10
1520.9974803556
 20
595.00010299998
 30
0.0
 40
1.0
100
AcDbArc
 50
0.0
 51
90.00000000000001
  0
LINE
  5
199
330
1F
100
AcDbEntity
  8
Ｓ_１_１
  6
CONTINUOUS
 62
     3
100
AcDbLine
 10
1521.9974803556
 20
595.00010299998
 30
0.0
 11
1521.9974803556
 21
580.00010299998
 31
0.0
  0
LINE
  5
19A
330
1F
100
AcDbEntity
  8
Ｓ_１_１
  6
CONTINUOUS
 62
     3
100
AcDbLine
 10
1498.9974803556
 20
596.00010299998
 30
0.0
 11
1520.9974803556
 21
596.00010299998
 31
0.0
  0
ARC
  5
19B
330
1F
100
AcDbEntity
  8
Ｓ_１_１
  6
CONTINUOUS
 62
     3
100
AcDbCircle
 10
1498.9974803556
 20
595.00010299998
 30
0.0
 40
1.0
100
AcDbArc
 50
90.00000000000001
 51
180.0
  0
LINE
  5
19C
330
1F
100
AcDbEntity
  8
Ｓ_１_１
  6
CONTINUOUS
 62
     3
100
AcDbLine
 10
1497.9974803556
 20
595.00010299998
 30
0.0
 11
1497.9974803556
 21
580.00010299998
 31
0.0
  0
LINE
  5
19D
330
1F
100
AcDbEntity
  8
Ｓ_１_１
  6
CONTINUOUS
 62
     3
100
AcDbLine
 10
1678.9974803556
 20
596.00010299998
 30
0.0
 11
1700.9974803556
 21
596.00010299998
 31
0.0
  0
ARC
  5
19E
330
1F
100
AcDbEntity
  8
Ｓ_１_１
  6
CONTINUOUS
 62
     3
100
AcDbCircle
 10
1700.9974803556
 20
595.00010299998
 30
0.0
 40
1.0
100
AcDbArc
 50
0.0
 51
90.00000000000001
  0
LINE
  5
19F
330
1F
100
AcDbEntity
  8
Ｓ_１_１
  6
CONTINUOUS
 62
     3
100
AcDbLine
 10
1701.9974803556
 20
595.00010299998
 30
0.0
 11
1701.9974803556
 21
580.00010299998
 31
0.0
  0
ARC
  5
1A0
330
1F
100
AcDbEntity
  8
Ｓ_１_１
  6
CONTINUOUS
 62
     3
100
AcDbCircle
 10
1678.9974803556
 20
595.00010299998
 30
0.0
 40
1.0
100
AcDbArc
 50
90.00000000000001
 51
180.0
  0
LINE
  5
1A1
330
1F
100
AcDbEntity
  8
Ｓ_１_１
  6
CONTINUOUS
 62
     3
100
AcDbLine
 10
1677.9974803556
 20
595.00010299998
 30
0.0
 11
1677.9974803556
 21
580.00010299998
 31
0.0
  0
LINE
  5
1A2
330
1F
100
AcDbEntity
  8
Ｓ_１_１
  6
CONTINUOUS
 62
     3
100
AcDbLine
 10
1752.497480355602
 20
407.0000000000197
 30
0.0
 11
1631.9974803556
 21
407.0000000000197
 31
0.0
  0
LINE
  5
1A3
330
1F
100
AcDbEntity
  8
Ｓ_１_１
  6
CONTINUOUS
 62
     3
100
AcDbLine
 10
1567.9974803556
 20
407.0000000000197
 30
0.0
 11
1447.497480355602
 21
407.0000000000197
 31
0.0
  0
LINE
  5
1A4
330
1F
100
AcDbEntity
  8
Ｓ_１_１
  6
CONTINUOUS
 62
     3
100
AcDbLine
 10
1624.9974803556
 20
400.0000000000197
 30
0.0
 11
1634.9974803556
 21
410.0000000000197
 31
0.0
  0
LINE
  5
1A5
330
1F
100
AcDbEntity
  8
Ｓ_１_１
  6
CONTINUOUS
 62
     3
100
AcDbLine
 10
1634.9974803556
 20
410.0000000000197
 30
0.0
 11
1749.4974803556
 21
410.0000000000197
 31
0.0
  0
LINE
  5
1A6
330
1F
100
AcDbEntity
  8
Ｓ_１_１
  6
CONTINUOUS
 62
     3
100
AcDbLine
 10
1624.9974803556
 20
400.0000000000197
 30
0.0
 11
1624.9974803556
 21
324.9999980000199
 31
0.0
  0
LINE
  5
1A7
330
1F
100
AcDbEntity
  8
Ｓ_１_１
  6
CONTINUOUS
 62
     3
100
AcDbLine
 10
1564.9974803556
 20
410.0000000000197
 30
0.0
 11
1574.9974803556
 21
400.0000000000197
 31
0.0
  0
LINE
  5
1A8
330
1F
100
AcDbEntity
  8
Ｓ_１_１
  6
CONTINUOUS
 62
     3
100
AcDbLine
 10
1574.9974803556
 20
400.0000000000197
 30
0.0
 11
1574.9974803556
 21
324.9999980000199
 31
0.0
  0
LINE
  5
1A9
330
1F
100
AcDbEntity
  8
Ｓ_１_１
  6
CONTINUOUS
 62
     3
100
AcDbLine
 10
1564.9974803556
 20
410.0000000000197
 30
0.0
 11
1450.4974803556
 21
410.0000000000197
 31
0.0
  0
LINE
  5
1AA
330
1F
100
AcDbEntity
  8
Ｓ_１_１
  6
CONTINUOUS
 62
     3
100
AcDbLine
 10
1752.497480355602
 20
407.0000000000197
 30
0.0
 11
1752.497480355602
 21
395.0000000000197
 31
0.0
  0
LINE
  5
1AB
330
1F
100
AcDbEntity
  8
Ｓ_１_１
  6
CONTINUOUS
 62
     3
100
AcDbLine
 10
1447.497480355602
 20
407.0000000000197
 30
0.0
 11
1447.497480355602
 21
395.0000000000197
 31
0.0
  0
LINE
  5
1AC
330
1F
100
AcDbEntity
  8
Ｓ_１_１
  6
CONTINUOUS
 62
     3
100
AcDbLine
 10
1728.997473355601
 20
502.00000099998
 30
0.0
 11
1728.997473355601
 21
410.0000000000197
 31
0.0
  0
LINE
  5
1AD
330
1F
100
AcDbEntity
  8
Ｓ_１_１
  6
CONTINUOUS
 62
     3
100
AcDbLine
 10
1470.997485355602
 20
502.0000009999818
 30
0.0
 11
1470.997485355602
 21
410.0000000000197
 31
0.0
  0
LINE
  5
1AE
330
1F
100
AcDbEntity
  8
Ｓ_１_１
  6
CONTINUOUS
 62
     3
100
AcDbLine
 10
1752.497480355602
 20
407.0000000000197
 30
0.0
 11
1749.4974803556
 21
410.0000000000197
 31
0.0
  0
LINE
  5
1AF
330
1F
100
AcDbEntity
  8
Ｓ_１_１
  6
CONTINUOUS
 62
     3
100
AcDbLine
 10
1447.497480355602
 20
407.0000000000197
 30
0.0
 11
1450.4974803556
 21
410.0000000000197
 31
0.0
  0
LINE
  5
1B0
330
1F
100
AcDbEntity
  8
Ｓ_１_１
  6
CONTINUOUS
 62
     3
100
AcDbLine
 10
1634.997480355604
 20
680.00010300002
 30
0.0
 11
1666.997480355604
 21
680.00010300002
 31
0.0
  0
LINE
  5
1B1
330
1F
100
AcDbEntity
  8
Ｓ_１_１
  6
CONTINUOUS
 62
     3
100
AcDbLine
 10
1719.9976803556
 20
517.6207029999802
 30
0.0
 11
1479.997580355601
 21
517.6207029999802
 31
0.0
  0
LINE
  5
1B2
330
1F
100
AcDbEntity
  8
Ｓ_１_１
  6
CONTINUOUS
 62
     3
100
AcDbLine
 10
1779.997380355604
 20
680.0001030000191
 30
0.0
 11
1754.997380355602
 21
580.0001030000191
 31
0.0
  0
LINE
  5
1B3
330
1F
100
AcDbEntity
  8
Ｓ_１_１
  6
CONTINUOUS
 62
     3
100
AcDbLine
 10
1779.997380355604
 20
715.0001030000192
 30
0.0
 11
1779.997380355604
 21
680.00010300002
 31
0.0
  0
LINE
  5
1B4
330
1F
100
AcDbEntity
  8
Ｓ_１_１
  6
CONTINUOUS
 62
     3
100
AcDbLine
 10
1419.997580355601
 20
680.00010300002
 30
0.0
 11
1444.997580355601
 21
580.00010300002
 31
0.0
  0
LINE
  5
1B5
330
1F
100
AcDbEntity
  8
Ｓ_１_１
  6
CONTINUOUS
 62
     3
100
AcDbLine
 10
1419.997580355601
 20
715.0001030000201
 30
0.0
 11
1419.997580355601
 21
680.00010300002
 31
0.0
  0
ARC
  5
1B6
330
1F
100
AcDbEntity
  8
Ｓ_１_１
  6
CONTINUOUS
 62
     3
100
AcDbCircle
 10
1599.997480355602
 20
324.9999979999799
 30
0.0
 40
25.0
100
AcDbArc
 50
179.9999999999981
 51
0.0000000000019481
  0
LINE
  5
1B7
330
1F
100
AcDbEntity
  8
Ｓ_１_１
  6
CONTINUOUS
 62
     3
100
AcDbLine
 10
1364.997480355598
 20
199.9999999999997
 30
0.0
 11
1834.997480355598
 21
199.9999999999997
 31
0.0
  0
LINE
  5
1B8
330
1F
100
AcDbEntity
  8
Ｓ_１_１
  6
CONTINUOUS
 62
     3
100
AcDbLine
 10
1834.9974803556
 20
224.9999999999997
 30
0.0
 11
1364.997480355602
 21
224.9999999999997
 31
0.0
  0
LINE
  5
1B9
330
1F
100
AcDbEntity
  8
Ｓ_１_１
  6
CONTINUOUS
 62
     3
100
AcDbLine
 10
1834.9974803556
 20
224.9999999999997
 30
0.0
 11
1834.9974803556
 21
199.9999999999997
 31
0.0
  0
LINE
  5
1BA
330
1F
100
AcDbEntity
  8
Ｓ_１_１
  6
CONTINUOUS
 62
     3
100
AcDbLine
 10
1364.997480355602
 20
199.9999999999997
 30
0.0
 11
1364.997480355602
 21
224.9999999999997
 31
0.0
  0
LINE
  5
1BB
330
1F
100
AcDbEntity
  8
Ｓ_１_１
  6
CONTINUOUS
 62
     3
100
AcDbLine
 10
1444.997580355605
 20
580.00010299998
 30
0.0
 11
1444.997580355603
 21
555.00010299998
 31
0.0
  0
LINE
  5
1BC
330
1F
100
AcDbEntity
  8
Ｓ_１_１
  6
CONTINUOUS
 62
     3
100
AcDbLine
 10
1754.9973803556
 20
580.00010299998
 30
0.0
 11
1754.9973803556
 21
555.000102999979
 31
0.0
  0
LINE
  5
1BD
330
1F
100
AcDbEntity
  8
Ｓ_１_１
  6
CONTINUOUS
 62
     3
100
AcDbLine
 10
1666.997480355604
 20
580.000102999979
 30
0.0
 11
1666.997480355604
 21
715.0001029999792
 31
0.0
  0
LINE
  5
1BE
330
1F
100
AcDbEntity
  8
Ｓ_１_１
  6
CONTINUOUS
 62
     3
100
AcDbLine
 10
1634.997480355604
 20
580.000102999979
 30
0.0
 11
1634.997480355604
 21
715.0001029999792
 31
0.0
  0
LINE
  5
1BF
330
1F
100
AcDbEntity
  8
Ｓ_１_１
  6
CONTINUOUS
 62
     3
100
AcDbLine
 10
1799.997380355604
 20
740.000102999981
 30
0.0
 11
1799.997380355604
 21
715.0001029999801
 31
0.0
  0
LINE
  5
1C0
330
1F
100
AcDbEntity
  8
Ｓ_１_１
  6
CONTINUOUS
 62
     3
100
AcDbLine
 10
1399.997580355603
 20
740.000102999981
 30
0.0
 11
1399.997580355603
 21
715.0001029999801
 31
0.0
  0
LINE
  5
1C1
330
1F
100
AcDbEntity
  8
Ｓ_１_１
  6
CONTINUOUS
 62
     3
100
AcDbLine
 10
1799.997380355602
 20
715.0001029999801
 30
0.0
 11
1399.997580355605
 21
715.0001029999801
 31
0.0
  0
LINE
  5
1C2
330
1F
100
AcDbEntity
  8
Ｓ_１_１
  6
CONTINUOUS
 62
     3
100
AcDbLine
 10
1399.997580355603
 20
740.000102999981
 30
0.0
 11
1799.9973803556
 21
740.0001029999792
 31
0.0
  0
LINE
  5
1C3
330
1F
100
AcDbEntity
  8
Ｓ_１_１
  6
CONTINUOUS
 62
     3
100
AcDbLine
 10
1444.997580355605
 20
580.00010299998
 30
0.0
 11
1754.9973803556
 21
580.00010299998
 31
0.0
  0
LINE
  5
1C4
330
1F
100
AcDbEntity
  8
Ｓ_１_１
  6
CONTINUOUS
 62
     3
100
AcDbLine
 10
1444.997580355603
 20
555.00010299998
 30
0.0
 11
1754.9973803556
 21
555.000102999979
 31
0.0
  0
LINE
  5
1C5
330
1F
100
AcDbEntity
  8
Ｓ_１_１
  6
CONTINUOUS
 62
     3
100
AcDbLine
 10
1682.497473355601
 20
508.0000079999796
 30
0.0
 11
1681.342774355601
 21
510.0000059999799
 31
0.0
  0
LINE
  5
1C6
330
1F
100
AcDbEntity
  8
Ｓ_１_１
  6
CONTINUOUS
 62
     3
100
AcDbLine
 10
1517.497482355601
 20
507.9999989999793
 30
0.0
 11
1518.652181355601
 21
509.9999969999795
 31
0.0
  0
LINE
  5
1C7
330
1F
100
AcDbEntity
  8
Ｓ_１_１
  6
CONTINUOUS
 62
     3
100
AcDbLine
 10
1682.497478355601
 20
507.9999999999797
 30
0.0
 11
1517.497480355602
 21
507.9999999999797
 31
0.0
  0
LINE
  5
1C8
330
1F
100
AcDbEntity
  8
Ｓ_１_１
  6
CONTINUOUS
 62
     3
100
AcDbLine
 10
1473.997486355602
 20
505.0000069999801
 30
0.0
 11
1470.997481355602
 21
502.00000099998
 31
0.0
  0
LINE
  5
1C9
330
1F
100
AcDbEntity
  8
Ｓ_１_１
  6
CONTINUOUS
 62
     3
100
AcDbLine
 10
1728.9974813556
 20
502.0000049999795
 30
0.0
 11
1725.997482355601
 21
505.0000039999791
 31
0.0
  0
LINE
  5
1CA
330
1F
100
AcDbEntity
  8
Ｓ_１_１
  6
CONTINUOUS
 62
     3
100
AcDbLine
 10
1728.997473355601
 20
502.00000099998
 30
0.0
 11
1470.997485355602
 21
502.00000099998
 31
0.0
  0
LINE
  5
1CB
330
1F
100
AcDbEntity
  8
Ｓ_１_１
  6
CONTINUOUS
 62
     3
100
AcDbLine
 10
1725.9974813556
 20
505.0000029999798
 30
0.0
 11
1473.997477355601
 21
505.0000029999798
 31
0.0
  0
LINE
  5
1CC
330
1F
100
AcDbEntity
  8
Ｓ_１_１
  6
CONTINUOUS
 62
     3
100
AcDbLine
 10
1682.497478355601
 20
507.9999999999797
 30
0.0
 11
1682.497478355601
 21
505.0000029999798
 31
0.0
  0
LINE
  5
1CD
330
1F
100
AcDbEntity
  8
Ｓ_１_１
  6
CONTINUOUS
 62
     3
100
AcDbLine
 10
1517.497480355602
 20
507.9999999999797
 30
0.0
 11
1517.497480355602
 21
505.0000029999798
 31
0.0
  0
LINE
  5
1CE
330
1F
100
AcDbEntity
  8
Ｓ_１_１
  6
CONTINUOUS
 62
     3
100
AcDbLine
 10
1681.342778355602
 20
510.0000029999797
 30
0.0
 11
1518.652179355601
 21
510.0000029999797
 31
0.0
  0
LINE
  5
1CF
330
1F
100
AcDbEntity
  8
Ｓ_１_１
  6
CONTINUOUS
 62
     3
100
AcDbLine
 10
1529.997580355601
 20
513.00010299998
 30
0.0
 11
1481.9948803556
 21
515.5160029999803
 31
0.0
  0
LINE
  5
1D0
330
1F
100
AcDbEntity
  8
Ｓ_１_１
  6
CONTINUOUS
 62
     3
100
AcDbLine
 10
1481.9948803556
 20
515.5160029999803
 30
0.0
 11
1479.997580355601
 21
517.6207029999802
 31
0.0
  0
LINE
  5
1D1
330
1F
100
AcDbEntity
  8
Ｓ_１_１
  6
CONTINUOUS
 62
     3
100
AcDbLine
 10
1669.997880355601
 20
513.00010299998
 30
0.0
 11
1529.997580355601
 21
513.00010299998
 31
0.0
  0
LINE
  5
1D2
330
1F
100
AcDbEntity
  8
Ｓ_１_１
  6
CONTINUOUS
 62
     3
100
AcDbLine
 10
1669.997880355601
 20
513.00010299998
 30
0.0
 11
1669.9976803556
 21
510.0000029999797
 31
0.0
  0
LINE
  5
1D3
330
1F
100
AcDbEntity
  8
Ｓ_１_１
  6
CONTINUOUS
 62
     3
100
AcDbLine
 10
1719.9976803556
 20
517.6207029999802
 30
0.0
 11
1718.0004803556
 21
515.5160029999794
 31
0.0
  0
LINE
  5
1D4
330
1F
100
AcDbEntity
  8
Ｓ_１_１
  6
CONTINUOUS
 62
     3
100
AcDbLine
 10
1481.9948803556
 20
515.5160029999803
 30
0.0
 11
1718.0004803556
 21
515.5160029999794
 31
0.0
  0
LINE
  5
1D5
330
1F
100
AcDbEntity
  8
Ｓ_１_１
  6
CONTINUOUS
 62
     3
100
AcDbLine
 10
1669.997880355601
 20
513.00010299998
 30
0.0
 11
1718.0004803556
 21
515.5160029999794
 31
0.0
  0
LINE
  5
1D6
330
1F
100
AcDbEntity
  8
Ｓ_１_１
  6
CONTINUOUS
 62
     3
100
AcDbLine
 10
1529.997580355601
 20
513.00010299998
 30
0.0
 11
1529.997580355601
 21
510.0000029999797
 31
0.0
  0
LINE
  5
1D7
330
1F
100
AcDbEntity
  8
Ｓ_１_１
  6
CONTINUOUS
 62
     3
100
AcDbLine
 10
1464.9972338479
 20
469.999925130534
 30
0.0
 11
1464.997262688378
 21
419.9999251305422
 31
0.0
  0
LINE
  5
1D8
330
1F
100
AcDbEntity
  8
Ｓ_１_１
  6
CONTINUOUS
 62
     3
100
AcDbLine
 10
1440.997333847905
 20
469.9999112871625
 30
0.0
 11
1464.9972338479
 21
469.999925130534
 31
0.0
  0
LINE
  5
1D9
330
1F
100
AcDbEntity
  8
Ｓ_１_１
  6
CONTINUOUS
 62
     3
100
AcDbLine
 10
1464.9972338479
 20
469.999925130534
 30
0.0
 11
1470.997330387054
 21
475.9999085894484
 31
0.0
  0
ARC
  5
1DA
330
1F
100
AcDbEntity
  8
Ｓ_１_１
  6
CONTINUOUS
 62
     3
100
AcDbCircle
 10
1440.997348268144
 20
444.9999112871661
 30
0.0
 40
25.00000000000002
100
AcDbArc
 50
90.0000330487526
 51
270.0000330487525
  0
LINE
  5
1DB
330
1F
100
AcDbEntity
  8
Ｓ_１_１
  6
CONTINUOUS
 62
     3
100
AcDbLine
 10
1440.997362688382
 20
419.9999112871706
 30
0.0
 11
1464.997262688378
 21
419.9999251305422
 31
0.0
  0
LINE
  5
1DC
330
1F
100
AcDbEntity
  8
Ｓ_１_１
  6
CONTINUOUS
 62
     3
100
AcDbLine
 10
1464.997262688378
 20
419.9999251305422
 30
0.0
 11
1470.997366149153
 21
414.0000685954579
 31
0.0
  0
LINE
  5
1DD
330
1F
100
AcDbEntity
  8
Ｓ_１_１
  6
CONTINUOUS
 62
     3
100
AcDbLine
 10
1734.9977803556
 20
470.0000029999798
 30
0.0
 11
1734.9977803556
 21
420.0000029999797
 31
0.0
  0
LINE
  5
1DE
330
1F
100
AcDbEntity
  8
Ｓ_１_１
  6
CONTINUOUS
 62
     3
100
AcDbLine
 10
1758.997680355599
 20
470.0000029999798
 30
0.0
 11
1734.9977803556
 21
470.0000029999798
 31
0.0
  0
LINE
  5
1DF
330
1F
100
AcDbEntity
  8
Ｓ_１_１
  6
CONTINUOUS
 62
     3
100
AcDbLine
 10
1734.9977803556
 20
470.0000029999798
 30
0.0
 11
1728.997680355599
 21
475.9999829979803
 31
0.0
  0
ARC
  5
1E0
330
1F
100
AcDbEntity
  8
Ｓ_１_１
  6
CONTINUOUS
 62
     3
100
AcDbCircle
 10
1758.997680355599
 20
445.0000029999798
 30
0.0
 40
25.00000000000002
100
AcDbArc
 50
270.0
 51
90.00000000000001
  0
LINE
  5
1E1
330
1F
100
AcDbEntity
  8
Ｓ_１_１
  6
CONTINUOUS
 62
     3
100
AcDbLine
 10
1758.997680355599
 20
420.0000029999797
 30
0.0
 11
1734.9977803556
 21
420.0000029999797
 31
0.0
  0
LINE
  5
1E2
330
1F
100
AcDbEntity
  8
Ｓ_１_１
  6
CONTINUOUS
 62
     3
100
AcDbLine
 10
1734.9977803556
 20
420.0000029999797
 30
0.0
 11
1728.997680355599
 21
414.0001430039798
 31
0.0
  0
CIRCLE
  5
1E3
330
1F
100
AcDbEntity
  8
Ｓ_１_１
  6
CONTINUOUS
 62
     3
100
AcDbCircle
 10
1440.9973482681
 20
444.9999112871697
 30
0.0
 40
9.0
  0
CIRCLE
  5
1E4
330
1F
100
AcDbEntity
  8
Ｓ_１_１
  6
CONTINUOUS
 62
     3
100
AcDbCircle
 10
1758.9976803556
 20
444.9999112871697
 30
0.0
 40
9.0
  0
LINE
  5
1E5
330
1F
100
AcDbEntity
  8
Ｓ_１_１
  6
CONTINUOUS
 62
     3
100
AcDbLine
 10
1739.9973803556
 20
530.000102999979
 30
0.0
 11
1459.997580355601
 21
530.000102999979
 31
0.0
  0
LINE
  5
1E6
330
1F
100
AcDbEntity
  8
Ｓ_１_１
  6
CONTINUOUS
 62
     3
100
AcDbLine
 10
1459.997580355601
 20
555.00010299998
 30
0.0
 11
1459.997580355601
 21
530.000102999979
 31
0.0
  0
LINE
  5
1E7
330
1F
100
AcDbEntity
  8
Ｓ_１_１
  6
CONTINUOUS
 62
     3
100
AcDbLine
 10
1739.9973803556
 20
555.00010299998
 30
0.0
 11
1739.9973803556
 21
530.000102999979
 31
0.0
  0
LINE
  5
1E8
330
1F
100
AcDbEntity
  8
Ｓ_１_１
  6
CONTINUOUS
 62
     3
100
AcDbLine
 10
1479.997580355601
 20
530.000102999979
 30
0.0
 11
1479.997580355601
 21
517.6207029999802
 31
0.0
  0
LINE
  5
1E9
330
1F
100
AcDbEntity
  8
Ｓ_１_１
  6
CONTINUOUS
 62
     3
100
AcDbLine
 10
1719.9976803556
 20
530.000102999979
 30
0.0
 11
1719.9976803556
 21
517.6207029999802
 31
0.0
  0
LINE
  5
1EA
330
1F
100
AcDbEntity
  8
Ｓ_１_１
  6
CONTINUOUS
 62
     3
100
AcDbLine
 10
1505.480305135861
 20
225.0000000000106
 30
0.0
 11
1505.480305135861
 21
305.502525316953
 31
0.0
  0
LINE
  5
1EB
330
1F
100
AcDbEntity
  8
Ｓ_１_１
  6
CONTINUOUS
 62
     3
100
AcDbLine
 10
1516.566859526142
 20
225.0000000000106
 30
0.0
 11
1516.566859526142
 21
305.502525316953
 31
0.0
  0
LINE
  5
1EC
330
1F
100
AcDbEntity
  8
Ｓ_１_１
  6
CONTINUOUS
 62
     3
100
AcDbLine
 10
1505.480305135861
 20
305.502525316953
 30
0.0
 11
1516.566859526142
 21
305.502525316953
 31
0.0
  0
ELLIPSE
  5
1ED
330
1F
100
AcDbEntity
  8
Ｓ_１_１
  6
CONTINUOUS
 62
     3
100
AcDbEllipse
 10
1514.653442364317
 20
360.0000000000106
 30
0.0
 11
-2.755455298081553E-15
 21
-15.00000000000005
 31
0.0
210
0.0
220
0.0
230
1.0
 40
0.3826834323650844
 41
0.0
 42
6.283185307179586
  0
LINE
  5
1EE
330
1F
100
AcDbEntity
  8
Ｓ_１_１
  6
CONTINUOUS
 62
     3
100
AcDbLine
 10
1503.566887974099
 20
395.0000000000106
 30
0.0
 11
1516.501201429017
 21
395.0000000000106
 31
0.0
  0
LINE
  5
1EF
330
1F
100
AcDbEntity
  8
Ｓ_１_１
  6
CONTINUOUS
 62
     3
100
AcDbLine
 10
1516.5668595261
 20
305.5025253169503
 30
0.0
 11
1505.182510611709
 21
335.2512626585409
 31
0.0
  0
LINE
  5
1F0
330
1F
100
AcDbEntity
  8
Ｓ_１_１
  6
CONTINUOUS
 62
     3
100
AcDbLine
 10
1505.4803051359
 20
305.5025253169503
 30
0.0
 11
1494.095956221509
 21
335.2512626585409
 31
0.0
  0
ELLIPSE
  5
1F1
330
1F
100
AcDbEntity
  8
Ｓ_１_１
  6
CONTINUOUS
 62
     3
100
AcDbEllipse
 10
1503.566887974099
 20
360.0000000000197
 30
0.0
 11
-1.339999044624049E-14
 21
34.99999999999
 31
0.0
210
0.0
220
0.0
230
1.0
 40
0.3826834323658259
 41
0.0
 42
2.356194490190622
  0
ELLIPSE
  5
1F2
330
1F
100
AcDbEntity
  8
Ｓ_１_１
  6
CONTINUOUS
 62
     3
100
AcDbEllipse
 10
1514.653442364299
 20
360.0000000000197
 30
0.0
 11
-1.339999044624049E-14
 21
34.99999999999
 31
0.0
210
0.0
220
0.0
230
1.0
 40
0.3826834323658259
 41
0.0
 42
2.356194490190632
  0
LINE
  5
1F3
330
1F
100
AcDbEntity
  8
Ｓ_１_１
  6
CONTINUOUS
 62
     3
100
AcDbLine
 10
1547.1815341153
 20
395.0000000000106
 30
0.0
 11
1547.1815341153
 21
224.9999999999997
 31
0.0
  0
LINE
  5
1F4
330
1F
100
AcDbEntity
  8
Ｓ_１_１
  6
CONTINUOUS
 62
     3
100
AcDbLine
 10
1516.501201429017
 20
395.0000000000106
 30
0.0
 11
1547.1815341153
 21
395.0000000000106
 31
0.0
  0
LINE
  5
1F5
330
1F
100
AcDbEntity
  8
Ｓ_１_１
  6
CONTINUOUS
 62
     3
100
AcDbLine
 10
1694.51465557534
 20
225.0000000000106
 30
0.0
 11
1694.51465557534
 21
305.5025253169521
 31
0.0
  0
LINE
  5
1F6
330
1F
100
AcDbEntity
  8
Ｓ_１_１
  6
CONTINUOUS
 62
     3
100
AcDbLine
 10
1683.42810118506
 20
225.0000000000106
 30
0.0
 11
1683.42810118506
 21
305.5025253169521
 31
0.0
  0
LINE
  5
1F7
330
1F
100
AcDbEntity
  8
Ｓ_１_１
  6
CONTINUOUS
 62
     3
100
AcDbLine
 10
1694.51465557534
 20
305.5025253169521
 30
0.0
 11
1683.42810118506
 21
305.5025253169521
 31
0.0
  0
ELLIPSE
  5
1F8
330
1F
100
AcDbEntity
  8
Ｓ_１_１
  6
CONTINUOUS
 62
     3
100
AcDbEllipse
 10
1685.341518346886
 20
360.0000000000106
 30
0.0
 11
-2.755455298081553E-15
 21
-15.00000000000005
 31
0.0
210
0.0
220
0.0
230
1.0
 40
0.3826834323650844
 41
0.0
 42
6.283185307179586
  0
LINE
  5
1F9
330
1F
100
AcDbEntity
  8
Ｓ_１_１
  6
CONTINUOUS
 62
     3
100
AcDbLine
 10
1696.428072737103
 20
395.0000000000106
 30
0.0
 11
1683.493759282186
 21
395.0000000000106
 31
0.0
  0
LINE
  5
1FA
330
1F
100
AcDbEntity
  8
Ｓ_１_１
  6
CONTINUOUS
 62
     3
100
AcDbLine
 10
1683.428101185102
 20
305.5025253169503
 30
0.0
 11
1694.812450099493
 21
335.25126265854
 31
0.0
  0
LINE
  5
1FB
330
1F
100
AcDbEntity
  8
Ｓ_１_１
  6
CONTINUOUS
 62
     3
100
AcDbLine
 10
1694.514655575302
 20
305.5025253169503
 30
0.0
 11
1705.899004489693
 21
335.25126265854
 31
0.0
  0
ELLIPSE
  5
1FC
330
1F
100
AcDbEntity
  8
Ｓ_１_１
  6
CONTINUOUS
 62
     3
100
AcDbEllipse
 10
1696.428072737103
 20
360.0000000000197
 30
0.0
 11
-1.339999044624049E-14
 21
34.99999999999
 31
0.0
210
0.0
220
0.0
230
1.0
 40
0.3826834323658259
 41
3.92699081698897
 42
6.283185307179586
  0
ELLIPSE
  5
1FD
330
1F
100
AcDbEntity
  8
Ｓ_１_１
  6
CONTINUOUS
 62
     3
100
AcDbEllipse
 10
1685.341518346902
 20
360.0000000000197
 30
0.0
 11
-1.339999044624049E-14
 21
34.99999999999
 31
0.0
210
0.0
220
0.0
230
1.0
 40
0.3826834323658259
 41
3.926990816988953
 42
6.283185307179586
  0
LINE
  5
1FE
330
1F
100
AcDbEntity
  8
Ｓ_１_１
  6
CONTINUOUS
 62
     3
100
AcDbLine
 10
1652.813426595903
 20
395.0000000000106
 30
0.0
 11
1652.813426595902
 21
224.9999999999997
 31
0.0
  0
LINE
  5
1FF
330
1F
100
AcDbEntity
  8
Ｓ_１_１
  6
CONTINUOUS
 62
     3
100
AcDbLine
 10
1683.493759282186
 20
395.0000000000106
 30
0.0
 11
1652.813426595903
 21
395.0000000000106
 31
0.0
  0
LINE
  5
200
330
1F
100
AcDbEntity
  8
Ｓ_１_１
  6
CONTINUOUS
 62
     3
100
AcDbLine
 10
1817.095572258553
 20
225.0000000000106
 30
0.0
 11
1817.095572258553
 21
305.5025253169521
 31
0.0
  0
LINE
  5
201
330
1F
100
AcDbEntity
  8
Ｓ_１_１
  6
CONTINUOUS
 62
     3
100
AcDbLine
 10
1812.503371070152
 20
225.0000000000106
 30
0.0
 11
1812.503371070152
 21
305.5025253169521
 31
0.0
  0
LINE
  5
202
330
1F
100
AcDbEntity
  8
Ｓ_１_１
  6
CONTINUOUS
 62
     3
100
AcDbLine
 10
1817.095572258553
 20
305.5025253169521
 30
0.0
 11
1812.503371070152
 21
305.5025253169521
 31
0.0
  0
ELLIPSE
  5
203
330
1F
100
AcDbEntity
  8
Ｓ_１_１
  6
CONTINUOUS
 62
     3
100
AcDbEllipse
 10
1817.122768732678
 20
360.0000000000106
 30
0.0
 11
-2.755455298081554E-15
 21
-15.00000000000005
 31
0.0
210
0.0
220
0.0
230
1.0
 40
0.9238795325112851
 41
0.0
 42
6.283185307179586
  0
ELLIPSE
  5
204
330
1F
100
AcDbEntity
  8
Ｓ_１_１
  6
CONTINUOUS
 62
     3
100
AcDbEllipse
 10
1821.71496992105
 20
360.0000000000106
 30
0.0
 11
-2.755455298081542E-15
 21
-14.99999999999998
 31
0.0
210
0.0
220
0.0
230
1.0
 40
0.923879532511285
 41
3.30804565559539
 42
6.116732305173993
  0
LINE
  5
205
330
1F
100
AcDbEntity
  8
Ｓ_１_１
  6
CONTINUOUS
 62
     3
100
AcDbLine
 10
1817.095572258553
 20
305.5025253169493
 30
0.0
 11
1844.57982180645
 21
335.2512626585363
 31
0.0
  0
LINE
  5
206
330
1F
100
AcDbEntity
  8
Ｓ_１_１
  6
CONTINUOUS
 62
     3
100
AcDbLine
 10
1812.503371070152
 20
305.5025253169493
 30
0.0
 11
1839.987620618067
 21
335.2512626585227
 31
0.0
  0
ELLIPSE
  5
207
330
1F
100
AcDbEntity
  8
Ｓ_１_１
  6
CONTINUOUS
 62
     3
100
AcDbEllipse
 10
1821.714969921053
 20
360.0000000000197
 30
0.0
 11
-1.339999044624049E-14
 21
34.99999999999
 31
0.0
210
0.0
220
0.0
230
1.0
 40
0.9238795325125508
 41
3.926990816988816
 42
6.283185307179586
  0
ELLIPSE
  5
208
330
1F
100
AcDbEntity
  8
Ｓ_１_１
  6
CONTINUOUS
 62
     3
100
AcDbEllipse
 10
1817.122768732683
 20
360.0000000000197
 30
0.0
 11
-1.339999044624049E-14
 21
34.99999999999
 31
0.0
210
0.0
220
0.0
230
1.0
 40
0.9238795325125508
 41
3.926990816988269
 42
6.283185307179586
  0
LINE
  5
209
330
1F
100
AcDbEntity
  8
Ｓ_１_１
  6
CONTINUOUS
 62
     3
100
AcDbLine
 10
1821.714969921053
 20
395.0000000000106
 30
0.0
 11
1738.593008469203
 21
395.0000000000106
 31
0.0
  0
LINE
  5
20A
330
1F
100
AcDbEntity
  8
Ｓ_１_１
  6
CONTINUOUS
 62
     3
100
AcDbLine
 10
1738.593008469203
 20
395.0000000000106
 30
0.0
 11
1738.593008469203
 21
224.9999999999988
 31
0.0
  0
LINE
  5
20B
330
1F
100
AcDbEntity
  8
Ｓ_１_１
  6
CONTINUOUS
 62
     3
100
AcDbLine
 10
1382.899388452648
 20
225.0000000000106
 30
0.0
 11
1382.899388452648
 21
305.502525316953
 31
0.0
  0
LINE
  5
20C
330
1F
100
AcDbEntity
  8
Ｓ_１_１
  6
CONTINUOUS
 62
     3
100
AcDbLine
 10
1387.491589641051
 20
225.0000000000106
 30
0.0
 11
1387.491589641051
 21
305.502525316953
 31
0.0
  0
LINE
  5
20D
330
1F
100
AcDbEntity
  8
Ｓ_１_１
  6
CONTINUOUS
 62
     3
100
AcDbLine
 10
1382.899388452648
 20
305.502525316953
 30
0.0
 11
1387.491589641051
 21
305.502525316953
 31
0.0
  0
ELLIPSE
  5
20E
330
1F
100
AcDbEntity
  8
Ｓ_１_１
  6
CONTINUOUS
 62
     3
100
AcDbEllipse
 10
1382.872191978524
 20
360.0000000000106
 30
0.0
 11
-2.755455298081554E-15
 21
-15.00000000000005
 31
0.0
210
0.0
220
0.0
230
1.0
 40
0.9238795325112851
 41
0.0
 42
6.283185307179586
  0
ELLIPSE
  5
20F
330
1F
100
AcDbEntity
  8
Ｓ_１_１
  6
CONTINUOUS
 62
     3
100
AcDbEllipse
 10
1378.279990790152
 20
360.0000000000106
 30
0.0
 11
-2.755455298081542E-15
 21
-14.99999999999998
 31
0.0
210
0.0
220
0.0
230
1.0
 40
0.923879532511285
 41
0.1664530020055955
 42
2.975139651584199
  0
LINE
  5
210
330
1F
100
AcDbEntity
  8
Ｓ_１_１
  6
CONTINUOUS
 62
     3
100
AcDbLine
 10
1382.89938845265
 20
305.5025253169503
 30
0.0
 11
1355.415138904753
 21
335.2512626585373
 31
0.0
  0
LINE
  5
211
330
1F
100
AcDbEntity
  8
Ｓ_１_１
  6
CONTINUOUS
 62
     3
100
AcDbLine
 10
1387.49158964105
 20
305.5025253169503
 30
0.0
 11
1360.007340093134
 21
335.2512626585236
 31
0.0
  0
ELLIPSE
  5
212
330
1F
100
AcDbEntity
  8
Ｓ_１_１
  6
CONTINUOUS
 62
     3
100
AcDbEllipse
 10
1378.279990790148
 20
360.0000000000197
 30
0.0
 11
-1.339999044624049E-14
 21
34.99999999999
 31
0.0
210
0.0
220
0.0
230
1.0
 40
0.9238795325125508
 41
0.0
 42
2.35619449019077
  0
ELLIPSE
  5
213
330
1F
100
AcDbEntity
  8
Ｓ_１_１
  6
CONTINUOUS
 62
     3
100
AcDbEllipse
 10
1382.872191978519
 20
360.0000000000197
 30
0.0
 11
-1.339999044624049E-14
 21
34.99999999999
 31
0.0
210
0.0
220
0.0
230
1.0
 40
0.9238795325125508
 41
0.0
 42
2.356194490191315
  0
LINE
  5
214
330
1F
100
AcDbEntity
  8
Ｓ_１_１
  6
CONTINUOUS
 62
     3
100
AcDbLine
 10
1378.279990790148
 20
395.0000000000106
 30
0.0
 11
1461.401952241999
 21
395.0000000000106
 31
0.0
  0
LINE
  5
215
330
1F
100
AcDbEntity
  8
Ｓ_１_１
  6
CONTINUOUS
 62
     3
100
AcDbLine
 10
1461.401952241999
 20
395.0000000000106
 30
0.0
 11
1461.401952241999
 21
224.9999999999997
 31
0.0
  0
TEXT
  5
216
330
1F
100
AcDbEntity
  8
Ｓ_１_１
  6
CONTINUOUS
 62
     4
100
AcDbText
 10
1880.0
 20
923.7968749999999
 30
0.0
 40
20.77742494226328
  1
A矢示図
 41
0.999230769230769
  7
EXCADTTF1
 72
     5
 11
1974.5
 21
923.7968749999999
 31
0.0
100
AcDbText
  0
LINE
  5
217
330
1F
100
AcDbEntity
  8
Ｓ_１_１
  6
CONTINUOUS
 62
     3
100
AcDbLine
 10
1880.0
 20
919.9999999999999
 30
0.0
 11
1975.2
 21
919.9999999999999
 31
0.0
  0
DIMENSION
  5
219
330
1F
100
AcDbEntity
  8
Ｓ_１_１
  6
CONTINUOUS
 62
     2
100
AcDbDimension
  2
*D15
 10
360.0
 20
715.0001030000201
 30
0.0
 11
343.5000000000002
 21
771.5001030000201
 31
0.0
 70
   160
  3
ISO-25
100
AcDbAlignedDimension
 13
435.0000699900792
 23
740.0001030000201
 33
0.0
 14
435.0000699900792
 24
715.0001030000201
 34
0.0
 50
90.0
100
AcDbRotatedDimension
1001
ACAD
1000
DSTYLE
1002
{
1070
   270
1070
     2
1070
     6
1000
EX_NORM
1070
     7
1000
EX_NORM
1070
    41
1040
18.0
1070
    42
1040
9.0
1070
    44
1040
6.0
1070
    73
1070
     0
1070
    74
1070
     0
1070
    75
1070
     0
1070
    76
1070
     0
1070
    77
1070
     1
1070
    78
1070
     8
1070
   140
1040
20.77742494226328
1070
   147
1040
0.0
1070
   173
1070
     1
1070
   176
1070
     2
1070
   177
1070
     2
1070
   178
1070
     2
1070
   271
1070
     2
1070
   277
1070
     2
1070
   279
1070
     2
1070
   280
1070
     1
1070
   287
1070
     5
1070
   340
1005
218
1002
}
  0
DIMENSION
  5
229
330
1F
100
AcDbEntity
  8
Ｓ_１_１
  6
CONTINUOUS
 62
     2
100
AcDbDimension
  2
*D16
 10
360.0
 20
410.0000000000201
 30
0.0
 11
343.5000000000001
 21
482.5000515
 31
0.0
 70
   160
  3
ISO-25
100
AcDbAlignedDimension
 13
555.00016999008
 23
555.00010299998
 33
0.0
 14
610.50006999008
 24
410.00000000002
 34
0.0
 50
90.0
100
AcDbRotatedDimension
1001
ACAD
1000
DSTYLE
1002
{
1070
   270
1070
     2
1070
     6
1000
EX_NORM
1070
     7
1000
EX_NORM
1070
    41
1040
18.0
1070
    42
1040
9.0
1070
    44
1040
6.0
1070
    73
1070
     0
1070
    74
1070
     0
1070
    75
1070
     0
1070
    76
1070
     0
1070
    77
1070
     1
1070
    78
1070
     8
1070
   140
1040
20.77742494226328
1070
   147
1040
0.0
1070
   173
1070
     1
1070
   176
1070
     2
1070
   177
1070
     2
1070
   178
1070
     2
1070
   271
1070
     2
1070
   277
1070
     2
1070
   279
1070
     2
1070
   280
1070
     0
1070
   287
1070
     5
1070
   340
1005
218
1002
}
  0
DIMENSION
  5
236
330
1F
100
AcDbEntity
  8
Ｓ_１_１
  6
CONTINUOUS
 62
     2
100
AcDbDimension
  2
*D17
 10
360.0
 20
225.0
 30
0.0
 11
343.5
 21
317.50000000001
 31
0.0
 70
   160
  3
ISO-25
100
AcDbAlignedDimension
 13
610.50006999008
 23
410.00000000002
 33
0.0
 14
525.00006999008
 24
225.0
 34
0.0
 50
90.0
100
AcDbRotatedDimension
1001
ACAD
1000
DSTYLE
1002
{
1070
   270
1070
     2
1070
     6
1000
EX_NORM
1070
     7
1000
EX_NORM
1070
    41
1040
18.0
1070
    42
1040
9.0
1070
    44
1040
6.0
1070
    73
1070
     0
1070
    74
1070
     0
1070
    75
1070
     0
1070
    76
1070
     0
1070
    77
1070
     1
1070
    78
1070
     8
1070
   140
1040
20.77742494226328
1070
   147
1040
0.0
1070
   173
1070
     1
1070
   176
1070
     2
1070
   177
1070
     2
1070
   178
1070
     2
1070
   271
1070
     2
1070
   277
1070
     2
1070
   279
1070
     2
1070
   280
1070
     0
1070
   287
1070
     5
1070
   340
1005
218
1002
}
  0
DIMENSION
  5
243
330
1F
100
AcDbEntity
  8
Ｓ_１_１
  6
CONTINUOUS
 62
     2
100
AcDbDimension
  2
*D18
 10
360.0
 20
224.9999999999997
 30
0.0
 11
343.5000000000001
 21
168.4999999999996
 31
0.0
 70
   160
  3
ISO-25
100
AcDbAlignedDimension
 13
525.0000699900772
 23
199.9999999999997
 33
0.0
 14
525.0000699900772
 24
224.9999999999997
 34
0.0
 50
90.0
100
AcDbRotatedDimension
1001
ACAD
1000
DSTYLE
1002
{
1070
   270
1070
     2
1070
     6
1000
EX_NORM
1070
     7
1000
EX_NORM
1070
    41
1040
18.0
1070
    42
1040
9.0
1070
    44
1040
6.0
1070
    73
1070
     0
1070
    74
1070
     0
1070
    75
1070
     0
1070
    76
1070
     0
1070
    77
1070
     1
1070
    78
1070
     8
1070
   140
1040
20.77742494226328
1070
   147
1040
0.0
1070
   173
1070
     1
1070
   176
1070
     2
1070
   177
1070
     2
1070
   178
1070
     2
1070
   271
1070
     2
1070
   277
1070
     2
1070
   279
1070
     2
1070
   280
1070
     1
1070
   287
1070
     5
1070
   340
1005
218
1002
}
  0
DIMENSION
  5
252
330
1F
100
AcDbEntity
  8
Ｓ_１_１
  6
CONTINUOUS
 62
     2
100
AcDbDimension
  2
*D19
 10
320.0
 20
555.00010299998
 30
0.0
 11
303.5000000000001
 21
377.5000514999899
 31
0.0
 70
   160
  3
ISO-25
100
AcDbAlignedDimension
 13
525.00006999008
 23
200.0
 33
0.0
 14
555.00016999008
 24
555.00010299998
 34
0.0
 50
90.0
100
AcDbRotatedDimension
1001
ACAD
1000
DSTYLE
1002
{
1070
   270
1070
     2
1070
     6
1000
EX_NORM
1070
     7
1000
EX_NORM
1070
    41
1040
18.0
1070
    42
1040
9.0
1070
    44
1040
6.0
1070
    73
1070
     0
1070
    74
1070
     0
1070
    75
1070
     0
1070
    76
1070
     0
1070
    77
1070
     1
1070
    78
1070
     8
1070
   140
1040
20.77742494226328
1070
   147
1040
0.0
1070
   173
1070
     1
1070
   176
1070
     2
1070
   177
1070
     2
1070
   178
1070
     2
1070
   271
1070
     2
1070
   277
1070
     2
1070
   279
1070
     2
1070
   280
1070
     0
1070
   287
1070
     5
1070
   340
1005
218
1002
}
  0
DIMENSION
  5
25F
330
1F
100
AcDbEntity
  8
Ｓ_１_１
  6
CONTINUOUS
 62
     2
100
AcDbDimension
  2
*D20
 10
320.0
 20
740.00010300002
 30
0.0
 11
303.5000000000001
 21
647.500103
 31
0.0
 70
   160
  3
ISO-25
100
AcDbAlignedDimension
 13
555.00016999008
 23
555.00010299998
 33
0.0
 14
435.00006999008
 24
740.00010300002
 34
0.0
 50
90.0
100
AcDbRotatedDimension
1001
ACAD
1000
DSTYLE
1002
{
1070
   270
1070
     2
1070
     6
1000
EX_NORM
1070
     7
1000
EX_NORM
1070
    41
1040
18.0
1070
    42
1040
9.0
1070
    44
1040
6.0
1070
    73
1070
     0
1070
    74
1070
     0
1070
    75
1070
     0
1070
    76
1070
     0
1070
    77
1070
     1
1070
    78
1070
     8
1070
   140
1040
20.77742494226328
1070
   147
1040
0.0
1070
   173
1070
     1
1070
   176
1070
     2
1070
   177
1070
     2
1070
   178
1070
     2
1070
   271
1070
     2
1070
   277
1070
     2
1070
   279
1070
     2
1070
   280
1070
     0
1070
   287
1070
     5
1070
   340
1005
218
1002
}
  0
DIMENSION
  5
26C
330
1F
100
AcDbEntity
  8
Ｓ_１_１
  6
CONTINUOUS
 62
     2
100
AcDbDimension
  2
*D21
 10
280.0
 20
200.0
 30
0.0
 11
263.5000000000001
 21
470.00005150001
 31
0.0
 70
   160
  3
ISO-25
100
AcDbAlignedDimension
 13
435.00006999008
 23
740.00010300002
 33
0.0
 14
525.00006999008
 24
200.0
 34
0.0
 50
90.0
100
AcDbRotatedDimension
1001
ACAD
1000
DSTYLE
1002
{
1070
   270
1070
     2
1070
     6
1000
EX_NORM
1070
     7
1000
EX_NORM
1070
    41
1040
18.0
1070
    42
1040
9.0
1070
    44
1040
6.0
1070
    73
1070
     0
1070
    74
1070
     0
1070
    75
1070
     0
1070
    76
1070
     0
1070
    77
1070
     1
1070
    78
1070
     8
1070
   140
1040
20.77742494226328
1070
   147
1040
0.0
1070
   173
1070
     1
1070
   176
1070
     2
1070
   177
1070
     2
1070
   178
1070
     2
1070
   271
1070
     2
1070
   277
1070
     2
1070
   279
1070
     2
1070
   280
1070
     0
1070
   287
1070
     5
1070
   340
1005
218
1002
}
  0
DIMENSION
  5
279
330
1F
100
AcDbEntity
  8
Ｓ_１_１
  6
CONTINUOUS
 62
     2
100
AcDbDimension
  2
*D22
 10
360.0
 20
1310.0000000001
 30
0.0
 11
343.5000000000001
 21
1160.0000000001
 31
0.0
 70
   160
  3
ISO-25
100
AcDbAlignedDimension
 13
489.9999999999999
 23
1010.0000000001
 33
0.0
 14
489.9999999999999
 24
1310.0000000001
 34
0.0
 50
90.0
100
AcDbRotatedDimension
1001
ACAD
1000
DSTYLE
1002
{
1070
   270
1070
     2
1070
     6
1000
EX_NORM
1070
     7
1000
EX_NORM
1070
    41
1040
18.0
1070
    42
1040
9.0
1070
    44
1040
6.0
1070
    73
1070
     0
1070
    74
1070
     0
1070
    75
1070
     0
1070
    76
1070
     0
1070
    77
1070
     1
1070
    78
1070
     8
1070
   140
1040
20.77742494226328
1070
   147
1040
0.0
1070
   173
1070
     1
1070
   176
1070
     2
1070
   177
1070
     2
1070
   178
1070
     2
1070
   271
1070
     2
1070
   277
1070
     2
1070
   279
1070
     2
1070
   280
1070
     0
1070
   287
1070
     5
1070
   340
1005
218
1002
}
  0
DIMENSION
  5
286
330
1F
100
AcDbEntity
  8
Ｓ_１_１
  6
CONTINUOUS
 62
     2
100
AcDbDimension
  2
*D23
 10
320.0
 20
994.9999999999999
 30
0.0
 11
303.5000000000001
 21
1160.00000000005
 31
0.0
 70
   160
  3
ISO-25
100
AcDbAlignedDimension
 13
520.000061078
 23
1325.0000000001
 33
0.0
 14
520.000061078
 24
994.9999999999999
 34
0.0
 50
90.0
100
AcDbRotatedDimension
1001
ACAD
1000
DSTYLE
1002
{
1070
   270
1070
     2
1070
     6
1000
EX_NORM
1070
     7
1000
EX_NORM
1070
    41
1040
18.0
1070
    42
1040
9.000000000000057
1070
    44
1040
6.0
1070
    73
1070
     0
1070
    74
1070
     0
1070
    75
1070
     0
1070
    76
1070
     0
1070
    77
1070
     1
1070
    78
1070
     8
1070
   140
1040
20.77742494226328
1070
   147
1040
0.0
1070
   173
1070
     1
1070
   176
1070
     2
1070
   177
1070
     2
1070
   178
1070
     2
1070
   271
1070
     2
1070
   277
1070
     2
1070
   279
1070
     2
1070
   280
1070
     0
1070
   287
1070
     5
1070
   340
1005
218
1002
}
  0
DIMENSION
  5
293
330
1F
100
AcDbEntity
  8
Ｓ_１_１
  6
CONTINUOUS
 62
     2
100
AcDbDimension
  2
*D24
 10
710.0
 20
1480.0
 30
0.0
 11
610.0000000000001
 21
1496.5
 31
0.0
 70
   160
  3
ISO-25
100
AcDbAlignedDimension
 13
510.0
 23
1330.0
 33
0.0
 14
710.0
 24
1330.0
 34
0.0
100
AcDbRotatedDimension
1001
ACAD
1000
DSTYLE
1002
{
1070
   270
1070
     2
1070
     6
1000
EX_NORM
1070
     7
1000
EX_NORM
1070
    41
1040
18.0
1070
    42
1040
9.0
1070
    44
1040
6.0
1070
    73
1070
     0
1070
    74
1070
     0
1070
    75
1070
     0
1070
    76
1070
     0
1070
    77
1070
     1
1070
    78
1070
     8
1070
   140
1040
20.77742494226328
1070
   147
1040
0.0
1070
   173
1070
     1
1070
   176
1070
     2
1070
   177
1070
     2
1070
   178
1070
     2
1070
   271
1070
     2
1070
   277
1070
     2
1070
   279
1070
     2
1070
   280
1070
     0
1070
   287
1070
     5
1070
   340
1005
218
1002
}
  0
DIMENSION
  5
2A0
330
1F
100
AcDbEntity
  8
Ｓ_１_１
  6
CONTINUOUS
 62
     2
100
AcDbDimension
  2
*D25
 10
810.0
 20
1480.0
 30
0.0
 11
760.0000000000001
 21
1496.5
 31
0.0
 70
   160
  3
ISO-25
100
AcDbAlignedDimension
 13
710.0
 23
1330.0
 33
0.0
 14
810.0
 24
1330.0
 34
0.0
100
AcDbRotatedDimension
1001
ACAD
1000
DSTYLE
1002
{
1070
   270
1070
     2
1070
     6
1000
EX_NORM
1070
     7
1000
EX_NORM
1070
    41
1040
18.0
1070
    42
1040
9.0
1070
    44
1040
6.0
1070
    73
1070
     0
1070
    74
1070
     0
1070
    75
1070
     0
1070
    76
1070
     0
1070
    77
1070
     1
1070
    78
1070
     8
1070
   140
1040
20.77742494226328
1070
   147
1040
0.0
1070
   173
1070
     1
1070
   176
1070
     2
1070
   177
1070
     2
1070
   178
1070
     2
1070
   271
1070
     2
1070
   277
1070
     2
1070
   279
1070
     2
1070
   280
1070
     0
1070
   287
1070
     5
1070
   340
1005
218
1002
}
  0
DIMENSION
  5
2AD
330
1F
100
AcDbEntity
  8
Ｓ_１_１
  6
CONTINUOUS
 62
     2
100
AcDbDimension
  2
*D26
 10
1010.0
 20
1480.0
 30
0.0
 11
910.0000000000001
 21
1496.5
 31
0.0
 70
   160
  3
ISO-25
100
AcDbAlignedDimension
 13
810.0
 23
1330.0
 33
0.0
 14
1010.0
 24
1330.0
 34
0.0
100
AcDbRotatedDimension
1001
ACAD
1000
DSTYLE
1002
{
1070
   270
1070
     2
1070
     6
1000
EX_NORM
1070
     7
1000
EX_NORM
1070
    41
1040
18.0
1070
    42
1040
9.0
1070
    44
1040
6.0
1070
    73
1070
     0
1070
    74
1070
     0
1070
    75
1070
     0
1070
    76
1070
     0
1070
    77
1070
     1
1070
    78
1070
     8
1070
   140
1040
20.77742494226328
1070
   147
1040
0.0
1070
   173
1070
     1
1070
   176
1070
     2
1070
   177
1070
     2
1070
   178
1070
     2
1070
   271
1070
     2
1070
   277
1070
     2
1070
   279
1070
     2
1070
   280
1070
     0
1070
   287
1070
     5
1070
   340
1005
218
1002
}
  0
DIMENSION
  5
2BA
330
1F
100
AcDbEntity
  8
Ｓ_１_１
  6
CONTINUOUS
 62
     2
100
AcDbDimension
  2
*D27
 10
1085.0
 20
1520.0
 30
0.0
 11
760.000000000005
 21
1536.5
 31
0.0
 70
   160
  3
ISO-25
100
AcDbAlignedDimension
 13
435.00000000001
 23
1334.9999
 33
0.0
 14
1085.0
 24
1334.9999
 34
0.0
100
AcDbRotatedDimension
1001
ACAD
1000
DSTYLE
1002
{
1070
   270
1070
     2
1070
     6
1000
EX_NORM
1070
     7
1000
EX_NORM
1070
    41
1040
18.0
1070
    42
1040
9.0
1070
    44
1040
6.0
1070
    73
1070
     0
1070
    74
1070
     0
1070
    75
1070
     0
1070
    76
1070
     0
1070
    77
1070
     1
1070
    78
1070
     8
1070
   140
1040
20.77742494226328
1070
   147
1040
0.0
1070
   173
1070
     1
1070
   176
1070
     2
1070
   177
1070
     2
1070
   178
1070
     2
1070
   271
1070
     2
1070
   277
1070
     2
1070
   279
1070
     2
1070
   280
1070
     0
1070
   287
1070
     5
1070
   340
1005
218
1002
}
  0
DIMENSION
  5
2C7
330
1F
100
AcDbEntity
  8
Ｓ_１_１
  6
CONTINUOUS
 62
     2
100
AcDbDimension
  2
*D28
 10
650.000061078
 20
840.0
 30
0.0
 11
595.0000610780002
 21
856.5
 31
0.0
 70
   160
  3
ISO-25
100
AcDbAlignedDimension
 13
540.000061078
 23
974.9999999998997
 33
0.0
 14
650.000061078
 24
974.9999999998997
 34
0.0
100
AcDbRotatedDimension
1001
ACAD
1000
DSTYLE
1002
{
1070
   270
1070
     2
1070
     6
1000
EX_NORM
1070
     7
1000
EX_NORM
1070
    41
1040
18.0
1070
    42
1040
9.0
1070
    44
1040
6.0
1070
    73
1070
     0
1070
    74
1070
     0
1070
    75
1070
     0
1070
    76
1070
     0
1070
    77
1070
     1
1070
    78
1070
     8
1070
   140
1040
20.77742494226328
1070
   147
1040
0.0
1070
   173
1070
     1
1070
   176
1070
     2
1070
   177
1070
     2
1070
   178
1070
     2
1070
   271
1070
     2
1070
   277
1070
     2
1070
   279
1070
     2
1070
   280
1070
     0
1070
   287
1070
     5
1070
   340
1005
218
1002
}
  0
DIMENSION
  5
2D4
330
1F
100
AcDbEntity
  8
Ｓ_１_１
  6
CONTINUOUS
 62
     2
100
AcDbDimension
  2
*D29
 10
870.000061078
 20
840.0
 30
0.0
 11
760.0000610780002
 21
856.5
 31
0.0
 70
   160
  3
ISO-25
100
AcDbAlignedDimension
 13
650.000061078
 23
974.9999999998997
 33
0.0
 14
870.000061078
 24
974.9999999998997
 34
0.0
100
AcDbRotatedDimension
1001
ACAD
1000
DSTYLE
1002
{
1070
   270
1070
     2
1070
     6
1000
EX_NORM
1070
     7
1000
EX_NORM
1070
    41
1040
18.0
1070
    42
1040
9.0
1070
    44
1040
6.0
1070
    73
1070
     0
1070
    74
1070
     0
1070
    75
1070
     0
1070
    76
1070
     0
1070
    77
1070
     1
1070
    78
1070
     8
1070
   140
1040
20.77742494226328
1070
   147
1040
0.0
1070
   173
1070
     1
1070
   176
1070
     2
1070
   177
1070
     2
1070
   178
1070
     2
1070
   271
1070
     2
1070
   277
1070
     2
1070
   279
1070
     2
1070
   280
1070
     0
1070
   287
1070
     5
1070
   340
1005
218
1002
}
  0
DIMENSION
  5
2E1
330
1F
100
AcDbEntity
  8
Ｓ_１_１
  6
CONTINUOUS
 62
     2
100
AcDbDimension
  2
*D30
 10
980.0000610779999
 20
840.0
 30
0.0
 11
925.000061078
 21
856.5
 31
0.0
 70
   160
  3
ISO-25
100
AcDbAlignedDimension
 13
870.000061078
 23
974.9999999998997
 33
0.0
 14
980.0000610779999
 24
974.9999999998997
 34
0.0
100
AcDbRotatedDimension
1001
ACAD
1000
DSTYLE
1002
{
1070
   270
1070
     2
1070
     6
1000
EX_NORM
1070
     7
1000
EX_NORM
1070
    41
1040
18.0
1070
    42
1040
9.0
1070
    44
1040
6.0
1070
    73
1070
     0
1070
    74
1070
     0
1070
    75
1070
     0
1070
    76
1070
     0
1070
    77
1070
     1
1070
    78
1070
     8
1070
   140
1040
20.77742494226328
1070
   147
1040
0.0
1070
   173
1070
     1
1070
   176
1070
     2
1070
   177
1070
     2
1070
   178
1070
     2
1070
   271
1070
     2
1070
   277
1070
     2
1070
   279
1070
     2
1070
   280
1070
     0
1070
   287
1070
     5
1070
   340
1005
218
1002
}
  0
DIMENSION
  5
2EE
330
1F
100
AcDbEntity
  8
Ｓ_１_１
  6
CONTINUOUS
 62
     2
100
AcDbDimension
  2
*D31
 10
1280.0
 20
994.9999999999999
 30
0.0
 11
1263.5
 21
1160.0
 31
0.0
 70
   160
  3
ISO-25
100
AcDbAlignedDimension
 13
1415.0
 23
1325.0
 33
0.0
 14
1415.0
 24
994.9999999999999
 34
0.0
 50
90.0
100
AcDbRotatedDimension
1001
ACAD
1000
DSTYLE
1002
{
1070
   270
1070
     2
1070
     6
1000
EX_NORM
1070
     7
1000
EX_NORM
1070
    41
1040
18.0
1070
    42
1040
9.0
1070
    44
1040
6.0
1070
    73
1070
     0
1070
    74
1070
     0
1070
    75
1070
     0
1070
    76
1070
     0
1070
    77
1070
     1
1070
    78
1070
     8
1070
   140
1040
20.77742494226328
1070
   147
1040
0.0
1070
   173
1070
     1
1070
   176
1070
     2
1070
   177
1070
     2
1070
   178
1070
     2
1070
   271
1070
     2
1070
   277
1070
     2
1070
   279
1070
     2
1070
   280
1070
     0
1070
   287
1070
     5
1070
   340
1005
218
1002
}
  0
DIMENSION
  5
2FB
330
1F
100
AcDbEntity
  8
Ｓ_１_１
  6
CONTINUOUS
 62
     2
100
AcDbDimension
  2
*D32
 10
1240.0
 20
960.0
 30
0.0
 11
1223.5
 21
1160.0
 31
0.0
 70
   160
  3
ISO-25
100
AcDbAlignedDimension
 13
1380.0
 23
1360.0
 33
0.0
 14
1380.0
 24
960.0
 34
0.0
 50
90.0
100
AcDbRotatedDimension
1001
ACAD
1000
DSTYLE
1002
{
1070
   270
1070
     2
1070
     6
1000
EX_NORM
1070
     7
1000
EX_NORM
1070
    41
1040
18.0
1070
    42
1040
9.0
1070
    44
1040
6.0
1070
    73
1070
     0
1070
    74
1070
     0
1070
    75
1070
     0
1070
    76
1070
     0
1070
    77
1070
     1
1070
    78
1070
     8
1070
   140
1040
20.77742494226328
1070
   147
1040
0.0
1070
   173
1070
     1
1070
   176
1070
     2
1070
   177
1070
     2
1070
   178
1070
     2
1070
   271
1070
     2
1070
   277
1070
     2
1070
   279
1070
     2
1070
   280
1070
     0
1070
   287
1070
     5
1070
   340
1005
218
1002
}
  0
DIMENSION
  5
308
330
1F
100
AcDbEntity
  8
Ｓ_１_１
  6
CONTINUOUS
 62
     2
100
AcDbDimension
  2
*D33
 10
1200.0
 20
924.9999999999998
 30
0.0
 11
1183.5
 21
1160.0
 31
0.0
 70
   160
  3
ISO-25
100
AcDbAlignedDimension
 13
1380.0
 23
1395.0
 33
0.0
 14
1380.0
 24
924.9999999999998
 34
0.0
 50
90.0
100
AcDbRotatedDimension
1001
ACAD
1000
DSTYLE
1002
{
1070
   270
1070
     2
1070
     6
1000
EX_NORM
1070
     7
1000
EX_NORM
1070
    41
1040
18.0
1070
    42
1040
9.0
1070
    44
1040
6.0
1070
    73
1070
     0
1070
    74
1070
     0
1070
    75
1070
     0
1070
    76
1070
     0
1070
    77
1070
     1
1070
    78
1070
     8
1070
   140
1040
20.77742494226328
1070
   147
1040
0.0
1070
   173
1070
     1
1070
   176
1070
     2
1070
   177
1070
     2
1070
   178
1070
     2
1070
   271
1070
     2
1070
   277
1070
     2
1070
   279
1070
     2
1070
   280
1070
     0
1070
   287
1070
     5
1070
   340
1005
218
1002
}
  0
DIMENSION
  5
315
330
1F
100
AcDbEntity
  8
Ｓ_１_１
  6
CONTINUOUS
 62
     2
100
AcDbDimension
  2
*D34
 10
1765.0
 20
1480.0
 30
0.0
 11
1600.0
 21
1496.5
 31
0.0
 70
   160
  3
ISO-25
100
AcDbAlignedDimension
 13
1435.0
 23
1345.0
 33
0.0
 14
1765.0
 24
1345.0
 34
0.0
100
AcDbRotatedDimension
1001
ACAD
1000
DSTYLE
1002
{
1070
   270
1070
     2
1070
     6
1000
EX_NORM
1070
     7
1000
EX_NORM
1070
    41
1040
18.0
1070
    42
1040
9.0
1070
    44
1040
6.0
1070
    73
1070
     0
1070
    74
1070
     0
1070
    75
1070
     0
1070
    76
1070
     0
1070
    77
1070
     1
1070
    78
1070
     8
1070
   140
1040
20.77742494226328
1070
   147
1040
0.0
1070
   173
1070
     1
1070
   176
1070
     2
1070
   177
1070
     2
1070
   178
1070
     2
1070
   271
1070
     2
1070
   277
1070
     2
1070
   279
1070
     2
1070
   280
1070
     0
1070
   287
1070
     5
1070
   340
1005
218
1002
}
  0
DIMENSION
  5
322
330
1F
100
AcDbEntity
  8
Ｓ_１_１
  6
CONTINUOUS
 62
     2
100
AcDbDimension
  2
*D35
 10
1800.0
 20
1520.0
 30
0.0
 11
1600.0
 21
1536.5
 31
0.0
 70
   160
  3
ISO-25
100
AcDbAlignedDimension
 13
1400.0
 23
1380.0
 33
0.0
 14
1800.0
 24
1380.0
 34
0.0
100
AcDbRotatedDimension
1001
ACAD
1000
DSTYLE
1002
{
1070
   270
1070
     2
1070
     6
1000
EX_NORM
1070
     7
1000
EX_NORM
1070
    41
1040
18.0
1070
    42
1040
9.0
1070
    44
1040
6.0
1070
    73
1070
     0
1070
    74
1070
     0
1070
    75
1070
     0
1070
    76
1070
     0
1070
    77
1070
     1
1070
    78
1070
     8
1070
   140
1040
20.77742494226328
1070
   147
1040
0.0
1070
   173
1070
     1
1070
   176
1070
     2
1070
   177
1070
     2
1070
   178
1070
     2
1070
   271
1070
     2
1070
   277
1070
     2
1070
   279
1070
     2
1070
   280
1070
     0
1070
   287
1070
     5
1070
   340
1005
218
1002
}
  0
DIMENSION
  5
32F
330
1F
100
AcDbEntity
  8
Ｓ_１_１
  6
CONTINUOUS
 62
     2
100
AcDbDimension
  2
*D36
 10
1835.0
 20
1560.0
 30
0.0
 11
1600.0
 21
1576.5
 31
0.0
 70
   160
  3
ISO-25
100
AcDbAlignedDimension
 13
1365.0
 23
1380.0
 33
0.0
 14
1835.0
 24
1380.0
 34
0.0
100
AcDbRotatedDimension
1001
ACAD
1000
DSTYLE
1002
{
1070
   270
1070
     2
1070
     6
1000
EX_NORM
1070
     7
1000
EX_NORM
1070
    41
1040
18.0
1070
    42
1040
9.0
1070
    44
1040
6.0
1070
    73
1070
     0
1070
    74
1070
     0
1070
    75
1070
     0
1070
    76
1070
     0
1070
    77
1070
     1
1070
    78
1070
     8
1070
   140
1040
20.77742494226328
1070
   147
1040
0.0
1070
   173
1070
     1
1070
   176
1070
     2
1070
   177
1070
     2
1070
   178
1070
     2
1070
   271
1070
     2
1070
   277
1070
     2
1070
   279
1070
     2
1070
   280
1070
     0
1070
   287
1070
     5
1070
   340
1005
218
1002
}
  0
DIMENSION
  5
33C
330
1F
100
AcDbEntity
  8
Ｓ_１_１
  6
CONTINUOUS
 62
     2
100
AcDbDimension
  2
*D37
 10
1854.050753558983
 20
480.0
 30
0.0
 11
1905.800753558983
 21
496.5
 31
0.0
 70
   160
  1
(508)
  3
ISO-25
100
AcDbAlignedDimension
 13
1345.944207152218
 23
360.0000000000197
 33
0.0
 14
1854.050753558983
 24
360.0000000000197
 34
0.0
100
AcDbRotatedDimension
1001
ACAD
1000
DSTYLE
1002
{
1070
   270
1070
     2
1070
     6
1000
EX_NORM
1070
     7
1000
EX_NORM
1070
    41
1040
18.0
1070
    42
1040
9.0
1070
    44
1040
6.0
1070
    73
1070
     0
1070
    74
1070
     0
1070
    75
1070
     0
1070
    76
1070
     0
1070
    77
1070
     1
1070
    78
1070
     8
1070
   140
1040
20.77742494226328
1070
   147
1040
0.0
1070
   173
1070
     1
1070
   176
1070
     2
1070
   177
1070
     2
1070
   178
1070
     2
1070
   271
1070
     2
1070
   277
1070
     2
1070
   279
1070
     2
1070
   280
1070
     2
1070
   287
1070
     5
1070
   340
1005
218
1002
}
  0
LINE
  5
349
330
1F
100
AcDbEntity
  8
Ｓ_１_１
  6
EXLTYPE0
 62
     2
100
AcDbLine
 10
631.0000819900777
 20
228.0000109999816
 30
0.0
 11
634.0000809900773
 21
225.0000119999819
 31
0.0
  0
LINE
  5
34A
330
1F
100
AcDbEntity
  8
Ｓ_１_１
  6
EXLTYPE0
 62
     2
100
AcDbLine
 10
886.0000769900795
 20
225.0000089999827
 30
0.0
 11
889.0000759900792
 21
228.0000089999827
 31
0.0
  0
LINE
  5
34B
330
1F
100
AcDbEntity
  8
Ｓ_１_１
  6
EXLTYPE0
 62
     2
100
AcDbLine
 10
642.0000699900772
 20
555.0001029999818
 30
0.0
 11
640.0001699900783
 21
553.0000029999825
 31
0.0
  0
LINE
  5
34C
330
1F
100
AcDbEntity
  8
Ｓ_１_１
  6
EXLTYPE0
 62
     2
100
AcDbLine
 10
878.0002699900795
 20
555.0001029999818
 30
0.0
 11
880.0002699900793
 21
553.0000029999825
 31
0.0
  0
LINE
  5
34D
330
1F
100
AcDbEntity
  8
Ｓ_１_１
  6
EXLTYPE0
 62
     2
100
AcDbLine
 10
640.0001699900783
 20
553.0000030000207
 30
0.0
 11
880.0002699900793
 21
553.0000030000207
 31
0.0
  0
LINE
  5
34E
330
1F
100
AcDbEntity
  8
Ｓ_１_１
  6
EXLTYPE0
 62
     2
100
AcDbLine
 10
631.0000749900789
 20
228.0000179999803
 30
0.0
 11
889.0000629900785
 21
228.0000179999803
 31
0.0
  0
ARC
  5
34F
330
1F
100
AcDbEntity
  8
Ｓ_１_１
  6
EXLTYPE0
 62
     2
100
AcDbCircle
 10
760.0000699900772
 20
510.0000029999807
 30
0.0
 40
70.0003999999999
100
AcDbArc
 50
179.9999999999992
 51
0.0000000000007448
  0
LINE
  5
350
330
1F
100
AcDbEntity
  8
Ｓ_１_１
  6
EXLTYPE0
 62
     2
100
AcDbLine
 10
890.500069990079
 20
407.0000000000197
 30
0.0
 11
893.5000699900771
 21
410.0000000000197
 31
0.0
  0
LINE
  5
351
330
1F
100
AcDbEntity
  8
Ｓ_１_１
  6
EXLTYPE0
 62
     2
100
AcDbLine
 10
629.500069990079
 20
407.0000000000197
 30
0.0
 11
626.500069990079
 21
410.0000000000197
 31
0.0
  0
LINE
  5
352
330
1F
100
AcDbEntity
  8
Ｓ_１_１
  6
EXLTYPE0
 62
     2
100
AcDbLine
 10
629.500069990079
 20
407.0000000000197
 30
0.0
 11
629.500069990079
 21
224.9999999999997
 31
0.0
  0
LINE
  5
353
330
1F
100
AcDbEntity
  8
Ｓ_１_１
  6
EXLTYPE0
 62
     2
100
AcDbLine
 10
890.500069990079
 20
407.0000000000215
 30
0.0
 11
890.500069990079
 21
224.9999999999997
 31
0.0
  0
LINE
  5
354
330
1F
100
AcDbEntity
  8
Ｓ_１_１
  6
EXLTYPE0
 62
     2
100
AcDbLine
 10
889.0000629900785
 20
410.0000000000197
 30
0.0
 11
889.0000629900785
 21
228.0000179999803
 31
0.0
  0
LINE
  5
355
330
1F
100
AcDbEntity
  8
Ｓ_１_１
  6
EXLTYPE0
 62
     2
100
AcDbLine
 10
631.0000749900789
 20
410.0000000000014
 30
0.0
 11
631.0000749900789
 21
228.0000179999803
 31
0.0
  0
LINE
  5
356
330
1F
100
AcDbEntity
  8
Ｓ_１_１
  6
EXLTYPE0
 62
     2
100
AcDbLine
 10
639.0001699900783
 20
555.0001029999818
 30
0.0
 11
639.0001699900783
 21
530.0001029999818
 31
0.0
  0
LINE
  5
357
330
1F
100
AcDbEntity
  8
Ｓ_１_１
  6
EXLTYPE0
 62
     2
100
AcDbLine
 10
640.0001699900783
 20
530.0001029999818
 30
0.0
 11
640.0001699900783
 21
553.0000030000207
 31
0.0
  0
LINE
  5
358
330
1F
100
AcDbEntity
  8
Ｓ_１_１
  6
EXLTYPE0
 62
     2
100
AcDbLine
 10
880.0002699900793
 20
530.0001029999818
 30
0.0
 11
880.0002699900793
 21
553.0000030000207
 31
0.0
  0
LINE
  5
359
330
1F
100
AcDbEntity
  8
Ｓ_１_１
  6
EXLTYPE0
 62
     2
100
AcDbLine
 10
880.9999699900761
 20
555.0001029999818
 30
0.0
 11
880.9999699900761
 21
530.0001029999818
 31
0.0
  0
LINE
  5
35A
330
1F
100
AcDbEntity
  8
Ｓ_１_１
  6
EXLTYPE0
 62
     2
100
AcDbLine
 10
1730.497480355602
 20
407.0000000000205
 30
0.0
 11
1730.497480355602
 21
224.9999999999997
 31
0.0
  0
LINE
  5
35B
330
1F
100
AcDbEntity
  8
Ｓ_１_１
  6
EXLTYPE0
 62
     2
100
AcDbLine
 10
1728.997473355601
 20
410.0000000000197
 30
0.0
 11
1728.997473355601
 21
228.0000179999803
 31
0.0
  0
LINE
  5
35C
330
1F
100
AcDbEntity
  8
Ｓ_１_１
  6
EXLTYPE0
 62
     2
100
AcDbLine
 10
1470.997485355602
 20
410.0000000000006
 30
0.0
 11
1470.997485355602
 21
228.0000179999803
 31
0.0
  0
LINE
  5
35D
330
1F
100
AcDbEntity
  8
Ｓ_１_１
  6
EXLTYPE0
 62
     2
100
AcDbLine
 10
1469.4974803556
 20
407.0000000000197
 30
0.0
 11
1469.4974803556
 21
224.9999999999997
 31
0.0
  0
LINE
  5
35E
330
1F
100
AcDbEntity
  8
Ｓ_１_１
  6
EXLTYPE0
 62
     2
100
AcDbLine
 10
1730.497480355602
 20
407.0000000000197
 30
0.0
 11
1733.4974803556
 21
410.0000000000197
 31
0.0
  0
LINE
  5
35F
330
1F
100
AcDbEntity
  8
Ｓ_１_１
  6
EXLTYPE0
 62
     2
100
AcDbLine
 10
1469.497480355602
 20
407.0000000000197
 30
0.0
 11
1466.497480355602
 21
410.0000000000197
 31
0.0
  0
LINE
  5
360
330
1F
100
AcDbEntity
  8
Ｓ_１_１
  6
EXLTYPE0
 62
     2
100
AcDbLine
 10
1470.9974853556
 20
228.0000179999803
 30
0.0
 11
1728.997473355601
 21
228.0000179999803
 31
0.0
  0
LINE
  5
361
330
1F
100
AcDbEntity
  8
Ｓ_１_１
  6
EXLTYPE0
 62
     2
100
AcDbLine
 10
1481.997480355602
 20
555.00010299998
 30
0.0
 11
1479.997580355601
 21
553.0000029999807
 31
0.0
  0
LINE
  5
362
330
1F
100
AcDbEntity
  8
Ｓ_１_１
  6
EXLTYPE0
 62
     2
100
AcDbLine
 10
1717.9976803556
 20
555.00010299998
 30
0.0
 11
1719.9976803556
 21
553.0000029999798
 31
0.0
  0
LINE
  5
363
330
1F
100
AcDbEntity
  8
Ｓ_１_１
  6
EXLTYPE0
 62
     2
100
AcDbLine
 10
1719.9976803556
 20
553.0000029999798
 30
0.0
 11
1479.997580355601
 21
553.0000029999807
 31
0.0
  0
LINE
  5
364
330
1F
100
AcDbEntity
  8
Ｓ_１_１
  6
EXLTYPE0
 62
     2
100
AcDbLine
 10
1470.9974923556
 20
228.0000109999816
 30
0.0
 11
1473.9974913556
 21
225.0000119999819
 31
0.0
  0
LINE
  5
365
330
1F
100
AcDbEntity
  8
Ｓ_１_１
  6
EXLTYPE0
 62
     2
100
AcDbLine
 10
1725.9974873556
 20
225.0000089999818
 30
0.0
 11
1728.997486355602
 21
228.0000089999818
 31
0.0
  0
ARC
  5
366
330
1F
100
AcDbEntity
  8
Ｓ_１_１
  6
EXLTYPE0
 62
     2
100
AcDbCircle
 10
1599.9974803556
 20
510.0000029999788
 30
0.0
 40
70.0003999999999
100
AcDbArc
 50
179.9999999999992
 51
0.0000000000008021
  0
LINE
  5
367
330
1F
100
AcDbEntity
  8
Ｓ_１_１
  6
EXLTYPE0
 62
     2
100
AcDbLine
 10
1478.997580355601
 20
555.0001029999809
 30
0.0
 11
1478.997580355601
 21
530.000102999979
 31
0.0
  0
LINE
  5
368
330
1F
100
AcDbEntity
  8
Ｓ_１_１
  6
EXLTYPE0
 62
     2
100
AcDbLine
 10
1479.997580355601
 20
530.000102999979
 30
0.0
 11
1479.997580355601
 21
553.0000029999807
 31
0.0
  0
LINE
  5
369
330
1F
100
AcDbEntity
  8
Ｓ_１_１
  6
EXLTYPE0
 62
     2
100
AcDbLine
 10
1719.9976803556
 20
530.000102999979
 30
0.0
 11
1719.9976803556
 21
553.0000029999798
 31
0.0
  0
LINE
  5
36A
330
1F
100
AcDbEntity
  8
Ｓ_１_１
  6
EXLTYPE0
 62
     2
100
AcDbLine
 10
1720.997380355599
 20
555.0001029999809
 30
0.0
 11
1720.997380355599
 21
530.000102999979
 31
0.0
  0
LINE
  5
36B
330
1F
100
AcDbEntity
  8
Ｓ_１_１
  6
EXLTYPE2
 62
     1
100
AcDbLine
 10
760.0000699901193
 20
770.9004953745282
 30
0.0
 11
760.0000699901193
 21
188.0415753692308
 31
0.0
  0
LINE
  5
36C
330
1F
100
AcDbEntity
  8
Ｓ_１_１
  6
EXLTYPE2
 62
     1
100
AcDbLine
 10
1599.997480355598
 20
767.393920309298
 30
0.0
 11
1599.997480355598
 21
182.7337345432618
 31
0.0
  0
LINE
  5
36D
330
1F
100
AcDbEntity
  8
Ｓ_１_１
  6
EXLTYPE2
 62
     1
100
AcDbLine
 10
810.0000699900772
 20
602.4000000000011
 30
0.0
 11
810.0000699900772
 21
529.4400000000002
 31
0.0
  0
LINE
  5
36E
330
1F
100
AcDbEntity
  8
Ｓ_１_１
  6
EXLTYPE2
 62
     1
100
AcDbLine
 10
710.0000699900772
 20
602.4000000000011
 30
0.0
 11
710.0000699900772
 21
529.4400000000002
 31
0.0
  0
LINE
  5
36F
330
1F
100
AcDbEntity
  8
Ｓ_１_１
  6
EXLTYPE2
 62
     1
100
AcDbLine
 10
585.0000699900809
 20
570.0958803712198
 30
0.0
 11
585.0000699900809
 21
727.6602555279203
 31
0.0
  0
LINE
  5
370
330
1F
100
AcDbEntity
  8
Ｓ_１_１
  6
EXLTYPE2
 62
     1
100
AcDbLine
 10
935.0000699900772
 20
570.0958803712198
 30
0.0
 11
935.0000699900772
 21
727.6602555279203
 31
0.0
  0
LINE
  5
371
330
1F
100
AcDbEntity
  8
Ｓ_１_１
  6
EXLTYPE2
 62
     1
100
AcDbLine
 10
914.4897234280795
 20
324.9999979999826
 30
0.0
 11
874.4178299900775
 21
324.9999979999826
 31
0.0
  0
LINE
  5
372
330
1F
100
AcDbEntity
  8
Ｓ_１_１
  6
EXLTYPE2
 62
     1
100
AcDbLine
 10
797.0400699900781
 20
444.9999112871697
 30
0.0
 11
722.4000699900787
 21
444.9999112871697
 31
0.0
  0
LINE
  5
373
330
1F
100
AcDbEntity
  8
Ｓ_１_１
  6
EXLTYPE2
 62
     1
100
AcDbLine
 10
664.0419643633793
 20
360.0000000000197
 30
0.0
 11
686.5419643633793
 21
360.0000000000197
 31
0.0
  0
LINE
  5
374
330
1F
100
AcDbEntity
  8
Ｓ_１_１
  6
EXLTYPE2
 62
     1
100
AcDbLine
 10
855.9581756167806
 20
360.0000000000197
 30
0.0
 11
833.4581756167806
 21
360.0000000000197
 31
0.0
  0
LINE
  5
375
330
1F
100
AcDbEntity
  8
Ｓ_１_１
  6
EXLTYPE2
 62
     1
100
AcDbLine
 10
996.7104165520811
 20
360.0000000000197
 30
0.0
 11
952.41041655208
 21
360.0000000000197
 31
0.0
  0
LINE
  5
376
330
1F
100
AcDbEntity
  8
Ｓ_１_１
  6
EXLTYPE2
 62
     1
100
AcDbLine
 10
523.2897234280788
 20
360.0000000000197
 30
0.0
 11
567.5897234280781
 21
360.0000000000197
 31
0.0
  0
LINE
  5
377
330
1F
100
AcDbEntity
  8
Ｓ_１_１
  6
EXLTYPE2
 62
     1
100
AcDbLine
 10
1548.9974803556
 20
727.6602555279203
 30
0.0
 11
1548.9974803556
 21
570.0958803712198
 31
0.0
  0
LINE
  5
378
330
1F
100
AcDbEntity
  8
Ｓ_１_１
  6
EXLTYPE2
 62
     1
100
AcDbLine
 10
1509.9974803556
 20
602.3999999999602
 30
0.0
 11
1509.9974803556
 21
529.4399999999602
 31
0.0
  0
LINE
  5
379
330
1F
100
AcDbEntity
  8
Ｓ_１_１
  6
EXLTYPE2
 62
     1
100
AcDbLine
 10
1689.9974803556
 20
602.3999999999602
 30
0.0
 11
1689.9974803556
 21
529.4399999999602
 31
0.0
  0
LINE
  5
37A
330
1F
100
AcDbEntity
  8
Ｓ_１_１
  6
EXLTYPE2
 62
     1
100
AcDbLine
 10
1650.997480355603
 20
727.6602555279194
 30
0.0
 11
1650.997480355603
 21
570.0958803712198
 31
0.0
  0
LINE
  5
37B
330
1F
100
AcDbEntity
  8
Ｓ_１_１
  6
EXLTYPE2
 62
     1
100
AcDbLine
 10
1568.717480355601
 20
324.9999979999808
 30
0.0
 11
1631.277480355601
 21
324.9999979999808
 31
0.0
  0
LINE
  5
37C
330
1F
100
AcDbEntity
  8
Ｓ_１_１
  6
EXLTYPE2
 62
     1
100
AcDbLine
 10
1440.9973482681
 20
429.9999112871697
 30
0.0
 11
1440.9973482681
 21
459.9999112871697
 31
0.0
  0
LINE
  5
37D
330
1F
100
AcDbEntity
  8
Ｓ_１_１
  6
EXLTYPE2
 62
     1
100
AcDbLine
 10
1455.9973482681
 20
444.9999112871697
 30
0.0
 11
1425.9973482681
 21
444.9999112871697
 31
0.0
  0
LINE
  5
37E
330
1F
100
AcDbEntity
  8
Ｓ_１_１
  6
EXLTYPE2
 62
     1
100
AcDbLine
 10
1758.997612443103
 20
429.9999112871697
 30
0.0
 11
1758.997612443103
 21
459.9999112871697
 31
0.0
  0
LINE
  5
37F
330
1F
100
AcDbEntity
  8
Ｓ_１_１
  6
EXLTYPE2
 62
     1
100
AcDbLine
 10
1743.997612443103
 20
444.9999112871697
 30
0.0
 11
1773.997612443103
 21
444.9999112871697
 31
0.0
  0
LINE
  5
380
330
1F
100
AcDbEntity
  8
Ｓ_１_１
  6
EXLTYPE2
 62
     1
100
AcDbLine
 10
1504.0393747289
 20
360.0000000000197
 30
0.0
 11
1526.5393747289
 21
360.0000000000197
 31
0.0
  0
LINE
  5
381
330
1F
100
AcDbEntity
  8
Ｓ_１_１
  6
EXLTYPE2
 62
     1
100
AcDbLine
 10
1695.955585982301
 20
360.0000000000197
 30
0.0
 11
1673.455585982301
 21
360.0000000000197
 31
0.0
  0
LINE
  5
382
330
1F
100
AcDbEntity
  8
Ｓ_１_１
  6
EXLTYPE2
 62
     1
100
AcDbLine
 10
1836.707826917602
 20
360.0000000000197
 30
0.0
 11
1792.407826917603
 21
360.0000000000197
 31
0.0
  0
LINE
  5
383
330
1F
100
AcDbEntity
  8
Ｓ_１_１
  6
EXLTYPE2
 62
     1
100
AcDbLine
 10
1363.2871337936
 20
360.0000000000197
 30
0.0
 11
1407.587133793599
 21
360.0000000000197
 31
0.0
  0
TEXT
  5
384
330
1F
100
AcDbEntity
  8
Ｓ_１_１
  6
CONTINUOUS
 62
     4
100
AcDbText
 10
997.2
 20
449.93333203187
 30
0.0
 40
20.77742494226328
  1
球面回転ヘッド
 41
0.9992307692307688
  7
EXCADTTF1
 72
     5
 11
1186.2
 21
449.93333203187
 31
0.0
100
AcDbText
  0
LEADER
  5
385
330
1F
100
AcDbEntity
  8
Ｓ_１_１
  6
CONTINUOUS
 62
     2
100
AcDbLeader
  3
ISO-25
 76
     3
 10
826.14281707611
 20
487.08291313079
 30
0.0
 10
990.1532240498899
 20
443.13645703187
 30
0.0
 10
1186.2
 20
443.13645703187
 30
0.0
1001
ACAD
1000
DSTYLE
1002
{
1070
     5
1000
EX_NORM
1070
    41
1040
18.0
1070
   341
1005
7E
1002
}
  0
TEXT
  5
386
330
1F
100
AcDbEntity
  8
Ｓ_１_１
  6
CONTINUOUS
 62
     4
100
AcDbText
 10
1065.0
 20
312.65370577979
 30
0.0
 40
20.77742494226328
  1
安定架台
 41
0.999230769230769
  7
EXCADTTF1
 72
     5
 11
1173.0
 21
312.65370577979
 31
0.0
100
AcDbText
  0
LEADER
  5
387
330
1F
100
AcDbEntity
  8
Ｓ_１_１
  6
CONTINUOUS
 62
     2
100
AcDbLeader
  3
ISO-25
 76
     3
 10
977.09816189303
 20
265.25126265848
 30
0.0
 10
1047.4290689493
 20
305.85683077979
 30
0.0
 10
1173.0
 20
305.85683077979
 30
0.0
1001
ACAD
1000
DSTYLE
1002
{
1070
     5
1000
EX_NORM
1070
    41
1040
18.0
1070
   341
1005
7E
1002
}
  0
TEXT
  5
388
330
1F
100
AcDbEntity
  8
Ｓ_１_１
  6
CONTINUOUS
 62
     4
100
AcDbText
 10
975.0
 20
802.6657427758499
 30
0.0
 40
20.77742494226328
  1
角ヘッド
 41
0.999230769230769
  7
EXCADTTF1
 72
     5
 11
1083.0
 21
802.6657427758499
 31
0.0
100
AcDbText
  0
LEADER
  5
389
330
1F
100
AcDbEntity
  8
Ｓ_１_１
  6
CONTINUOUS
 62
     2
100
AcDbLeader
  3
ISO-25
 76
     3
 10
924.6
 20
740.00010300002
 30
0.0
 10
956.85584638262
 20
795.8688677758499
 30
0.0
 10
1083.0
 20
795.8688677758499
 30
0.0
1001
ACAD
1000
DSTYLE
1002
{
1070
     5
1000
EX_NORM
1070
    41
1040
18.0
1070
   341
1005
7E
1002
}
  0
CIRCLE
  5
38A
330
1F
100
AcDbEntity
  8
Ｓ_１_１
  6
CONTINUOUS
 62
     3
100
AcDbCircle
 10
870.000061077998
 20
1325.00000000004
 30
0.0
 40
13.0
  0
CIRCLE
  5
38B
330
1F
100
AcDbEntity
  8
Ｓ_１_１
  6
CONTINUOUS
 62
     3
100
AcDbCircle
 10
980.0000610779981
 20
994.9999999999399
 30
0.0
 40
13.0
  0
CIRCLE
  5
38C
330
1F
100
AcDbEntity
  8
Ｓ_１_１
  6
CONTINUOUS
 62
     3
100
AcDbCircle
 10
870.000061077998
 20
994.9999999999399
 30
0.0
 40
13.0
  0
CIRCLE
  5
38D
330
1F
100
AcDbEntity
  8
Ｓ_１_１
  6
CONTINUOUS
 62
     3
100
AcDbCircle
 10
650.0000610779981
 20
994.9999999999399
 30
0.0
 40
13.0
  0
CIRCLE
  5
38E
330
1F
100
AcDbEntity
  8
Ｓ_１_１
  6
CONTINUOUS
 62
     3
100
AcDbCircle
 10
540.0000610779981
 20
994.9999999999399
 30
0.0
 40
13.0
  0
CIRCLE
  5
38F
330
1F
100
AcDbEntity
  8
Ｓ_１_１
  6
CONTINUOUS
 62
     3
100
AcDbCircle
 10
980.0000610779981
 20
1325.00000000004
 30
0.0
 40
13.0
  0
CIRCLE
  5
390
330
1F
100
AcDbEntity
  8
Ｓ_１_１
  6
CONTINUOUS
 62
     3
100
AcDbCircle
 10
650.0000610779981
 20
1325.00000000004
 30
0.0
 40
13.0
  0
CIRCLE
  5
391
330
1F
100
AcDbEntity
  8
Ｓ_１_１
  6
CONTINUOUS
 62
     3
100
AcDbCircle
 10
540.0000610779981
 20
1325.00000000004
 30
0.0
 40
13.0
  0
LINE
  5
392
330
1F
100
AcDbEntity
  8
Ｓ_１_１
  6
CONTINUOUS
 62
     3
100
AcDbLine
 10
994.9999999999992
 20
960.0001000000028
 30
0.0
 11
994.9999999999992
 21
940.00000000004
 31
0.0
  0
LINE
  5
393
330
1F
100
AcDbEntity
  8
Ｓ_１_１
  6
CONTINUOUS
 62
     3
100
AcDbLine
 10
994.9999999999992
 20
1380.00000000004
 30
0.0
 11
994.9999999999992
 21
1359.999900000003
 31
0.0
  0
LINE
  5
394
330
1F
100
AcDbEntity
  8
Ｓ_１_１
  6
CONTINUOUS
 62
     3
100
AcDbLine
 10
524.9999999999992
 20
960.0001000000028
 30
0.0
 11
524.9999999999992
 21
940.00000000004
 31
0.0
  0
LINE
  5
395
330
1F
100
AcDbEntity
  8
Ｓ_１_１
  6
CONTINUOUS
 62
     3
100
AcDbLine
 10
524.9999999999992
 20
1380.00000000004
 30
0.0
 11
524.9999999999992
 21
1359.999900000003
 31
0.0
  0
ARC
  5
396
330
1F
100
AcDbEntity
  8
Ｓ_１_１
  6
CONTINUOUS
 62
     3
100
AcDbCircle
 10
959.9999999999973
 20
1360.00000000004
 30
0.0
 40
12.99999999999977
100
AcDbArc
 50
359.9995592630693
 51
180.0004407369307
  0
ARC
  5
397
330
1F
100
AcDbEntity
  8
Ｓ_１_１
  6
CONTINUOUS
 62
     3
100
AcDbCircle
 10
560.0000000000028
 20
1360.00000000004
 30
0.0
 40
12.99999999999977
100
AcDbArc
 50
359.9995592630693
 51
180.0004407369307
  0
ARC
  5
398
330
1F
100
AcDbEntity
  8
Ｓ_１_１
  6
CONTINUOUS
 62
     3
100
AcDbCircle
 10
959.9999999999956
 20
960.0000000000437
 30
0.0
 40
12.99999999999977
100
AcDbArc
 50
179.999559263412
 51
0.0004407365879653
  0
ARC
  5
399
330
1F
100
AcDbEntity
  8
Ｓ_１_１
  6
CONTINUOUS
 62
     3
100
AcDbCircle
 10
560.0000000000028
 20
960.0000000000437
 30
0.0
 40
12.99999999999977
100
AcDbArc
 50
179.999559263412
 51
0.0004407365879653
  0
LINE
  5
39A
330
1F
100
AcDbEntity
  8
Ｓ_１_１
  6
CONTINUOUS
 62
     3
100
AcDbLine
 10
865.999324759764
 20
1395.000000000044
 30
0.0
 11
980.0000000000009
 21
1395.000000000044
 31
0.0
  0
LINE
  5
39B
330
1F
100
AcDbEntity
  8
Ｓ_１_１
  6
CONTINUOUS
 62
     3
100
AcDbLine
 10
671.318950444912
 20
1395.000000000044
 30
0.0
 11
848.6810495550862
 21
1395.000000000044
 31
0.0
  0
LINE
  5
39C
330
1F
100
AcDbEntity
  8
Ｓ_１_１
  6
CONTINUOUS
 62
     3
100
AcDbLine
 10
540.000000000001
 20
1395.000000000044
 30
0.0
 11
654.0006752402343
 21
1395.000000000044
 31
0.0
  0
LINE
  5
39D
330
1F
100
AcDbEntity
  8
Ｓ_１_１
  6
CONTINUOUS
 62
     3
100
AcDbLine
 10
865.999324759764
 20
925.00000000004
 30
0.0
 11
979.9999999999992
 21
925.00000000004
 31
0.0
  0
LINE
  5
39E
330
1F
100
AcDbEntity
  8
Ｓ_１_１
  6
CONTINUOUS
 62
     3
100
AcDbLine
 10
671.3189504449139
 20
925.00000000004
 30
0.0
 11
848.6810495550862
 21
925.00000000004
 31
0.0
  0
LINE
  5
39F
330
1F
100
AcDbEntity
  8
Ｓ_１_１
  6
CONTINUOUS
 62
     3
100
AcDbLine
 10
540.000000000001
 20
925.00000000004
 30
0.0
 11
654.0006752402343
 21
925.00000000004
 31
0.0
  0
LINE
  5
3A0
330
1F
100
AcDbEntity
  8
Ｓ_１_１
  6
CONTINUOUS
 62
     3
100
AcDbLine
 10
525.000000000001
 20
940.00000000004
 30
0.0
 11
540.000000000001
 21
925.00000000004
 31
0.0
  0
LINE
  5
3A1
330
1F
100
AcDbEntity
  8
Ｓ_１_１
  6
CONTINUOUS
 62
     3
100
AcDbLine
 10
525.000000000001
 20
1380.000000000044
 30
0.0
 11
540.000000000001
 21
1395.000000000044
 31
0.0
  0
LINE
  5
3A2
330
1F
100
AcDbEntity
  8
Ｓ_１_１
  6
CONTINUOUS
 62
     3
100
AcDbLine
 10
995.0000000000009
 20
1380.000000000042
 30
0.0
 11
980.0000000000009
 21
1395.000000000044
 31
0.0
  0
LINE
  5
3A3
330
1F
100
AcDbEntity
  8
Ｓ_１_１
  6
CONTINUOUS
 62
     3
100
AcDbLine
 10
994.9999999999974
 20
940.00000000004
 30
0.0
 11
979.9999999999992
 21
925.00000000004
 31
0.0
  0
LINE
  5
3A4
330
1F
100
AcDbEntity
  8
Ｓ_１_１
  6
CONTINUOUS
 62
     3
100
AcDbLine
 10
460.0000000000064
 20
1359.999900000003
 30
0.0
 11
435.0000000000065
 21
1334.999900000001
 31
0.0
  0
LINE
  5
3A5
330
1F
100
AcDbEntity
  8
Ｓ_１_１
  6
CONTINUOUS
 62
     3
100
AcDbLine
 10
435.0000000000065
 20
1334.999900000001
 30
0.0
 11
435.0000000000056
 21
985.0001000000011
 31
0.0
  0
LINE
  5
3A6
330
1F
100
AcDbEntity
  8
Ｓ_１_１
  6
CONTINUOUS
 62
     3
100
AcDbLine
 10
460.0000000000064
 20
960.0001000000028
 30
0.0
 11
435.0000000000065
 21
985.0001000000029
 31
0.0
  0
LINE
  5
3A7
330
1F
100
AcDbEntity
  8
Ｓ_１_１
  6
CONTINUOUS
 62
     3
100
AcDbLine
 10
1059.999999999994
 20
1359.999900000003
 30
0.0
 11
1084.999999999992
 21
1334.999900000001
 31
0.0
  0
LINE
  5
3A8
330
1F
100
AcDbEntity
  8
Ｓ_１_１
  6
CONTINUOUS
 62
     3
100
AcDbLine
 10
1084.999999999992
 20
1334.999900000001
 30
0.0
 11
1084.99999999999
 21
985.0001000000066
 31
0.0
  0
LINE
  5
3A9
330
1F
100
AcDbEntity
  8
Ｓ_１_１
  6
CONTINUOUS
 62
     3
100
AcDbLine
 10
1059.999999999994
 20
960.0001000000028
 30
0.0
 11
1084.999999999992
 21
985.0001000000029
 31
0.0
  0
LINE
  5
3AA
330
1F
100
AcDbEntity
  8
Ｓ_１_１
  6
CONTINUOUS
 62
     3
100
AcDbLine
 10
1059.999999999994
 20
1359.999900000003
 30
0.0
 11
460.0000000000064
 21
1359.999900000003
 31
0.0
  0
LINE
  5
3AB
330
1F
100
AcDbEntity
  8
Ｓ_１_１
  6
CONTINUOUS
 62
     3
100
AcDbLine
 10
1059.999999999994
 20
960.0001000000028
 30
0.0
 11
460.0000000000064
 21
960.0001000000028
 31
0.0
  0
CIRCLE
  5
3AC
330
1F
100
AcDbEntity
  8
Ｓ_１_１
  6
CONTINUOUS
 62
     3
100
AcDbCircle
 10
809.9999999999992
 20
1310.000000000055
 30
0.0
 40
13.00000000000001
  0
CIRCLE
  5
3AD
330
1F
100
AcDbEntity
  8
Ｓ_１_１
  6
CONTINUOUS
 62
     3
100
AcDbCircle
 10
1009.999999999999
 20
1310.000000000055
 30
0.0
 40
13.00000000000001
  0
CIRCLE
  5
3AE
330
1F
100
AcDbEntity
  8
Ｓ_１_１
  6
CONTINUOUS
 62
     3
100
AcDbCircle
 10
809.9999999999992
 20
1010.000000000054
 30
0.0
 40
13.00000000000001
  0
CIRCLE
  5
3AF
330
1F
100
AcDbEntity
  8
Ｓ_１_１
  6
CONTINUOUS
 62
     3
100
AcDbCircle
 10
1009.999999999999
 20
1010.000000000054
 30
0.0
 40
13.00000000000001
  0
CIRCLE
  5
3B0
330
1F
100
AcDbEntity
  8
Ｓ_１_１
  6
CONTINUOUS
 62
     3
100
AcDbCircle
 10
710.000000000001
 20
1310.000000000055
 30
0.0
 40
13.00000000000001
  0
CIRCLE
  5
3B1
330
1F
100
AcDbEntity
  8
Ｓ_１_１
  6
CONTINUOUS
 62
     3
100
AcDbCircle
 10
510.000000000001
 20
1310.000000000055
 30
0.0
 40
13.00000000000001
  0
CIRCLE
  5
3B2
330
1F
100
AcDbEntity
  8
Ｓ_１_１
  6
CONTINUOUS
 62
     3
100
AcDbCircle
 10
710.000000000001
 20
1010.000000000054
 30
0.0
 40
13.00000000000001
  0
CIRCLE
  5
3B3
330
1F
100
AcDbEntity
  8
Ｓ_１_１
  6
CONTINUOUS
 62
     3
100
AcDbCircle
 10
510.000000000001
 20
1010.000000000054
 30
0.0
 40
13.00000000000001
  0
LINE
  5
3B4
330
1F
100
AcDbEntity
  8
Ｓ_１_１
  6
CONTINUOUS
 62
     3
100
AcDbLine
 10
661.2620418752805
 20
1414.053273203348
 30
0.0
 11
650.1754874851077
 21
1409.461072014952
 31
0.0
  0
LINE
  5
3B5
330
1F
100
AcDbEntity
  8
Ｓ_１_１
  6
CONTINUOUS
 62
     3
100
AcDbLine
 10
858.7379581247197
 20
1414.053273203348
 30
0.0
 11
869.8245125148925
 21
1409.461072014952
 31
0.0
  0
LINE
  5
3B6
330
1F
100
AcDbEntity
  8
Ｓ_１_１
  6
CONTINUOUS
 62
     3
100
AcDbLine
 10
650.1754874857335
 20
910.5389279846695
 30
0.0
 11
661.2620418759044
 21
905.9467267962737
 31
0.0
  0
LINE
  5
3B7
330
1F
100
AcDbEntity
  8
Ｓ_１_１
  6
CONTINUOUS
 62
     3
100
AcDbLine
 10
869.8245125142668
 20
910.5389279846695
 30
0.0
 11
858.7379581240939
 21
905.9467267962737
 31
0.0
  0
LINE
  5
3B8
330
1F
100
AcDbEntity
  8
Ｓ_１_１
  6
CONTINUOUS
 62
     3
100
AcDbLine
 10
650.175487485115
 20
1409.461072014938
 30
0.0
 11
670.662975744569
 21
1359.999900000003
 31
0.0
  0
LINE
  5
3B9
330
1F
100
AcDbEntity
  8
Ｓ_１_１
  6
CONTINUOUS
 62
     3
100
AcDbLine
 10
683.6516821481247
 20
1359.999900000003
 30
0.0
 11
661.2620418752823
 21
1414.05327320335
 31
0.0
  0
LINE
  5
3BA
330
1F
100
AcDbEntity
  8
Ｓ_１_１
  6
CONTINUOUS
 62
     3
100
AcDbLine
 10
836.3483178518774
 20
1359.999900000003
 30
0.0
 11
858.7379581247179
 21
1414.05327320335
 31
0.0
  0
LINE
  5
3BB
330
1F
100
AcDbEntity
  8
Ｓ_１_１
  6
CONTINUOUS
 62
     3
100
AcDbLine
 10
869.824512514887
 20
1409.461072014938
 30
0.0
 11
849.3370242554312
 21
1359.999900000003
 31
0.0
  0
LINE
  5
3BC
330
1F
100
AcDbEntity
  8
Ｓ_１_１
  6
CONTINUOUS
 62
     3
100
AcDbLine
 10
661.2620418759117
 20
905.9467267962881
 30
0.0
 11
683.6516821489032
 21
960.0001000000028
 31
0.0
  0
LINE
  5
3BD
330
1F
100
AcDbEntity
  8
Ｓ_１_１
  6
CONTINUOUS
 62
     3
100
AcDbLine
 10
670.6629757453494
 20
960.0001000000028
 30
0.0
 11
650.1754874857298
 21
910.5389279846695
 31
0.0
  0
LINE
  5
3BE
330
1F
100
AcDbEntity
  8
Ｓ_１_１
  6
CONTINUOUS
 62
     3
100
AcDbLine
 10
849.337024254649
 20
960.0001000000028
 30
0.0
 11
869.8245125142685
 21
910.5389279846695
 31
0.0
  0
LINE
  5
3BF
330
1F
100
AcDbEntity
  8
Ｓ_１_１
  6
CONTINUOUS
 62
     3
100
AcDbLine
 10
858.7379581240884
 20
905.9467267962881
 30
0.0
 11
836.348317851097
 21
960.0001000000028
 31
0.0
  0
CIRCLE
  5
3C0
330
1F
100
AcDbEntity
  8
Ｓ_１_１
  6
CONTINUOUS
 62
     3
100
AcDbCircle
 10
1435.000000000003
 20
995.000000000004
 30
0.0
 40
12.99999999999977
  0
CIRCLE
  5
3C1
330
1F
100
AcDbEntity
  8
Ｓ_１_１
  6
CONTINUOUS
 62
     3
100
AcDbCircle
 10
1764.999999999996
 20
995.000000000004
 30
0.0
 40
12.99999999999977
  0
CIRCLE
  5
3C2
330
1F
100
AcDbEntity
  8
Ｓ_１_１
  6
CONTINUOUS
 62
     3
100
AcDbCircle
 10
1435.000000000003
 20
1325.0
 30
0.0
 40
12.99999999999977
  0
CIRCLE
  5
3C3
330
1F
100
AcDbEntity
  8
Ｓ_１_１
  6
CONTINUOUS
 62
     3
100
AcDbCircle
 10
1764.999999999996
 20
1325.0
 30
0.0
 40
12.99999999999977
  0
CIRCLE
  5
3C4
330
1F
100
AcDbEntity
  8
Ｓ_１_１
  6
CONTINUOUS
 62
     3
100
AcDbCircle
 10
1400.000000000003
 20
960.0000000000041
 30
0.0
 40
12.99999999999977
  0
LINE
  5
3C5
330
1F
100
AcDbEntity
  8
Ｓ_１_１
  6
CONTINUOUS
 62
     3
100
AcDbLine
 10
1365.000000000002
 20
940.0000000000005
 30
0.0
 11
1380.000000000002
 21
925.0000000000005
 31
0.0
  0
CIRCLE
  5
3C6
330
1F
100
AcDbEntity
  8
Ｓ_１_１
  6
CONTINUOUS
 62
     3
100
AcDbCircle
 10
1400.000000000003
 20
1360.0
 30
0.0
 40
12.99999999999977
  0
CIRCLE
  5
3C7
330
1F
100
AcDbEntity
  8
Ｓ_１_１
  6
CONTINUOUS
 62
     3
100
AcDbCircle
 10
1799.999999999996
 20
960.0000000000041
 30
0.0
 40
12.99999999999977
  0
CIRCLE
  5
3C8
330
1F
100
AcDbEntity
  8
Ｓ_１_１
  6
CONTINUOUS
 62
     3
100
AcDbCircle
 10
1799.999999999998
 20
1360.0
 30
0.0
 40
12.99999999999977
  0
LINE
  5
3C9
330
1F
100
AcDbEntity
  8
Ｓ_１_１
  6
CONTINUOUS
 62
     3
100
AcDbLine
 10
1365.000000000002
 20
1380.000000000004
 30
0.0
 11
1380.000000000002
 21
1395.000000000004
 31
0.0
  0
LINE
  5
3CA
330
1F
100
AcDbEntity
  8
Ｓ_１_１
  6
CONTINUOUS
 62
     3
100
AcDbLine
 10
1835.000000000001
 20
1380.000000000002
 30
0.0
 11
1820.000000000001
 21
1395.000000000004
 31
0.0
  0
LINE
  5
3CB
330
1F
100
AcDbEntity
  8
Ｓ_１_１
  6
CONTINUOUS
 62
     3
100
AcDbLine
 10
1835.0
 20
940.0000000000005
 30
0.0
 11
1820.0
 21
925.0000000000005
 31
0.0
  0
LINE
  5
3CC
330
1F
100
AcDbEntity
  8
Ｓ_１_１
  6
CONTINUOUS
 62
     3
100
AcDbLine
 10
1709.824512514267
 20
910.53892798473
 30
0.0
 11
1698.737958124096
 21
905.9467267963341
 31
0.0
  0
LINE
  5
3CD
330
1F
100
AcDbEntity
  8
Ｓ_１_１
  6
CONTINUOUS
 62
     3
100
AcDbLine
 10
1490.175487485734
 20
910.53892798473
 30
0.0
 11
1501.262041875907
 21
905.9467267963341
 31
0.0
  0
LINE
  5
3CE
330
1F
100
AcDbEntity
  8
Ｓ_１_１
  6
CONTINUOUS
 62
     3
100
AcDbLine
 10
1536.09749936956
 20
1021.40447188613
 30
0.0
 11
1547.184053759423
 21
1016.8122706979
 31
0.0
  0
LINE
  5
3CF
330
1F
100
AcDbEntity
  8
Ｓ_１_１
  6
CONTINUOUS
 62
     3
100
AcDbLine
 10
1663.902500630442
 20
1021.40447188613
 30
0.0
 11
1652.81594624058
 21
1016.8122706979
 31
0.0
  0
LINE
  5
3D0
330
1F
100
AcDbEntity
  8
Ｓ_１_１
  6
CONTINUOUS
 62
     3
100
AcDbLine
 10
1345.946726796594
 20
1061.262041875282
 30
0.0
 11
1350.538927984989
 21
1050.175487485111
 31
0.0
  0
LINE
  5
3D1
330
1F
100
AcDbEntity
  8
Ｓ_１_１
  6
CONTINUOUS
 62
     3
100
AcDbLine
 10
1456.812270697988
 20
1107.184053759113
 30
0.0
 11
1461.404471886284
 21
1096.097499369277
 31
0.0
  0
LINE
  5
3D2
330
1F
100
AcDbEntity
  8
Ｓ_１_１
  6
CONTINUOUS
 62
     3
100
AcDbLine
 10
1350.538927984731
 20
1269.824512514266
 30
0.0
 11
1345.946726796333
 21
1258.737958124093
 31
0.0
  0
LINE
  5
3D3
330
1F
100
AcDbEntity
  8
Ｓ_１_１
  6
CONTINUOUS
 62
     3
100
AcDbLine
 10
1461.404471886129
 20
1223.90250063044
 30
0.0
 11
1456.812270697899
 21
1212.815946240577
 31
0.0
  0
LINE
  5
3D4
330
1F
100
AcDbEntity
  8
Ｓ_１_１
  6
CONTINUOUS
 62
     3
100
AcDbLine
 10
1501.262041875281
 20
1414.053273203408
 30
0.0
 11
1490.17548748511
 21
1409.461072015011
 31
0.0
  0
LINE
  5
3D5
330
1F
100
AcDbEntity
  8
Ｓ_１_１
  6
CONTINUOUS
 62
     3
100
AcDbLine
 10
1547.184053759112
 20
1303.187729302012
 30
0.0
 11
1536.097499369276
 21
1298.595528113716
 31
0.0
  0
LINE
  5
3D6
330
1F
100
AcDbEntity
  8
Ｓ_１_１
  6
CONTINUOUS
 62
     3
100
AcDbLine
 10
1698.73795812472
 20
1414.053273203408
 30
0.0
 11
1709.824512514893
 21
1409.461072015011
 31
0.0
  0
LINE
  5
3D7
330
1F
100
AcDbEntity
  8
Ｓ_１_１
  6
CONTINUOUS
 62
     3
100
AcDbLine
 10
1652.815946240889
 20
1303.187729302012
 30
0.0
 11
1663.902500630727
 21
1298.595528113716
 31
0.0
  0
LINE
  5
3D8
330
1F
100
AcDbEntity
  8
Ｓ_１_１
  6
CONTINUOUS
 62
     3
100
AcDbLine
 10
1849.461072015272
 20
1269.824512514266
 30
0.0
 11
1854.053273203668
 21
1258.737958124093
 31
0.0
  0
LINE
  5
3D9
330
1F
100
AcDbEntity
  8
Ｓ_１_１
  6
CONTINUOUS
 62
     3
100
AcDbLine
 10
1738.595528113874
 20
1223.90250063044
 30
0.0
 11
1743.187729302104
 21
1212.815946240577
 31
0.0
  0
LINE
  5
3DA
330
1F
100
AcDbEntity
  8
Ｓ_１_１
  6
CONTINUOUS
 62
     3
100
AcDbLine
 10
1854.053273203409
 20
1061.262041875282
 30
0.0
 11
1849.461072015011
 21
1050.175487485111
 31
0.0
  0
LINE
  5
3DB
330
1F
100
AcDbEntity
  8
Ｓ_１_１
  6
CONTINUOUS
 62
     3
100
AcDbLine
 10
1743.187729302013
 20
1107.184053759113
 30
0.0
 11
1738.595528113717
 21
1096.097499369277
 31
0.0
  0
LINE
  5
3DC
330
1F
100
AcDbEntity
  8
Ｓ_１_１
  6
CONTINUOUS
 62
     3
100
AcDbLine
 10
1365.000000000002
 20
940.0000000000005
 30
0.0
 11
1365.000000000002
 21
1380.000000000004
 31
0.0
  0
LINE
  5
3DD
330
1F
100
AcDbEntity
  8
Ｓ_１_１
  6
CONTINUOUS
 62
     3
100
AcDbLine
 10
1380.000000000002
 20
1395.000000000004
 30
0.0
 11
1820.000000000001
 21
1395.000000000004
 31
0.0
  0
LINE
  5
3DE
330
1F
100
AcDbEntity
  8
Ｓ_１_１
  6
CONTINUOUS
 62
     3
100
AcDbLine
 10
1835.0
 20
939.9999999999997
 30
0.0
 11
1835.000000000001
 21
1380.000000000002
 31
0.0
  0
LINE
  5
3DF
330
1F
100
AcDbEntity
  8
Ｓ_１_１
  6
CONTINUOUS
 62
     3
100
AcDbLine
 10
1380.000000000002
 20
925.0000000000005
 30
0.0
 11
1820.0
 21
925.0000000000005
 31
0.0
  0
LINE
  5
3E0
330
1F
100
AcDbEntity
  8
Ｓ_１_１
  6
CONTINUOUS
 62
     3
100
AcDbLine
 10
1703.834540359801
 20
1395.0
 30
0.0
 11
1709.8245125149
 21
1409.461072015001
 31
0.0
  0
LINE
  5
3E1
330
1F
100
AcDbEntity
  8
Ｓ_１_１
  6
CONTINUOUS
 62
     3
100
AcDbLine
 10
1698.7379581247
 20
1414.053273203401
 30
0.0
 11
1690.8458339563
 21
1395.0
 31
0.0
  0
LINE
  5
3E2
330
1F
100
AcDbEntity
  8
Ｓ_１_１
  6
CONTINUOUS
 62
     3
100
AcDbLine
 10
1509.154166043701
 20
1395.0
 30
0.0
 11
1501.262041875301
 21
1414.053273203401
 31
0.0
  0
LINE
  5
3E3
330
1F
100
AcDbEntity
  8
Ｓ_１_１
  6
CONTINUOUS
 62
     3
100
AcDbLine
 10
1496.1654596402
 20
1395.0
 30
0.0
 11
1490.175487485101
 21
1409.461072015001
 31
0.0
  0
LINE
  5
3E4
330
1F
100
AcDbEntity
  8
Ｓ_１_１
  6
CONTINUOUS
 62
     3
100
AcDbLine
 10
1835.0
 20
1263.834540359102
 30
0.0
 11
1849.461072015301
 21
1269.824512514301
 31
0.0
  0
LINE
  5
3E5
330
1F
100
AcDbEntity
  8
Ｓ_１_１
  6
CONTINUOUS
 62
     3
100
AcDbLine
 10
1835.0
 20
1250.8458339555
 30
0.0
 11
1854.0532732037
 21
1258.737958124101
 31
0.0
  0
LINE
  5
3E6
330
1F
100
AcDbEntity
  8
Ｓ_１_１
  6
CONTINUOUS
 62
     3
100
AcDbLine
 10
1835.0
 20
1069.154166043701
 30
0.0
 11
1854.0532732034
 21
1061.262041875301
 31
0.0
  0
LINE
  5
3E7
330
1F
100
AcDbEntity
  8
Ｓ_１_１
  6
CONTINUOUS
 62
     3
100
AcDbLine
 10
1835.0
 20
1056.165459640201
 30
0.0
 11
1849.461072015001
 21
1050.175487485101
 31
0.0
  0
LINE
  5
3E8
330
1F
100
AcDbEntity
  8
Ｓ_１_１
  6
CONTINUOUS
 62
     3
100
AcDbLine
 10
1709.8245125143
 20
910.538927984701
 30
0.0
 11
1703.834540359101
 21
925.0000000000005
 31
0.0
  0
LINE
  5
3E9
330
1F
100
AcDbEntity
  8
Ｓ_１_１
  6
CONTINUOUS
 62
     3
100
AcDbLine
 10
1698.7379581241
 20
905.9467267963014
 30
0.0
 11
1690.8458339555
 21
925.0000000000005
 31
0.0
  0
LINE
  5
3EA
330
1F
100
AcDbEntity
  8
Ｓ_１_１
  6
CONTINUOUS
 62
     3
100
AcDbLine
 10
1501.262041875901
 20
905.9467267963014
 30
0.0
 11
1509.1541660445
 21
925.0000000000005
 31
0.0
  0
LINE
  5
3EB
330
1F
100
AcDbEntity
  8
Ｓ_１_１
  6
CONTINUOUS
 62
     3
100
AcDbLine
 10
1490.175487485701
 20
910.538927984701
 30
0.0
 11
1496.165459640901
 21
925.0000000000005
 31
0.0
  0
LINE
  5
3EC
330
1F
100
AcDbEntity
  8
Ｓ_１_１
  6
CONTINUOUS
 62
     3
100
AcDbLine
 10
1365.0
 20
1056.165459640201
 30
0.0
 11
1350.538927985
 21
1050.175487485101
 31
0.0
  0
LINE
  5
3ED
330
1F
100
AcDbEntity
  8
Ｓ_１_１
  6
CONTINUOUS
 62
     3
100
AcDbLine
 10
1365.0
 20
1069.154166043701
 30
0.0
 11
1345.946726796601
 21
1061.262041875301
 31
0.0
  0
LINE
  5
3EE
330
1F
100
AcDbEntity
  8
Ｓ_１_１
  6
CONTINUOUS
 62
     3
100
AcDbLine
 10
1365.0
 20
1250.8458339555
 30
0.0
 11
1345.946726796301
 21
1258.737958124101
 31
0.0
  0
LINE
  5
3EF
330
1F
100
AcDbEntity
  8
Ｓ_１_１
  6
CONTINUOUS
 62
     3
100
AcDbLine
 10
1365.0
 20
1263.834540359102
 30
0.0
 11
1350.5389279847
 21
1269.824512514301
 31
0.0
  0
CIRCLE
  5
3F0
330
1F
100
AcDbEntity
  8
Ｓ_１_１
  6
CONTINUOUS
 62
     3
100
AcDbCircle
 10
1600.0
 20
1160.0
 30
0.0
 40
13.0
  0
CIRCLE
  5
3F1
330
1F
100
AcDbEntity
  8
Ｓ_１_１
  6
CONTINUOUS
 62
     3
100
AcDbCircle
 10
1529.2893218812
 20
1089.289321881501
 30
0.0
 40
9.0
  0
CIRCLE
  5
3F2
330
1F
100
AcDbEntity
  8
Ｓ_１_１
  6
CONTINUOUS
 62
     3
100
AcDbCircle
 10
1529.2893218812
 20
1089.289321881501
 30
0.0
 40
10.0
  0
CIRCLE
  5
3F3
330
1F
100
AcDbEntity
  8
Ｓ_１_１
  6
CONTINUOUS
 62
     3
100
AcDbCircle
 10
1529.2893218812
 20
1089.289321881501
 30
0.0
 40
8.0
  0
POLYLINE
  5
3F4
330
1F
100
AcDbEntity
  8
Ｓ_１_１
  6
CONTINUOUS
 62
     3
100
AcDb2dPolyline
 66
     1
 10
0.0
 20
0.0
 30
0.0
 70
   128
  0
VERTEX
  5
3F5
330
3F4
100
AcDbEntity
  8
Ｓ_１_１
  6
CONTINUOUS
 62
     3
100
AcDbVertex
100
AcDb2dVertex
 10
1533.37180478584
 20
1093.37180478614
 30
0.0
  0
VERTEX
  5
3F6
330
3F4
100
AcDbEntity
  8
Ｓ_１_１
  6
CONTINUOUS
 62
     3
100
AcDbVertex
100
AcDb2dVertex
 10
1527.795029427587
 20
1094.866097239753
 30
0.0
  0
VERTEX
  5
3F7
330
3F4
100
AcDbEntity
  8
Ｓ_１_１
  6
CONTINUOUS
 62
     3
100
AcDbVertex
100
AcDb2dVertex
 10
1523.712546522949
 20
1090.783614335115
 30
0.0
  0
VERTEX
  5
3F8
330
3F4
100
AcDbEntity
  8
Ｓ_１_１
  6
CONTINUOUS
 62
     3
100
AcDbVertex
100
AcDb2dVertex
 10
1525.206838976562
 20
1085.206838976862
 30
0.0
  0
VERTEX
  5
3F9
330
3F4
100
AcDbEntity
  8
Ｓ_１_１
  6
CONTINUOUS
 62
     3
100
AcDbVertex
100
AcDb2dVertex
 10
1530.783614334814
 20
1083.712546523249
 30
0.0
  0
VERTEX
  5
3FA
330
3F4
100
AcDbEntity
  8
Ｓ_１_１
  6
CONTINUOUS
 62
     3
100
AcDbVertex
100
AcDb2dVertex
 10
1534.866097239453
 20
1087.795029427888
 30
0.0
  0
VERTEX
  5
3FB
330
3F4
100
AcDbEntity
  8
Ｓ_１_１
  6
CONTINUOUS
 62
     3
100
AcDbVertex
100
AcDb2dVertex
 10
1533.37180478584
 20
1093.37180478614
 30
0.0
  0
SEQEND
  5
3FC
330
3F4
100
AcDbEntity
  8
Ｓ_１_１
  6
CONTINUOUS
 62
     3
  0
CIRCLE
  5
3FD
330
1F
100
AcDbEntity
  8
Ｓ_１_１
  6
CONTINUOUS
 62
     3
100
AcDbCircle
 10
1529.2893218812
 20
1230.710678118503
 30
0.0
 40
9.0
  0
CIRCLE
  5
3FE
330
1F
100
AcDbEntity
  8
Ｓ_１_１
  6
CONTINUOUS
 62
     3
100
AcDbCircle
 10
1529.2893218812
 20
1230.710678118503
 30
0.0
 40
10.0
  0
CIRCLE
  5
3FF
330
1F
100
AcDbEntity
  8
Ｓ_１_１
  6
CONTINUOUS
 62
     3
100
AcDbCircle
 10
1529.2893218812
 20
1230.710678118503
 30
0.0
 40
8.0
  0
POLYLINE
  5
400
330
1F
100
AcDbEntity
  8
Ｓ_１_１
  6
CONTINUOUS
 62
     3
100
AcDb2dPolyline
 66
     1
 10
0.0
 20
0.0
 30
0.0
 70
   128
  0
VERTEX
  5
401
330
400
100
AcDbEntity
  8
Ｓ_１_１
  6
CONTINUOUS
 62
     3
100
AcDbVertex
100
AcDb2dVertex
 10
1533.37180478584
 20
1226.628195213864
 30
0.0
  0
VERTEX
  5
402
330
400
100
AcDbEntity
  8
Ｓ_１_１
  6
CONTINUOUS
 62
     3
100
AcDbVertex
100
AcDb2dVertex
 10
1527.795029427587
 20
1225.13390276025
 30
0.0
  0
VERTEX
  5
403
330
400
100
AcDbEntity
  8
Ｓ_１_１
  6
CONTINUOUS
 62
     3
100
AcDbVertex
100
AcDb2dVertex
 10
1523.712546522949
 20
1229.216385664889
 30
0.0
  0
VERTEX
  5
404
330
400
100
AcDbEntity
  8
Ｓ_１_１
  6
CONTINUOUS
 62
     3
100
AcDbVertex
100
AcDb2dVertex
 10
1525.206838976562
 20
1234.793161023141
 30
0.0
  0
VERTEX
  5
405
330
400
100
AcDbEntity
  8
Ｓ_１_１
  6
CONTINUOUS
 62
     3
100
AcDbVertex
100
AcDb2dVertex
 10
1530.783614334814
 20
1236.287453476755
 30
0.0
  0
VERTEX
  5
406
330
400
100
AcDbEntity
  8
Ｓ_１_１
  6
CONTINUOUS
 62
     3
100
AcDbVertex
100
AcDb2dVertex
 10
1534.866097239453
 20
1232.204970572116
 30
0.0
  0
VERTEX
  5
407
330
400
100
AcDbEntity
  8
Ｓ_１_１
  6
CONTINUOUS
 62
     3
100
AcDbVertex
100
AcDb2dVertex
 10
1533.37180478584
 20
1226.628195213864
 30
0.0
  0
SEQEND
  5
408
330
400
100
AcDbEntity
  8
Ｓ_１_１
  6
CONTINUOUS
 62
     3
  0
CIRCLE
  5
409
330
1F
100
AcDbEntity
  8
Ｓ_１_１
  6
CONTINUOUS
 62
     3
100
AcDbCircle
 10
1670.710678118801
 20
1089.289321881501
 30
0.0
 40
9.0
  0
CIRCLE
  5
40A
330
1F
100
AcDbEntity
  8
Ｓ_１_１
  6
CONTINUOUS
 62
     3
100
AcDbCircle
 10
1670.710678118801
 20
1089.289321881501
 30
0.0
 40
10.0
  0
CIRCLE
  5
40B
330
1F
100
AcDbEntity
  8
Ｓ_１_１
  6
CONTINUOUS
 62
     3
100
AcDbCircle
 10
1670.710678118801
 20
1089.289321881501
 30
0.0
 40
8.0
  0
POLYLINE
  5
40C
330
1F
100
AcDbEntity
  8
Ｓ_１_１
  6
CONTINUOUS
 62
     3
100
AcDb2dPolyline
 66
     1
 10
0.0
 20
0.0
 30
0.0
 70
   128
  0
VERTEX
  5
40D
330
40C
100
AcDbEntity
  8
Ｓ_１_１
  6
CONTINUOUS
 62
     3
100
AcDbVertex
100
AcDb2dVertex
 10
1666.628195214163
 20
1093.37180478614
 30
0.0
  0
VERTEX
  5
40E
330
40C
100
AcDbEntity
  8
Ｓ_１_１
  6
CONTINUOUS
 62
     3
100
AcDbVertex
100
AcDb2dVertex
 10
1672.204970572415
 20
1094.866097239753
 30
0.0
  0
VERTEX
  5
40F
330
40C
100
AcDbEntity
  8
Ｓ_１_１
  6
CONTINUOUS
 62
     3
100
AcDbVertex
100
AcDb2dVertex
 10
1676.287453477054
 20
1090.783614335115
 30
0.0
  0
VERTEX
  5
410
330
40C
100
AcDbEntity
  8
Ｓ_１_１
  6
CONTINUOUS
 62
     3
100
AcDbVertex
100
AcDb2dVertex
 10
1674.793161023441
 20
1085.206838976862
 30
0.0
  0
VERTEX
  5
411
330
40C
100
AcDbEntity
  8
Ｓ_１_１
  6
CONTINUOUS
 62
     3
100
AcDbVertex
100
AcDb2dVertex
 10
1669.216385665188
 20
1083.712546523249
 30
0.0
  0
VERTEX
  5
412
330
40C
100
AcDbEntity
  8
Ｓ_１_１
  6
CONTINUOUS
 62
     3
100
AcDbVertex
100
AcDb2dVertex
 10
1665.13390276055
 20
1087.795029427888
 30
0.0
  0
VERTEX
  5
413
330
40C
100
AcDbEntity
  8
Ｓ_１_１
  6
CONTINUOUS
 62
     3
100
AcDbVertex
100
AcDb2dVertex
 10
1666.628195214163
 20
1093.37180478614
 30
0.0
  0
SEQEND
  5
414
330
40C
100
AcDbEntity
  8
Ｓ_１_１
  6
CONTINUOUS
 62
     3
  0
CIRCLE
  5
415
330
1F
100
AcDbEntity
  8
Ｓ_１_１
  6
CONTINUOUS
 62
     3
100
AcDbCircle
 10
1670.710678118801
 20
1230.710678118503
 30
0.0
 40
9.0
  0
CIRCLE
  5
416
330
1F
100
AcDbEntity
  8
Ｓ_１_１
  6
CONTINUOUS
 62
     3
100
AcDbCircle
 10
1670.710678118801
 20
1230.710678118503
 30
0.0
 40
10.0
  0
CIRCLE
  5
417
330
1F
100
AcDbEntity
  8
Ｓ_１_１
  6
CONTINUOUS
 62
     3
100
AcDbCircle
 10
1670.710678118801
 20
1230.710678118503
 30
0.0
 40
8.0
  0
POLYLINE
  5
418
330
1F
100
AcDbEntity
  8
Ｓ_１_１
  6
CONTINUOUS
 62
     3
100
AcDb2dPolyline
 66
     1
 10
0.0
 20
0.0
 30
0.0
 70
   128
  0
VERTEX
  5
419
330
418
100
AcDbEntity
  8
Ｓ_１_１
  6
CONTINUOUS
 62
     3
100
AcDbVertex
100
AcDb2dVertex
 10
1666.628195214163
 20
1226.628195213864
 30
0.0
  0
VERTEX
  5
41A
330
418
100
AcDbEntity
  8
Ｓ_１_１
  6
CONTINUOUS
 62
     3
100
AcDbVertex
100
AcDb2dVertex
 10
1672.204970572415
 20
1225.13390276025
 30
0.0
  0
VERTEX
  5
41B
330
418
100
AcDbEntity
  8
Ｓ_１_１
  6
CONTINUOUS
 62
     3
100
AcDbVertex
100
AcDb2dVertex
 10
1676.287453477054
 20
1229.216385664889
 30
0.0
  0
VERTEX
  5
41C
330
418
100
AcDbEntity
  8
Ｓ_１_１
  6
CONTINUOUS
 62
     3
100
AcDbVertex
100
AcDb2dVertex
 10
1674.793161023441
 20
1234.793161023141
 30
0.0
  0
VERTEX
  5
41D
330
418
100
AcDbEntity
  8
Ｓ_１_１
  6
CONTINUOUS
 62
     3
100
AcDbVertex
100
AcDb2dVertex
 10
1669.216385665188
 20
1236.287453476755
 30
0.0
  0
VERTEX
  5
41E
330
418
100
AcDbEntity
  8
Ｓ_１_１
  6
CONTINUOUS
 62
     3
100
AcDbVertex
100
AcDb2dVertex
 10
1665.13390276055
 20
1232.204970572116
 30
0.0
  0
VERTEX
  5
41F
330
418
100
AcDbEntity
  8
Ｓ_１_１
  6
CONTINUOUS
 62
     3
100
AcDbVertex
100
AcDb2dVertex
 10
1666.628195214163
 20
1226.628195213864
 30
0.0
  0
SEQEND
  5
420
330
418
100
AcDbEntity
  8
Ｓ_１_１
  6
CONTINUOUS
 62
     3
  0
LINE
  5
421
330
1F
100
AcDbEntity
  8
Ｓ_１_１
  6
EXLTYPE0
 62
     2
100
AcDbLine
 10
455.0001000000021
 20
1125.000000000002
 30
0.0
 11
455.0001000000021
 21
1093.000000000002
 31
0.0
  0
LINE
  5
422
330
1F
100
AcDbEntity
  8
Ｓ_１_１
  6
EXLTYPE0
 62
     2
100
AcDbLine
 10
1064.999899999996
 20
1125.000000000002
 30
0.0
 11
1064.999899999996
 21
1093.000000000002
 31
0.0
  0
LINE
  5
423
330
1F
100
AcDbEntity
  8
Ｓ_１_１
  6
EXLTYPE0
 62
     2
100
AcDbLine
 10
455.0001000000021
 20
1125.000000000002
 30
0.0
 11
1064.999999999999
 21
1125.000000000004
 31
0.0
  0
LINE
  5
424
330
1F
100
AcDbEntity
  8
Ｓ_１_１
  6
EXLTYPE0
 62
     2
100
AcDbLine
 10
455.0001000000021
 20
1093.000000000002
 30
0.0
 11
1064.999899999996
 21
1093.000000000002
 31
0.0
  0
LINE
  5
425
330
1F
100
AcDbEntity
  8
Ｓ_１_１
  6
EXLTYPE0
 62
     2
100
AcDbLine
 10
455.0001000000021
 20
1195.000000000002
 30
0.0
 11
455.0001000000021
 21
1227.000000000002
 31
0.0
  0
LINE
  5
426
330
1F
100
AcDbEntity
  8
Ｓ_１_１
  6
EXLTYPE0
 62
     2
100
AcDbLine
 10
455.0001000000021
 20
1195.000000000002
 30
0.0
 11
1064.999999999999
 21
1195.000000000002
 31
0.0
  0
LINE
  5
427
330
1F
100
AcDbEntity
  8
Ｓ_１_１
  6
EXLTYPE0
 62
     2
100
AcDbLine
 10
455.0001000000021
 20
1227.000000000002
 30
0.0
 11
1064.999899999996
 21
1227.000000000002
 31
0.0
  0
LINE
  5
428
330
1F
100
AcDbEntity
  8
Ｓ_１_１
  6
EXLTYPE0
 62
     2
100
AcDbLine
 10
1064.999899999996
 20
1195.000000000002
 30
0.0
 11
1064.999899999996
 21
1227.000000000002
 31
0.0
  0
LINE
  5
429
330
1F
100
AcDbEntity
  8
Ｓ_１_１
  6
EXLTYPE0
 62
     2
100
AcDbLine
 10
572.4999999999974
 20
1125.000000000002
 30
0.0
 11
572.4999999999974
 21
1195.000000000002
 31
0.0
  0
LINE
  5
42A
330
1F
100
AcDbEntity
  8
Ｓ_１_１
  6
EXLTYPE0
 62
     2
100
AcDbLine
 10
597.4999999999992
 20
1125.000000000002
 30
0.0
 11
597.4999999999992
 21
1195.000000000002
 31
0.0
  0
LINE
  5
42B
330
1F
100
AcDbEntity
  8
Ｓ_１_１
  6
EXLTYPE0
 62
     2
100
AcDbLine
 10
922.4999999999973
 20
1125.000000000004
 30
0.0
 11
922.4999999999973
 21
1195.000000000002
 31
0.0
  0
LINE
  5
42C
330
1F
100
AcDbEntity
  8
Ｓ_１_１
  6
EXLTYPE0
 62
     2
100
AcDbLine
 10
947.4999999999974
 20
1125.000000000004
 30
0.0
 11
947.4999999999974
 21
1195.000000000002
 31
0.0
  0
LINE
  5
42D
330
1F
100
AcDbEntity
  8
Ｓ_１_１
  6
EXLTYPE0
 62
     2
100
AcDbLine
 10
572.4999999999992
 20
1339.999900000003
 30
0.0
 11
597.4999999999992
 21
1339.999900000003
 31
0.0
  0
LINE
  5
42E
330
1F
100
AcDbEntity
  8
Ｓ_１_１
  6
EXLTYPE0
 62
     2
100
AcDbLine
 10
772.4999999999992
 20
1339.999900000003
 30
0.0
 11
747.4999999999992
 21
1339.999900000003
 31
0.0
  0
LINE
  5
42F
330
1F
100
AcDbEntity
  8
Ｓ_１_１
  6
EXLTYPE0
 62
     2
100
AcDbLine
 10
947.4999999999991
 20
1339.999900000001
 30
0.0
 11
922.4999999999992
 21
1339.999900000001
 31
0.0
  0
LINE
  5
430
330
1F
100
AcDbEntity
  8
Ｓ_１_１
  6
EXLTYPE0
 62
     2
100
AcDbLine
 10
572.4999999999992
 20
980.000100000001
 30
0.0
 11
597.4999999999992
 21
980.000100000001
 31
0.0
  0
LINE
  5
431
330
1F
100
AcDbEntity
  8
Ｓ_１_１
  6
EXLTYPE0
 62
     2
100
AcDbLine
 10
772.4999999999992
 20
980.000100000001
 30
0.0
 11
747.4999999999992
 21
980.000100000001
 31
0.0
  0
LINE
  5
432
330
1F
100
AcDbEntity
  8
Ｓ_１_１
  6
EXLTYPE0
 62
     2
100
AcDbLine
 10
947.4999999999991
 20
980.0001000000029
 30
0.0
 11
922.4999999999992
 21
980.0001000000029
 31
0.0
  0
LINE
  5
433
330
1F
100
AcDbEntity
  8
Ｓ_１_１
  6
EXLTYPE0
 62
     2
100
AcDbLine
 10
572.4999999999974
 20
1093.000000000002
 30
0.0
 11
572.4999999999974
 21
980.000100000001
 31
0.0
  0
LINE
  5
434
330
1F
100
AcDbEntity
  8
Ｓ_１_１
  6
EXLTYPE0
 62
     2
100
AcDbLine
 10
597.4999999999992
 20
1093.000000000002
 30
0.0
 11
597.4999999999992
 21
980.0000999999593
 31
0.0
  0
LINE
  5
435
330
1F
100
AcDbEntity
  8
Ｓ_１_１
  6
EXLTYPE0
 62
     2
100
AcDbLine
 10
922.4999999999973
 20
1093.000000000002
 30
0.0
 11
922.4999999999973
 21
980.0001000000029
 31
0.0
  0
LINE
  5
436
330
1F
100
AcDbEntity
  8
Ｓ_１_１
  6
EXLTYPE0
 62
     2
100
AcDbLine
 10
947.4999999999974
 20
1093.000000000002
 30
0.0
 11
947.4999999999974
 21
980.0000999999593
 31
0.0
  0
LINE
  5
437
330
1F
100
AcDbEntity
  8
Ｓ_１_１
  6
EXLTYPE0
 62
     2
100
AcDbLine
 10
572.4999999999992
 20
1227.000000000002
 30
0.0
 11
572.4999999999992
 21
1339.999899999961
 31
0.0
  0
LINE
  5
438
330
1F
100
AcDbEntity
  8
Ｓ_１_１
  6
EXLTYPE0
 62
     2
100
AcDbLine
 10
597.500000000001
 20
1227.000000000002
 30
0.0
 11
597.500000000001
 21
1339.999899999961
 31
0.0
  0
LINE
  5
439
330
1F
100
AcDbEntity
  8
Ｓ_１_１
  6
EXLTYPE0
 62
     2
100
AcDbLine
 10
922.4999999999973
 20
1227.000000000002
 30
0.0
 11
922.4999999999992
 21
1339.999900000001
 31
0.0
  0
LINE
  5
43A
330
1F
100
AcDbEntity
  8
Ｓ_１_１
  6
EXLTYPE0
 62
     2
100
AcDbLine
 10
947.4999999999991
 20
1227.000000000002
 30
0.0
 11
947.4999999999991
 21
1339.999899999961
 31
0.0
  0
LINE
  5
43B
330
1F
100
AcDbEntity
  8
Ｓ_１_１
  6
EXLTYPE0
 62
     2
100
AcDbLine
 10
747.4999999999974
 20
1093.000000000002
 30
0.0
 11
747.4999999999974
 21
980.0000999999593
 31
0.0
  0
LINE
  5
43C
330
1F
100
AcDbEntity
  8
Ｓ_１_１
  6
EXLTYPE0
 62
     2
100
AcDbLine
 10
772.4999999999973
 20
1093.000000000002
 30
0.0
 11
772.4999999999973
 21
980.0000999999593
 31
0.0
  0
LINE
  5
43D
330
1F
100
AcDbEntity
  8
Ｓ_１_１
  6
EXLTYPE0
 62
     2
100
AcDbLine
 10
747.4999999999974
 20
1227.000000000002
 30
0.0
 11
747.4999999999974
 21
1339.999899999961
 31
0.0
  0
LINE
  5
43E
330
1F
100
AcDbEntity
  8
Ｓ_１_１
  6
EXLTYPE0
 62
     2
100
AcDbLine
 10
772.4999999999992
 20
1227.000000000002
 30
0.0
 11
772.4999999999992
 21
1339.999899999961
 31
0.0
  0
LINE
  5
43F
330
1F
100
AcDbEntity
  8
Ｓ_１_１
  6
EXLTYPE0
 62
     2
100
AcDbLine
 10
665.4828247797133
 20
1372.505890714594
 30
0.0
 11
676.5693791698933
 21
1377.098091902993
 31
0.0
  0
LINE
  5
440
330
1F
100
AcDbEntity
  8
Ｓ_１_１
  6
EXLTYPE0
 62
     2
100
AcDbLine
 10
854.5171752202887
 20
1372.505890714594
 30
0.0
 11
843.4306208301069
 21
1377.098091902993
 31
0.0
  0
LINE
  5
441
330
1F
100
AcDbEntity
  8
Ｓ_１_１
  6
EXLTYPE0
 62
     2
100
AcDbLine
 10
676.5693791705136
 20
942.90190809683
 30
0.0
 11
665.4828247803317
 21
947.4941092852296
 31
0.0
  0
LINE
  5
442
330
1F
100
AcDbEntity
  8
Ｓ_１_１
  6
EXLTYPE0
 62
     2
100
AcDbLine
 10
843.4306208294885
 20
942.90190809683
 30
0.0
 11
854.5171752196685
 21
947.4941092852296
 31
0.0
  0
LINE
  5
443
330
1F
100
AcDbEntity
  8
Ｓ_１_１
  6
EXLTYPE0
 62
     2
100
AcDbLine
 10
1496.165459640178
 20
1395.000000000004
 30
0.0
 11
1536.097499368945
 21
1298.595528113598
 31
0.0
  0
LINE
  5
444
330
1F
100
AcDbEntity
  8
Ｓ_１_１
  6
EXLTYPE0
 62
     2
100
AcDbLine
 10
1547.184053759112
 20
1303.187729302012
 30
0.0
 11
1509.154166043734
 21
1395.000000000004
 31
0.0
  0
LINE
  5
445
330
1F
100
AcDbEntity
  8
Ｓ_１_１
  6
EXLTYPE0
 62
     2
100
AcDbLine
 10
1703.834540359823
 20
1395.000000000004
 30
0.0
 11
1663.902500631056
 21
1298.595528113598
 31
0.0
  0
LINE
  5
446
330
1F
100
AcDbEntity
  8
Ｓ_１_１
  6
EXLTYPE0
 62
     2
100
AcDbLine
 10
1652.815946240891
 20
1303.187729302012
 30
0.0
 11
1690.845833956267
 21
1395.000000000004
 31
0.0
  0
LINE
  5
447
330
1F
100
AcDbEntity
  8
Ｓ_１_１
  6
EXLTYPE0
 62
     2
100
AcDbLine
 10
1738.595528113874
 20
1223.90250063044
 30
0.0
 11
1835.0
 21
1263.83454035909
 31
0.0
  0
LINE
  5
448
330
1F
100
AcDbEntity
  8
Ｓ_１_１
  6
EXLTYPE0
 62
     2
100
AcDbLine
 10
1835.0
 20
1250.845833955535
 30
0.0
 11
1743.187729302253
 21
1212.81594624026
 31
0.0
  0
LINE
  5
449
330
1F
100
AcDbEntity
  8
Ｓ_１_１
  6
EXLTYPE0
 62
     2
100
AcDbLine
 10
1835.0
 20
1056.165459640183
 30
0.0
 11
1738.595528113599
 21
1096.097499368946
 31
0.0
  0
LINE
  5
44A
330
1F
100
AcDbEntity
  8
Ｓ_１_１
  6
EXLTYPE0
 62
     2
100
AcDbLine
 10
1743.187729302013
 20
1107.184053759113
 30
0.0
 11
1835.0
 21
1069.154166043736
 31
0.0
  0
LINE
  5
44B
330
1F
100
AcDbEntity
  8
Ｓ_１_１
  6
EXLTYPE0
 62
     2
100
AcDbLine
 10
1663.902500630442
 20
1021.404471886128
 30
0.0
 11
1703.834540359092
 21
925.0000000000005
 31
0.0
  0
LINE
  5
44C
330
1F
100
AcDbEntity
  8
Ｓ_１_１
  6
EXLTYPE0
 62
     2
100
AcDbLine
 10
1690.845833955538
 20
925.0000000000005
 30
0.0
 11
1652.815946240262
 21
1016.812270697749
 31
0.0
  0
LINE
  5
44D
330
1F
100
AcDbEntity
  8
Ｓ_１_１
  6
EXLTYPE0
 62
     2
100
AcDbLine
 10
1509.154166044465
 20
925.0000000000005
 30
0.0
 11
1547.184053759741
 21
1016.812270697749
 31
0.0
  0
LINE
  5
44E
330
1F
100
AcDbEntity
  8
Ｓ_１_１
  6
EXLTYPE0
 62
     2
100
AcDbLine
 10
1536.09749936956
 20
1021.404471886128
 30
0.0
 11
1496.16545964091
 21
925.0000000000005
 31
0.0
  0
LINE
  5
44F
330
1F
100
AcDbEntity
  8
Ｓ_１_１
  6
EXLTYPE0
 62
     2
100
AcDbLine
 10
1365.000000000002
 20
1056.165459640182
 30
0.0
 11
1461.404471886402
 21
1096.097499368946
 31
0.0
  0
LINE
  5
450
330
1F
100
AcDbEntity
  8
Ｓ_１_１
  6
EXLTYPE0
 62
     2
100
AcDbLine
 10
1456.812270697988
 20
1107.184053759113
 30
0.0
 11
1365.000000000002
 21
1069.154166043736
 31
0.0
  0
LINE
  5
451
330
1F
100
AcDbEntity
  8
Ｓ_１_１
  6
EXLTYPE0
 62
     2
100
AcDbLine
 10
1365.000000000002
 20
1250.845833955536
 30
0.0
 11
1456.812270697748
 21
1212.81594624026
 31
0.0
  0
LINE
  5
452
330
1F
100
AcDbEntity
  8
Ｓ_１_１
  6
EXLTYPE0
 62
     2
100
AcDbLine
 10
1461.404471886128
 20
1223.90250063044
 30
0.0
 11
1365.000000000002
 21
1263.834540359091
 31
0.0
  0
CIRCLE
  5
453
330
1F
100
AcDbEntity
  8
Ｓ_１_１
  6
EXLTYPE0
 62
     2
100
AcDbCircle
 10
1600.000000000002
 20
1160.00000000006
 30
0.0
 40
152.5
  0
CIRCLE
  5
454
330
1F
100
AcDbEntity
  8
Ｓ_１_１
  6
EXLTYPE0
 62
     2
100
AcDbCircle
 10
1600.000000000002
 20
1160.00000000006
 30
0.0
 40
130.5
  0
LINE
  5
455
330
1F
100
AcDbEntity
  8
Ｓ_１_１
  6
EXLTYPE2
 62
     1
100
AcDbLine
 10
520.0000610779981
 20
1325.000000000058
 30
0.0
 11
560.0000610779981
 21
1325.000000000058
 31
0.0
  0
LINE
  5
456
330
1F
100
AcDbEntity
  8
Ｓ_１_１
  6
EXLTYPE2
 62
     1
100
AcDbLine
 10
540.0000610779981
 20
1305.00000000004
 30
0.0
 11
540.0000610779981
 21
1345.00000000004
 31
0.0
  0
LINE
  5
457
330
1F
100
AcDbEntity
  8
Ｓ_１_１
  6
EXLTYPE2
 62
     1
100
AcDbLine
 10
630.0000610779981
 20
1325.000000000058
 30
0.0
 11
670.0000610779981
 21
1325.000000000058
 31
0.0
  0
LINE
  5
458
330
1F
100
AcDbEntity
  8
Ｓ_１_１
  6
EXLTYPE2
 62
     1
100
AcDbLine
 10
650.0000610779981
 20
1305.00000000004
 30
0.0
 11
650.0000610779981
 21
1345.00000000004
 31
0.0
  0
LINE
  5
459
330
1F
100
AcDbEntity
  8
Ｓ_１_１
  6
EXLTYPE2
 62
     1
100
AcDbLine
 10
850.0000610779981
 20
1325.000000000058
 30
0.0
 11
890.0000610779981
 21
1325.000000000058
 31
0.0
  0
LINE
  5
45A
330
1F
100
AcDbEntity
  8
Ｓ_１_１
  6
EXLTYPE2
 62
     1
100
AcDbLine
 10
870.000061077998
 20
1305.00000000004
 30
0.0
 11
870.000061077998
 21
1345.00000000004
 31
0.0
  0
LINE
  5
45B
330
1F
100
AcDbEntity
  8
Ｓ_１_１
  6
EXLTYPE2
 62
     1
100
AcDbLine
 10
960.000061077998
 20
1325.000000000058
 30
0.0
 11
1000.000061077998
 21
1325.000000000058
 31
0.0
  0
LINE
  5
45C
330
1F
100
AcDbEntity
  8
Ｓ_１_１
  6
EXLTYPE2
 62
     1
100
AcDbLine
 10
980.0000610779981
 20
1305.00000000004
 30
0.0
 11
980.0000610779981
 21
1345.00000000004
 31
0.0
  0
LINE
  5
45D
330
1F
100
AcDbEntity
  8
Ｓ_１_１
  6
EXLTYPE2
 62
     1
100
AcDbLine
 10
960.000061077998
 20
994.9999999999582
 30
0.0
 11
1000.000061077998
 21
994.9999999999582
 31
0.0
  0
LINE
  5
45E
330
1F
100
AcDbEntity
  8
Ｓ_１_１
  6
EXLTYPE2
 62
     1
100
AcDbLine
 10
980.0000610779981
 20
974.99999999994
 30
0.0
 11
980.0000610779981
 21
1014.99999999994
 31
0.0
  0
LINE
  5
45F
330
1F
100
AcDbEntity
  8
Ｓ_１_１
  6
EXLTYPE2
 62
     1
100
AcDbLine
 10
850.0000610779981
 20
994.9999999999582
 30
0.0
 11
890.0000610779981
 21
994.9999999999582
 31
0.0
  0
LINE
  5
460
330
1F
100
AcDbEntity
  8
Ｓ_１_１
  6
EXLTYPE2
 62
     1
100
AcDbLine
 10
870.000061077998
 20
974.99999999994
 30
0.0
 11
870.000061077998
 21
1014.99999999994
 31
0.0
  0
LINE
  5
461
330
1F
100
AcDbEntity
  8
Ｓ_１_１
  6
EXLTYPE2
 62
     1
100
AcDbLine
 10
630.0000610779981
 20
994.9999999999582
 30
0.0
 11
670.0000610779981
 21
994.9999999999582
 31
0.0
  0
LINE
  5
462
330
1F
100
AcDbEntity
  8
Ｓ_１_１
  6
EXLTYPE2
 62
     1
100
AcDbLine
 10
650.0000610779981
 20
974.99999999994
 30
0.0
 11
650.0000610779981
 21
1014.99999999994
 31
0.0
  0
LINE
  5
463
330
1F
100
AcDbEntity
  8
Ｓ_１_１
  6
EXLTYPE2
 62
     1
100
AcDbLine
 10
520.0000610779981
 20
994.9999999999582
 30
0.0
 11
560.0000610779981
 21
994.9999999999582
 31
0.0
  0
LINE
  5
464
330
1F
100
AcDbEntity
  8
Ｓ_１_１
  6
EXLTYPE2
 62
     1
100
AcDbLine
 10
540.0000610779981
 20
974.99999999994
 30
0.0
 11
540.0000610779981
 21
1014.99999999994
 31
0.0
  0
LINE
  5
465
330
1F
100
AcDbEntity
  8
Ｓ_１_１
  6
EXLTYPE2
 62
     1
100
AcDbLine
 10
559.9999999999992
 20
979.306026506525
 30
0.0
 11
559.9999999999992
 21
939.4660265065249
 31
0.0
  0
LINE
  5
466
330
1F
100
AcDbEntity
  8
Ｓ_１_１
  6
EXLTYPE2
 62
     1
100
AcDbLine
 10
540.2800663367099
 20
960.0000000000235
 30
0.0
 11
580.6800663367095
 21
960.0000000000235
 31
0.0
  0
LINE
  5
467
330
1F
100
AcDbEntity
  8
Ｓ_１_１
  6
EXLTYPE2
 62
     1
100
AcDbLine
 10
559.9999999999992
 20
1340.693973493559
 30
0.0
 11
559.9999999999992
 21
1380.533973493559
 31
0.0
  0
LINE
  5
468
330
1F
100
AcDbEntity
  8
Ｓ_１_１
  6
EXLTYPE2
 62
     1
100
AcDbLine
 10
540.2800663367099
 20
1360.000000000058
 30
0.0
 11
580.6800663367095
 21
1360.000000000058
 31
0.0
  0
LINE
  5
469
330
1F
100
AcDbEntity
  8
Ｓ_１_１
  6
EXLTYPE2
 62
     1
100
AcDbLine
 10
959.9999999999992
 20
979.3060265065233
 30
0.0
 11
959.9999999999992
 21
939.466026506523
 31
0.0
  0
LINE
  5
46A
330
1F
100
AcDbEntity
  8
Ｓ_１_１
  6
EXLTYPE2
 62
     1
100
AcDbLine
 10
979.7199336632885
 20
960.0000000000235
 30
0.0
 11
939.3199336632889
 21
960.0000000000235
 31
0.0
  0
LINE
  5
46B
330
1F
100
AcDbEntity
  8
Ｓ_１_１
  6
EXLTYPE2
 62
     1
100
AcDbLine
 10
960.000000000001
 20
1340.693973493559
 30
0.0
 11
960.000000000001
 21
1380.533973493559
 31
0.0
  0
LINE
  5
46C
330
1F
100
AcDbEntity
  8
Ｓ_１_１
  6
EXLTYPE2
 62
     1
100
AcDbLine
 10
979.7199336632904
 20
1360.000000000058
 30
0.0
 11
939.3199336632906
 21
1360.000000000058
 31
0.0
  0
LINE
  5
46D
330
1F
100
AcDbEntity
  8
Ｓ_１_１
  6
EXLTYPE2
 62
     1
100
AcDbLine
 10
789.9999999999991
 20
1010.000000000058
 30
0.0
 11
829.9999999999992
 21
1010.000000000058
 31
0.0
  0
LINE
  5
46E
330
1F
100
AcDbEntity
  8
Ｓ_１_１
  6
EXLTYPE2
 62
     1
100
AcDbLine
 10
809.9999999999992
 20
990.0000000000399
 30
0.0
 11
809.9999999999992
 21
1030.00000000004
 31
0.0
  0
LINE
  5
46F
330
1F
100
AcDbEntity
  8
Ｓ_１_１
  6
EXLTYPE2
 62
     1
100
AcDbLine
 10
989.9999999999992
 20
1010.000000000058
 30
0.0
 11
1029.999999999999
 21
1010.000000000058
 31
0.0
  0
LINE
  5
470
330
1F
100
AcDbEntity
  8
Ｓ_１_１
  6
EXLTYPE2
 62
     1
100
AcDbLine
 10
1009.999999999999
 20
990.0000000000399
 30
0.0
 11
1009.999999999999
 21
1030.00000000004
 31
0.0
  0
LINE
  5
471
330
1F
100
AcDbEntity
  8
Ｓ_１_１
  6
EXLTYPE2
 62
     1
100
AcDbLine
 10
789.9999999999991
 20
1310.000000000058
 30
0.0
 11
829.9999999999992
 21
1310.000000000058
 31
0.0
  0
LINE
  5
472
330
1F
100
AcDbEntity
  8
Ｓ_１_１
  6
EXLTYPE2
 62
     1
100
AcDbLine
 10
809.9999999999992
 20
1290.00000000004
 30
0.0
 11
809.9999999999992
 21
1330.00000000004
 31
0.0
  0
LINE
  5
473
330
1F
100
AcDbEntity
  8
Ｓ_１_１
  6
EXLTYPE2
 62
     1
100
AcDbLine
 10
989.9999999999992
 20
1310.000000000058
 30
0.0
 11
1029.999999999999
 21
1310.000000000058
 31
0.0
  0
LINE
  5
474
330
1F
100
AcDbEntity
  8
Ｓ_１_１
  6
EXLTYPE2
 62
     1
100
AcDbLine
 10
1009.999999999999
 20
1290.00000000004
 30
0.0
 11
1009.999999999999
 21
1330.00000000004
 31
0.0
  0
LINE
  5
475
330
1F
100
AcDbEntity
  8
Ｓ_１_１
  6
EXLTYPE2
 62
     1
100
AcDbLine
 10
730.000000000001
 20
1310.000000000058
 30
0.0
 11
690.000000000001
 21
1310.000000000058
 31
0.0
  0
LINE
  5
476
330
1F
100
AcDbEntity
  8
Ｓ_１_１
  6
EXLTYPE2
 62
     1
100
AcDbLine
 10
710.000000000001
 20
1290.00000000004
 30
0.0
 11
710.000000000001
 21
1330.00000000004
 31
0.0
  0
LINE
  5
477
330
1F
100
AcDbEntity
  8
Ｓ_１_１
  6
EXLTYPE2
 62
     1
100
AcDbLine
 10
530.000000000001
 20
1310.000000000058
 30
0.0
 11
490.000000000001
 21
1310.000000000058
 31
0.0
  0
LINE
  5
478
330
1F
100
AcDbEntity
  8
Ｓ_１_１
  6
EXLTYPE2
 62
     1
100
AcDbLine
 10
510.000000000001
 20
1290.00000000004
 30
0.0
 11
510.000000000001
 21
1330.000000000042
 31
0.0
  0
LINE
  5
479
330
1F
100
AcDbEntity
  8
Ｓ_１_１
  6
EXLTYPE2
 62
     1
100
AcDbLine
 10
729.9999999999992
 20
1010.000000000058
 30
0.0
 11
689.9999999999992
 21
1010.000000000058
 31
0.0
  0
LINE
  5
47A
330
1F
100
AcDbEntity
  8
Ｓ_１_１
  6
EXLTYPE2
 62
     1
100
AcDbLine
 10
709.9999999999992
 20
990.0000000000399
 30
0.0
 11
709.9999999999992
 21
1030.00000000004
 31
0.0
  0
LINE
  5
47B
330
1F
100
AcDbEntity
  8
Ｓ_１_１
  6
EXLTYPE2
 62
     1
100
AcDbLine
 10
529.9999999999992
 20
1010.000000000058
 30
0.0
 11
489.9999999999992
 21
1010.000000000058
 31
0.0
  0
LINE
  5
47C
330
1F
100
AcDbEntity
  8
Ｓ_１_１
  6
EXLTYPE2
 62
     1
100
AcDbLine
 10
509.9999999999991
 20
990.0000000000399
 30
0.0
 11
509.9999999999991
 21
1030.00000000004
 31
0.0
  0
LINE
  5
47D
330
1F
100
AcDbEntity
  8
Ｓ_１_１
  6
EXLTYPE2
 62
     1
100
AcDbLine
 10
682.9708778009837
 20
1385.161640456919
 30
0.0
 11
655.2544918256473
 21
1373.681137485963
 31
0.0
  0
LINE
  5
47E
330
1F
100
AcDbEntity
  8
Ｓ_１_１
  6
EXLTYPE2
 62
     1
100
AcDbLine
 10
837.0291221990165
 20
1385.161640456919
 30
0.0
 11
864.7455081743547
 21
1373.681137485963
 31
0.0
  0
LINE
  5
47F
330
1F
100
AcDbEntity
  8
Ｓ_１_１
  6
EXLTYPE2
 62
     1
100
AcDbLine
 10
655.2544918256255
 20
946.3188625141228
 30
0.0
 11
682.9708778009636
 21
934.8383595431733
 31
0.0
  0
LINE
  5
480
330
1F
100
AcDbEntity
  8
Ｓ_１_１
  6
EXLTYPE2
 62
     1
100
AcDbLine
 10
864.7455081743765
 20
946.3188625141228
 30
0.0
 11
837.0291221990366
 21
934.8383595431733
 31
0.0
  0
LINE
  5
481
330
1F
100
AcDbEntity
  8
Ｓ_１_１
  6
EXLTYPE2
 62
     1
100
AcDbLine
 10
650.7171429297097
 20
1423.832155673026
 30
0.0
 11
677.157328946386
 21
1359.999900000003
 31
0.0
  0
LINE
  5
482
330
1F
100
AcDbEntity
  8
Ｓ_１_１
  6
EXLTYPE2
 62
     1
100
AcDbLine
 10
869.2828570702887
 20
1423.832155673026
 30
0.0
 11
842.842671053616
 21
1359.999900000003
 31
0.0
  0
LINE
  5
483
330
1F
100
AcDbEntity
  8
Ｓ_１_１
  6
EXLTYPE2
 62
     1
100
AcDbLine
 10
650.7171429303372
 20
896.1678443265955
 30
0.0
 11
677.1573289470881
 21
960.0001000000028
 31
0.0
  0
LINE
  5
484
330
1F
100
AcDbEntity
  8
Ｓ_１_１
  6
EXLTYPE2
 62
     1
100
AcDbLine
 10
869.2828570696629
 20
896.1678443265955
 30
0.0
 11
842.8426710529103
 21
960.0001000000028
 31
0.0
  0
LINE
  5
485
330
1F
100
AcDbEntity
  8
Ｓ_１_１
  6
EXLTYPE2
 62
     1
100
AcDbLine
 10
1600.0
 20
1420.0000000001
 30
0.0
 11
1600.0
 21
900.0000000001006
 31
0.0
  0
LINE
  5
486
330
1F
100
AcDbEntity
  8
Ｓ_１_１
  6
EXLTYPE2
 62
     1
100
AcDbLine
 10
1340.0
 20
1160.000000000002
 30
0.0
 11
1859.999999999999
 21
1160.000000000002
 31
0.0
  0
LINE
  5
487
330
1F
100
AcDbEntity
  8
Ｓ_１_１
  6
EXLTYPE2
 62
     1
100
AcDbLine
 10
1780.0
 20
960.0000000000188
 30
0.0
 11
1820.0
 21
960.0000000000188
 31
0.0
  0
LINE
  5
488
330
1F
100
AcDbEntity
  8
Ｓ_１_１
  6
EXLTYPE2
 62
     1
100
AcDbLine
 10
1799.999999999999
 20
940.0000000000005
 30
0.0
 11
1799.999999999999
 21
980.0000000000006
 31
0.0
  0
LINE
  5
489
330
1F
100
AcDbEntity
  8
Ｓ_１_１
  6
EXLTYPE2
 62
     1
100
AcDbLine
 10
1745.0
 20
995.0000000000186
 30
0.0
 11
1784.999999999999
 21
995.0000000000186
 31
0.0
  0
LINE
  5
48A
330
1F
100
AcDbEntity
  8
Ｓ_１_１
  6
EXLTYPE2
 62
     1
100
AcDbLine
 10
1765.0
 20
975.0000000000006
 30
0.0
 11
1765.0
 21
1015.0
 31
0.0
  0
LINE
  5
48B
330
1F
100
AcDbEntity
  8
Ｓ_１_１
  6
EXLTYPE2
 62
     1
100
AcDbLine
 10
1380.0
 20
960.0000000000188
 30
0.0
 11
1420.0
 21
960.0000000000188
 31
0.0
  0
LINE
  5
48C
330
1F
100
AcDbEntity
  8
Ｓ_１_１
  6
EXLTYPE2
 62
     1
100
AcDbLine
 10
1400.0
 20
940.0000000000005
 30
0.0
 11
1400.0
 21
980.0000000000006
 31
0.0
  0
LINE
  5
48D
330
1F
100
AcDbEntity
  8
Ｓ_１_１
  6
EXLTYPE2
 62
     1
100
AcDbLine
 10
1415.0
 20
995.0000000000186
 30
0.0
 11
1455.0
 21
995.0000000000186
 31
0.0
  0
LINE
  5
48E
330
1F
100
AcDbEntity
  8
Ｓ_１_１
  6
EXLTYPE2
 62
     1
100
AcDbLine
 10
1435.0
 20
975.0000000000006
 30
0.0
 11
1435.0
 21
1015.0
 31
0.0
  0
LINE
  5
48F
330
1F
100
AcDbEntity
  8
Ｓ_１_１
  6
EXLTYPE2
 62
     1
100
AcDbLine
 10
1780.0
 20
1360.000000000019
 30
0.0
 11
1820.0
 21
1360.000000000019
 31
0.0
  0
LINE
  5
490
330
1F
100
AcDbEntity
  8
Ｓ_１_１
  6
EXLTYPE2
 62
     1
100
AcDbLine
 10
1799.999999999999
 20
1340.0
 30
0.0
 11
1799.999999999999
 21
1380.0
 31
0.0
  0
LINE
  5
491
330
1F
100
AcDbEntity
  8
Ｓ_１_１
  6
EXLTYPE2
 62
     1
100
AcDbLine
 10
1745.0
 20
1325.000000000019
 30
0.0
 11
1784.999999999999
 21
1325.000000000019
 31
0.0
  0
LINE
  5
492
330
1F
100
AcDbEntity
  8
Ｓ_１_１
  6
EXLTYPE2
 62
     1
100
AcDbLine
 10
1765.0
 20
1305.0
 30
0.0
 11
1765.0
 21
1345.0
 31
0.0
  0
LINE
  5
493
330
1F
100
AcDbEntity
  8
Ｓ_１_１
  6
EXLTYPE2
 62
     1
100
AcDbLine
 10
1415.0
 20
1325.000000000019
 30
0.0
 11
1455.0
 21
1325.000000000019
 31
0.0
  0
LINE
  5
494
330
1F
100
AcDbEntity
  8
Ｓ_１_１
  6
EXLTYPE2
 62
     1
100
AcDbLine
 10
1435.0
 20
1305.0
 30
0.0
 11
1435.0
 21
1345.0
 31
0.0
  0
LINE
  5
495
330
1F
100
AcDbEntity
  8
Ｓ_１_１
  6
EXLTYPE2
 62
     1
100
AcDbLine
 10
1380.0
 20
1360.000000000019
 30
0.0
 11
1420.0
 21
1360.000000000019
 31
0.0
  0
LINE
  5
496
330
1F
100
AcDbEntity
  8
Ｓ_１_１
  6
EXLTYPE2
 62
     1
100
AcDbLine
 10
1400.0
 20
1340.0
 30
0.0
 11
1400.0
 21
1380.0
 31
0.0
  0
CIRCLE
  5
497
330
1F
100
AcDbEntity
  8
Ｓ_１_１
  6
EXLTYPE2
 62
     1
100
AcDbCircle
 10
1600.0
 20
1160.0
 30
0.0
 40
100.0
  0
LINE
  5
498
330
1F
100
AcDbEntity
  8
Ｓ_１_１
  6
EXLTYPE2
 62
     1
100
AcDbLine
 10
1515.899999999856
 20
1075.900000000146
 30
0.0
 11
1540.999999999856
 21
1101.000000000146
 31
0.0
  0
LINE
  5
499
330
1F
100
AcDbEntity
  8
Ｓ_１_１
  6
EXLTYPE2
 62
     1
100
AcDbLine
 10
1515.899999999856
 20
1244.099999999859
 30
0.0
 11
1540.999999999856
 21
1218.999999999859
 31
0.0
  0
LINE
  5
49A
330
1F
100
AcDbEntity
  8
Ｓ_１_１
  6
EXLTYPE2
 62
     1
100
AcDbLine
 10
1684.100000000146
 20
1075.900000000146
 30
0.0
 11
1659.000000000145
 21
1101.000000000146
 31
0.0
  0
LINE
  5
49B
330
1F
100
AcDbEntity
  8
Ｓ_１_１
  6
EXLTYPE2
 62
     1
100
AcDbLine
 10
1684.100000000146
 20
1244.099999999859
 30
0.0
 11
1659.000000000145
 21
1218.999999999859
 31
0.0
  0
LINE
  5
49C
330
1F
100
AcDbEntity
  8
Ｓ_１_１
  6
EXLTYPE2
 62
     1
100
AcDbLine
 10
399.9999999999999
 20
1159.99999999996
 30
0.0
 11
1120.0
 21
1159.99999999996
 31
0.0
  0
LINE
  5
49D
330
1F
100
AcDbEntity
  8
Ｓ_１_１
  6
EXLTYPE2
 62
     1
100
AcDbLine
 10
759.9999999999993
 20
1420.0000000001
 30
0.0
 11
759.9999999999993
 21
900.0000000000999
 31
0.0
  0
TEXT
  5
49E
330
1F
100
AcDbEntity
  8
Ｓ_１_１
  6
CONTINUOUS
 62
     4
100
AcDbText
 10
270.6000000000001
 20
1427.5935962589
 30
0.0
 40
20.77742494226328
  1
16-26キリ
 41
0.999230769230769
  7
EXCADTTF1
 72
     5
 11
392.1000000000001
 21
1427.5935962589
 31
0.0
100
AcDbText
  0
LEADER
  5
49F
330
1F
100
AcDbEntity
  8
Ｓ_１_１
  6
CONTINUOUS
 62
     2
100
AcDbLeader
  3
ISO-25
 76
     3
 10
500.7049133028001
 20
1319.088529215
 30
0.0
 10
398.9967212589001
 20
1420.7967212589
 30
0.0
 10
270.6000000000001
 20
1420.7967212589
 30
0.0
1001
ACAD
1000
DSTYLE
1002
{
1070
     5
1000
EX_NORM
1070
    41
1040
18.0
1070
   341
1005
7E
1002
}
  0
TEXT
  5
4A0
330
1F
100
AcDbEntity
  8
Ｓ_１_１
  6
CONTINUOUS
 62
     4
100
AcDbText
 10
1200.0
 20
1454.7505442926
 30
0.0
 40
20.77742494226328
  1
8-26キリ
 41
0.999230769230769
  7
EXCADTTF1
 72
     5
 11
1308.0
 21
1454.7505442926
 31
0.0
100
AcDbText
  0
LEADER
  5
4A1
330
1F
100
AcDbEntity
  8
Ｓ_１_１
  6
CONTINUOUS
 62
     2
100
AcDbLeader
  3
ISO-25
 76
     3
 10
1391.921868757
 20
1370.1854698282
 30
0.0
 10
1314.1536692926
 20
1447.9536692926
 30
0.0
 10
1200.0
 20
1447.9536692926
 30
0.0
1001
ACAD
1000
DSTYLE
1002
{
1070
     5
1000
EX_NORM
1070
    41
1040
18.0
1070
   341
1005
7E
1002
}
  0
CIRCLE
  5
4A2
330
1F
100
AcDbEntity
  8
Ｓ_１_１
  6
CONTINUOUS
 62
     3
100
AcDbCircle
 10
1599.997480355606
 20
324.9999979999799
 30
0.0
 40
16.0
  0
CIRCLE
  5
4A3
330
1F
100
AcDbEntity
  8
Ｓ_１_１
  6
CONTINUOUS
 62
     3
100
AcDbCircle
 10
1599.997480355606
 20
324.9999979999799
 30
0.0
 40
14.58898671826498
  0
CIRCLE
  5
4A4
330
1F
100
AcDbEntity
  8
Ｓ_１_１
  6
CONTINUOUS
 62
     3
100
AcDbCircle
 10
1599.997480355606
 20
324.9999979999799
 30
0.0
 40
10.62462489497569
  0
CIRCLE
  5
4A5
330
1F
100
AcDbEntity
  8
Ｓ_１_１
  6
CONTINUOUS
 62
     3
100
AcDbCircle
 10
1599.997480355606
 20
324.9999979999799
 30
0.0
 40
4.98315573269052
  0
POLYLINE
  5
4A6
330
1F
100
AcDbEntity
  8
Ｓ_１_１
  6
CONTINUOUS
 62
     3
100
AcDb2dPolyline
 66
     1
 10
0.0
 20
0.0
 30
0.0
 70
   128
  0
VERTEX
  5
4A7
330
4A6
100
AcDbEntity
  8
Ｓ_１_１
  6
CONTINUOUS
 62
     3
100
AcDbVertex
100
AcDb2dVertex
 10
1599.997480355594
 20
416.1435995394284
 30
0.0
  0
VERTEX
  5
4A8
330
4A6
100
AcDbEntity
  8
Ｓ_１_１
  6
CONTINUOUS
 62
     3
100
AcDbVertex
100
AcDb2dVertex
 10
1587.997480355594
 20
423.0718027697046
 30
0.0
  0
VERTEX
  5
4A9
330
4A6
100
AcDbEntity
  8
Ｓ_１_１
  6
CONTINUOUS
 62
     3
100
AcDbVertex
100
AcDb2dVertex
 10
1587.997480355594
 20
436.9282092302553
 30
0.0
  0
VERTEX
  5
4AA
330
4A6
100
AcDbEntity
  8
Ｓ_１_１
  6
CONTINUOUS
 62
     3
100
AcDbVertex
100
AcDb2dVertex
 10
1599.997480355594
 20
443.8564124605316
 30
0.0
  0
VERTEX
  5
4AB
330
4A6
100
AcDbEntity
  8
Ｓ_１_１
  6
CONTINUOUS
 62
     3
100
AcDbVertex
100
AcDb2dVertex
 10
1611.997480355594
 20
436.9282092302553
 30
0.0
  0
VERTEX
  5
4AC
330
4A6
100
AcDbEntity
  8
Ｓ_１_１
  6
CONTINUOUS
 62
     3
100
AcDbVertex
100
AcDb2dVertex
 10
1611.997480355594
 20
423.0718027697046
 30
0.0
  0
VERTEX
  5
4AD
330
4A6
100
AcDbEntity
  8
Ｓ_１_１
  6
CONTINUOUS
 62
     3
100
AcDbVertex
100
AcDb2dVertex
 10
1599.997480355594
 20
416.1435995394284
 30
0.0
  0
SEQEND
  5
4AE
330
4A6
100
AcDbEntity
  8
Ｓ_１_１
  6
CONTINUOUS
 62
     3
  0
CIRCLE
  5
4AF
330
1F
100
AcDbEntity
  8
Ｓ_１_１
  6
CONTINUOUS
 62
     3
100
AcDbCircle
 10
1599.997480355594
 20
430.00000599998
 30
0.0
 40
12.00000000000102
  0
CIRCLE
  5
4B0
330
1F
100
AcDbEntity
  8
Ｓ_１_１
  6
CONTINUOUS
 62
     3
100
AcDbCircle
 10
1599.997480355594
 20
430.00000599998
 30
0.0
 40
10.72532284355114
  0
CIRCLE
  5
4B1
330
1F
100
AcDbEntity
  8
Ｓ_１_１
  6
CONTINUOUS
 62
     3
100
AcDbCircle
 10
1599.997480355594
 20
430.00000599998
 30
0.0
 40
6.323600530683808
  0
CIRCLE
  5
4B2
330
1F
100
AcDbEntity
  8
Ｓ_１_１
  6
CONTINUOUS
 62
     3
100
AcDbCircle
 10
1599.997480355594
 20
430.00000599998
 30
0.0
 40
4.217842489549019
  0
LINE
  5
4B3
330
1F
100
AcDbEntity
  8
Ｓ_１_１
  6
EXLTYPE2
 62
     1
100
AcDbLine
 10
963.5000709900798
 20
430.0000039999802
 30
0.0
 11
860.5000709900798
 21
430.0000039999802
 31
0.0
  0
CIRCLE
  5
4B4
330
1F
100
AcDbEntity
  8
Ｓ_１_１
  6
CONTINUOUS
 62
     3
100
AcDbCircle
 10
1599.9974803556
 20
430.00000599998
 30
0.0
 40
15.0
  0
ELLIPSE
  5
4B5
330
1F
100
AcDbEntity
  8
Ｓ_１_１
  6
CONTINUOUS
 62
     3
100
AcDbEllipse
 10
1535.4974833556
 20
430.00000599998
 30
0.0
 11
-1.459246400077237E-15
 21
-7.943767411650016
 31
0.0
210
0.0
220
0.0
230
1.0
 40
0.8425409570885031
 41
0.0
 42
6.283185307179586
  0
ELLIPSE
  5
4B6
330
1F
100
AcDbEntity
  8
Ｓ_１_１
  6
CONTINUOUS
 62
     3
100
AcDbEllipse
 10
1535.4974833556
 20
430.00000599998
 30
0.0
 11
-2.772804690326796E-15
 21
7.24240547415002
 31
0.0
210
0.0
220
0.0
230
1.0
 40
0.8447793820903046
 41
0.0
 42
6.283185307179586
  0
LINE
  5
4B7
330
1F
100
AcDbEntity
  8
Ｓ_１_１
  6
EXLTYPE2
 62
     1
100
AcDbLine
 10
1545.4974833556
 20
430.0000059999846
 30
0.0
 11
1525.4974833556
 21
430.0000059999846
 31
0.0
  0
LINE
  5
4B8
330
1F
100
AcDbEntity
  8
Ｓ_１_１
  6
EXLTYPE2
 62
     1
100
AcDbLine
 10
1535.4974833556
 20
419.0000059999799
 30
0.0
 11
1535.4974833556
 21
441.00000599998
 31
0.0
  0
LINE
  5
4B9
330
1F
100
AcDbEntity
  8
Ｓ_１_１
  6
EXLTYPE2
 62
     1
100
AcDbLine
 10
1579.9974803556
 20
430.0000059999808
 30
0.0
 11
1619.9974803556
 21
430.0000059999808
 31
0.0
  0
LINE
  5
4BA
330
1F
100
AcDbEntity
  8
Ｓ_１_１
  6
CONTINUOUS
 62
     3
100
AcDbLine
 10
917.7905290900787
 20
416.1436184999903
 30
0.0
 11
912.9342060900786
 21
416.1436184999903
 31
0.0
  0
LINE
  5
4BB
330
1F
100
AcDbEntity
  8
Ｓ_１_１
  6
CONTINUOUS
 62
     3
100
AcDbLine
 10
911.8624620900789
 20
418.0000644999901
 30
0.0
 11
912.9342390900789
 21
416.1436914999899
 31
0.0
  0
LINE
  5
4BC
330
1F
100
AcDbEntity
  8
Ｓ_１_１
  6
CONTINUOUS
 62
     3
100
AcDbLine
 10
918.8624980900788
 20
418.0001064999901
 30
0.0
 11
917.7906590900786
 21
416.14362849999
 31
0.0
  0
ARC
  5
4BD
330
1F
100
AcDbEntity
  8
Ｓ_１_１
  6
CONTINUOUS
 62
     3
100
AcDbCircle
 10
917.9962180900785
 20
419.6077294999901
 30
0.0
 40
6.133925000000001
100
AcDbArc
 50
145.6154159999998
 51
214.3845739999998
  0
ARC
  5
4BE
330
1F
100
AcDbEntity
  8
Ｓ_１_１
  6
CONTINUOUS
 62
     3
100
AcDbCircle
 10
912.7285180900788
 20
419.6077294999901
 30
0.0
 40
6.133925000000001
100
AcDbArc
 50
325.6154380000003
 51
34.38458300000026
  0
ARC
  5
4BF
330
1F
100
AcDbEntity
  8
Ｓ_１_１
  6
CONTINUOUS
 62
     3
100
AcDbCircle
 10
898.9951020900753
 20
420.90673899998
 30
0.0
 40
5.367246000000002
100
AcDbArc
 50
325.6158810000001
 51
6.34626926999089
  0
LINE
  5
4C0
330
1F
100
AcDbEntity
  8
Ｓ_１_１
  6
CONTINUOUS
 62
     3
100
AcDbLine
 10
904.3623430900755
 20
421.50001799998
 30
0.0
 11
904.3623430900755
 21
419.5000119999799
 31
0.0
  0
LINE
  5
4C1
330
1F
100
AcDbEntity
  8
Ｓ_１_１
  6
CONTINUOUS
 62
     3
100
AcDbLine
 10
911.8623470900754
 20
422.1187649999799
 30
0.0
 11
905.099515739839
 21
421.6960887168735
 31
0.0
  0
LINE
  5
4C2
330
1F
100
AcDbEntity
  8
Ｓ_１_１
  6
CONTINUOUS
 62
     3
100
AcDbLine
 10
905.7246310900753
 20
422.4365339999799
 30
0.0
 11
905.355798060309
 21
422.2235880038787
 31
0.0
  0
LINE
  5
4C3
330
1F
100
AcDbEntity
  8
Ｓ_１_１
  6
CONTINUOUS
 62
     3
100
AcDbLine
 10
905.7246100900753
 20
422.9827042877636
 30
0.0
 11
905.7246100900753
 21
421.7351639999799
 31
0.0
  0
LINE
  5
4C4
330
1F
100
AcDbEntity
  8
Ｓ_１_１
  6
CONTINUOUS
 62
     3
100
AcDbLine
 10
905.7246100900753
 20
438.2648759999799
 30
0.0
 11
905.7246100900753
 21
437.0173317121965
 31
0.0
  0
LINE
  5
4C5
330
1F
100
AcDbEntity
  8
Ｓ_１_１
  6
CONTINUOUS
 62
     3
100
AcDbLine
 10
905.3558041520248
 20
437.7764354576599
 30
0.0
 11
905.7246140900753
 21
437.5635029999799
 31
0.0
  0
LINE
  5
4C6
330
1F
100
AcDbEntity
  8
Ｓ_１_１
  6
CONTINUOUS
 62
     3
100
AcDbLine
 10
904.3623470900754
 20
438.3500079999798
 30
0.0
 11
904.3623430900755
 21
438.3500103093804
 31
0.0
  0
LINE
  5
4C7
330
1F
100
AcDbEntity
  8
Ｓ_１_１
  6
CONTINUOUS
 62
     3
100
AcDbLine
 10
904.3623430900755
 20
438.3500154374768
 30
0.0
 11
904.3623180900754
 21
438.3500169999799
 31
0.0
  0
LINE
  5
4C8
330
1F
100
AcDbEntity
  8
Ｓ_１_１
  6
CONTINUOUS
 62
     3
100
AcDbLine
 10
911.8623510900754
 20
437.8812639999799
 30
0.0
 11
905.0995183595572
 21
438.3039418909877
 31
0.0
  0
LINE
  5
4C9
330
1F
100
AcDbEntity
  8
Ｓ_１_１
  6
CONTINUOUS
 62
     3
100
AcDbLine
 10
904.3623430900755
 20
440.5000339999799
 30
0.0
 11
904.3623430900755
 21
438.50001799998
 31
0.0
  0
ARC
  5
4CA
330
1F
100
AcDbEntity
  8
Ｓ_１_１
  6
CONTINUOUS
 62
     3
100
AcDbCircle
 10
898.9951020900753
 20
439.0932999999799
 30
0.0
 40
5.367246000000002
100
AcDbArc
 50
353.6536985073089
 51
34.38408299999998
  0
LINE
  5
4CB
330
1F
100
AcDbEntity
  8
Ｓ_１_１
  6
CONTINUOUS
 62
     3
100
AcDbLine
 10
895.6510119435917
 20
419.00001799998
 30
0.0
 11
896.3001700900753
 21
417.87563799998
 31
0.0
  0
ARC
  5
4CC
330
1F
100
AcDbEntity
  8
Ｓ_１_１
  6
CONTINUOUS
 62
     3
100
AcDbCircle
 10
900.7295880900754
 20
420.90673899998
 30
0.0
 40
5.367246000000002
100
AcDbArc
 50
200.8088454008732
 51
214.384065
  0
ARC
  5
4CD
330
1F
100
AcDbEntity
  8
Ｓ_１_１
  6
CONTINUOUS
 62
     3
100
AcDbCircle
 10
900.7295880900754
 20
439.0932999999799
 30
0.0
 40
5.367246000000002
100
AcDbArc
 50
145.615862
 51
159.1911888591125
  0
LINE
  5
4CE
330
1F
100
AcDbEntity
  8
Ｓ_１_１
  6
CONTINUOUS
 62
     3
100
AcDbLine
 10
895.6510126063071
 20
441.00001799998
 30
0.0
 11
896.3001670900753
 21
442.1243899999799
 31
0.0
  0
LINE
  5
4CF
330
1F
100
AcDbEntity
  8
Ｓ_１_１
  6
CONTINUOUS
 62
     3
100
AcDbLine
 10
903.4245380900754
 20
442.1243629999798
 30
0.0
 11
896.3001520900752
 21
442.1243629999798
 31
0.0
  0
LINE
  5
4D0
330
1F
100
AcDbEntity
  8
Ｓ_１_１
  6
CONTINUOUS
 62
     3
100
AcDbLine
 10
903.4245190900753
 20
417.8756469999798
 30
0.0
 11
896.3001710900753
 21
417.8756469999798
 31
0.0
  0
LINE
  5
4D1
330
1F
100
AcDbEntity
  8
Ｓ_１_１
  6
CONTINUOUS
 62
     3
100
AcDbLine
 10
904.3623460900753
 20
419.5000009999798
 30
0.0
 11
903.4245240900752
 21
417.8756399999799
 31
0.0
  0
LINE
  5
4D2
330
1F
100
AcDbEntity
  8
Ｓ_１_１
  6
CONTINUOUS
 62
     3
100
AcDbLine
 10
904.3623550900754
 20
440.5000359999798
 30
0.0
 11
903.4245340900754
 21
442.12439699998
 31
0.0
  0
LINE
  5
4D3
330
1F
100
AcDbEntity
  8
Ｓ_１_１
  6
CONTINUOUS
 62
     3
100
AcDbLine
 10
911.8623510900754
 20
422.82013799998
 30
0.0
 11
905.7246150900753
 21
422.4365289999799
 31
0.0
  0
LINE
  5
4D4
330
1F
100
AcDbEntity
  8
Ｓ_１_１
  6
CONTINUOUS
 62
     3
100
AcDbLine
 10
911.8623360900754
 20
437.1799029999798
 30
0.0
 11
905.7246010900753
 21
437.5635109999799
 31
0.0
  0
LINE
  5
4D5
330
1F
100
AcDbEntity
  8
Ｓ_１_１
  6
CONTINUOUS
 62
     3
100
AcDbLine
 10
906.2560370005903
 20
424.0765265845098
 30
0.0
 11
905.0042559744901
 21
421.50001799998
 31
0.0
  0
LINE
  5
4D6
330
1F
100
AcDbEntity
  8
Ｓ_１_１
  6
CONTINUOUS
 62
     3
100
AcDbLine
 10
906.2560370005903
 20
435.9235094154501
 30
0.0
 11
905.0042559744901
 21
438.50001799998
 31
0.0
  0
LINE
  5
4D7
330
1F
100
AcDbEntity
  8
Ｓ_１_１
  6
CONTINUOUS
 62
     3
100
AcDbLine
 10
901.5668297792726
 20
421.50001799998
 30
0.0
 11
900.7231670612503
 21
419.00001799998
 31
0.0
  0
ARC
  5
4D8
330
1F
100
AcDbEntity
  8
Ｓ_１_１
  6
CONTINUOUS
 62
     3
100
AcDbCircle
 10
851.3823210260612
 20
412.5482092964283
 30
0.0
 40
43.47143130905987
100
AcDbArc
 50
8.535079620799767
 51
23.66914788314418
  0
LINE
  5
4D9
330
1F
100
AcDbEntity
  8
Ｓ_１_１
  6
CONTINUOUS
 62
     3
100
AcDbLine
 10
896.2155794044612
 20
421.50001799998
 30
0.0
 11
905.0042559744901
 21
421.50001799998
 31
0.0
  0
ARC
  5
4DA
330
1F
100
AcDbEntity
  8
Ｓ_１_１
  6
CONTINUOUS
 62
     3
100
AcDbCircle
 10
884.3177474153067
 20
421.5491684272873
 30
0.0
 40
15.77910782777409
100
AcDbArc
 50
359.8215205628495
 51
32.38270694117389
  0
ARC
  5
4DB
330
1F
100
AcDbEntity
  8
Ｓ_１_１
  6
CONTINUOUS
 62
     3
100
AcDbCircle
 10
909.5408734669138
 20
429.9508630458727
 30
0.0
 40
15.77910782777409
100
AcDbArc
 50
179.8215205628495
 51
212.3827069411741
  0
LINE
  5
4DC
330
1F
100
AcDbEntity
  8
Ｓ_１_１
  6
CONTINUOUS
 62
     3
100
AcDbLine
 10
897.6430400423203
 20
430.0000179999799
 30
0.0
 11
893.7618422028911
 21
430.0000179999799
 31
0.0
  0
LINE
  5
4DD
330
1F
100
AcDbEntity
  8
Ｓ_１_１
  6
CONTINUOUS
 62
     3
100
AcDbLine
 10
897.6430400423203
 20
430.0000168682799
 30
0.0
 11
893.7618421958402
 21
430.0000168682799
 31
0.0
  0
ELLIPSE
  5
4DE
330
1F
100
AcDbEntity
  8
Ｓ_１_１
  6
CONTINUOUS
 62
     3
100
AcDbEllipse
 10
898.0118421958402
 20
430.0000179999799
 30
0.0
 11
-1.965871485450264E-15
 21
-10.70170592216999
 31
0.0
210
0.0
220
0.0
230
1.0
 40
0.4963752799846018
 41
2.488594681831491
 42
6.936183278937881
  0
ARC
  5
4DF
330
1F
100
AcDbEntity
  8
Ｓ_１_１
  6
CONTINUOUS
 62
     3
100
AcDbCircle
 10
851.3823210260612
 20
447.4518267035317
 30
0.0
 40
43.47143130905987
100
AcDbArc
 50
336.3308521168559
 51
351.4649203792003
  0
LINE
  5
4E0
330
1F
100
AcDbEntity
  8
Ｓ_１_１
  6
CONTINUOUS
 62
     3
100
AcDbLine
 10
901.5668297792726
 20
438.50001799998
 30
0.0
 11
900.7231670612503
 21
441.00001799998
 31
0.0
  0
LINE
  5
4E1
330
1F
100
AcDbEntity
  8
Ｓ_１_１
  6
CONTINUOUS
 62
     3
100
AcDbLine
 10
905.0042559744901
 20
438.50001799998
 30
0.0
 11
896.2155808399002
 21
438.50001799998
 31
0.0
  0
ARC
  5
4E2
330
1F
100
AcDbEntity
  8
Ｓ_１_１
  6
CONTINUOUS
 62
     3
100
AcDbCircle
 10
909.5408734669138
 20
430.049170690687
 30
0.0
 40
15.77910782777409
100
AcDbArc
 50
147.617293058826
 51
180.1784794371506
  0
ARC
  5
4E3
330
1F
100
AcDbEntity
  8
Ｓ_１_１
  6
CONTINUOUS
 62
     3
100
AcDbCircle
 10
884.3177474153067
 20
438.4508653092726
 30
0.0
 40
15.77910782777409
100
AcDbArc
 50
327.6172930588261
 51
0.178479437150528
  0
ELLIPSE
  5
4E4
330
1F
100
AcDbEntity
  8
Ｓ_１_１
  6
CONTINUOUS
 62
     3
100
AcDbEllipse
 10
903.2079946185502
 20
430.0000179999799
 30
0.0
 11
-3.254283394087907E-15
 21
8.5
 31
0.0
210
0.0
220
0.0
230
1.0
 40
0.5
 41
5.341263741241623
 42
10.36669919743109
  0
LINE
  5
4E5
330
1F
100
AcDbEntity
  8
Ｓ_１_１
  6
CONTINUOUS
 62
     3
100
AcDbLine
 10
871.7173372650402
 20
422.0476636874899
 30
0.0
 11
873.3148012792166
 21
422.0476636874899
 31
0.0
  0
LINE
  5
4E6
330
1F
100
AcDbEntity
  8
Ｓ_１_１
  6
CONTINUOUS
 62
     3
100
AcDbLine
 10
871.7173372650402
 20
437.95236656249
 30
0.0
 11
873.3147992598999
 21
437.95236656249
 31
0.0
  0
LINE
  5
4E7
330
1F
100
AcDbEntity
  8
Ｓ_１_１
  6
CONTINUOUS
 62
     3
100
AcDbLine
 10
891.1968876196202
 20
430.0000179999799
 30
0.0
 11
871.3404811590702
 21
430.0000179999799
 31
0.0
  0
LINE
  5
4E8
330
1F
100
AcDbEntity
  8
Ｓ_１_１
  6
CONTINUOUS
 62
     3
100
AcDbLine
 10
900.7231670612503
 20
419.00001799998
 30
0.0
 11
874.5159076396103
 21
419.00001799998
 31
0.0
  0
LINE
  5
4E9
330
1F
100
AcDbEntity
  8
Ｓ_１_１
  6
CONTINUOUS
 62
     3
100
AcDbLine
 10
900.7231670612503
 20
441.00001799998
 30
0.0
 11
874.5159076396103
 21
441.00001799998
 31
0.0
  0
ARC
  5
4EA
330
1F
100
AcDbEntity
  8
Ｓ_１_１
  6
CONTINUOUS
 62
     3
100
AcDbCircle
 10
914.3304742331692
 20
436.4518267035317
 30
0.0
 40
43.47143130905987
100
AcDbArc
 50
188.5350796207998
 51
203.6691478831441
  0
ARC
  5
4EB
330
1F
100
AcDbEntity
  8
Ｓ_１_１
  6
CONTINUOUS
 62
     3
100
AcDbCircle
 10
914.3304742331692
 20
423.5482092964282
 30
0.0
 40
43.47143130905987
100
AcDbArc
 50
156.3308521168561
 51
171.4649203792002
  0
LINE
  5
4EC
330
1F
100
AcDbEntity
  8
Ｓ_１_１
  6
CONTINUOUS
 62
     3
100
AcDbLine
 10
907.7546279884101
 20
425.0000168682799
 30
0.0
 11
903.2079946185502
 21
425.0000168682799
 31
0.0
  0
ELLIPSE
  5
4ED
330
1F
100
AcDbEntity
  8
Ｓ_１_１
  6
CONTINUOUS
 62
     3
100
AcDbEllipse
 10
903.2079946185502
 20
430.0000179999799
 30
0.0
 11
-1.914283916184354E-15
 21
4.999998868299998
 31
0.0
210
0.0
220
0.0
230
1.0
 40
0.5000001131700258
 41
0.0
 42
3.141592653589793
  0
LINE
  5
4EE
330
1F
100
AcDbEntity
  8
Ｓ_１_１
  6
CONTINUOUS
 62
     3
100
AcDbLine
 10
909.6310151290977
 20
426.5299057856438
 30
0.0
 11
909.1980024272032
 21
425.9175342739764
 31
0.0
  0
LINE
  5
4EF
330
1F
100
AcDbEntity
  8
Ｓ_１_１
  6
CONTINUOUS
 62
     3
100
AcDbLine
 10
907.7546279884101
 20
435.0000168682799
 30
0.0
 11
903.2079946185502
 21
435.0000168682799
 31
0.0
  0
ELLIPSE
  5
4F0
330
1F
100
AcDbEntity
  8
Ｓ_１_１
  6
CONTINUOUS
 62
     3
100
AcDbEllipse
 10
907.7546279884101
 20
430.0000179999799
 30
0.0
 11
-1.914283916184354E-15
 21
4.999998868299998
 31
0.0
210
0.0
220
0.0
230
1.0
 40
0.5000001131700258
 41
5.667706203131861
 42
10.04025706481712
  0
ELLIPSE
  5
4F1
330
1F
100
AcDbEntity
  8
Ｓ_１_１
  6
CONTINUOUS
 62
     3
100
AcDbEllipse
 10
908.4041470412501
 20
430.0000179999799
 30
0.0
 11
-1.627141697043954E-15
 21
4.25
 31
0.0
210
0.0
220
0.0
230
1.0
 40
0.5
 41
0.0
 42
6.283185307179586
  0
LINE
  5
4F2
330
1F
100
AcDbEntity
  8
Ｓ_１_１
  6
CONTINUOUS
 62
     3
100
AcDbLine
 10
909.1980024272032
 20
434.0825017259835
 30
0.0
 11
909.6310151290977
 21
433.470130214316
 31
0.0
  0
LINE
  5
4F3
330
1F
100
AcDbEntity
  8
Ｓ_１_１
  6
CONTINUOUS
 62
     3
100
AcDbLine
 10
904.3623300900803
 20
421.6500090624801
 30
0.0
 11
904.3623290900803
 21
421.6500089999801
 31
0.0
  0
LINE
  5
4F4
330
1F
100
AcDbEntity
  8
Ｓ_１_１
  6
CONTINUOUS
 62
     3
100
AcDbLine
 10
904.3623300900803
 20
421.6500270414296
 30
0.0
 11
904.3623230900803
 21
421.65002299998
 31
0.0
  0
LINE
  5
4F5
330
1F
100
AcDbEntity
  8
Ｓ_１_１
  6
CONTINUOUS
 62
     3
100
AcDbLine
 10
904.3623300900803
 20
438.3500144374804
 30
0.0
 11
904.3623210900803
 21
438.35001499998
 31
0.0
  0
LINE
  5
4F6
330
1F
100
AcDbEntity
  8
Ｓ_１_１
  6
CONTINUOUS
 62
     3
100
AcDbLine
 10
904.3623260900802
 20
438.35000899998
 30
0.0
 11
904.3623150431649
 21
438.3500153779119
 31
0.0
  0
LINE
  5
4F7
330
1F
100
AcDbEntity
  8
Ｓ_１_１
  6
CONTINUOUS
 62
     3
100
AcDbLine
 10
897.6430397594002
 20
430.0000179999799
 30
0.0
 11
893.7618419129203
 21
430.0000179999799
 31
0.0
  0
LINE
  5
4F8
330
1F
100
AcDbEntity
  8
Ｓ_１_１
  6
CONTINUOUS
 62
     3
100
AcDbLine
 10
955.8621850900788
 20
424.50003349999
 30
0.0
 11
946.8624290900785
 21
424.50003349999
 31
0.0
  0
LINE
  5
4F9
330
1F
100
AcDbEntity
  8
Ｓ_１_１
  6
CONTINUOUS
 62
     3
100
AcDbLine
 10
946.8622160900787
 20
424.5001834999898
 30
0.0
 11
943.3622440900788
 21
421.00021249999
 31
0.0
  0
LINE
  5
4FA
330
1F
100
AcDbEntity
  8
Ｓ_１_１
  6
CONTINUOUS
 62
     3
100
AcDbLine
 10
943.3624160900787
 20
439.0000744999897
 30
0.0
 11
946.8624300900789
 21
435.5000604999895
 31
0.0
  0
LINE
  5
4FB
330
1F
100
AcDbEntity
  8
Ｓ_１_１
  6
CONTINUOUS
 62
     3
100
AcDbLine
 10
927.3623980900786
 20
441.7501084999894
 30
0.0
 11
927.8623070900787
 21
441.2502104999894
 31
0.0
  0
LINE
  5
4FC
330
1F
100
AcDbEntity
  8
Ｓ_１_１
  6
CONTINUOUS
 62
     3
100
AcDbLine
 10
927.8623960900788
 20
418.7501374999902
 30
0.0
 11
927.3624500900788
 21
418.2501904999899
 31
0.0
  0
LINE
  5
4FD
330
1F
100
AcDbEntity
  8
Ｓ_１_１
  6
CONTINUOUS
 62
     3
100
AcDbLine
 10
939.8623070900787
 20
422.50003349999
 30
0.0
 11
938.3621850900787
 21
422.50003349999
 31
0.0
  0
LINE
  5
4FE
330
1F
100
AcDbEntity
  8
Ｓ_１_１
  6
CONTINUOUS
 62
     3
100
AcDbLine
 10
939.8623070900787
 20
437.5000334999895
 30
0.0
 11
938.3621850900787
 21
437.5000334999895
 31
0.0
  0
LINE
  5
4FF
330
1F
100
AcDbEntity
  8
Ｓ_１_１
  6
CONTINUOUS
 62
     3
100
AcDbLine
 10
936.8624290900786
 20
439.0000024999895
 30
0.0
 11
936.8624290900786
 21
421.00003349999
 31
0.0
  0
LINE
  5
500
330
1F
100
AcDbEntity
  8
Ｓ_１_１
  6
CONTINUOUS
 62
     3
100
AcDbLine
 10
927.3623070900787
 20
441.7500634999896
 30
0.0
 11
927.3623070900787
 21
418.2500334999899
 31
0.0
  0
LINE
  5
501
330
1F
100
AcDbEntity
  8
Ｓ_１_１
  6
CONTINUOUS
 62
     3
100
AcDbLine
 10
938.3623030900787
 20
422.50018149999
 30
0.0
 11
936.8622910900788
 21
421.0001684999901
 31
0.0
  0
LINE
  5
502
330
1F
100
AcDbEntity
  8
Ｓ_１_１
  6
CONTINUOUS
 62
     3
100
AcDbLine
 10
936.8624620900789
 20
439.0000314999897
 30
0.0
 11
938.3623450900789
 21
437.5001484999898
 31
0.0
  0
LINE
  5
503
330
1F
100
AcDbEntity
  8
Ｓ_１_１
  6
CONTINUOUS
 62
     3
100
AcDbLine
 10
941.3623070900787
 20
439.0000024999895
 30
0.0
 11
941.3623070900787
 21
421.00003349999
 31
0.0
  0
LINE
  5
504
330
1F
100
AcDbEntity
  8
Ｓ_１_１
  6
CONTINUOUS
 62
     3
100
AcDbLine
 10
939.8623140900787
 20
422.5000674999901
 30
0.0
 11
941.3621970900787
 21
421.0001844999901
 31
0.0
  0
LINE
  5
505
330
1F
100
AcDbEntity
  8
Ｓ_１_１
  6
CONTINUOUS
 62
     3
100
AcDbLine
 10
941.362328090079
 20
439.0001454999897
 30
0.0
 11
939.8623150900787
 21
437.5001334999897
 31
0.0
  0
LINE
  5
506
330
1F
100
AcDbEntity
  8
Ｓ_１_１
  6
CONTINUOUS
 62
     3
100
AcDbLine
 10
936.8624290900786
 20
439.0000024999895
 30
0.0
 11
927.8623070900787
 21
439.0000024999895
 31
0.0
  0
LINE
  5
507
330
1F
100
AcDbEntity
  8
Ｓ_１_１
  6
CONTINUOUS
 62
     3
100
AcDbLine
 10
936.8624290900786
 20
421.00003349999
 30
0.0
 11
927.8623070900787
 21
421.00003349999
 31
0.0
  0
LINE
  5
508
330
1F
100
AcDbEntity
  8
Ｓ_１_１
  6
CONTINUOUS
 62
     3
100
AcDbLine
 10
943.3621850900788
 20
439.0000024999895
 30
0.0
 11
943.3621850900788
 21
421.00003349999
 31
0.0
  0
LINE
  5
509
330
1F
100
AcDbEntity
  8
Ｓ_１_１
  6
CONTINUOUS
 62
     3
100
AcDbLine
 10
939.8623070900787
 20
437.5000334999895
 30
0.0
 11
939.8623070900787
 21
422.50003349999
 31
0.0
  0
LINE
  5
50A
330
1F
100
AcDbEntity
  8
Ｓ_１_１
  6
CONTINUOUS
 62
     3
100
AcDbLine
 10
938.3621850900787
 20
437.5000334999895
 30
0.0
 11
938.3621850900787
 21
422.50003349999
 31
0.0
  0
LINE
  5
50B
330
1F
100
AcDbEntity
  8
Ｓ_１_１
  6
CONTINUOUS
 62
     3
100
AcDbLine
 10
956.8624920900785
 20
433.5002014999895
 30
0.0
 11
958.8624510900788
 21
431.5002424999902
 31
0.0
  0
LINE
  5
50C
330
1F
100
AcDbEntity
  8
Ｓ_１_１
  6
CONTINUOUS
 62
     3
100
AcDbLine
 10
958.8624940900787
 20
428.50017449999
 30
0.0
 11
956.8624490900789
 21
426.5001294999902
 31
0.0
  0
LINE
  5
50D
330
1F
100
AcDbEntity
  8
Ｓ_１_１
  6
CONTINUOUS
 62
     3
100
AcDbLine
 10
956.862429090079
 20
434.5000334999895
 30
0.0
 11
956.862429090079
 21
425.5000634999901
 31
0.0
  0
LINE
  5
50E
330
1F
100
AcDbEntity
  8
Ｓ_１_１
  6
CONTINUOUS
 62
     3
100
AcDbLine
 10
918.8623070900787
 20
442.0000334999895
 30
0.0
 11
918.8623070900787
 21
418.0000634999901
 31
0.0
  0
LINE
  5
50F
330
1F
100
AcDbEntity
  8
Ｓ_１_１
  6
CONTINUOUS
 62
     3
100
AcDbLine
 10
917.7905290900787
 20
443.8564324999897
 30
0.0
 11
912.9342060900786
 21
443.8564324999897
 31
0.0
  0
LINE
  5
510
330
1F
100
AcDbEntity
  8
Ｓ_１_１
  6
CONTINUOUS
 62
     3
100
AcDbLine
 10
917.7905290900787
 20
436.9281644999896
 30
0.0
 11
912.9342060900786
 21
436.9281644999896
 31
0.0
  0
LINE
  5
511
330
1F
100
AcDbEntity
  8
Ｓ_１_１
  6
CONTINUOUS
 62
     3
100
AcDbLine
 10
917.7905290900787
 20
423.0718104999901
 30
0.0
 11
912.9342060900786
 21
423.0718104999901
 31
0.0
  0
LINE
  5
512
330
1F
100
AcDbEntity
  8
Ｓ_１_１
  6
CONTINUOUS
 62
     3
100
AcDbLine
 10
917.7907990900787
 20
443.8563944999896
 30
0.0
 11
918.8625760900787
 21
442.0000214999895
 31
0.0
  0
LINE
  5
513
330
1F
100
AcDbEntity
  8
Ｓ_１_１
  6
CONTINUOUS
 62
     3
100
AcDbLine
 10
912.9342810900787
 20
443.8564014999897
 30
0.0
 11
911.862504090079
 21
442.0000294999895
 31
0.0
  0
LINE
  5
514
330
1F
100
AcDbEntity
  8
Ｓ_１_１
  6
CONTINUOUS
 62
     3
100
AcDbLine
 10
927.3623070900787
 20
441.7500634999896
 30
0.0
 11
918.8623070900787
 21
441.7500634999896
 31
0.0
  0
LINE
  5
515
330
1F
100
AcDbEntity
  8
Ｓ_１_１
  6
CONTINUOUS
 62
     3
100
AcDbLine
 10
927.3623070900787
 20
418.2500334999899
 30
0.0
 11
918.8623070900787
 21
418.2500334999899
 31
0.0
  0
LINE
  5
516
330
1F
100
AcDbEntity
  8
Ｓ_１_１
  6
CONTINUOUS
 62
     3
100
AcDbLine
 10
927.8623070900787
 20
441.2500334999895
 30
0.0
 11
927.8623070900787
 21
418.75003349999
 31
0.0
  0
LINE
  5
517
330
1F
100
AcDbEntity
  8
Ｓ_１_１
  6
CONTINUOUS
 62
     3
100
AcDbLine
 10
943.3621850900788
 20
421.00003349999
 30
0.0
 11
941.3623070900787
 21
421.00003349999
 31
0.0
  0
LINE
  5
518
330
1F
100
AcDbEntity
  8
Ｓ_１_１
  6
CONTINUOUS
 62
     3
100
AcDbLine
 10
943.3621850900788
 20
439.0000024999895
 30
0.0
 11
941.3623070900787
 21
439.0000024999895
 31
0.0
  0
LINE
  5
519
330
1F
100
AcDbEntity
  8
Ｓ_１_１
  6
CONTINUOUS
 62
     3
100
AcDbLine
 10
946.8624290900785
 20
435.5000634999897
 30
0.0
 11
946.8624290900785
 21
424.50003349999
 31
0.0
  0
LINE
  5
51A
330
1F
100
AcDbEntity
  8
Ｓ_１_１
  6
CONTINUOUS
 62
     3
100
AcDbLine
 10
955.8621850900788
 20
435.5000634999897
 30
0.0
 11
946.8624290900785
 21
435.5000634999897
 31
0.0
  0
LINE
  5
51B
330
1F
100
AcDbEntity
  8
Ｓ_１_１
  6
CONTINUOUS
 62
     3
100
AcDbLine
 10
911.8624290900786
 20
442.0000334999895
 30
0.0
 11
911.8624290900786
 21
418.0000634999902
 31
0.0
  0
LINE
  5
51C
330
1F
100
AcDbEntity
  8
Ｓ_１_１
  6
CONTINUOUS
 62
     3
100
AcDbLine
 10
958.8623070900787
 20
431.5000024999899
 30
0.0
 11
958.8623070900787
 21
428.50003349999
 31
0.0
  0
ARC
  5
51D
330
1F
100
AcDbEntity
  8
Ｓ_１_１
  6
CONTINUOUS
 62
     3
100
AcDbCircle
 10
955.8621850900788
 20
425.5000634999901
 30
0.0
 40
1.0
100
AcDbArc
 50
269.9999970000024
 51
359.9999780000017
  0
ARC
  5
51E
330
1F
100
AcDbEntity
  8
Ｓ_１_１
  6
CONTINUOUS
 62
     3
100
AcDbCircle
 10
934.7902850900789
 20
430.00003349999
 30
0.0
 40
22.927942
100
AcDbArc
 50
162.4118210000002
 51
197.5881150000001
  0
ARC
  5
51F
330
1F
100
AcDbEntity
  8
Ｓ_１_１
  6
CONTINUOUS
 62
     3
100
AcDbCircle
 10
912.7285180900788
 20
440.3923674999896
 30
0.0
 40
6.133925000000001
100
AcDbArc
 50
325.6153689999996
 51
34.384513999999
  0
ARC
  5
520
330
1F
100
AcDbEntity
  8
Ｓ_１_１
  6
CONTINUOUS
 62
     3
100
AcDbCircle
 10
955.8621850900788
 20
434.5000334999895
 30
0.0
 40
1.0
100
AcDbArc
 50
359.9999779999952
 51
89.99997499999762
  0
ARC
  5
521
330
1F
100
AcDbEntity
  8
Ｓ_１_１
  6
CONTINUOUS
 62
     3
100
AcDbCircle
 10
917.9962180900785
 20
440.3923674999896
 30
0.0
 40
6.133925000000001
100
AcDbArc
 50
145.6154019999991
 51
214.3845609999998
  0
ARC
  5
522
330
1F
100
AcDbEntity
  8
Ｓ_１_１
  6
CONTINUOUS
 62
     3
100
AcDbCircle
 10
895.9342060900788
 20
430.00003349999
 30
0.0
 40
22.927938
100
AcDbArc
 50
342.411858
 51
17.58816600000017
  0
ELLIPSE
  5
523
330
1F
100
AcDbEntity
  8
Ｓ_１_１
  6
CONTINUOUS
 62
     3
100
AcDbEllipse
 10
871.8055580139203
 20
430.0000179999799
 30
0.0
 11
-1.460822731917288E-15
 21
-7.952348562509997
 31
0.0
210
0.0
220
0.0
230
1.0
 40
0.5367492691206628
 41
3.141592653589793
 42
6.383281914571265
  0
LINE
  5
524
330
1F
100
AcDbEntity
  8
Ｓ_１_１
  6
CONTINUOUS
 62
     3
100
AcDbLine
 10
908.4041470412501
 20
432.88676734593
 30
0.0
 11
909.6541470412501
 21
431.4433916729598
 31
0.0
  0
LINE
  5
525
330
1F
100
AcDbEntity
  8
Ｓ_１_１
  6
CONTINUOUS
 62
     3
100
AcDbLine
 10
908.4041470412501
 20
432.88676734593
 30
0.0
 11
907.15414704125
 21
431.4433916729599
 31
0.0
  0
LINE
  5
526
330
1F
100
AcDbEntity
  8
Ｓ_１_１
  6
CONTINUOUS
 62
     3
100
AcDbLine
 10
908.4041470412501
 20
427.1132646540298
 30
0.0
 11
909.6541470412501
 21
428.5566403269999
 31
0.0
  0
LINE
  5
527
330
1F
100
AcDbEntity
  8
Ｓ_１_１
  6
CONTINUOUS
 62
     3
100
AcDbLine
 10
908.4041470412501
 20
427.1132646540298
 30
0.0
 11
907.15414704125
 21
428.5566403269999
 31
0.0
  0
LINE
  5
528
330
1F
100
AcDbEntity
  8
Ｓ_１_１
  6
CONTINUOUS
 62
     3
100
AcDbLine
 10
909.6541470412501
 20
431.4433916729598
 30
0.0
 11
909.6541470412501
 21
428.5566403269999
 31
0.0
  0
LINE
  5
529
330
1F
100
AcDbEntity
  8
Ｓ_１_１
  6
CONTINUOUS
 62
     3
100
AcDbLine
 10
907.15414704125
 20
431.4433916729599
 30
0.0
 11
907.15414704125
 21
428.5566403269999
 31
0.0
  0
LINE
  5
52A
330
1F
100
AcDbEntity
  8
Ｓ_１_１
  6
CONTINUOUS
 62
     3
100
AcDbLine
 10
909.6541470412501
 20
431.4433916729598
 30
0.0
 11
907.15414704125
 21
431.4433916729599
 31
0.0
  0
LINE
  5
52B
330
1F
100
AcDbEntity
  8
Ｓ_１_１
  6
CONTINUOUS
 62
     3
100
AcDbLine
 10
909.6541470412501
 20
428.5566403269998
 30
0.0
 11
907.15414704125
 21
428.5566403269998
 31
0.0
  0
LINE
  5
52C
330
1F
100
AcDbEntity
  8
Ｓ_１_１
  6
CONTINUOUS
 62
     3
100
AcDbLine
 10
889.0000629900785
 20
502.0000009999818
 30
0.0
 11
889.0000629900785
 21
441.00001799998
 31
0.0
  0
LINE
  5
52D
330
1F
100
AcDbEntity
  8
Ｓ_１_１
  6
CONTINUOUS
 62
     3
100
AcDbLine
 10
889.0000629900785
 20
419.00001799998
 30
0.0
 11
889.0000629900785
 21
410.0000000000197
 31
0.0
  0
ENDSEC
  0
SECTION
  2
OBJECTS
  0
DICTIONARY
  5
C
330
0
100
AcDbDictionary
  3
ACAD_GROUP
350
D
  3
ACAD_LAYOUT
350
1A
  3
ACAD_MATERIAL
350
43
  3
ACAD_MLEADERSTYLE
350
6B
  3
ACAD_MLINESTYLE
350
17
  3
ACAD_PLOTSETTINGS
350
19
  3
ACAD_SCALELIST
350
47
  3
ACAD_VISUALSTYLE
350
2A
  3
ACDBHEADERROUNDTRIPXREC
350
52E
  3
ACDBVARIABLEDICTIONARY
350
54F
  0
DICTIONARY
  5
55A
330
8
100
AcDbDictionary
280
     1
  3
ACAD_XREC_ROUNDTRIP
360
55B
  0
DICTIONARY
  5
D
102
{ACAD_REACTORS
330
C
102
}
330
C
100
AcDbDictionary
  0
DICTIONARY
  5
1A
102
{ACAD_REACTORS
330
C
102
}
330
C
100
AcDbDictionary
  0
DICTIONARY
  5
43
102
{ACAD_REACTORS
330
C
102
}
330
C
100
AcDbDictionary
  3
BYBLOCK
350
45
  3
BYLAYER
350
44
  3
GLOBAL
350
46
  0
DICTIONARY
  5
6B
102
{ACAD_REACTORS
330
C
102
}
330
C
100
AcDbDictionary
  3
STANDARD
350
6C
  0
DICTIONARY
  5
17
102
{ACAD_REACTORS
330
C
102
}
330
C
100
AcDbDictionary
  3
STANDARD
350
18
  0
DICTIONARY
  5
19
102
{ACAD_REACTORS
330
C
102
}
330
C
100
AcDbDictionary
  0
DICTIONARY
  5
47
102
{ACAD_REACTORS
330
C
102
}
330
C
100
AcDbDictionary
  3
A0
350
48
  3
A1
350
49
  3
A2
350
4A
  3
A3
350
4B
  3
A4
350
4C
  3
A5
350
4D
  3
A6
350
4E
  3
A7
350
4F
  3
A8
350
50
  3
A9
350
51
  3
B0
350
52
  3
B1
350
53
  3
B2
350
54
  3
B3
350
55
  3
B4
350
56
  3
B5
350
57
  3
B6
350
58
  3
B7
350
59
  3
B8
350
5A
  3
B9
350
5B
  3
C0
350
5C
  3
C1
350
5D
  3
C2
350
5E
  3
C3
350
5F
  3
C4
350
60
  3
C5
350
61
  3
C6
350
62
  3
C7
350
63
  3
C8
350
64
  3
C9
350
65
  3
D0
350
66
  3
D1
350
67
  3
D2
350
68
  0
DICTIONARY
  5
2A
102
{ACAD_REACTORS
330
C
102
}
330
C
100
AcDbDictionary
  3
2DWIREFRAME
350
2F
  3
BASIC
350
32
  3
BRIGHTEN
350
36
  3
COLORCHANGE
350
3A
  3
CONCEPTUAL
350
34
  3
DIM
350
35
  3
EDGECOLOROFF
350
3D
  3
FACEPATTERN
350
39
  3
FLAT
350
2B
  3
FLATWITHEDGES
350
2C
  3
GOURAUD
350
2D
  3
GOURAUDWITHEDGES
350
2E
  3
HIDDEN
350
31
  3
JITTEROFF
350
3B
  3
LINEPATTERN
350
38
  3
OVERHANGOFF
350
3C
  3
REALISTIC
350
33
  3
SHADED
350
42
  3
SHADED_WITH_EDGES
350
41
  3
SHADES_OF_GRAY
350
3E
  3
SKETCHY
350
3F
  3
THICKEN
350
37
  3
WIREFRAME
350
30
  3
X-RAY
350
40
  0
DICTIONARY
  5
52E
102
{ACAD_REACTORS
330
C
102
}
330
C
100
AcDbDictionary
  3
CEPSNID
350
538
  3
CEPSNTYPE
350
537
  3
DIMSTYLEDATA
350
54E
  3
FINGERPRINTGUID
350
539
  3
HYPERLINKBASE
350
531
  3
INSUNITS
350
536
  3
LAYOUTDICT
350
533
  3
LWETCUNION
350
535
  3
PLOTSETDICT
350
534
  3
PSVPSCALE
350
53B
  3
PUCSBASE
350
53E
  3
PUCSORGBACK
350
544
  3
PUCSORGBOTTOM
350
540
  3
PUCSORGFRONT
350
543
  3
PUCSORGLEFT
350
541
  3
PUCSORGRIGHT
350
542
  3
PUCSORGTOP
350
53F
  3
PUCSORTHOREF
350
53C
  3
PUCSORTHOVIEW
350
53D
  3
STYLESHEET
350
532
  3
TSTACKALIGN
350
52F
  3
TSTACKSIZE
350
530
  3
UCSBASE
350
547
  3
UCSORGBACK
350
54D
  3
UCSORGBOTTOM
350
549
  3
UCSORGFRONT
350
54C
  3
UCSORGLEFT
350
54A
  3
UCSORGRIGHT
350
54B
  3
UCSORGTOP
350
548
  3
UCSORTHOREF
350
545
  3
UCSORTHOVIEW
350
546
  3
VERSIONGUID
350
53A
  0
DICTIONARY
  5
54F
102
{ACAD_REACTORS
330
C
102
}
330
C
100
AcDbDictionary
  3
CANNOSCALE
350
55C
  3
CENTEREXE
350
556
  3
CENTERLTYPEFILE
350
557
  3
CMLEADERSTYLE
350
551
  3
CTABLESTYLE
350
550
  3
DIMASSOC
350
558
  3
HIDETEXT
350
559
  3
MSLTSCALE
350
55D
  3
PSOLHEIGHT
350
553
  3
PSOLWIDTH
350
552
  0
XRECORD
  5
55B
102
{ACAD_REACTORS
330
55A
102
}
330
55A
100
AcDbXrecord
102
VTR_0.000_0.000_1.000_1.000_VISUALSTYLE
340
2F
102
VTR_0.000_0.000_1.000_1.000_GRIDDISPLAY
 70
     3
102
VTR_0.000_0.000_1.000_1.000_GRIDMAJOR
 70
     5
102
VTR_0.000_0.000_1.000_1.000_DEFAULTLIGHTING
280
     1
102
VTR_0.000_0.000_1.000_1.000_DEFAULTLIGHTINGTYPE
 70
     1
102
VTR_0.000_0.000_1.000_1.000_BRIGHTNESS
141
0.0
102
VTR_0.000_0.000_1.000_1.000_CONTRAST
142
0.0
  0
MATERIAL
  5
45
102
{ACAD_REACTORS
330
43
102
}
102
{ACAD_XDICTIONARY
360
560
102
}
330
43
100
AcDbMaterial
  1
BYBLOCK
  0
MATERIAL
  5
44
102
{ACAD_REACTORS
330
43
102
}
102
{ACAD_XDICTIONARY
360
55E
102
}
330
43
100
AcDbMaterial
  1
BYLAYER
  0
MATERIAL
  5
46
102
{ACAD_REACTORS
330
43
102
}
102
{ACAD_XDICTIONARY
360
562
102
}
330
43
100
AcDbMaterial
  1
GLOBAL
  0
ACAD_PROXY_OBJECT
  5
6C
102
{ACAD_REACTORS
330
6B
102
}
330
6B
100
AcDbProxyObject
 90
      499
 91
      505
 93
      610
310
40901902A4063FBFFFFFE0000000000000020400000000000020404214DD185B99185C990000000000000104090141901A00000000000004100000000000000041025764000000000000039000
340
14
340
0
340
11
340
0
 94
        0
1001
ACAD_MLEADERVER
1070
     2
  0
MLINESTYLE
  5
18
102
{ACAD_REACTORS
330
17
102
}
330
17
100
AcDbMlineStyle
  2
Standard
 70
     0
  3

 62
   256
 51
90.0
 52
90.0
 71
     2
 49
0.5
 62
   256
  6
BYLAYER
 49
-0.5
 62
   256
  6
BYLAYER
  0
ACAD_PROXY_OBJECT
  5
48
102
{ACAD_REACTORS
330
47
102
}
330
47
100
AcDbProxyObject
 90
      499
 91
      503
 93
       41
310
903313A31580
  0
ACAD_PROXY_OBJECT
  5
49
102
{ACAD_REACTORS
330
47
102
}
330
47
100
AcDbProxyObject
 90
      499
 91
      503
 93
      105
310
903313A324000000000000004000
  0
ACAD_PROXY_OBJECT
  5
4A
102
{ACAD_REACTORS
330
47
102
}
330
47
100
AcDbProxyObject
 90
      499
 91
      503
 93
      105
310
903313A344000000000000104000
  0
ACAD_PROXY_OBJECT
  5
4B
102
{ACAD_REACTORS
330
47
102
}
330
47
100
AcDbProxyObject
 90
      499
 91
      503
 93
      105
310
903313A354000000000000144000
  0
ACAD_PROXY_OBJECT
  5
4C
102
{ACAD_REACTORS
330
47
102
}
330
47
100
AcDbProxyObject
 90
      499
 91
      503
 93
      105
310
903313A384000000000000204000
  0
ACAD_PROXY_OBJECT
  5
4D
102
{ACAD_REACTORS
330
47
102
}
330
47
100
AcDbProxyObject
 90
      499
 91
      503
 93
      113
310
904313A31304000000000000244000
  0
ACAD_PROXY_OBJECT
  5
4E
102
{ACAD_REACTORS
330
47
102
}
330
47
100
AcDbProxyObject
 90
      499
 91
      503
 93
      113
310
904313A31364000000000000304000
  0
ACAD_PROXY_OBJECT
  5
4F
102
{ACAD_REACTORS
330
47
102
}
330
47
100
AcDbProxyObject
 90
      499
 91
      503
 93
      113
310
904313A32304000000000000344000
  0
ACAD_PROXY_OBJECT
  5
50
102
{ACAD_REACTORS
330
47
102
}
330
47
100
AcDbProxyObject
 90
      499
 91
      503
 93
      113
310
904313A333040000000000003E4000
  0
ACAD_PROXY_OBJECT
  5
51
102
{ACAD_REACTORS
330
47
102
}
330
47
100
AcDbProxyObject
 90
      499
 91
      503
 93
      113
310
904313A34304000000000000444000
  0
ACAD_PROXY_OBJECT
  5
52
102
{ACAD_REACTORS
330
47
102
}
330
47
100
AcDbProxyObject
 90
      499
 91
      503
 93
      113
310
904313A35304000000000000494000
  0
ACAD_PROXY_OBJECT
  5
53
102
{ACAD_REACTORS
330
47
102
}
330
47
100
AcDbProxyObject
 90
      499
 91
      503
 93
      121
310
905313A3130304000000000000594000
  0
ACAD_PROXY_OBJECT
  5
54
102
{ACAD_REACTORS
330
47
102
}
330
47
100
AcDbProxyObject
 90
      499
 91
      503
 93
      105
310
903323A310000000000000010100
  0
ACAD_PROXY_OBJECT
  5
55
102
{ACAD_REACTORS
330
47
102
}
330
47
100
AcDbProxyObject
 90
      499
 91
      503
 93
      105
310
903343A310000000000000410100
  0
ACAD_PROXY_OBJECT
  5
56
102
{ACAD_REACTORS
330
47
102
}
330
47
100
AcDbProxyObject
 90
      499
 91
      503
 93
      105
310
903383A310000000000000810100
  0
ACAD_PROXY_OBJECT
  5
57
102
{ACAD_REACTORS
330
47
102
}
330
47
100
AcDbProxyObject
 90
      499
 91
      503
 93
      113
310
90431303A310000000000000910100
  0
ACAD_PROXY_OBJECT
  5
58
102
{ACAD_REACTORS
330
47
102
}
330
47
100
AcDbProxyObject
 90
      499
 91
      503
 93
      121
310
9053130303A310000000000001650100
  0
ACAD_PROXY_OBJECT
  5
59
102
{ACAD_REACTORS
330
47
102
}
330
47
100
AcDbProxyObject
 90
      499
 91
      503
 93
      257
310
90E312F31323822203D2031272D3022000000000000200FC000000000000284000
  0
ACAD_PROXY_OBJECT
  5
5A
102
{ACAD_REACTORS
330
47
102
}
330
47
100
AcDbProxyObject
 90
      499
 91
      503
 93
      249
310
90D312F363422203D2031272D3022000000000000240FC000000000000284000
  0
ACAD_PROXY_OBJECT
  5
5B
102
{ACAD_REACTORS
330
47
102
}
330
47
100
AcDbProxyObject
 90
      499
 91
      503
 93
      249
310
90D312F333222203D2031272D3022000000000000280FC000000000000284000
  0
ACAD_PROXY_OBJECT
  5
5C
102
{ACAD_REACTORS
330
47
102
}
330
47
100
AcDbProxyObject
 90
      499
 91
      503
 93
      249
310
90D312F313622203D2031272D30220000000000002C0FC000000000000284000
  0
ACAD_PROXY_OBJECT
  5
5D
102
{ACAD_REACTORS
330
47
102
}
330
47
100
AcDbProxyObject
 90
      499
 91
      503
 93
      249
310
90D332F333222203D2031272D30220000000000002E0FC000000000000284000
  0
ACAD_PROXY_OBJECT
  5
5E
102
{ACAD_REACTORS
330
47
102
}
330
47
100
AcDbProxyObject
 90
      499
 91
      503
 93
      241
310
90C312F3822203D2031272D3022000000000000300FC000000000000284000
  0
ACAD_PROXY_OBJECT
  5
5F
102
{ACAD_REACTORS
330
47
102
}
330
47
100
AcDbProxyObject
 90
      499
 91
      503
 93
      249
310
90D332F313622203D2031272D3022000000000000320FC000000000000284000
  0
ACAD_PROXY_OBJECT
  5
60
102
{ACAD_REACTORS
330
47
102
}
330
47
100
AcDbProxyObject
 90
      499
 91
      503
 93
      241
310
90C312F3422203D2031272D3022000000000000340FC000000000000284000
  0
ACAD_PROXY_OBJECT
  5
61
102
{ACAD_REACTORS
330
47
102
}
330
47
100
AcDbProxyObject
 90
      499
 91
      503
 93
      241
310
90C332F3822203D2031272D3022000000000000360FC000000000000284000
  0
ACAD_PROXY_OBJECT
  5
62
102
{ACAD_REACTORS
330
47
102
}
330
47
100
AcDbProxyObject
 90
      499
 91
      503
 93
      241
310
90C312F3222203D2031272D3022000000000000380FC000000000000284000
  0
ACAD_PROXY_OBJECT
  5
63
102
{ACAD_REACTORS
330
47
102
}
330
47
100
AcDbProxyObject
 90
      499
 91
      503
 93
      241
310
90C332F3422203D2031272D30220000000000003A0FC000000000000284000
  0
ACAD_PROXY_OBJECT
  5
64
102
{ACAD_REACTORS
330
47
102
}
330
47
100
AcDbProxyObject
 90
      499
 91
      503
 93
      161
310
90A3122203D2031272D30224000000000000284000
  0
ACAD_PROXY_OBJECT
  5
65
102
{ACAD_REACTORS
330
47
102
}
330
47
100
AcDbProxyObject
 90
      499
 91
      503
 93
      257
310
90E312D312F3222203D2031272D30220000000000003E0FC000000000000284000
  0
ACAD_PROXY_OBJECT
  5
66
102
{ACAD_REACTORS
330
47
102
}
330
47
100
AcDbProxyObject
 90
      499
 91
      503
 93
      225
310
90A3322203D2031272D302200000000000002100000000000000284000
  0
ACAD_PROXY_OBJECT
  5
67
102
{ACAD_REACTORS
330
47
102
}
330
47
100
AcDbProxyObject
 90
      499
 91
      503
 93
      225
310
90A3622203D2031272D302200000000000006100000000000000284000
  0
ACAD_PROXY_OBJECT
  5
68
102
{ACAD_REACTORS
330
47
102
}
330
47
100
AcDbProxyObject
 90
      499
 91
      503
 93
      249
310
90D31272D3022203D2031272D30220000000000000A100000000000000284000
  0
ACAD_PROXY_OBJECT
  5
2F
102
{ACAD_REACTORS
330
2A
102
}
330
2A
100
AcDbProxyObject
 90
      499
 91
      501
 93
      436
310
42CC9915DA5C99599C985B595049028333333333333E33F0000000000000F90107901411070040501600405405064090741402480A0340
1001
ACAD
1000
AcDbSavedByObjectVersion
1070
     0
  0
ACAD_PROXY_OBJECT
  5
32
102
{ACAD_REACTORS
330
2A
102
}
330
2A
100
AcDbProxyObject
 90
      499
 91
      501
 93
      388
310
4150985CDA58D07406404333333333333E33F0000000000000F90107A41107004050150841D405064090741402480A0350
1001
ACAD
1000
AcDbSavedByObjectVersion
1070
     0
  0
ACAD_PROXY_OBJECT
  5
36
102
{ACAD_REACTORS
330
2A
102
}
330
2A
100
AcDbProxyObject
 90
      499
 91
      501
 93
      428
310
42109C9A59DA1D195B90C409028333333333333E33F0000000000000F9010790141107004050150841D405064090741402480A029950
1001
ACAD
1000
AcDbSavedByObjectVersion
1070
     0
  0
ACAD_PROXY_OBJECT
  5
3A
102
{ACAD_REACTORS
330
2A
102
}
330
2A
100
AcDbProxyObject
 90
      499
 91
      501
 93
      452
310
42D0DBDB1BDC90DA185B99D95104090240C333333333333E33F0000000000000F90108901411070040501508421405064090741402480A0350
1001
ACAD
1000
AcDbSavedByObjectVersion
1070
     0
  0
ACAD_PROXY_OBJECT
  5
34
102
{ACAD_REACTORS
330
2A
102
}
330
2A
100
AcDbProxyObject
 90
      499
 91
      501
 93
      500
310
4290DBDB98D95C1D1D585B10940D028333333333333E33F0000000000000F90107902409070040501000000000018199010841D405064090740C02480A0340
1001
ACAD
1000
AcDbSavedByObjectVersion
1070
     0
  0
ACAD_PROXY_OBJECT
  5
35
102
{ACAD_REACTORS
330
2A
102
}
330
2A
100
AcDbProxyObject
 90
      499
 91
      501
 93
      412
310
40D11A5B50B409028333333333333E33F0000000000000F9010790141107004050150841D405064090741402480A02677FFFFFD0
1001
ACAD
1000
AcDbSavedByObjectVersion
1070
     0
  0
ACAD_PROXY_OBJECT
  5
3D
102
{ACAD_REACTORS
330
2A
102
}
330
2A
100
AcDbProxyObject
 90
      499
 91
      501
 93
      452
310
43115919D950DBDB1BDC93D999916409028333333333333E33F0000000000000F9010790141107004050150841D405064090741402480A0350
1001
ACAD
1000
AcDbSavedByObjectVersion
1070
     0
  0
ACAD_PROXY_OBJECT
  5
39
102
{ACAD_REACTORS
330
2A
102
}
330
2A
100
AcDbProxyObject
 90
      499
 91
      501
 93
      444
310
42D19858D95C185D1D195C9B90F409028333333333333E33F0000000000000F9010790141107004050150841D405064090741402480A0350
1001
ACAD
1000
AcDbSavedByObjectVersion
1070
     0
  0
ACAD_PROXY_OBJECT
  5
2B
102
{ACAD_REACTORS
330
2A
102
}
330
2A
100
AcDbProxyObject
 90
      499
 91
      501
 93
      380
310
41119B185D240901404333333333333E33F0000000000000F9010740A907004050150841D405064090741402480A1B50
1001
ACAD
1000
AcDbSavedByObjectVersion
1070
     0
  0
ACAD_PROXY_OBJECT
  5
2C
102
{ACAD_REACTORS
330
2A
102
}
330
2A
100
AcDbProxyObject
 90
      499
 91
      501
 93
      468
310
43519B185D15DA5D1A115919D95CD0140901404333333333333E33F0000000000000F90107409019070040501600405405064090741402480A1B50
1001
ACAD
1000
AcDbSavedByObjectVersion
1070
     0
  0
ACAD_PROXY_OBJECT
  5
2D
102
{ACAD_REACTORS
330
2A
102
}
330
2A
100
AcDbProxyObject
 90
      499
 91
      501
 93
      404
310
41D1DBDD5C985D5910240902404333333333333E33F0000000000000F9010740A9070040501641D405064090741402480A1B50
1001
ACAD
1000
AcDbSavedByObjectVersion
1070
     0
  0
ACAD_PROXY_OBJECT
  5
2E
102
{ACAD_REACTORS
330
2A
102
}
330
2A
100
AcDbProxyObject
 90
      499
 91
      501
 93
      492
310
4411DBDD5C985D5915DA5D1A115919D95CD0340902404333333333333E33F0000000000000F90107409019070040501600405405064090741402480A1B50
1001
ACAD
1000
AcDbSavedByObjectVersion
1070
     0
  0
ACAD_PROXY_OBJECT
  5
31
102
{ACAD_REACTORS
330
2A
102
}
330
2A
100
AcDbProxyObject
 90
      499
 91
      501
 93
      476
310
41921A5919195B90640502408333333333333E33F0000000000000F901079024090700405020000000000001110200405405064090740C02480A0340
1001
ACAD
1000
AcDbSavedByObjectVersion
1070
     0
  0
ACAD_PROXY_OBJECT
  5
3B
102
{ACAD_REACTORS
330
2A
102
}
330
2A
100
AcDbProxyObject
 90
      499
 91
      501
 93
      428
310
42529A5D1D195C93D999914409028333333333333E33F0000000000000F9010790141107004050150A41D405064090741402480A0350
1001
ACAD
1000
AcDbSavedByObjectVersion
1070
     0
  0
ACAD_PROXY_OBJECT
  5
38
102
{ACAD_REACTORS
330
2A
102
}
330
2A
100
AcDbProxyObject
 90
      499
 91
      501
 93
      444
310
42D31A5B995C185D1D195C9B90E409028333333333333E33F0000000000000F9010790141107004050750841D405064090741402483A0350
1001
ACAD
1000
AcDbSavedByObjectVersion
1070
     0
  0
ACAD_PROXY_OBJECT
  5
3C
102
{ACAD_REACTORS
330
2A
102
}
330
2A
100
AcDbProxyObject
 90
      499
 91
      501
 93
      444
310
42D3DD995C9A185B99D3D999915409028333333333333E33F0000000000000F9010790141107004050150941D405064090741402480A0350
1001
ACAD
1000
AcDbSavedByObjectVersion
1070
     0
  0
ACAD_PROXY_OBJECT
  5
33
102
{ACAD_REACTORS
330
2A
102
}
330
2A
100
AcDbProxyObject
 90
      499
 91
      501
 93
      428
310
425499585B1A5CDD1A58D08409038333333333333E33F0000000000000F9010740A907004050150800405405064090740C02480A1B40
1001
ACAD
1000
AcDbSavedByObjectVersion
1070
     0
  0
ACAD_PROXY_OBJECT
  5
42
102
{ACAD_REACTORS
330
2A
102
}
330
2A
100
AcDbProxyObject
 90
      499
 91
      501
 93
      420
310
4194DA1859195911B40902404333333333333E33F0000000000000F9010740A41107004050150800405405064090840C02480A0B40
1001
ACAD
1000
AcDbSavedByObjectVersion
1070
     0
  0
ACAD_PROXY_OBJECT
  5
41
102
{ACAD_REACTORS
330
2A
102
}
330
2A
100
AcDbProxyObject
 90
      499
 91
      501
 93
      516
310
4454DA18591959081DDA5D1A08195919D95CD1A40902404333333333333E33F0000000000000F901074090142907004050250800405405064090740C02480A0B40
1001
ACAD
1000
AcDbSavedByObjectVersion
1070
     0
  0
ACAD_PROXY_OBJECT
  5
3E
102
{ACAD_REACTORS
330
2A
102
}
330
2A
100
AcDbProxyObject
 90
      499
 91
      501
 93
      532
310
4394DA1859195CC81BD98811DC985E5174090240C333333333333E33F0000000000000F901079024090741D01000000000000111010841D405064090740C02480A0340
1001
ACAD
1000
AcDbSavedByObjectVersion
1070
     0
  0
ACAD_PROXY_OBJECT
  5
3F
102
{ACAD_REACTORS
330
2A
102
}
330
2A
100
AcDbProxyObject
 90
      499
 91
      501
 93
      476
310
41D4DAD95D18DA1E51840502408333333333333E33F0000000000000F901079024090741D01000000000000111010B41D405064090741802480A0340
1001
ACAD
1000
AcDbSavedByObjectVersion
1070
     0
  0
ACAD_PROXY_OBJECT
  5
37
102
{ACAD_REACTORS
330
2A
102
}
330
2A
100
AcDbProxyObject
 90
      499
 91
      501
 93
      412
310
41D51A1A58DAD95B90D409028333333333333E33F0000000000000F9010790141107004050150C41D405064090741402480A0350
1001
ACAD
1000
AcDbSavedByObjectVersion
1070
     0
  0
ACAD_PROXY_OBJECT
  5
30
102
{ACAD_REACTORS
330
2A
102
}
330
2A
100
AcDbProxyObject
 90
      499
 91
      501
 93
      420
310
4255DA5C99599C985B595059028333333333333E33F0000000000000F90107901411070040501600405405064090740C02480A0340
1001
ACAD
1000
AcDbSavedByObjectVersion
1070
     0
  0
ACAD_PROXY_OBJECT
  5
40
102
{ACAD_REACTORS
330
2A
102
}
330
2A
100
AcDbProxyObject
 90
      499
 91
      501
 93
      404
310
41560B54985E51940902404000000000000E03F0000000000000F9010740501907004050150841D405064090740C02480A1B40
1001
ACAD
1000
AcDbSavedByObjectVersion
1070
     0
  0
XRECORD
  5
538
102
{ACAD_REACTORS
330
52E
102
}
330
52E
100
AcDbXrecord
340
0
  0
XRECORD
  5
537
102
{ACAD_REACTORS
330
52E
102
}
330
52E
100
AcDbXrecord
 90
        0
  0
XRECORD
  5
54E
102
{ACAD_REACTORS
330
52E
102
}
330
52E
100
AcDbXrecord
1000
DSTYLE
1002
{
1070
   340
340
11
1002
}
  0
XRECORD
  5
539
102
{ACAD_REACTORS
330
52E
102
}
330
52E
100
AcDbXrecord
  1
{cf8b606f-00ca-4faf-afdc-53722d9101ec}
  0
XRECORD
  5
531
102
{ACAD_REACTORS
330
52E
102
}
330
52E
100
AcDbXrecord
  1

  0
XRECORD
  5
536
102
{ACAD_REACTORS
330
52E
102
}
330
52E
100
AcDbXrecord
 90
        4
  0
XRECORD
  5
533
102
{ACAD_REACTORS
330
52E
102
}
330
52E
100
AcDbXrecord
340
1A
  0
XRECORD
  5
535
102
{ACAD_REACTORS
330
52E
102
}
330
52E
100
AcDbXrecord
 90
    10781
  0
XRECORD
  5
534
102
{ACAD_REACTORS
330
52E
102
}
330
52E
100
AcDbXrecord
340
19
  0
XRECORD
  5
53B
102
{ACAD_REACTORS
330
52E
102
}
330
52E
100
AcDbXrecord
 40
0.0
  0
XRECORD
  5
53E
102
{ACAD_REACTORS
330
52E
102
}
330
52E
100
AcDbXrecord
340
0
  0
XRECORD
  5
544
102
{ACAD_REACTORS
330
52E
102
}
330
52E
100
AcDbXrecord
 10
0.0
 20
0.0
 30
0.0
  0
XRECORD
  5
540
102
{ACAD_REACTORS
330
52E
102
}
330
52E
100
AcDbXrecord
 10
0.0
 20
0.0
 30
0.0
  0
XRECORD
  5
543
102
{ACAD_REACTORS
330
52E
102
}
330
52E
100
AcDbXrecord
 10
0.0
 20
0.0
 30
0.0
  0
XRECORD
  5
541
102
{ACAD_REACTORS
330
52E
102
}
330
52E
100
AcDbXrecord
 10
0.0
 20
0.0
 30
0.0
  0
XRECORD
  5
542
102
{ACAD_REACTORS
330
52E
102
}
330
52E
100
AcDbXrecord
 10
0.0
 20
0.0
 30
0.0
  0
XRECORD
  5
53F
102
{ACAD_REACTORS
330
52E
102
}
330
52E
100
AcDbXrecord
 10
0.0
 20
0.0
 30
0.0
  0
XRECORD
  5
53C
102
{ACAD_REACTORS
330
52E
102
}
330
52E
100
AcDbXrecord
340
0
  0
XRECORD
  5
53D
102
{ACAD_REACTORS
330
52E
102
}
330
52E
100
AcDbXrecord
 70
     0
  0
XRECORD
  5
532
102
{ACAD_REACTORS
330
52E
102
}
330
52E
100
AcDbXrecord
  1

  0
XRECORD
  5
52F
102
{ACAD_REACTORS
330
52E
102
}
330
52E
100
AcDbXrecord
 90
        1
  0
XRECORD
  5
530
102
{ACAD_REACTORS
330
52E
102
}
330
52E
100
AcDbXrecord
 90
       70
  0
XRECORD
  5
547
102
{ACAD_REACTORS
330
52E
102
}
330
52E
100
AcDbXrecord
340
0
  0
XRECORD
  5
54D
102
{ACAD_REACTORS
330
52E
102
}
330
52E
100
AcDbXrecord
 10
0.0
 20
0.0
 30
0.0
  0
XRECORD
  5
549
102
{ACAD_REACTORS
330
52E
102
}
330
52E
100
AcDbXrecord
 10
0.0
 20
0.0
 30
0.0
  0
XRECORD
  5
54C
102
{ACAD_REACTORS
330
52E
102
}
330
52E
100
AcDbXrecord
 10
0.0
 20
0.0
 30
0.0
  0
XRECORD
  5
54A
102
{ACAD_REACTORS
330
52E
102
}
330
52E
100
AcDbXrecord
 10
0.0
 20
0.0
 30
0.0
  0
XRECORD
  5
54B
102
{ACAD_REACTORS
330
52E
102
}
330
52E
100
AcDbXrecord
 10
0.0
 20
0.0
 30
0.0
  0
XRECORD
  5
548
102
{ACAD_REACTORS
330
52E
102
}
330
52E
100
AcDbXrecord
 10
0.0
 20
0.0
 30
0.0
  0
XRECORD
  5
545
102
{ACAD_REACTORS
330
52E
102
}
330
52E
100
AcDbXrecord
340
0
  0
XRECORD
  5
546
102
{ACAD_REACTORS
330
52E
102
}
330
52E
100
AcDbXrecord
 70
     0
  0
XRECORD
  5
53A
102
{ACAD_REACTORS
330
52E
102
}
330
52E
100
AcDbXrecord
  1
{FAEB1C32-E019-11D5-929B-00C0DF256EC4}
  0
DICTIONARYVAR
  5
55C
102
{ACAD_REACTORS
330
54F
102
}
330
54F
100
DictionaryVariables
280
     0
  1
1:1
  0
DICTIONARYVAR
  5
556
102
{ACAD_REACTORS
330
54F
102
}
330
54F
100
DictionaryVariables
280
     0
  1
3.500000
  0
DICTIONARYVAR
  5
557
102
{ACAD_REACTORS
330
54F
102
}
330
54F
100
DictionaryVariables
280
     0
  1
acadiso.lin
  0
DICTIONARYVAR
  5
551
102
{ACAD_REACTORS
330
54F
102
}
330
54F
100
DictionaryVariables
280
     0
  1
Standard
  0
DICTIONARYVAR
  5
550
102
{ACAD_REACTORS
330
54F
102
}
330
54F
100
DictionaryVariables
280
     0
  1
Standard
  0
DICTIONARYVAR
  5
558
102
{ACAD_REACTORS
330
54F
102
}
330
54F
100
DictionaryVariables
280
     0
  1
2
  0
DICTIONARYVAR
  5
559
102
{ACAD_REACTORS
330
54F
102
}
330
54F
100
DictionaryVariables
280
     0
  1
1
  0
DICTIONARYVAR
  5
55D
102
{ACAD_REACTORS
330
54F
102
}
330
54F
100
DictionaryVariables
280
     0
  1
1
  0
DICTIONARYVAR
  5
553
102
{ACAD_REACTORS
330
54F
102
}
330
54F
100
DictionaryVariables
280
     0
  1
80.000000
  0
DICTIONARYVAR
  5
552
102
{ACAD_REACTORS
330
54F
102
}
330
54F
100
DictionaryVariables
280
     0
  1
5.000000
  0
DICTIONARY
  5
560
330
45
100
AcDbDictionary
280
     1
  3
ACAD_XREC_ROUNDTRIP
360
561
  0
DICTIONARY
  5
55E
330
44
100
AcDbDictionary
280
     1
  3
ACAD_XREC_ROUNDTRIP
360
55F
  0
DICTIONARY
  5
562
330
46
100
AcDbDictionary
280
     1
  3
ACAD_XREC_ROUNDTRIP
360
563
  0
XRECORD
  5
561
102
{ACAD_REACTORS
330
560
102
}
330
560
100
AcDbXrecord
102
MATERIAL
148
0.0
149
0.0
149
0.0
 93
        0
 94
      127
282
     0
 72
     1
 77
     1
171
     1
175
     1
179
     1
273
     0
  0
XRECORD
  5
55F
102
{ACAD_REACTORS
330
55E
102
}
330
55E
100
AcDbXrecord
102
MATERIAL
148
0.0
149
0.0
149
0.0
 93
        0
 94
      127
282
     0
 72
     1
 77
     1
171
     1
175
     1
179
     1
273
     0
  0
XRECORD
  5
563
102
{ACAD_REACTORS
330
562
102
}
330
562
100
AcDbXrecord
102
MATERIAL
148
0.0
149
0.0
149
0.0
 93
        0
 94
      127
282
     0
 72
     1
 77
     1
171
     1
175
     1
179
     1
273
     0
  0
ENDSEC
  0
EOF
