  0
SECTION
  2
HEADER
  9
$ACADVER
  1
AC1014
  9
$ACADMAINTVER
 70
     9
  9
$DWGCODEPAGE
  3
ANSI_932
  9
$INSBASE
 10
0.0
 20
0.0
 30
0.0
  9
$EXTMIN
 10
70.0
 20
70.0
 30
0.0
  9
$EXTMAX
 10
2870.0
 20
2009.0
 30
0.0
  9
$LIMMIN
 10
0.0
 20
0.0
  9
$LIMMAX
 10
420.0
 20
297.0
  9
$ORTHOMODE
 70
     0
  9
$REGENMODE
 70
     1
  9
$FILLMODE
 70
     1
  9
$QTEXTMODE
 70
     0
  9
$MIRRTEXT
 70
     1
  9
$DRAGMODE
 70
     2
  9
$LTSCALE
 40
1.0
  9
$OSMODE
 70
    37
  9
$ATTMODE
 70
     1
  9
$TEXTSIZE
 40
2.5
  9
$TRACEWID
 40
1.0
  9
$TEXTSTYLE
  7
STANDARD
  9
$CLAYER
  8
Ｓ_１_１
  9
$CELTYPE
  6
BYLAYER
  9
$CECOLOR
 62
   256
  9
$CELTSCALE
 40
1.0
  9
$DELOBJ
 70
     1
  9
$DISPSILH
 70
     0
  9
$DIMSCALE
 40
1.0
  9
$DIMASZ
 40
2.5
  9
$DIMEXO
 40
0.625
  9
$DIMDLI
 40
3.75
  9
$DIMRND
 40
0.0
  9
$DIMDLE
 40
0.0
  9
$DIMEXE
 40
1.25
  9
$DIMTP
 40
0.0
  9
$DIMTM
 40
0.0
  9
$DIMTXT
 40
2.5
  9
$DIMCEN
 40
2.5
  9
$DIMTSZ
 40
0.0
  9
$DIMTOL
 70
     0
  9
$DIMLIM
 70
     0
  9
$DIMTIH
 70
     0
  9
$DIMTOH
 70
     0
  9
$DIMSE1
 70
     0
  9
$DIMSE2
 70
     0
  9
$DIMTAD
 70
     1
  9
$DIMZIN
 70
     8
  9
$DIMBLK
  1

  9
$DIMASO
 70
     1
  9
$DIMSHO
 70
     1
  9
$DIMPOST
  1

  9
$DIMAPOST
  1

  9
$DIMALT
 70
     0
  9
$DIMALTD
 70
     3
  9
$DIMALTF
 40
0.03937007874016
  9
$DIMLFAC
 40
1.0
  9
$DIMTOFL
 70
     1
  9
$DIMTVP
 40
0.0
  9
$DIMTIX
 70
     0
  9
$DIMSOXD
 70
     0
  9
$DIMSAH
 70
     0
  9
$DIMBLK1
  1

  9
$DIMBLK2
  1

  9
$DIMSTYLE
  2
ISO-25
  9
$DIMCLRD
 70
     0
  9
$DIMCLRE
 70
     0
  9
$DIMCLRT
 70
     0
  9
$DIMTFAC
 40
1.0
  9
$DIMGAP
 40
0.625
  9
$DIMJUST
 70
     0
  9
$DIMSD1
 70
     0
  9
$DIMSD2
 70
     0
  9
$DIMTOLJ
 70
     0
  9
$DIMTZIN
 70
     8
  9
$DIMALTZ
 70
     0
  9
$DIMALTTZ
 70
     0
  9
$DIMFIT
 70
     3
  9
$DIMUPT
 70
     0
  9
$DIMUNIT
 70
     2
  9
$DIMDEC
 70
     2
  9
$DIMTDEC
 70
     2
  9
$DIMALTU
 70
     2
  9
$DIMALTTD
 70
     3
  9
$DIMTXSTY
  7
STANDARD
  9
$DIMAUNIT
 70
     0
  9
$LUNITS
 70
     2
  9
$LUPREC
 70
     4
  9
$SKETCHINC
 40
1.0
  9
$FILLETRAD
 40
10.0
  9
$AUNITS
 70
     0
  9
$AUPREC
 70
     0
  9
$MENU
  1
.
  9
$ELEVATION
 40
0.0
  9
$PELEVATION
 40
0.0
  9
$THICKNESS
 40
0.0
  9
$LIMCHECK
 70
     0
  9
$CHAMFERA
 40
0.0
  9
$CHAMFERB
 40
0.0
  9
$CHAMFERC
 40
0.0
  9
$CHAMFERD
 40
0.0
  9
$SKPOLY
 70
     0
  9
$TDCREATE
 40
2459586.418461701
  9
$TDUPDATE
 40
2459586.418463275
  9
$TDINDWG
 40
0.0000000116
  9
$TDUSRTIMER
 40
0.0000000116
  9
$USRTIMER
 70
     1
  9
$ANGBASE
 50
0.0
  9
$ANGDIR
 70
     0
  9
$PDMODE
 70
     0
  9
$PDSIZE
 40
0.0
  9
$PLINEWID
 40
0.0
  9
$COORDS
 70
     1
  9
$SPLFRAME
 70
     0
  9
$SPLINETYPE
 70
     6
  9
$SPLINESEGS
 70
     8
  9
$ATTDIA
 70
     0
  9
$ATTREQ
 70
     1
  9
$HANDLING
 70
     1
  9
$HANDSEED
  5
488
  9
$SURFTAB1
 70
     6
  9
$SURFTAB2
 70
     6
  9
$SURFTYPE
 70
     6
  9
$SURFU
 70
     6
  9
$SURFV
 70
     6
  9
$UCSNAME
  2

  9
$UCSORG
 10
0.0
 20
0.0
 30
0.0
  9
$UCSXDIR
 10
1.0
 20
0.0
 30
0.0
  9
$UCSYDIR
 10
0.0
 20
1.0
 30
0.0
  9
$PUCSNAME
  2

  9
$PUCSORG
 10
0.0
 20
0.0
 30
0.0
  9
$PUCSXDIR
 10
1.0
 20
0.0
 30
0.0
  9
$PUCSYDIR
 10
0.0
 20
1.0
 30
0.0
  9
$USERI1
 70
     0
  9
$USERI2
 70
     0
  9
$USERI3
 70
     0
  9
$USERI4
 70
     0
  9
$USERI5
 70
     0
  9
$USERR1
 40
0.0
  9
$USERR2
 40
0.0
  9
$USERR3
 40
0.0
  9
$USERR4
 40
0.0
  9
$USERR5
 40
0.0
  9
$WORLDVIEW
 70
     1
  9
$SHADEDGE
 70
     3
  9
$SHADEDIF
 70
    70
  9
$TILEMODE
 70
     1
  9
$MAXACTVP
 70
    64
  9
$PINSBASE
 10
0.0
 20
0.0
 30
0.0
  9
$PLIMCHECK
 70
     0
  9
$PEXTMIN
 10
1.000000000000000E+20
 20
1.000000000000000E+20
 30
1.000000000000000E+20
  9
$PEXTMAX
 10
-1.000000000000000E+20
 20
-1.000000000000000E+20
 30
-1.000000000000000E+20
  9
$PLIMMIN
 10
0.0
 20
0.0
  9
$PLIMMAX
 10
420.0
 20
297.0
  9
$UNITMODE
 70
     0
  9
$VISRETAIN
 70
     1
  9
$PLINEGEN
 70
     0
  9
$PSLTSCALE
 70
     1
  9
$TREEDEPTH
 70
  3020
  9
$PICKSTYLE
 70
     1
  9
$CMLSTYLE
  2
STANDARD
  9
$CMLJUST
 70
     0
  9
$CMLSCALE
 40
20.0
  9
$PROXYGRAPHICS
 70
     1
  9
$MEASUREMENT
 70
     1
  0
ENDSEC
  0
SECTION
  2
CLASSES
  0
CLASS
  1
ACDBDICTIONARYWDFLT
  2
AcDbDictionaryWithDefault
  3
ObjectDBX Classes
 90
        0
280
     0
281
     0
  0
CLASS
  1
VISUALSTYLE
  2
AcDbVisualStyle
  3
ObjectDBX Classes
 90
     4095
280
     0
281
     0
  0
CLASS
  1
MATERIAL
  2
AcDbMaterial
  3
ObjectDBX Classes
 90
     1153
280
     0
281
     0
  0
CLASS
  1
SCALE
  2
AcDbScale
  3
ObjectDBX Classes
 90
     1153
280
     0
281
     0
  0
CLASS
  1
TABLESTYLE
  2
AcDbTableStyle
  3
ObjectDBX Classes
 90
     4095
280
     0
281
     0
  0
CLASS
  1
MLEADERSTYLE
  2
AcDbMLeaderStyle
  3
ACDB_MLEADERSTYLE_CLASS
 90
     4095
280
     0
281
     0
  0
CLASS
  1
SUN
  2
AcDbSun
  3
SCENEOE
 90
     1153
280
     0
281
     0
  0
CLASS
  1
DICTIONARYVAR
  2
AcDbDictionaryVar
  3
ObjectDBX Classes
 90
        0
280
     0
281
     0
  0
CLASS
  1
XRECORD
  2
AcDbXrecord
  3
ObjectDBX Classes
 90
        0
280
     0
281
     0
  0
CLASS
  1
LWPOLYLINE
  2
AcDbPolyline
  3
ObjectDBX Classes
 90
        0
280
     0
281
     1
  0
CLASS
  1
HATCH
  2
AcDbHatch
  3
ObjectDBX Classes
 90
        0
280
     0
281
     1
  0
CLASS
  1
ACDBPLACEHOLDER
  2
AcDbPlaceHolder
  3
ObjectDBX Classes
 90
        0
280
     0
281
     0
  0
CLASS
  1
LAYOUT
  2
AcDbLayout
  3
ObjectDBX Classes
 90
        0
280
     0
281
     0
  0
ENDSEC
  0
SECTION
  2
TABLES
  0
TABLE
  2
VPORT
  5
8
102
{ACAD_XDICTIONARY
360
47D
102
}
330
0
100
AcDbSymbolTable
 70
     1
  0
VPORT
  5
29
330
8
100
AcDbSymbolTableRecord
100
AcDbViewportTableRecord
  2
*ACTIVE
 70
     0
 10
0.0
 20
0.0
 11
1.0
 21
1.0
 12
1470.0
 22
1039.5
 13
0.0
 23
0.0
 14
10.0
 24
10.0
 15
10.0
 25
10.0
 16
0.0
 26
0.0
 36
1.0
 17
0.0
 27
0.0
 37
0.0
 40
1939.0
 41
1.444043321299639
 42
50.0
 43
0.0
 44
0.0
 50
0.0
 51
0.0
 71
     0
 72
  1000
 73
     1
 74
     3
 75
     0
 76
     0
 77
     0
 78
     0
  0
ENDTAB
  0
TABLE
  2
LTYPE
  5
5
330
0
100
AcDbSymbolTable
 70
    13
  0
LTYPE
  5
14
330
5
100
AcDbSymbolTableRecord
100
AcDbLinetypeTableRecord
  2
BYBLOCK
 70
     0
  3

 72
    65
 73
     0
 40
0.0
  0
LTYPE
  5
15
330
5
100
AcDbSymbolTableRecord
100
AcDbLinetypeTableRecord
  2
BYLAYER
 70
     0
  3

 72
    65
 73
     0
 40
0.0
  0
LTYPE
  5
16
330
5
100
AcDbSymbolTableRecord
100
AcDbLinetypeTableRecord
  2
CONTINUOUS
 70
     0
  3
Solid line
 72
    65
 73
     0
 40
0.0
  0
LTYPE
  5
6E
330
5
100
AcDbSymbolTableRecord
100
AcDbLinetypeTableRecord
  2
EXLTYPE0
 70
     0
  3
破線
 72
    65
 73
     2
 40
4.0
 49
3.0
 74
     0
 49
-1.0
 74
     0
  0
LTYPE
  5
6F
330
5
100
AcDbSymbolTableRecord
100
AcDbLinetypeTableRecord
  2
EXLTYPE1
 70
     0
  3
点線
 72
    65
 73
     2
 40
2.0
 49
1.0
 74
     0
 49
-1.0
 74
     0
  0
LTYPE
  5
70
330
5
100
AcDbSymbolTableRecord
100
AcDbLinetypeTableRecord
  2
EXLTYPE2
 70
     0
  3
一点鎖線
 72
    65
 73
     4
 40
13.0
 49
10.0
 74
     0
 49
-1.0
 74
     0
 49
1.0
 74
     0
 49
-1.0
 74
     0
  0
LTYPE
  5
71
330
5
100
AcDbSymbolTableRecord
100
AcDbLinetypeTableRecord
  2
EXLTYPE3
 70
     0
  3
二点鎖線
 72
    65
 73
     6
 40
15.0
 49
10.0
 74
     0
 49
-1.0
 74
     0
 49
1.0
 74
     0
 49
-1.0
 74
     0
 49
1.0
 74
     0
 49
-1.0
 74
     0
  0
LTYPE
  5
72
330
5
100
AcDbSymbolTableRecord
100
AcDbLinetypeTableRecord
  2
EXLTYPE4
 70
     0
  3
一点鎖線2
 72
    65
 73
     4
 40
3.5
 49
2.0
 74
     0
 49
-0.5
 74
     0
 49
0.5
 74
     0
 49
-0.5
 74
     0
  0
LTYPE
  5
73
330
5
100
AcDbSymbolTableRecord
100
AcDbLinetypeTableRecord
  2
EXLTYPE5
 70
     0
  3
二点鎖線2
 72
    65
 73
     6
 40
4.5
 49
2.0
 74
     0
 49
-0.5
 74
     0
 49
0.5
 74
     0
 49
-0.5
 74
     0
 49
0.5
 74
     0
 49
-0.5
 74
     0
  0
LTYPE
  5
74
330
5
100
AcDbSymbolTableRecord
100
AcDbLinetypeTableRecord
  2
EXLTYPE6
 70
     0
  3
一点鎖線5
 72
    65
 73
     4
 40
13.0
 49
10.0
 74
     0
 49
-1.0
 74
     0
 49
1.0
 74
     0
 49
-1.0
 74
     0
  0
LTYPE
  5
75
330
5
100
AcDbSymbolTableRecord
100
AcDbLinetypeTableRecord
  2
EXLTYPE7
 70
     0
  3
破線7
 72
    65
 73
     2
 40
2.5
 49
1.5
 74
     0
 49
-1.0
 74
     0
  0
LTYPE
  5
76
330
5
100
AcDbSymbolTableRecord
100
AcDbLinetypeTableRecord
  2
EXLTYPE8
 70
     0
  3
一点鎖線4
 72
    65
 73
     4
 40
13.0
 49
10.0
 74
     0
 49
-1.0
 74
     0
 49
1.0
 74
     0
 49
-1.0
 74
     0
  0
LTYPE
  5
77
330
5
100
AcDbSymbolTableRecord
100
AcDbLinetypeTableRecord
  2
EXLTYPE9
 70
     0
  3
破線2
 72
    65
 73
     2
 40
2.5
 49
1.5
 74
     0
 49
-1.0
 74
     0
  0
LTYPE
  5
78
330
5
100
AcDbSymbolTableRecord
100
AcDbLinetypeTableRecord
  2
EXLTYPE10
 70
     0
  3
一点鎖線3
 72
    65
 73
     4
 40
13.0
 49
10.0
 74
     0
 49
-1.0
 74
     0
 49
1.0
 74
     0
 49
-1.0
 74
     0
  0
LTYPE
  5
79
330
5
100
AcDbSymbolTableRecord
100
AcDbLinetypeTableRecord
  2
EXLTYPE11
 70
     0
  3
破線5
 72
    65
 73
     2
 40
2.5
 49
1.5
 74
     0
 49
-1.0
 74
     0
  0
ENDTAB
  0
TABLE
  2
LAYER
  5
2
330
0
100
AcDbSymbolTable
 70
     4
  0
LAYER
  5
10
330
2
100
AcDbSymbolTableRecord
100
AcDbLayerTableRecord
  2
0
 70
     0
 62
     7
  6
CONTINUOUS
  0
LAYER
  5
7C
330
2
100
AcDbSymbolTableRecord
100
AcDbLayerTableRecord
  2
図面枠
 70
     4
 62
     7
  6
CONTINUOUS
  0
LAYER
  5
7D
330
2
100
AcDbSymbolTableRecord
100
AcDbLayerTableRecord
  2
Ｓ_１_１
 70
     0
 62
     7
  6
CONTINUOUS
  0
LAYER
  5
11F
330
2
100
AcDbSymbolTableRecord
100
AcDbLayerTableRecord
  2
DEFPOINTS
 70
     0
 62
     7
  6
CONTINUOUS
  0
ENDTAB
  0
TABLE
  2
STYLE
  5
3
330
0
100
AcDbSymbolTable
 70
     5
  0
STYLE
  5
11
330
3
100
AcDbSymbolTableRecord
100
AcDbTextStyleTableRecord
  2
STANDARD
 70
     0
 40
0.0
 41
1.0
 50
0.0
 71
     0
 42
2.5
  3
monotxt
  4
extfont
  0
STYLE
  5
7A
330
3
100
AcDbSymbolTableRecord
100
AcDbTextStyleTableRecord
  2
EXCADSTD
 70
     0
 40
0.0
 41
1.0
 50
0.0
 71
     0
 42
2.5
  3
monotxt
  4
extfont
  0
STYLE
  5
7B
330
3
100
AcDbSymbolTableRecord
100
AcDbTextStyleTableRecord
  2
EXCADVERT
 70
     4
 40
0.0
 41
1.0
 50
0.0
 71
     0
 42
2.5
  3
monotxt
  4
extfont
  0
STYLE
  5
E0
330
3
100
AcDbSymbolTableRecord
100
AcDbTextStyleTableRecord
  2
EXCADTTF1
 70
     0
 40
0.0
 41
1.0
 50
0.0
 71
     0
 42
2.5
  3
msgothic.ttc
  4

1001
ACAD
1000
MS Gothic
1071
    32817
  0
STYLE
  5
11D
330
3
100
AcDbSymbolTableRecord
100
AcDbTextStyleTableRecord
  2
EXCADDIM1
 70
     0
 40
0.0
 41
1.0
 50
0.0
 71
     0
 42
2.5
  3
msgothic.ttc
  4

1001
ACAD
1000
MS Gothic
1071
    32817
  0
ENDTAB
  0
TABLE
  2
VIEW
  5
6
330
0
100
AcDbSymbolTable
 70
     0
  0
ENDTAB
  0
TABLE
  2
UCS
  5
7
330
0
100
AcDbSymbolTable
 70
     0
  0
ENDTAB
  0
TABLE
  2
APPID
  5
9
330
0
100
AcDbSymbolTable
 70
     2
  0
APPID
  5
12
330
9
100
AcDbSymbolTableRecord
100
AcDbRegAppTableRecord
  2
ACAD
 70
     0
  0
APPID
  5
487
330
9
100
AcDbSymbolTableRecord
100
AcDbRegAppTableRecord
  2
ACAD_MLEADERVER
 70
     0
  0
ENDTAB
  0
TABLE
  2
DIMSTYLE
  5
A
330
0
100
AcDbSymbolTable
 70
     1
  0
DIMSTYLE
105
27
102
{ACAD_REACTORS
330
11E
330
12E
330
13B
330
148
330
155
330
162
330
16F
330
17C
330
189
330
196
330
1A3
330
1B0
330
1BD
330
1CA
330
1D7
330
389
102
}
330
A
100
AcDbSymbolTableRecord
100
AcDbDimStyleTableRecord
  2
ISO-25
 70
     0
  3

  4

  5

  6

  7

 40
1.0
 41
2.5
 42
0.625
 43
3.75
 44
1.25
 45
0.0
 46
0.0
 47
0.0
 48
0.0
140
2.5
141
2.5
142
0.0
143
0.03937007874016
144
1.0
145
0.0
146
1.0
147
0.625
 71
     0
 72
     0
 73
     0
 74
     0
 75
     0
 76
     0
 77
     1
 78
     8
170
     0
171
     3
172
     1
173
     0
174
     0
175
     0
176
     0
177
     0
178
     0
270
     2
271
     2
272
     2
273
     2
274
     3
340
11
275
     0
280
     0
281
     0
282
     0
283
     0
284
     8
285
     0
286
     0
287
     5
288
     0
  0
ENDTAB
  0
TABLE
  2
BLOCK_RECORD
  5
1
330
0
100
AcDbSymbolTable
 70
    30
  0
BLOCK_RECORD
  5
1F
330
1
100
AcDbSymbolTableRecord
100
AcDbBlockTableRecord
  2
*MODEL_SPACE
  0
BLOCK_RECORD
  5
1B
330
1
100
AcDbSymbolTableRecord
100
AcDbBlockTableRecord
  2
*PAPER_SPACE
  0
BLOCK_RECORD
  5
7E
330
1
100
AcDbSymbolTableRecord
100
AcDbBlockTableRecord
  2
EX_NORM
  0
BLOCK_RECORD
  5
81
330
1
100
AcDbSymbolTableRecord
100
AcDbBlockTableRecord
  2
EX_BNORM
  0
BLOCK_RECORD
  5
84
330
1
100
AcDbSymbolTableRecord
100
AcDbBlockTableRecord
  2
EX_BCIR
  0
BLOCK_RECORD
  5
87
330
1
100
AcDbSymbolTableRecord
100
AcDbBlockTableRecord
  2
EX_RCIVIL
  0
BLOCK_RECORD
  5
8A
330
1
100
AcDbSymbolTableRecord
100
AcDbBlockTableRecord
  2
EX_SLANT
  0
BLOCK_RECORD
  5
8D
330
1
100
AcDbSymbolTableRecord
100
AcDbBlockTableRecord
  2
EX_NONE
  0
BLOCK_RECORD
  5
90
330
1
100
AcDbSymbolTableRecord
100
AcDbBlockTableRecord
  2
EX_CIVIL
  0
BLOCK_RECORD
  5
93
330
1
100
AcDbSymbolTableRecord
100
AcDbBlockTableRecord
  2
EX_WCIR
  0
BLOCK_RECORD
  5
96
330
1
100
AcDbSymbolTableRecord
100
AcDbBlockTableRecord
  2
EX_WCIR2
  0
BLOCK_RECORD
  5
99
330
1
100
AcDbSymbolTableRecord
100
AcDbBlockTableRecord
  2
EX_WNORM
  0
BLOCK_RECORD
  5
9C
330
1
100
AcDbSymbolTableRecord
100
AcDbBlockTableRecord
  2
EX_NNORM
  0
BLOCK_RECORD
  5
9F
330
1
100
AcDbSymbolTableRecord
100
AcDbBlockTableRecord
  2
EX_BBOX
  0
BLOCK_RECORD
  5
A2
330
1
100
AcDbSymbolTableRecord
100
AcDbBlockTableRecord
  2
EX_WBOX
  0
BLOCK_RECORD
  5
A5
330
1
100
AcDbSymbolTableRecord
100
AcDbBlockTableRecord
  2
EX_INTEGRAL
  0
BLOCK_RECORD
  5
120
330
1
100
AcDbSymbolTableRecord
100
AcDbBlockTableRecord
  2
*D15
  0
BLOCK_RECORD
  5
12F
330
1
100
AcDbSymbolTableRecord
100
AcDbBlockTableRecord
  2
*D16
  0
BLOCK_RECORD
  5
13C
330
1
100
AcDbSymbolTableRecord
100
AcDbBlockTableRecord
  2
*D17
  0
BLOCK_RECORD
  5
149
330
1
100
AcDbSymbolTableRecord
100
AcDbBlockTableRecord
  2
*D18
  0
BLOCK_RECORD
  5
156
330
1
100
AcDbSymbolTableRecord
100
AcDbBlockTableRecord
  2
*D19
  0
BLOCK_RECORD
  5
163
330
1
100
AcDbSymbolTableRecord
100
AcDbBlockTableRecord
  2
*D20
  0
BLOCK_RECORD
  5
170
330
1
100
AcDbSymbolTableRecord
100
AcDbBlockTableRecord
  2
*D21
  0
BLOCK_RECORD
  5
17D
330
1
100
AcDbSymbolTableRecord
100
AcDbBlockTableRecord
  2
*D22
  0
BLOCK_RECORD
  5
18A
330
1
100
AcDbSymbolTableRecord
100
AcDbBlockTableRecord
  2
*D23
  0
BLOCK_RECORD
  5
197
330
1
100
AcDbSymbolTableRecord
100
AcDbBlockTableRecord
  2
*D24
  0
BLOCK_RECORD
  5
1A4
330
1
100
AcDbSymbolTableRecord
100
AcDbBlockTableRecord
  2
*D25
  0
BLOCK_RECORD
  5
1B1
330
1
100
AcDbSymbolTableRecord
100
AcDbBlockTableRecord
  2
*D26
  0
BLOCK_RECORD
  5
1BE
330
1
100
AcDbSymbolTableRecord
100
AcDbBlockTableRecord
  2
*D27
  0
BLOCK_RECORD
  5
1CB
330
1
100
AcDbSymbolTableRecord
100
AcDbBlockTableRecord
  2
*D28
  0
BLOCK_RECORD
  5
1D8
330
1
100
AcDbSymbolTableRecord
100
AcDbBlockTableRecord
  2
*D29
  0
BLOCK_RECORD
  5
38A
330
1
100
AcDbSymbolTableRecord
100
AcDbBlockTableRecord
  2
*D30
  0
ENDTAB
  0
ENDSEC
  0
SECTION
  2
BLOCKS
  0
BLOCK
  5
20
330
1F
100
AcDbEntity
  8
0
100
AcDbBlockBegin
  2
*MODEL_SPACE
 70
     0
 10
0.0
 20
0.0
 30
0.0
  3
*MODEL_SPACE
  1

  0
ENDBLK
  5
21
330
1F
100
AcDbEntity
  8
0
100
AcDbBlockEnd
  0
BLOCK
  5
1C
330
1B
100
AcDbEntity
 67
     1
  8
0
100
AcDbBlockBegin
  2
*PAPER_SPACE
 70
     0
 10
0.0
 20
0.0
 30
0.0
  3
*PAPER_SPACE
  1

  0
ENDBLK
  5
1D
330
1B
100
AcDbEntity
 67
     1
  8
0
100
AcDbBlockEnd
  0
BLOCK
  5
7F
330
7E
100
AcDbEntity
  8
0
100
AcDbBlockBegin
  2
EX_NORM
 70
     0
 10
0.0
 20
0.0
 30
0.0
  3
EX_NORM
  1

  0
LINE
  5
A8
330
7E
100
AcDbEntity
  8
0
  6
CONTINUOUS
 62
     0
100
AcDbLine
 10
0.0
 20
0.0
 30
0.0
 11
-1.0
 21
0.0
 31
0.0
  0
LINE
  5
A9
330
7E
100
AcDbEntity
  8
0
  6
CONTINUOUS
 62
     0
100
AcDbLine
 10
0.0
 20
0.0
 30
0.0
 11
-1.0
 21
0.166666667
 31
0.0
  0
LINE
  5
AA
330
7E
100
AcDbEntity
  8
0
  6
CONTINUOUS
 62
     0
100
AcDbLine
 10
0.0
 20
0.0
 30
0.0
 11
-1.0
 21
-0.166666667
 31
0.0
  0
ENDBLK
  5
80
330
7E
100
AcDbEntity
  8
0
100
AcDbBlockEnd
  0
BLOCK
  5
82
330
81
100
AcDbEntity
  8
0
100
AcDbBlockBegin
  2
EX_BNORM
 70
     0
 10
0.0
 20
0.0
 30
0.0
  3
EX_BNORM
  1

  0
LINE
  5
AB
330
81
100
AcDbEntity
  8
0
  6
CONTINUOUS
 62
     0
100
AcDbLine
 10
0.0
 20
0.0
 30
0.0
 11
-1.0
 21
0.0
 31
0.0
  0
LINE
  5
AC
330
81
100
AcDbEntity
  8
0
  6
CONTINUOUS
 62
     0
100
AcDbLine
 10
0.0
 20
0.0
 30
0.0
 11
-1.0
 21
0.166666667
 31
0.0
  0
LINE
  5
AD
330
81
100
AcDbEntity
  8
0
  6
CONTINUOUS
 62
     0
100
AcDbLine
 10
0.0
 20
0.0
 30
0.0
 11
-1.0
 21
-0.166666667
 31
0.0
  0
LINE
  5
AE
330
81
100
AcDbEntity
  8
0
  6
CONTINUOUS
 62
     0
100
AcDbLine
 10
0.0
 20
0.0
 30
0.0
 11
-1.0
 21
0.083333333
 31
0.0
  0
LINE
  5
AF
330
81
100
AcDbEntity
  8
0
  6
CONTINUOUS
 62
     0
100
AcDbLine
 10
0.0
 20
0.0
 30
0.0
 11
-1.0
 21
-0.083333333
 31
0.0
  0
LINE
  5
B0
330
81
100
AcDbEntity
  8
0
  6
CONTINUOUS
 62
     0
100
AcDbLine
 10
-1.0
 20
0.166666667
 30
0.0
 11
-1.0
 21
-0.166666667
 31
0.0
  0
ENDBLK
  5
83
330
81
100
AcDbEntity
  8
0
100
AcDbBlockEnd
  0
BLOCK
  5
85
330
84
100
AcDbEntity
  8
0
100
AcDbBlockBegin
  2
EX_BCIR
 70
     0
 10
0.0
 20
0.0
 30
0.0
  3
EX_BCIR
  1

  0
LINE
  5
B1
330
84
100
AcDbEntity
  8
0
  6
CONTINUOUS
 62
     0
100
AcDbLine
 10
0.0
 20
0.0
 30
0.0
 11
-1.0
 21
0.0
 31
0.0
  0
CIRCLE
  5
B2
330
84
100
AcDbEntity
  8
0
  6
CONTINUOUS
 62
     0
100
AcDbCircle
 10
0.0
 20
0.0
 30
0.0
 40
0.5
  0
CIRCLE
  5
B3
330
84
100
AcDbEntity
  8
0
  6
CONTINUOUS
 62
     0
100
AcDbCircle
 10
0.0
 20
0.0
 30
0.0
 40
0.25
  0
ENDBLK
  5
86
330
84
100
AcDbEntity
  8
0
100
AcDbBlockEnd
  0
BLOCK
  5
88
330
87
100
AcDbEntity
  8
0
100
AcDbBlockBegin
  2
EX_RCIVIL
 70
     0
 10
0.0
 20
0.0
 30
0.0
  3
EX_RCIVIL
  1

  0
LINE
  5
B4
330
87
100
AcDbEntity
  8
0
  6
CONTINUOUS
 62
     0
100
AcDbLine
 10
0.0
 20
0.0
 30
0.0
 11
-1.0
 21
0.0
 31
0.0
  0
LINE
  5
B5
330
87
100
AcDbEntity
  8
0
  6
CONTINUOUS
 62
     0
100
AcDbLine
 10
-1.0
 20
-0.25
 30
0.0
 11
0.0
 21
-0.25
 31
0.0
  0
LINE
  5
B6
330
87
100
AcDbEntity
  8
0
  6
CONTINUOUS
 62
     0
100
AcDbLine
 10
-1.0
 20
-0.125
 30
0.0
 11
0.0
 21
-0.125
 31
0.0
  0
ENDBLK
  5
89
330
87
100
AcDbEntity
  8
0
100
AcDbBlockEnd
  0
BLOCK
  5
8B
330
8A
100
AcDbEntity
  8
0
100
AcDbBlockBegin
  2
EX_SLANT
 70
     0
 10
0.0
 20
0.0
 30
0.0
  3
EX_SLANT
  1

  0
LINE
  5
B7
330
8A
100
AcDbEntity
  8
0
  6
CONTINUOUS
 62
     0
100
AcDbLine
 10
0.0
 20
0.0
 30
0.0
 11
-1.0
 21
0.0
 31
0.0
  0
LINE
  5
B8
330
8A
100
AcDbEntity
  8
0
  6
CONTINUOUS
 62
     0
100
AcDbLine
 10
0.707106781
 20
0.707106781
 30
0.0
 11
-0.707106781
 21
-0.707106781
 31
0.0
  0
ENDBLK
  5
8C
330
8A
100
AcDbEntity
  8
0
100
AcDbBlockEnd
  0
BLOCK
  5
8E
330
8D
100
AcDbEntity
  8
0
100
AcDbBlockBegin
  2
EX_NONE
 70
     0
 10
0.0
 20
0.0
 30
0.0
  3
EX_NONE
  1

  0
LINE
  5
B9
330
8D
100
AcDbEntity
  8
0
  6
CONTINUOUS
 62
     0
100
AcDbLine
 10
0.0
 20
0.0
 30
0.0
 11
-1.0
 21
0.0
 31
0.0
  0
ENDBLK
  5
8F
330
8D
100
AcDbEntity
  8
0
100
AcDbBlockEnd
  0
BLOCK
  5
91
330
90
100
AcDbEntity
  8
0
100
AcDbBlockBegin
  2
EX_CIVIL
 70
     0
 10
0.0
 20
0.0
 30
0.0
  3
EX_CIVIL
  1

  0
LINE
  5
BA
330
90
100
AcDbEntity
  8
0
  6
CONTINUOUS
 62
     0
100
AcDbLine
 10
0.0
 20
0.0
 30
0.0
 11
-1.0
 21
0.0
 31
0.0
  0
LINE
  5
BB
330
90
100
AcDbEntity
  8
0
  6
CONTINUOUS
 62
     0
100
AcDbLine
 10
-1.0
 20
0.25
 30
0.0
 11
0.0
 21
0.25
 31
0.0
  0
LINE
  5
BC
330
90
100
AcDbEntity
  8
0
  6
CONTINUOUS
 62
     0
100
AcDbLine
 10
-1.0
 20
0.125
 30
0.0
 11
0.0
 21
0.125
 31
0.0
  0
ENDBLK
  5
92
330
90
100
AcDbEntity
  8
0
100
AcDbBlockEnd
  0
BLOCK
  5
94
330
93
100
AcDbEntity
  8
0
100
AcDbBlockBegin
  2
EX_WCIR
 70
     0
 10
0.0
 20
0.0
 30
0.0
  3
EX_WCIR
  1

  0
LINE
  5
BD
330
93
100
AcDbEntity
  8
0
  6
CONTINUOUS
 62
     0
100
AcDbLine
 10
0.0
 20
0.0
 30
0.0
 11
-1.0
 21
0.0
 31
0.0
  0
CIRCLE
  5
BE
330
93
100
AcDbEntity
  8
0
  6
CONTINUOUS
 62
     0
100
AcDbCircle
 10
0.0
 20
0.0
 30
0.0
 40
0.5
  0
ENDBLK
  5
95
330
93
100
AcDbEntity
  8
0
100
AcDbBlockEnd
  0
BLOCK
  5
97
330
96
100
AcDbEntity
  8
0
100
AcDbBlockBegin
  2
EX_WCIR2
 70
     0
 10
0.0
 20
0.0
 30
0.0
  3
EX_WCIR2
  1

  0
LINE
  5
BF
330
96
100
AcDbEntity
  8
0
  6
CONTINUOUS
 62
     0
100
AcDbLine
 10
-0.5
 20
0.0
 30
0.0
 11
-1.0
 21
0.0
 31
0.0
  0
CIRCLE
  5
C0
330
96
100
AcDbEntity
  8
0
  6
CONTINUOUS
 62
     0
100
AcDbCircle
 10
0.0
 20
0.0
 30
0.0
 40
0.5
  0
ENDBLK
  5
98
330
96
100
AcDbEntity
  8
0
100
AcDbBlockEnd
  0
BLOCK
  5
9A
330
99
100
AcDbEntity
  8
0
100
AcDbBlockBegin
  2
EX_WNORM
 70
     0
 10
0.0
 20
0.0
 30
0.0
  3
EX_WNORM
  1

  0
LINE
  5
C1
330
99
100
AcDbEntity
  8
0
  6
CONTINUOUS
 62
     0
100
AcDbLine
 10
-1.0
 20
0.0
 30
0.0
 11
-1.0
 21
0.0
 31
0.0
  0
LINE
  5
C2
330
99
100
AcDbEntity
  8
0
  6
CONTINUOUS
 62
     0
100
AcDbLine
 10
0.0
 20
0.0
 30
0.0
 11
-1.0
 21
0.166666667
 31
0.0
  0
LINE
  5
C3
330
99
100
AcDbEntity
  8
0
  6
CONTINUOUS
 62
     0
100
AcDbLine
 10
0.0
 20
0.0
 30
0.0
 11
-1.0
 21
-0.166666667
 31
0.0
  0
LINE
  5
C4
330
99
100
AcDbEntity
  8
0
  6
CONTINUOUS
 62
     0
100
AcDbLine
 10
-1.0
 20
0.166666667
 30
0.0
 11
-1.0
 21
-0.166666667
 31
0.0
  0
ENDBLK
  5
9B
330
99
100
AcDbEntity
  8
0
100
AcDbBlockEnd
  0
BLOCK
  5
9D
330
9C
100
AcDbEntity
  8
0
100
AcDbBlockBegin
  2
EX_NNORM
 70
     0
 10
0.0
 20
0.0
 30
0.0
  3
EX_NNORM
  1

  0
LINE
  5
C5
330
9C
100
AcDbEntity
  8
0
  6
CONTINUOUS
 62
     0
100
AcDbLine
 10
0.0
 20
0.0
 30
0.0
 11
-1.0
 21
0.0
 31
0.0
  0
LINE
  5
C6
330
9C
100
AcDbEntity
  8
0
  6
CONTINUOUS
 62
     0
100
AcDbLine
 10
0.0
 20
0.0
 30
0.0
 11
-1.0
 21
0.166666667
 31
0.0
  0
LINE
  5
C7
330
9C
100
AcDbEntity
  8
0
  6
CONTINUOUS
 62
     0
100
AcDbLine
 10
0.0
 20
0.0
 30
0.0
 11
-1.0
 21
-0.166666667
 31
0.0
  0
LINE
  5
C8
330
9C
100
AcDbEntity
  8
0
  6
CONTINUOUS
 62
     0
100
AcDbLine
 10
-1.0
 20
0.166666667
 30
0.0
 11
-1.0
 21
-0.166666667
 31
0.0
  0
ENDBLK
  5
9E
330
9C
100
AcDbEntity
  8
0
100
AcDbBlockEnd
  0
BLOCK
  5
A0
330
9F
100
AcDbEntity
  8
0
100
AcDbBlockBegin
  2
EX_BBOX
 70
     0
 10
0.0
 20
0.0
 30
0.0
  3
EX_BBOX
  1

  0
LINE
  5
C9
330
9F
100
AcDbEntity
  8
0
  6
CONTINUOUS
 62
     0
100
AcDbLine
 10
0.0
 20
0.0
 30
0.0
 11
-1.0
 21
0.0
 31
0.0
  0
LINE
  5
CA
330
9F
100
AcDbEntity
  8
0
  6
CONTINUOUS
 62
     0
100
AcDbLine
 10
-0.5
 20
0.5
 30
0.0
 11
0.5
 21
0.5
 31
0.0
  0
LINE
  5
CB
330
9F
100
AcDbEntity
  8
0
  6
CONTINUOUS
 62
     0
100
AcDbLine
 10
0.5
 20
0.5
 30
0.0
 11
0.5
 21
-0.5
 31
0.0
  0
LINE
  5
CC
330
9F
100
AcDbEntity
  8
0
  6
CONTINUOUS
 62
     0
100
AcDbLine
 10
0.5
 20
-0.5
 30
0.0
 11
-0.5
 21
-0.5
 31
0.0
  0
LINE
  5
CD
330
9F
100
AcDbEntity
  8
0
  6
CONTINUOUS
 62
     0
100
AcDbLine
 10
-0.5
 20
-0.5
 30
0.0
 11
-0.5
 21
0.5
 31
0.0
  0
LINE
  5
CE
330
9F
100
AcDbEntity
  8
0
  6
CONTINUOUS
 62
     0
100
AcDbLine
 10
-0.25
 20
0.25
 30
0.0
 11
0.25
 21
0.25
 31
0.0
  0
LINE
  5
CF
330
9F
100
AcDbEntity
  8
0
  6
CONTINUOUS
 62
     0
100
AcDbLine
 10
0.25
 20
0.25
 30
0.0
 11
0.25
 21
-0.25
 31
0.0
  0
LINE
  5
D0
330
9F
100
AcDbEntity
  8
0
  6
CONTINUOUS
 62
     0
100
AcDbLine
 10
0.25
 20
-0.25
 30
0.0
 11
-0.25
 21
-0.25
 31
0.0
  0
LINE
  5
D1
330
9F
100
AcDbEntity
  8
0
  6
CONTINUOUS
 62
     0
100
AcDbLine
 10
-0.25
 20
-0.25
 30
0.0
 11
-0.25
 21
0.25
 31
0.0
  0
ENDBLK
  5
A1
330
9F
100
AcDbEntity
  8
0
100
AcDbBlockEnd
  0
BLOCK
  5
A3
330
A2
100
AcDbEntity
  8
0
100
AcDbBlockBegin
  2
EX_WBOX
 70
     0
 10
0.0
 20
0.0
 30
0.0
  3
EX_WBOX
  1

  0
LINE
  5
D2
330
A2
100
AcDbEntity
  8
0
  6
CONTINUOUS
 62
     0
100
AcDbLine
 10
-0.5
 20
0.0
 30
0.0
 11
-1.0
 21
0.0
 31
0.0
  0
LINE
  5
D3
330
A2
100
AcDbEntity
  8
0
  6
CONTINUOUS
 62
     0
100
AcDbLine
 10
-0.5
 20
0.5
 30
0.0
 11
0.5
 21
0.5
 31
0.0
  0
LINE
  5
D4
330
A2
100
AcDbEntity
  8
0
  6
CONTINUOUS
 62
     0
100
AcDbLine
 10
0.5
 20
0.5
 30
0.0
 11
0.5
 21
-0.5
 31
0.0
  0
LINE
  5
D5
330
A2
100
AcDbEntity
  8
0
  6
CONTINUOUS
 62
     0
100
AcDbLine
 10
0.5
 20
-0.5
 30
0.0
 11
-0.5
 21
-0.5
 31
0.0
  0
LINE
  5
D6
330
A2
100
AcDbEntity
  8
0
  6
CONTINUOUS
 62
     0
100
AcDbLine
 10
-0.5
 20
-0.5
 30
0.0
 11
-0.5
 21
0.5
 31
0.0
  0
ENDBLK
  5
A4
330
A2
100
AcDbEntity
  8
0
100
AcDbBlockEnd
  0
BLOCK
  5
A6
330
A5
100
AcDbEntity
  8
0
100
AcDbBlockBegin
  2
EX_INTEGRAL
 70
     0
 10
0.0
 20
0.0
 30
0.0
  3
EX_INTEGRAL
  1

  0
LINE
  5
D7
330
A5
100
AcDbEntity
  8
0
  6
CONTINUOUS
 62
     0
100
AcDbLine
 10
0.0
 20
0.0
 30
0.0
 11
-1.0
 21
0.0
 31
0.0
  0
ARC
  5
D8
330
A5
100
AcDbEntity
  8
0
  6
CONTINUOUS
 62
     0
100
AcDbCircle
 10
0.542115
 20
0.164992
 30
0.0
 40
0.56667
100
AcDbArc
 50
73.07249033629006
 51
196.9275130221199
  0
ARC
  5
D9
330
A5
100
AcDbEntity
  8
0
  6
CONTINUOUS
 62
     0
100
AcDbCircle
 10
-0.542115
 20
-0.164992
 30
0.0
 40
0.56667
100
AcDbArc
 50
253.0724869220464
 51
16.9275130559125
  0
ENDBLK
  5
A7
330
A5
100
AcDbEntity
  8
0
100
AcDbBlockEnd
  0
BLOCK
  5
121
330
120
100
AcDbEntity
  8
0
100
AcDbBlockBegin
  2
*D15
 70
     1
 10
0.0
 20
0.0
 30
0.0
  3
*D15
  1

  0
LINE
  5
123
330
120
100
AcDbEntity
  8
Ｓ_１_１
  6
CONTINUOUS
 62
     2
100
AcDbLine
 10
634.5000000000043
 20
208.000000000002
 30
0.0
 11
533.0
 21
208.000000000002
 31
0.0
  0
LINE
  5
124
330
120
100
AcDbEntity
  8
Ｓ_１_１
  6
CONTINUOUS
 62
     2
100
AcDbLine
 10
634.5000000000043
 20
180.0000000000028
 30
0.0
 11
533.0
 21
180.0000000000028
 31
0.0
  0
LINE
  5
125
330
120
100
AcDbEntity
  8
Ｓ_１_１
  6
CONTINUOUS
 62
     2
100
AcDbLine
 10
540.0
 20
208.000000000002
 30
0.0
 11
540.0
 21
180.0000000000028
 31
0.0
  0
LINE
  5
126
330
120
100
AcDbEntity
  8
Ｓ_１_１
  6
CONTINUOUS
 62
     2
100
AcDbLine
 10
540.0
 20
229.000000000002
 30
0.0
 11
540.0
 21
250.000000000002
 31
0.0
  0
LINE
  5
127
330
120
100
AcDbEntity
  8
Ｓ_１_１
  6
CONTINUOUS
 62
     2
100
AcDbLine
 10
540.0
 20
159.0000000000028
 30
0.0
 11
540.0
 21
138.0000000000028
 31
0.0
  0
INSERT
  5
128
330
120
100
AcDbEntity
  8
Ｓ_１_１
 62
     2
100
AcDbBlockReference
  2
EX_NORM
 10
540.0
 20
208.000000000002
 30
0.0
 41
21.0
 42
21.0
 43
21.0
 50
270.0
  0
INSERT
  5
129
330
120
100
AcDbEntity
  8
Ｓ_１_１
 62
     2
100
AcDbBlockReference
  2
EX_NORM
 10
540.0
 20
180.0000000000028
 30
0.0
 41
21.0
 42
21.0
 43
21.0
 50
90.0
  0
MTEXT
  5
12A
330
120
100
AcDbEntity
  8
Ｓ_１_１
 62
     2
100
AcDbMText
 10
520.75
 20
143.2500000000026
 30
0.0
 40
24.24032763153705
 41
0.0
 71
     5
 72
     1
  1
28
  7
EXCADDIM1
 11
0.0
 21
1.0
 31
0.0
  0
POINT
  5
12B
330
120
100
AcDbEntity
  8
DEFPOINTS
 62
     0
100
AcDbPoint
 10
645.0000000000043
 20
208.000000000002
 30
0.0
  0
POINT
  5
12C
330
120
100
AcDbEntity
  8
DEFPOINTS
 62
     0
100
AcDbPoint
 10
645.0000000000043
 20
180.0000000000028
 30
0.0
  0
POINT
  5
12D
330
120
100
AcDbEntity
  8
DEFPOINTS
 62
     0
100
AcDbPoint
 10
540.0
 20
180.0000000000028
 30
0.0
  0
ENDBLK
  5
122
330
120
100
AcDbEntity
  8
0
100
AcDbBlockEnd
  0
BLOCK
  5
130
330
12F
100
AcDbEntity
  8
0
100
AcDbBlockBegin
  2
*D16
 70
     1
 10
0.0
 20
0.0
 30
0.0
  3
*D16
  1

  0
LINE
  5
132
330
12F
100
AcDbEntity
  8
Ｓ_１_１
  6
CONTINUOUS
 62
     2
100
AcDbLine
 10
634.5
 20
208.0
 30
0.0
 11
533.0
 21
208.0
 31
0.0
  0
LINE
  5
133
330
12F
100
AcDbEntity
  8
Ｓ_１_１
  6
CONTINUOUS
 62
     2
100
AcDbLine
 10
759.70000000001
 20
608.0
 30
0.0
 11
533.0
 21
608.0
 31
0.0
  0
LINE
  5
134
330
12F
100
AcDbEntity
  8
Ｓ_１_１
  6
CONTINUOUS
 62
     2
100
AcDbLine
 10
540.0
 20
229.0
 30
0.0
 11
540.0
 21
587.0
 31
0.0
  0
INSERT
  5
135
330
12F
100
AcDbEntity
  8
Ｓ_１_１
 62
     2
100
AcDbBlockReference
  2
EX_NORM
 10
540.0
 20
208.0
 30
0.0
 41
21.0
 42
21.0
 43
21.0
 50
270.0
  0
INSERT
  5
136
330
12F
100
AcDbEntity
  8
Ｓ_１_１
 62
     2
100
AcDbBlockReference
  2
EX_NORM
 10
540.0
 20
608.0
 30
0.0
 41
21.0
 42
21.0
 43
21.0
 50
90.0
  0
MTEXT
  5
137
330
12F
100
AcDbEntity
  8
Ｓ_１_１
 62
     2
100
AcDbMText
 10
520.75
 20
407.9999999999999
 30
0.0
 40
24.24032763153705
 41
0.0
 71
     5
 72
     1
  1
400
  7
EXCADDIM1
 11
0.0
 21
1.0
 31
0.0
  0
POINT
  5
138
330
12F
100
AcDbEntity
  8
DEFPOINTS
 62
     0
100
AcDbPoint
 10
645.0
 20
208.0
 30
0.0
  0
POINT
  5
139
330
12F
100
AcDbEntity
  8
DEFPOINTS
 62
     0
100
AcDbPoint
 10
770.20000000001
 20
608.0
 30
0.0
  0
POINT
  5
13A
330
12F
100
AcDbEntity
  8
DEFPOINTS
 62
     0
100
AcDbPoint
 10
540.0
 20
608.0
 30
0.0
  0
ENDBLK
  5
131
330
12F
100
AcDbEntity
  8
0
100
AcDbBlockEnd
  0
BLOCK
  5
13D
330
13C
100
AcDbEntity
  8
0
100
AcDbBlockBegin
  2
*D17
 70
     1
 10
0.0
 20
0.0
 30
0.0
  3
*D17
  1

  0
LINE
  5
13F
330
13C
100
AcDbEntity
  8
Ｓ_１_１
  6
CONTINUOUS
 62
     2
100
AcDbLine
 10
759.70000000001
 20
608.0
 30
0.0
 11
533.0
 21
608.0
 31
0.0
  0
LINE
  5
140
330
13C
100
AcDbEntity
  8
Ｓ_１_１
  6
CONTINUOUS
 62
     2
100
AcDbLine
 10
816.5000065984
 20
922.9999670080299
 30
0.0
 11
533.0
 21
922.9999670080299
 31
0.0
  0
LINE
  5
141
330
13C
100
AcDbEntity
  8
Ｓ_１_１
  6
CONTINUOUS
 62
     2
100
AcDbLine
 10
540.0
 20
629.0
 30
0.0
 11
540.0
 21
901.9999670080299
 31
0.0
  0
INSERT
  5
142
330
13C
100
AcDbEntity
  8
Ｓ_１_１
 62
     2
100
AcDbBlockReference
  2
EX_NORM
 10
540.0
 20
608.0
 30
0.0
 41
21.0
 42
21.0
 43
21.0
 50
270.0
  0
INSERT
  5
143
330
13C
100
AcDbEntity
  8
Ｓ_１_１
 62
     2
100
AcDbBlockReference
  2
EX_NORM
 10
540.0
 20
922.9999670080299
 30
0.0
 41
21.0
 42
21.0
 43
21.0
 50
90.0
  0
MTEXT
  5
144
330
13C
100
AcDbEntity
  8
Ｓ_１_１
 62
     2
100
AcDbMText
 10
520.75
 20
765.4999835040148
 30
0.0
 40
24.24032763153705
 41
0.0
 71
     5
 72
     1
  1
315
  7
EXCADDIM1
 11
0.0
 21
1.0
 31
0.0
  0
POINT
  5
145
330
13C
100
AcDbEntity
  8
DEFPOINTS
 62
     0
100
AcDbPoint
 10
770.20000000001
 20
608.0
 30
0.0
  0
POINT
  5
146
330
13C
100
AcDbEntity
  8
DEFPOINTS
 62
     0
100
AcDbPoint
 10
827.0000065984
 20
922.9999670080299
 30
0.0
  0
POINT
  5
147
330
13C
100
AcDbEntity
  8
DEFPOINTS
 62
     0
100
AcDbPoint
 10
540.0
 20
922.9999670080299
 30
0.0
  0
ENDBLK
  5
13E
330
13C
100
AcDbEntity
  8
0
100
AcDbBlockEnd
  0
BLOCK
  5
14A
330
149
100
AcDbEntity
  8
0
100
AcDbBlockBegin
  2
*D18
 70
     1
 10
0.0
 20
0.0
 30
0.0
  3
*D18
  1

  0
LINE
  5
14C
330
149
100
AcDbEntity
  8
Ｓ_１_１
  6
CONTINUOUS
 62
     2
100
AcDbLine
 10
816.5000065984
 20
922.9999670080299
 30
0.0
 11
488.0000000000001
 21
922.9999670080299
 31
0.0
  0
LINE
  5
14D
330
149
100
AcDbEntity
  8
Ｓ_１_１
  6
CONTINUOUS
 62
     2
100
AcDbLine
 10
634.5
 20
180.0
 30
0.0
 11
488.0
 21
180.0
 31
0.0
  0
LINE
  5
14E
330
149
100
AcDbEntity
  8
Ｓ_１_１
  6
CONTINUOUS
 62
     2
100
AcDbLine
 10
495.0000000000001
 20
901.9999670080299
 30
0.0
 11
495.0
 21
201.0
 31
0.0
  0
INSERT
  5
14F
330
149
100
AcDbEntity
  8
Ｓ_１_１
 62
     2
100
AcDbBlockReference
  2
EX_NORM
 10
495.0000000000001
 20
922.9999670080299
 30
0.0
 41
21.0
 42
21.0
 43
21.0
 50
90.0
  0
INSERT
  5
150
330
149
100
AcDbEntity
  8
Ｓ_１_１
 62
     2
100
AcDbBlockReference
  2
EX_NORM
 10
495.0
 20
180.0
 30
0.0
 41
21.0
 42
21.0
 43
21.0
 50
270.0
  0
MTEXT
  5
151
330
149
100
AcDbEntity
  8
Ｓ_１_１
 62
     2
100
AcDbMText
 10
475.7500000000001
 20
551.499983504015
 30
0.0
 40
24.24032763153705
 41
0.0
 71
     5
 72
     1
  1
743
  7
EXCADDIM1
 11
7.650527777236588E-17
 21
1.0
 31
0.0
  0
POINT
  5
152
330
149
100
AcDbEntity
  8
DEFPOINTS
 62
     0
100
AcDbPoint
 10
827.0000065984
 20
922.9999670080299
 30
0.0
  0
POINT
  5
153
330
149
100
AcDbEntity
  8
DEFPOINTS
 62
     0
100
AcDbPoint
 10
645.0
 20
180.0
 30
0.0
  0
POINT
  5
154
330
149
100
AcDbEntity
  8
DEFPOINTS
 62
     0
100
AcDbPoint
 10
495.0
 20
180.0
 30
0.0
  0
ENDBLK
  5
14B
330
149
100
AcDbEntity
  8
0
100
AcDbBlockEnd
  0
BLOCK
  5
157
330
156
100
AcDbEntity
  8
0
100
AcDbBlockBegin
  2
*D19
 70
     1
 10
0.0
 20
0.0
 30
0.0
  3
*D19
  1

  0
LINE
  5
159
330
156
100
AcDbEntity
  8
Ｓ_１_１
  6
CONTINUOUS
 62
     2
100
AcDbLine
 10
619.5
 20
1395.0
 30
0.0
 11
533.0
 21
1395.0
 31
0.0
  0
LINE
  5
15A
330
156
100
AcDbEntity
  8
Ｓ_１_１
  6
CONTINUOUS
 62
     2
100
AcDbLine
 10
664.5
 20
1545.0
 30
0.0
 11
533.0
 21
1545.0
 31
0.0
  0
LINE
  5
15B
330
156
100
AcDbEntity
  8
Ｓ_１_１
  6
CONTINUOUS
 62
     2
100
AcDbLine
 10
540.0
 20
1416.0
 30
0.0
 11
540.0
 21
1524.0
 31
0.0
  0
INSERT
  5
15C
330
156
100
AcDbEntity
  8
Ｓ_１_１
 62
     2
100
AcDbBlockReference
  2
EX_NORM
 10
540.0
 20
1395.0
 30
0.0
 41
21.0
 42
21.0
 43
21.0
 50
270.0
  0
INSERT
  5
15D
330
156
100
AcDbEntity
  8
Ｓ_１_１
 62
     2
100
AcDbBlockReference
  2
EX_NORM
 10
540.0
 20
1545.0
 30
0.0
 41
21.0
 42
21.0
 43
21.0
 50
90.0
  0
MTEXT
  5
15E
330
156
100
AcDbEntity
  8
Ｓ_１_１
 62
     2
100
AcDbMText
 10
520.7500000000001
 20
1470.0
 30
0.0
 40
24.24032763153705
 41
0.0
 71
     5
 72
     1
  1
150
  7
EXCADDIM1
 11
0.0
 21
1.0
 31
0.0
  0
POINT
  5
15F
330
156
100
AcDbEntity
  8
DEFPOINTS
 62
     0
100
AcDbPoint
 10
630.0
 20
1395.0
 30
0.0
  0
POINT
  5
160
330
156
100
AcDbEntity
  8
DEFPOINTS
 62
     0
100
AcDbPoint
 10
675.0
 20
1545.0
 30
0.0
  0
POINT
  5
161
330
156
100
AcDbEntity
  8
DEFPOINTS
 62
     0
100
AcDbPoint
 10
540.0
 20
1545.0
 30
0.0
  0
ENDBLK
  5
158
330
156
100
AcDbEntity
  8
0
100
AcDbBlockEnd
  0
BLOCK
  5
164
330
163
100
AcDbEntity
  8
0
100
AcDbBlockBegin
  2
*D20
 70
     1
 10
0.0
 20
0.0
 30
0.0
  3
*D20
  1

  0
LINE
  5
166
330
163
100
AcDbEntity
  8
Ｓ_１_１
  6
CONTINUOUS
 62
     2
100
AcDbLine
 10
664.5
 20
1545.0
 30
0.0
 11
533.0
 21
1545.0
 31
0.0
  0
LINE
  5
167
330
163
100
AcDbEntity
  8
Ｓ_１_１
  6
CONTINUOUS
 62
     2
100
AcDbLine
 10
664.5
 20
1645.0
 30
0.0
 11
533.0
 21
1645.0
 31
0.0
  0
LINE
  5
168
330
163
100
AcDbEntity
  8
Ｓ_１_１
  6
CONTINUOUS
 62
     2
100
AcDbLine
 10
540.0
 20
1566.0
 30
0.0
 11
540.0
 21
1624.0
 31
0.0
  0
INSERT
  5
169
330
163
100
AcDbEntity
  8
Ｓ_１_１
 62
     2
100
AcDbBlockReference
  2
EX_NORM
 10
540.0
 20
1545.0
 30
0.0
 41
21.0
 42
21.0
 43
21.0
 50
270.0
  0
INSERT
  5
16A
330
163
100
AcDbEntity
  8
Ｓ_１_１
 62
     2
100
AcDbBlockReference
  2
EX_NORM
 10
540.0
 20
1645.0
 30
0.0
 41
21.0
 42
21.0
 43
21.0
 50
90.0
  0
MTEXT
  5
16B
330
163
100
AcDbEntity
  8
Ｓ_１_１
 62
     2
100
AcDbMText
 10
520.7500000000001
 20
1595.0
 30
0.0
 40
24.24032763153705
 41
0.0
 71
     5
 72
     1
  1
100
  7
EXCADDIM1
 11
0.0
 21
1.0
 31
0.0
  0
POINT
  5
16C
330
163
100
AcDbEntity
  8
DEFPOINTS
 62
     0
100
AcDbPoint
 10
675.0
 20
1545.0
 30
0.0
  0
POINT
  5
16D
330
163
100
AcDbEntity
  8
DEFPOINTS
 62
     0
100
AcDbPoint
 10
675.0
 20
1645.0
 30
0.0
  0
POINT
  5
16E
330
163
100
AcDbEntity
  8
DEFPOINTS
 62
     0
100
AcDbPoint
 10
540.0
 20
1645.0
 30
0.0
  0
ENDBLK
  5
165
330
163
100
AcDbEntity
  8
0
100
AcDbBlockEnd
  0
BLOCK
  5
171
330
170
100
AcDbEntity
  8
0
100
AcDbBlockBegin
  2
*D21
 70
     1
 10
0.0
 20
0.0
 30
0.0
  3
*D21
  1

  0
LINE
  5
173
330
170
100
AcDbEntity
  8
Ｓ_１_１
  6
CONTINUOUS
 62
     2
100
AcDbLine
 10
619.5
 20
1395.0
 30
0.0
 11
533.0
 21
1395.0
 31
0.0
  0
LINE
  5
174
330
170
100
AcDbEntity
  8
Ｓ_１_１
  6
CONTINUOUS
 62
     2
100
AcDbLine
 10
664.5
 20
1245.0
 30
0.0
 11
533.0
 21
1245.0
 31
0.0
  0
LINE
  5
175
330
170
100
AcDbEntity
  8
Ｓ_１_１
  6
CONTINUOUS
 62
     2
100
AcDbLine
 10
540.0
 20
1374.0
 30
0.0
 11
540.0
 21
1266.0
 31
0.0
  0
INSERT
  5
176
330
170
100
AcDbEntity
  8
Ｓ_１_１
 62
     2
100
AcDbBlockReference
  2
EX_NORM
 10
540.0
 20
1395.0
 30
0.0
 41
21.0
 42
21.0
 43
21.0
 50
90.0
  0
INSERT
  5
177
330
170
100
AcDbEntity
  8
Ｓ_１_１
 62
     2
100
AcDbBlockReference
  2
EX_NORM
 10
540.0
 20
1245.0
 30
0.0
 41
21.0
 42
21.0
 43
21.0
 50
270.0
  0
MTEXT
  5
178
330
170
100
AcDbEntity
  8
Ｓ_１_１
 62
     2
100
AcDbMText
 10
520.7500000000001
 20
1320.0
 30
0.0
 40
24.24032763153705
 41
0.0
 71
     5
 72
     1
  1
150
  7
EXCADDIM1
 11
0.0
 21
1.0
 31
0.0
  0
POINT
  5
179
330
170
100
AcDbEntity
  8
DEFPOINTS
 62
     0
100
AcDbPoint
 10
630.0
 20
1395.0
 30
0.0
  0
POINT
  5
17A
330
170
100
AcDbEntity
  8
DEFPOINTS
 62
     0
100
AcDbPoint
 10
675.0
 20
1245.0
 30
0.0
  0
POINT
  5
17B
330
170
100
AcDbEntity
  8
DEFPOINTS
 62
     0
100
AcDbPoint
 10
540.0
 20
1245.0
 30
0.0
  0
ENDBLK
  5
172
330
170
100
AcDbEntity
  8
0
100
AcDbBlockEnd
  0
BLOCK
  5
17E
330
17D
100
AcDbEntity
  8
0
100
AcDbBlockBegin
  2
*D22
 70
     1
 10
0.0
 20
0.0
 30
0.0
  3
*D22
  1

  0
LINE
  5
180
330
17D
100
AcDbEntity
  8
Ｓ_１_１
  6
CONTINUOUS
 62
     2
100
AcDbLine
 10
664.5
 20
1245.0
 30
0.0
 11
533.0
 21
1245.0
 31
0.0
  0
LINE
  5
181
330
17D
100
AcDbEntity
  8
Ｓ_１_１
  6
CONTINUOUS
 62
     2
100
AcDbLine
 10
664.5
 20
1145.0
 30
0.0
 11
533.0
 21
1145.0
 31
0.0
  0
LINE
  5
182
330
17D
100
AcDbEntity
  8
Ｓ_１_１
  6
CONTINUOUS
 62
     2
100
AcDbLine
 10
540.0
 20
1224.0
 30
0.0
 11
540.0
 21
1166.0
 31
0.0
  0
INSERT
  5
183
330
17D
100
AcDbEntity
  8
Ｓ_１_１
 62
     2
100
AcDbBlockReference
  2
EX_NORM
 10
540.0
 20
1245.0
 30
0.0
 41
21.0
 42
21.0
 43
21.0
 50
90.0
  0
INSERT
  5
184
330
17D
100
AcDbEntity
  8
Ｓ_１_１
 62
     2
100
AcDbBlockReference
  2
EX_NORM
 10
540.0
 20
1145.0
 30
0.0
 41
21.0
 42
21.0
 43
21.0
 50
270.0
  0
MTEXT
  5
185
330
17D
100
AcDbEntity
  8
Ｓ_１_１
 62
     2
100
AcDbMText
 10
520.7500000000001
 20
1195.0
 30
0.0
 40
24.24032763153705
 41
0.0
 71
     5
 72
     1
  1
100
  7
EXCADDIM1
 11
0.0
 21
1.0
 31
0.0
  0
POINT
  5
186
330
17D
100
AcDbEntity
  8
DEFPOINTS
 62
     0
100
AcDbPoint
 10
675.0
 20
1245.0
 30
0.0
  0
POINT
  5
187
330
17D
100
AcDbEntity
  8
DEFPOINTS
 62
     0
100
AcDbPoint
 10
675.0
 20
1145.0
 30
0.0
  0
POINT
  5
188
330
17D
100
AcDbEntity
  8
DEFPOINTS
 62
     0
100
AcDbPoint
 10
540.0
 20
1145.0
 30
0.0
  0
ENDBLK
  5
17F
330
17D
100
AcDbEntity
  8
0
100
AcDbBlockEnd
  0
BLOCK
  5
18B
330
18A
100
AcDbEntity
  8
0
100
AcDbBlockBegin
  2
*D23
 70
     1
 10
0.0
 20
0.0
 30
0.0
  3
*D23
  1

  0
LINE
  5
18D
330
18A
100
AcDbEntity
  8
Ｓ_１_１
  6
CONTINUOUS
 62
     2
100
AcDbLine
 10
664.5
 20
1095.0
 30
0.0
 11
487.9999999999999
 21
1095.0
 31
0.0
  0
LINE
  5
18E
330
18A
100
AcDbEntity
  8
Ｓ_１_１
  6
CONTINUOUS
 62
     2
100
AcDbLine
 10
664.5
 20
1695.0
 30
0.0
 11
488.0
 21
1695.0
 31
0.0
  0
LINE
  5
18F
330
18A
100
AcDbEntity
  8
Ｓ_１_１
  6
CONTINUOUS
 62
     2
100
AcDbLine
 10
494.9999999999999
 20
1116.0
 30
0.0
 11
495.0
 21
1674.0
 31
0.0
  0
INSERT
  5
190
330
18A
100
AcDbEntity
  8
Ｓ_１_１
 62
     2
100
AcDbBlockReference
  2
EX_NORM
 10
494.9999999999999
 20
1095.0
 30
0.0
 41
21.0
 42
21.0
 43
21.0
 50
270.0
  0
INSERT
  5
191
330
18A
100
AcDbEntity
  8
Ｓ_１_１
 62
     2
100
AcDbBlockReference
  2
EX_NORM
 10
495.0
 20
1695.0
 30
0.0
 41
21.0
 42
21.0
 43
21.0
 50
90.0
  0
MTEXT
  5
192
330
18A
100
AcDbEntity
  8
Ｓ_１_１
 62
     2
100
AcDbMText
 10
475.7500000000001
 20
1395.0
 30
0.0
 40
24.24032763153705
 41
0.0
 71
     5
 72
     1
  1
600
  7
EXCADDIM1
 11
9.473903143468003E-17
 21
1.0
 31
0.0
  0
POINT
  5
193
330
18A
100
AcDbEntity
  8
DEFPOINTS
 62
     0
100
AcDbPoint
 10
675.0
 20
1095.0
 30
0.0
  0
POINT
  5
194
330
18A
100
AcDbEntity
  8
DEFPOINTS
 62
     0
100
AcDbPoint
 10
675.0
 20
1695.0
 30
0.0
  0
POINT
  5
195
330
18A
100
AcDbEntity
  8
DEFPOINTS
 62
     0
100
AcDbPoint
 10
495.0
 20
1695.0
 30
0.0
  0
ENDBLK
  5
18C
330
18A
100
AcDbEntity
  8
0
100
AcDbBlockEnd
  0
BLOCK
  5
198
330
197
100
AcDbEntity
  8
0
100
AcDbBlockBegin
  2
*D24
 70
     1
 10
0.0
 20
0.0
 30
0.0
  3
*D24
  1

  0
LINE
  5
19A
330
197
100
AcDbEntity
  8
Ｓ_１_１
  6
CONTINUOUS
 62
     2
100
AcDbLine
 10
795.0
 20
1675.5
 30
0.0
 11
795.0
 21
1807.0
 31
0.0
  0
LINE
  5
19B
330
197
100
AcDbEntity
  8
Ｓ_１_１
  6
CONTINUOUS
 62
     2
100
AcDbLine
 10
945.0
 20
1720.5
 30
0.0
 11
945.0
 21
1807.0
 31
0.0
  0
LINE
  5
19C
330
197
100
AcDbEntity
  8
Ｓ_１_１
  6
CONTINUOUS
 62
     2
100
AcDbLine
 10
816.0
 20
1800.0
 30
0.0
 11
924.0
 21
1800.0
 31
0.0
  0
INSERT
  5
19D
330
197
100
AcDbEntity
  8
Ｓ_１_１
 62
     2
100
AcDbBlockReference
  2
EX_NORM
 10
795.0
 20
1800.0
 30
0.0
 41
21.0
 42
21.0
 43
21.0
 50
180.0
  0
INSERT
  5
19E
330
197
100
AcDbEntity
  8
Ｓ_１_１
 62
     2
100
AcDbBlockReference
  2
EX_NORM
 10
945.0
 20
1800.0
 30
0.0
 41
21.0
 42
21.0
 43
21.0
  0
MTEXT
  5
19F
330
197
100
AcDbEntity
  8
Ｓ_１_１
 62
     2
100
AcDbMText
 10
870.0000000000001
 20
1819.25
 30
0.0
 40
24.24032763153705
 41
0.0
 71
     5
 72
     1
  1
150
  7
EXCADDIM1
  0
POINT
  5
1A0
330
197
100
AcDbEntity
  8
DEFPOINTS
 62
     0
100
AcDbPoint
 10
795.0
 20
1665.0
 30
0.0
  0
POINT
  5
1A1
330
197
100
AcDbEntity
  8
DEFPOINTS
 62
     0
100
AcDbPoint
 10
945.0
 20
1710.0
 30
0.0
  0
POINT
  5
1A2
330
197
100
AcDbEntity
  8
DEFPOINTS
 62
     0
100
AcDbPoint
 10
945.0
 20
1800.0
 30
0.0
  0
ENDBLK
  5
199
330
197
100
AcDbEntity
  8
0
100
AcDbBlockEnd
  0
BLOCK
  5
1A5
330
1A4
100
AcDbEntity
  8
0
100
AcDbBlockBegin
  2
*D25
 70
     1
 10
0.0
 20
0.0
 30
0.0
  3
*D25
  1

  0
LINE
  5
1A7
330
1A4
100
AcDbEntity
  8
Ｓ_１_１
  6
CONTINUOUS
 62
     2
100
AcDbLine
 10
945.0
 20
1720.5
 30
0.0
 11
945.0
 21
1807.0
 31
0.0
  0
LINE
  5
1A8
330
1A4
100
AcDbEntity
  8
Ｓ_１_１
  6
CONTINUOUS
 62
     2
100
AcDbLine
 10
1095.0
 20
1675.5
 30
0.0
 11
1095.0
 21
1807.0
 31
0.0
  0
LINE
  5
1A9
330
1A4
100
AcDbEntity
  8
Ｓ_１_１
  6
CONTINUOUS
 62
     2
100
AcDbLine
 10
966.0
 20
1800.0
 30
0.0
 11
1074.0
 21
1800.0
 31
0.0
  0
INSERT
  5
1AA
330
1A4
100
AcDbEntity
  8
Ｓ_１_１
 62
     2
100
AcDbBlockReference
  2
EX_NORM
 10
945.0
 20
1800.0
 30
0.0
 41
21.0
 42
21.0
 43
21.0
 50
180.0
  0
INSERT
  5
1AB
330
1A4
100
AcDbEntity
  8
Ｓ_１_１
 62
     2
100
AcDbBlockReference
  2
EX_NORM
 10
1095.0
 20
1800.0
 30
0.0
 41
21.0
 42
21.0
 43
21.0
  0
MTEXT
  5
1AC
330
1A4
100
AcDbEntity
  8
Ｓ_１_１
 62
     2
100
AcDbMText
 10
1020.0
 20
1819.25
 30
0.0
 40
24.24032763153705
 41
0.0
 71
     5
 72
     1
  1
150
  7
EXCADDIM1
  0
POINT
  5
1AD
330
1A4
100
AcDbEntity
  8
DEFPOINTS
 62
     0
100
AcDbPoint
 10
945.0
 20
1710.0
 30
0.0
  0
POINT
  5
1AE
330
1A4
100
AcDbEntity
  8
DEFPOINTS
 62
     0
100
AcDbPoint
 10
1095.0
 20
1665.0
 30
0.0
  0
POINT
  5
1AF
330
1A4
100
AcDbEntity
  8
DEFPOINTS
 62
     0
100
AcDbPoint
 10
1095.0
 20
1800.0
 30
0.0
  0
ENDBLK
  5
1A6
330
1A4
100
AcDbEntity
  8
0
100
AcDbBlockEnd
  0
BLOCK
  5
1B2
330
1B1
100
AcDbEntity
  8
0
100
AcDbBlockBegin
  2
*D26
 70
     1
 10
0.0
 20
0.0
 30
0.0
  3
*D26
  1

  0
LINE
  5
1B4
330
1B1
100
AcDbEntity
  8
Ｓ_１_１
  6
CONTINUOUS
 62
     2
100
AcDbLine
 10
695.0
 20
1675.5
 30
0.0
 11
695.0
 21
1807.0
 31
0.0
  0
LINE
  5
1B5
330
1B1
100
AcDbEntity
  8
Ｓ_１_１
  6
CONTINUOUS
 62
     2
100
AcDbLine
 10
795.0
 20
1675.5
 30
0.0
 11
795.0
 21
1807.0
 31
0.0
  0
LINE
  5
1B6
330
1B1
100
AcDbEntity
  8
Ｓ_１_１
  6
CONTINUOUS
 62
     2
100
AcDbLine
 10
716.0
 20
1800.0
 30
0.0
 11
774.0
 21
1800.0
 31
0.0
  0
INSERT
  5
1B7
330
1B1
100
AcDbEntity
  8
Ｓ_１_１
 62
     2
100
AcDbBlockReference
  2
EX_NORM
 10
695.0
 20
1800.0
 30
0.0
 41
21.0
 42
21.0
 43
21.0
 50
180.0
  0
INSERT
  5
1B8
330
1B1
100
AcDbEntity
  8
Ｓ_１_１
 62
     2
100
AcDbBlockReference
  2
EX_NORM
 10
795.0
 20
1800.0
 30
0.0
 41
21.0
 42
21.0
 43
21.0
  0
MTEXT
  5
1B9
330
1B1
100
AcDbEntity
  8
Ｓ_１_１
 62
     2
100
AcDbMText
 10
745.0
 20
1819.25
 30
0.0
 40
24.24032763153705
 41
0.0
 71
     5
 72
     1
  1
100
  7
EXCADDIM1
  0
POINT
  5
1BA
330
1B1
100
AcDbEntity
  8
DEFPOINTS
 62
     0
100
AcDbPoint
 10
695.0
 20
1665.0
 30
0.0
  0
POINT
  5
1BB
330
1B1
100
AcDbEntity
  8
DEFPOINTS
 62
     0
100
AcDbPoint
 10
795.0
 20
1665.0
 30
0.0
  0
POINT
  5
1BC
330
1B1
100
AcDbEntity
  8
DEFPOINTS
 62
     0
100
AcDbPoint
 10
795.0
 20
1800.0
 30
0.0
  0
ENDBLK
  5
1B3
330
1B1
100
AcDbEntity
  8
0
100
AcDbBlockEnd
  0
BLOCK
  5
1BF
330
1BE
100
AcDbEntity
  8
0
100
AcDbBlockBegin
  2
*D27
 70
     1
 10
0.0
 20
0.0
 30
0.0
  3
*D27
  1

  0
LINE
  5
1C1
330
1BE
100
AcDbEntity
  8
Ｓ_１_１
  6
CONTINUOUS
 62
     2
100
AcDbLine
 10
1095.0
 20
1675.5
 30
0.0
 11
1095.0
 21
1807.0
 31
0.0
  0
LINE
  5
1C2
330
1BE
100
AcDbEntity
  8
Ｓ_１_１
  6
CONTINUOUS
 62
     2
100
AcDbLine
 10
1195.0
 20
1675.5
 30
0.0
 11
1195.0
 21
1807.0
 31
0.0
  0
LINE
  5
1C3
330
1BE
100
AcDbEntity
  8
Ｓ_１_１
  6
CONTINUOUS
 62
     2
100
AcDbLine
 10
1116.0
 20
1800.0
 30
0.0
 11
1174.0
 21
1800.0
 31
0.0
  0
INSERT
  5
1C4
330
1BE
100
AcDbEntity
  8
Ｓ_１_１
 62
     2
100
AcDbBlockReference
  2
EX_NORM
 10
1095.0
 20
1800.0
 30
0.0
 41
21.0
 42
21.0
 43
21.0
 50
180.0
  0
INSERT
  5
1C5
330
1BE
100
AcDbEntity
  8
Ｓ_１_１
 62
     2
100
AcDbBlockReference
  2
EX_NORM
 10
1195.0
 20
1800.0
 30
0.0
 41
21.0
 42
21.0
 43
21.0
  0
MTEXT
  5
1C6
330
1BE
100
AcDbEntity
  8
Ｓ_１_１
 62
     2
100
AcDbMText
 10
1145.0
 20
1819.25
 30
0.0
 40
24.24032763153705
 41
0.0
 71
     5
 72
     1
  1
100
  7
EXCADDIM1
  0
POINT
  5
1C7
330
1BE
100
AcDbEntity
  8
DEFPOINTS
 62
     0
100
AcDbPoint
 10
1095.0
 20
1665.0
 30
0.0
  0
POINT
  5
1C8
330
1BE
100
AcDbEntity
  8
DEFPOINTS
 62
     0
100
AcDbPoint
 10
1195.0
 20
1665.0
 30
0.0
  0
POINT
  5
1C9
330
1BE
100
AcDbEntity
  8
DEFPOINTS
 62
     0
100
AcDbPoint
 10
1195.0
 20
1800.0
 30
0.0
  0
ENDBLK
  5
1C0
330
1BE
100
AcDbEntity
  8
0
100
AcDbBlockEnd
  0
BLOCK
  5
1CC
330
1CB
100
AcDbEntity
  8
0
100
AcDbBlockBegin
  2
*D28
 70
     1
 10
0.0
 20
0.0
 30
0.0
  3
*D28
  1

  0
LINE
  5
1CE
330
1CB
100
AcDbEntity
  8
Ｓ_１_１
  6
CONTINUOUS
 62
     2
100
AcDbLine
 10
645.0
 20
1675.5
 30
0.0
 11
645.0
 21
1852.0
 31
0.0
  0
LINE
  5
1CF
330
1CB
100
AcDbEntity
  8
Ｓ_１_１
  6
CONTINUOUS
 62
     2
100
AcDbLine
 10
1245.0
 20
1675.5
 30
0.0
 11
1245.0
 21
1852.0
 31
0.0
  0
LINE
  5
1D0
330
1CB
100
AcDbEntity
  8
Ｓ_１_１
  6
CONTINUOUS
 62
     2
100
AcDbLine
 10
666.0
 20
1845.0
 30
0.0
 11
1224.0
 21
1845.0
 31
0.0
  0
INSERT
  5
1D1
330
1CB
100
AcDbEntity
  8
Ｓ_１_１
 62
     2
100
AcDbBlockReference
  2
EX_NORM
 10
645.0
 20
1845.0
 30
0.0
 41
21.0
 42
21.0
 43
21.0
 50
180.0
  0
INSERT
  5
1D2
330
1CB
100
AcDbEntity
  8
Ｓ_１_１
 62
     2
100
AcDbBlockReference
  2
EX_NORM
 10
1245.0
 20
1845.0
 30
0.0
 41
21.0
 42
21.0
 43
21.0
  0
MTEXT
  5
1D3
330
1CB
100
AcDbEntity
  8
Ｓ_１_１
 62
     2
100
AcDbMText
 10
945.0000000000002
 20
1864.25
 30
0.0
 40
24.24032763153705
 41
0.0
 71
     5
 72
     1
  1
600
  7
EXCADDIM1
  0
POINT
  5
1D4
330
1CB
100
AcDbEntity
  8
DEFPOINTS
 62
     0
100
AcDbPoint
 10
645.0
 20
1665.0
 30
0.0
  0
POINT
  5
1D5
330
1CB
100
AcDbEntity
  8
DEFPOINTS
 62
     0
100
AcDbPoint
 10
1245.0
 20
1665.0
 30
0.0
  0
POINT
  5
1D6
330
1CB
100
AcDbEntity
  8
DEFPOINTS
 62
     0
100
AcDbPoint
 10
1245.0
 20
1845.0
 30
0.0
  0
ENDBLK
  5
1CD
330
1CB
100
AcDbEntity
  8
0
100
AcDbBlockEnd
  0
BLOCK
  5
1D9
330
1D8
100
AcDbEntity
  8
0
100
AcDbBlockBegin
  2
*D29
 70
     1
 10
0.0
 20
0.0
 30
0.0
  3
*D29
  1

  0
LINE
  5
1DB
330
1D8
100
AcDbEntity
  8
Ｓ_１_１
  6
CONTINUOUS
 62
     2
100
AcDbLine
 10
825.0000000000007
 20
931.4999604096802
 30
0.0
 11
825.0000000000007
 21
997.0
 31
0.0
  0
LINE
  5
1DC
330
1D8
100
AcDbEntity
  8
Ｓ_１_１
  6
CONTINUOUS
 62
     2
100
AcDbLine
 10
1065.000000000004
 20
931.4999604096802
 30
0.0
 11
1065.000000000004
 21
997.0
 31
0.0
  0
LINE
  5
1DD
330
1D8
100
AcDbEntity
  8
Ｓ_１_１
  6
CONTINUOUS
 62
     2
100
AcDbLine
 10
846.0000000000007
 20
990.0
 30
0.0
 11
1044.000000000004
 21
990.0
 31
0.0
  0
INSERT
  5
1DE
330
1D8
100
AcDbEntity
  8
Ｓ_１_１
 62
     2
100
AcDbBlockReference
  2
EX_NORM
 10
825.0000000000007
 20
990.0
 30
0.0
 41
21.0
 42
21.0
 43
21.0
 50
180.0
  0
INSERT
  5
1DF
330
1D8
100
AcDbEntity
  8
Ｓ_１_１
 62
     2
100
AcDbBlockReference
  2
EX_NORM
 10
1065.000000000004
 20
990.0
 30
0.0
 41
21.0
 42
21.0
 43
21.0
  0
MTEXT
  5
1E0
330
1D8
100
AcDbEntity
  8
Ｓ_１_１
 62
     2
100
AcDbMText
 10
945.0000000000024
 20
1009.25
 30
0.0
 40
24.24032763153705
 41
0.0
 71
     5
 72
     1
  1
%%c240
  7
EXCADDIM1
  0
POINT
  5
1E1
330
1D8
100
AcDbEntity
  8
DEFPOINTS
 62
     0
100
AcDbPoint
 10
825.0000000000007
 20
920.9999604096802
 30
0.0
  0
POINT
  5
1E2
330
1D8
100
AcDbEntity
  8
DEFPOINTS
 62
     0
100
AcDbPoint
 10
1065.000000000004
 20
920.9999604096802
 30
0.0
  0
POINT
  5
1E3
330
1D8
100
AcDbEntity
  8
DEFPOINTS
 62
     0
100
AcDbPoint
 10
1065.000000000004
 20
990.0
 30
0.0
  0
ENDBLK
  5
1DA
330
1D8
100
AcDbEntity
  8
0
100
AcDbBlockEnd
  0
BLOCK
  5
38B
330
38A
100
AcDbEntity
  8
0
100
AcDbBlockBegin
  2
*D30
 70
     1
 10
0.0
 20
0.0
 30
0.0
  3
*D30
  1

  0
LINE
  5
38D
330
38A
100
AcDbEntity
  8
Ｓ_１_１
  6
CONTINUOUS
 62
     2
100
AcDbLine
 10
1557.5684124341
 20
498.4999999999901
 30
0.0
 11
1557.5684124341
 21
682.0
 31
0.0
  0
LINE
  5
38E
330
38A
100
AcDbEntity
  8
Ｓ_１_１
  6
CONTINUOUS
 62
     2
100
AcDbLine
 10
2132.4315875659
 20
498.5
 30
0.0
 11
2132.4315875659
 21
682.0
 31
0.0
  0
LINE
  5
38F
330
38A
100
AcDbEntity
  8
Ｓ_１_１
  6
CONTINUOUS
 62
     2
100
AcDbLine
 10
1578.5684124341
 20
675.0
 30
0.0
 11
2111.4315875659
 21
675.0
 31
0.0
  0
INSERT
  5
390
330
38A
100
AcDbEntity
  8
Ｓ_１_１
 62
     2
100
AcDbBlockReference
  2
EX_NORM
 10
1557.5684124341
 20
675.0
 30
0.0
 41
21.0
 42
21.0
 43
21.0
 50
180.0
  0
INSERT
  5
391
330
38A
100
AcDbEntity
  8
Ｓ_１_１
 62
     2
100
AcDbBlockReference
  2
EX_NORM
 10
2132.4315875659
 20
675.0
 30
0.0
 41
21.0
 42
21.0
 43
21.0
  0
MTEXT
  5
392
330
38A
100
AcDbEntity
  8
Ｓ_１_１
 62
     2
100
AcDbMText
 10
2192.8065875659
 20
694.25
 30
0.0
 40
24.24032763153705
 41
0.0
 71
     5
 72
     1
  1
(575)
  7
EXCADDIM1
  0
POINT
  5
393
330
38A
100
AcDbEntity
  8
DEFPOINTS
 62
     0
100
AcDbPoint
 10
1557.5684124341
 20
487.9999999999901
 30
0.0
  0
POINT
  5
394
330
38A
100
AcDbEntity
  8
DEFPOINTS
 62
     0
100
AcDbPoint
 10
2132.4315875659
 20
488.0
 30
0.0
  0
POINT
  5
395
330
38A
100
AcDbEntity
  8
DEFPOINTS
 62
     0
100
AcDbPoint
 10
2132.4315875659
 20
675.0
 30
0.0
  0
ENDBLK
  5
38C
330
38A
100
AcDbEntity
  8
0
100
AcDbBlockEnd
  0
ENDSEC
  0
SECTION
  2
ENTITIES
  0
LINE
  5
DA
330
1F
100
AcDbEntity
  8
図面枠
  6
CONTINUOUS
 62
     5
100
AcDbLine
 10
70.0
 20
70.0
 30
0.0
 11
2870.0
 21
70.0
 31
0.0
  0
LINE
  5
DB
330
1F
100
AcDbEntity
  8
図面枠
  6
CONTINUOUS
 62
     5
100
AcDbLine
 10
2870.0
 20
70.0
 30
0.0
 11
2870.0
 21
2009.0
 31
0.0
  0
LINE
  5
DC
330
1F
100
AcDbEntity
  8
図面枠
  6
CONTINUOUS
 62
     5
100
AcDbLine
 10
2870.0
 20
2009.0
 30
0.0
 11
70.00000000000037
 21
2009.0
 31
0.0
  0
LINE
  5
DD
330
1F
100
AcDbEntity
  8
図面枠
  6
CONTINUOUS
 62
     5
100
AcDbLine
 10
70.00000000000037
 20
2009.0
 30
0.0
 11
70.0
 21
70.0
 31
0.0
  0
LINE
  5
DE
330
1F
100
AcDbEntity
  8
図面枠
  6
CONTINUOUS
 62
     3
100
AcDbLine
 10
2835.0
 20
168.0
 30
0.0
 11
2835.0
 21
105.0
 31
0.0
  0
LINE
  5
DF
330
1F
100
AcDbEntity
  8
図面枠
  6
CONTINUOUS
 62
     3
100
AcDbLine
 10
105.0000000000001
 20
1974.0
 30
0.0
 11
105.0000000000001
 21
1911.0
 31
0.0
  0
TEXT
  5
E1
330
1F
100
AcDbEntity
  8
図面枠
  6
CONTINUOUS
 62
     4
100
AcDbText
 10
2709.0
 20
1899.679688185453
 30
0.0
 40
24.24032763153705
  1
kN
 41
0.9992308297349457
  7
EXCADTTF1
 72
     5
 11
2740.5
 21
1899.679688185453
 31
0.0
100
AcDbText
  0
TEXT
  5
E2
330
1F
100
AcDbEntity
  8
図面枠
  6
CONTINUOUS
 62
     4
100
AcDbText
 10
2289.0
 20
1899.679688185453
 30
0.0
 40
24.24032763153705
  1
能力
 41
0.9992308297349457
  7
EXCADTTF1
 72
     5
 11
2352.0
 21
1899.679688185453
 31
0.0
100
AcDbText
  0
TEXT
  5
E3
330
1F
100
AcDbEntity
  8
図面枠
  6
CONTINUOUS
 62
     4
100
AcDbText
 10
2476.25
 20
1941.679688185453
 30
0.0
 40
24.24032763153705
  1
仕　　　様
 41
0.9992308297349457
  7
EXCADTTF1
 72
     5
 11
2633.75
 21
1941.679688185453
 31
0.0
100
AcDbText
  0
LINE
  5
E4
330
1F
100
AcDbEntity
  8
図面枠
  6
CONTINUOUS
 62
     3
100
AcDbLine
 10
2275.0
 20
1974.0
 30
0.0
 11
2835.0
 21
1974.0
 31
0.0
  0
LINE
  5
E5
330
1F
100
AcDbEntity
  8
図面枠
  6
CONTINUOUS
 62
     3
100
AcDbLine
 10
2275.0
 20
1932.0
 30
0.0
 11
2835.0
 21
1932.0
 31
0.0
  0
TEXT
  5
E6
330
1F
100
AcDbEntity
  8
図面枠
  6
CONTINUOUS
 62
     4
100
AcDbText
 10
2709.0
 20
1857.679688185453
 30
0.0
 40
24.24032763153705
  1
mm
 41
0.9992308297349457
  7
EXCADTTF1
 72
     5
 11
2740.5
 21
1857.679688185453
 31
0.0
100
AcDbText
  0
TEXT
  5
E7
330
1F
100
AcDbEntity
  8
図面枠
  6
CONTINUOUS
 62
     4
100
AcDbText
 10
2709.0
 20
1815.679688185453
 30
0.0
 40
24.24032763153705
  1
mm
 41
0.9992308297349457
  7
EXCADTTF1
 72
     5
 11
2740.5
 21
1815.679688185453
 31
0.0
100
AcDbText
  0
TEXT
  5
E8
330
1F
100
AcDbEntity
  8
図面枠
  6
CONTINUOUS
 62
     4
100
AcDbText
 10
2709.0
 20
1773.679688185453
 30
0.0
 40
24.24032763153705
  1
mm
 41
0.9992308297349457
  7
EXCADTTF1
 72
     5
 11
2740.5
 21
1773.679688185453
 31
0.0
100
AcDbText
  0
TEXT
  5
E9
330
1F
100
AcDbEntity
  8
図面枠
  6
CONTINUOUS
 62
     4
100
AcDbText
 10
2289.0
 20
1857.679688185453
 30
0.0
 40
24.24032763153705
  1
ストローク
 41
0.9992308297349457
  7
EXCADTTF1
 72
     5
 11
2446.5
 21
1857.679688185453
 31
0.0
100
AcDbText
  0
TEXT
  5
EA
330
1F
100
AcDbEntity
  8
図面枠
  6
CONTINUOUS
 62
     4
100
AcDbText
 10
2289.0
 20
1815.679688185453
 30
0.0
 40
24.24032763153705
  1
最低機械高
 41
0.9992308297349457
  7
EXCADTTF1
 72
     5
 11
2446.5
 21
1815.679688185453
 31
0.0
100
AcDbText
  0
TEXT
  5
EB
330
1F
100
AcDbEntity
  8
図面枠
  6
CONTINUOUS
 62
     4
100
AcDbText
 10
2289.0
 20
1773.679688185453
 30
0.0
 40
24.24032763153705
  1
シリンダー外径
 41
0.9992308297349456
  7
EXCADTTF1
 72
     5
 11
2509.5
 21
1773.679688185453
 31
0.0
100
AcDbText
  0
LINE
  5
EC
330
1F
100
AcDbEntity
  8
図面枠
  6
CONTINUOUS
 62
     2
100
AcDbLine
 10
2275.0
 20
1890.0
 30
0.0
 11
2835.0
 21
1890.0
 31
0.0
  0
LINE
  5
ED
330
1F
100
AcDbEntity
  8
図面枠
  6
CONTINUOUS
 62
     2
100
AcDbLine
 10
2275.0
 20
1848.0
 30
0.0
 11
2835.0
 21
1848.0
 31
0.0
  0
LINE
  5
EE
330
1F
100
AcDbEntity
  8
図面枠
  6
CONTINUOUS
 62
     2
100
AcDbLine
 10
2275.0
 20
1806.0
 30
0.0
 11
2835.0
 21
1806.0
 31
0.0
  0
LINE
  5
EF
330
1F
100
AcDbEntity
  8
図面枠
  6
CONTINUOUS
 62
     2
100
AcDbLine
 10
2275.0
 20
1764.0
 30
0.0
 11
2835.0
 21
1764.0
 31
0.0
  0
TEXT
  5
F0
330
1F
100
AcDbEntity
  8
図面枠
  6
CONTINUOUS
 62
     4
100
AcDbText
 10
2709.0
 20
1731.679687231779
 30
0.0
 40
24.24032763153705
  1
cm
 41
0.9992308297349457
  7
EXCADTTF1
 72
     5
 11
2740.5
 21
1731.679687231779
 31
0.0
100
AcDbText
  0
TEXT
  5
F1
330
1F
100
AcDbEntity
  8
図面枠
  6
CONTINUOUS
 62
     4
100
AcDbText
 10
2731.050000000001
 20
1746.56835950911
 30
0.0
 40
10.90814677369512
  1
2
 41
0.9992308902391421
  7
EXCADTTF1
 72
     5
 11
2738.137500000001
 21
1746.56835950911
 31
0.0
100
AcDbText
  0
TEXT
  5
F2
330
1F
100
AcDbEntity
  8
図面枠
  6
CONTINUOUS
 62
     4
100
AcDbText
 10
2618.0
 20
1899.679688185453
 30
0.0
 40
24.24032763153705
  1
2000
 41
0.9992308297349457
  7
EXCADTTF1
 72
     5
 11
2681.0
 21
1899.679688185453
 31
0.0
100
AcDbText
  0
LINE
  5
F3
330
1F
100
AcDbEntity
  8
図面枠
  6
CONTINUOUS
 62
     3
100
AcDbLine
 10
1358.0
 20
1974.0
 30
0.0
 11
1358.0
 21
1911.0
 31
0.0
  0
LINE
  5
F4
330
1F
100
AcDbEntity
  8
図面枠
  6
CONTINUOUS
 62
     3
100
AcDbLine
 10
105.0000000000001
 20
1974.0
 30
0.0
 11
1358.0
 21
1974.0
 31
0.0
  0
LINE
  5
F5
330
1F
100
AcDbEntity
  8
図面枠
  6
CONTINUOUS
 62
     3
100
AcDbLine
 10
105.0000000000001
 20
1911.0
 30
0.0
 11
1358.0
 21
1911.0
 31
0.0
  0
TEXT
  5
F6
330
1F
100
AcDbEntity
  8
図面枠
  6
CONTINUOUS
 62
     4
100
AcDbText
 10
133.0
 20
1927.40625
 30
0.0
 40
32.32043879907621
  1
2000kN400ストローク仮受け用油圧ジャッキ　球面回転ヘッド型
 41
0.999230769230769
  7
EXCADTTF1
 72
     5
 11
1330.0
 21
1927.40625
 31
0.0
100
AcDbText
  0
TEXT
  5
F7
330
1F
100
AcDbEntity
  8
図面枠
  6
CONTINUOUS
 62
     4
100
AcDbText
 10
2633.75
 20
1857.679688185453
 30
0.0
 40
24.24032763153705
  1
400
 41
0.9992308297349456
  7
EXCADTTF1
 72
     5
 11
2681.0
 21
1857.679688185453
 31
0.0
100
AcDbText
  0
TEXT
  5
F8
330
1F
100
AcDbEntity
  8
図面枠
  6
CONTINUOUS
 62
     4
100
AcDbText
 10
2633.75
 20
1815.679688185453
 30
0.0
 40
24.24032763153705
  1
743
 41
0.9992308297349456
  7
EXCADTTF1
 72
     5
 11
2681.0
 21
1815.679688185453
 31
0.0
100
AcDbText
  0
TEXT
  5
F9
330
1F
100
AcDbEntity
  8
図面枠
  6
CONTINUOUS
 62
     4
100
AcDbText
 10
2633.75
 20
1773.679688185453
 30
0.0
 40
24.24032763153705
  1
305
 41
0.9992308297349456
  7
EXCADTTF1
 72
     5
 11
2681.0
 21
1773.679688185453
 31
0.0
100
AcDbText
  0
TEXT
  5
FA
330
1F
100
AcDbEntity
  8
図面枠
  6
CONTINUOUS
 62
     4
100
AcDbText
 10
2709.0
 20
1689.679688185453
 30
0.0
 40
24.24032763153705
  1
MPa
 41
0.9992308297349456
  7
EXCADTTF1
 72
     5
 11
2756.25
 21
1689.679688185453
 31
0.0
100
AcDbText
  0
TEXT
  5
FB
330
1F
100
AcDbEntity
  8
図面枠
  6
CONTINUOUS
 62
     4
100
AcDbText
 10
2289.0
 20
1731.679688185453
 30
0.0
 40
24.24032763153705
  1
受圧面積
 41
0.9992308297349457
  7
EXCADTTF1
 72
     5
 11
2415.0
 21
1731.679688185453
 31
0.0
100
AcDbText
  0
TEXT
  5
FC
330
1F
100
AcDbEntity
  8
図面枠
  6
CONTINUOUS
 62
     4
100
AcDbText
 10
2289.0
 20
1689.679688185453
 30
0.0
 40
24.24032763153705
  1
最高使用圧力
 41
0.9992308297349456
  7
EXCADTTF1
 72
     5
 11
2478.0
 21
1689.679688185453
 31
0.0
100
AcDbText
  0
LINE
  5
FD
330
1F
100
AcDbEntity
  8
図面枠
  6
CONTINUOUS
 62
     2
100
AcDbLine
 10
2275.0
 20
1722.0
 30
0.0
 11
2835.0
 21
1722.0
 31
0.0
  0
TEXT
  5
FE
330
1F
100
AcDbEntity
  8
図面枠
  6
CONTINUOUS
 62
     4
100
AcDbText
 10
2709.0
 20
1605.679688185453
 30
0.0
 40
24.24032763153705
  1
kg
 41
0.9992308297349457
  7
EXCADTTF1
 72
     5
 11
2740.5
 21
1605.679688185453
 31
0.0
100
AcDbText
  0
TEXT
  5
FF
330
1F
100
AcDbEntity
  8
図面枠
  6
CONTINUOUS
 62
     4
100
AcDbText
 10
2289.0
 20
1647.679688185453
 30
0.0
 40
24.24032763153705
  1
所要油量
 41
0.9992308297349457
  7
EXCADTTF1
 72
     5
 11
2415.0
 21
1647.679688185453
 31
0.0
100
AcDbText
  0
LINE
  5
100
330
1F
100
AcDbEntity
  8
図面枠
  6
CONTINUOUS
 62
     2
100
AcDbLine
 10
2275.0
 20
1680.0
 30
0.0
 11
2835.0
 21
1680.0
 31
0.0
  0
LINE
  5
101
330
1F
100
AcDbEntity
  8
図面枠
  6
CONTINUOUS
 62
     2
100
AcDbLine
 10
2275.0
 20
1638.0
 30
0.0
 11
2835.0
 21
1638.0
 31
0.0
  0
TEXT
  5
102
330
1F
100
AcDbEntity
  8
図面枠
  6
CONTINUOUS
 62
     4
100
AcDbText
 10
2289.0
 20
1605.679688185453
 30
0.0
 40
24.24032763153705
  1
重量
 41
0.9992308297349457
  7
EXCADTTF1
 72
     5
 11
2352.0
 21
1605.679688185453
 31
0.0
100
AcDbText
  0
TEXT
  5
103
330
1F
100
AcDbEntity
  8
図面枠
  6
CONTINUOUS
 62
     4
100
AcDbText
 10
2289.0
 20
1563.679687231779
 30
0.0
 40
24.24032763153705
  1
ユニバーサル
 41
0.9992308297349456
  7
EXCADTTF1
 72
     5
 11
2478.0
 21
1563.679687231779
 31
0.0
100
AcDbText
  0
TEXT
  5
104
330
1F
100
AcDbEntity
  8
図面枠
  6
CONTINUOUS
 62
     4
100
AcDbText
 10
2289.0
 20
1532.179689139128
 30
0.0
 40
24.24032763153705
  1
振り角
 41
0.9992308297349456
  7
EXCADTTF1
 72
     5
 11
2383.5
 21
1532.179689139128
 31
0.0
100
AcDbText
  0
TEXT
  5
105
330
1F
100
AcDbEntity
  8
図面枠
  6
CONTINUOUS
 62
     4
100
AcDbText
 10
2633.75
 20
1563.679688185453
 30
0.0
 40
24.24032763153705
  1
±3
 41
0.9992308297349456
  7
EXCADTTF1
 72
     5
 11
2681.0
 21
1563.679688185453
 31
0.0
100
AcDbText
  0
TEXT
  5
106
330
1F
100
AcDbEntity
  8
図面枠
  6
CONTINUOUS
 62
     4
100
AcDbText
 10
2709.0
 20
1563.679688185453
 30
0.0
 40
24.24032763153705
  1
°
 41
0.9992308297349457
  7
EXCADTTF1
 72
     5
 11
2740.5
 21
1563.679688185453
 31
0.0
100
AcDbText
  0
TEXT
  5
107
330
1F
100
AcDbEntity
  8
図面枠
  6
CONTINUOUS
 62
     4
100
AcDbText
 10
2709.0
 20
1521.679688185453
 30
0.0
 40
24.24032763153705
  1
%%%
 41
0.9992308297349457
  7
EXCADTTF1
 72
     5
 11
2724.75
 21
1521.679688185453
 31
0.0
100
AcDbText
  0
TEXT
  5
108
330
1F
100
AcDbEntity
  8
図面枠
  6
CONTINUOUS
 62
     4
100
AcDbText
 10
2633.75
 20
1521.679688185453
 30
0.0
 40
24.24032763153705
  1
±5
 41
0.9992308297349456
  7
EXCADTTF1
 72
     5
 11
2681.0
 21
1521.679688185453
 31
0.0
100
AcDbText
  0
LINE
  5
109
330
1F
100
AcDbEntity
  8
図面枠
  6
CONTINUOUS
 62
     2
100
AcDbLine
 10
2555.0
 20
1554.0
 30
0.0
 11
2835.0
 21
1554.0
 31
0.0
  0
LINE
  5
10A
330
1F
100
AcDbEntity
  8
図面枠
  6
CONTINUOUS
 62
     3
100
AcDbLine
 10
2275.0
 20
1512.0
 30
0.0
 11
2835.0
 21
1512.0
 31
0.0
  0
LINE
  5
10B
330
1F
100
AcDbEntity
  8
図面枠
  6
CONTINUOUS
 62
     2
100
AcDbLine
 10
2275.0
 20
1596.0
 30
0.0
 11
2835.0
 21
1596.0
 31
0.0
  0
TEXT
  5
10C
330
1F
100
AcDbEntity
  8
図面枠
  6
CONTINUOUS
 62
     4
100
AcDbText
 10
2709.0
 20
1647.679688185453
 30
0.0
 40
24.24032763153705
  1
L
 41
0.9992308297349457
  7
EXCADTTF1
 72
     5
 11
2724.75
 21
1647.679688185453
 31
0.0
100
AcDbText
  0
TEXT
  5
10D
330
1F
100
AcDbEntity
  8
図面枠
  6
CONTINUOUS
 62
     4
100
AcDbText
 10
2602.25
 20
1731.679688185453
 30
0.0
 40
24.24032763153705
  1
309.3
 41
0.9992308297349457
  7
EXCADTTF1
 72
     5
 11
2681.0
 21
1731.679688185453
 31
0.0
100
AcDbText
  0
TEXT
  5
10E
330
1F
100
AcDbEntity
  8
図面枠
  6
CONTINUOUS
 62
     4
100
AcDbText
 10
2618.0
 20
1689.679688185453
 30
0.0
 40
24.24032763153705
  1
64.7
 41
0.9992308297349457
  7
EXCADTTF1
 72
     5
 11
2681.0
 21
1689.679688185453
 31
0.0
100
AcDbText
  0
TEXT
  5
10F
330
1F
100
AcDbEntity
  8
図面枠
  6
CONTINUOUS
 62
     4
100
AcDbText
 10
2618.0
 20
1647.679688185453
 30
0.0
 40
24.24032763153705
  1
12.4
 41
0.9992308297349457
  7
EXCADTTF1
 72
     5
 11
2681.0
 21
1647.679688185453
 31
0.0
100
AcDbText
  0
TEXT
  5
110
330
1F
100
AcDbEntity
  8
図面枠
  6
CONTINUOUS
 62
     4
100
AcDbText
 10
2602.25
 20
1605.679688185453
 30
0.0
 40
24.24032763153705
  1
約467
 41
0.9992308297349457
  7
EXCADTTF1
 72
     5
 11
2681.0
 21
1605.679688185453
 31
0.0
100
AcDbText
  0
TEXT
  5
111
330
1F
100
AcDbEntity
  8
図面枠
  6
CONTINUOUS
 62
     4
100
AcDbText
 10
2234.399999999999
 20
1431.729681509729
 30
0.0
 40
24.24032763153705
  1
※）球面回転ヘッドの為、無負荷ジャッキ
 41
0.9992308297349456
  7
EXCADTTF1
 72
     5
 11
2832.899999999999
 21
1431.729681509729
 31
0.0
100
AcDbText
  0
TEXT
  5
112
330
1F
100
AcDbEntity
  8
図面枠
  6
CONTINUOUS
 62
     4
100
AcDbText
 10
2234.399999999999
 20
1400.229683417078
 30
0.0
 40
24.24032763153705
  1
　　作動時にヘッドが急に傾く場合があり
 41
0.9992308297349456
  7
EXCADTTF1
 72
     5
 11
2832.899999999999
 21
1400.229683417078
 31
0.0
100
AcDbText
  0
TEXT
  5
113
330
1F
100
AcDbEntity
  8
図面枠
  6
CONTINUOUS
 62
     4
100
AcDbText
 10
2234.399999999999
 20
1368.729685324427
 30
0.0
 40
24.24032763153705
  1
　　ます。必要に応じて搭載物の転倒防止
 41
0.9992308297349456
  7
EXCADTTF1
 72
     5
 11
2832.899999999999
 21
1368.729685324427
 31
0.0
100
AcDbText
  0
TEXT
  5
114
330
1F
100
AcDbEntity
  8
図面枠
  6
CONTINUOUS
 62
     4
100
AcDbText
 10
2234.399999999999
 20
1337.229687231775
 30
0.0
 40
24.24032763153705
  1
　　を行ってください。
 41
0.9992308297349455
  7
EXCADTTF1
 72
     5
 11
2580.899999999999
 21
1337.229687231775
 31
0.0
100
AcDbText
  0
LINE
  5
115
330
1F
100
AcDbEntity
  8
図面枠
  6
CONTINUOUS
 62
     3
100
AcDbLine
 10
2275.0
 20
1974.0
 30
0.0
 11
2275.0
 21
1512.0
 31
0.0
  0
LINE
  5
116
330
1F
100
AcDbEntity
  8
図面枠
  6
CONTINUOUS
 62
     2
100
AcDbLine
 10
2555.0
 20
1932.0
 30
0.0
 11
2555.0
 21
1512.0
 31
0.0
  0
LINE
  5
117
330
1F
100
AcDbEntity
  8
図面枠
  6
CONTINUOUS
 62
     2
100
AcDbLine
 10
2695.0
 20
1932.0
 30
0.0
 11
2695.0
 21
1512.0
 31
0.0
  0
LINE
  5
118
330
1F
100
AcDbEntity
  8
図面枠
  6
CONTINUOUS
 62
     3
100
AcDbLine
 10
2835.0
 20
1974.0
 30
0.0
 11
2835.0
 21
1512.0
 31
0.0
  0
LINE
  5
119
330
1F
100
AcDbEntity
  8
図面枠
  6
CONTINUOUS
 62
     3
100
AcDbLine
 10
2583.0
 20
168.0
 30
0.0
 11
2583.0
 21
105.0
 31
0.0
  0
TEXT
  5
11A
330
1F
100
AcDbEntity
  8
図面枠
  6
CONTINUOUS
 62
     4
100
AcDbText
 10
2604.0
 20
121.40625
 30
0.0
 40
32.32043879907621
  1
RJ-20040-A
 41
0.999230769230769
  7
EXCADTTF1
 72
     5
 11
2814.0
 21
121.40625
 31
0.0
100
AcDbText
  0
LINE
  5
11B
330
1F
100
AcDbEntity
  8
図面枠
  6
CONTINUOUS
 62
     3
100
AcDbLine
 10
2583.0
 20
168.0
 30
0.0
 11
2835.0
 21
168.0
 31
0.0
  0
LINE
  5
11C
330
1F
100
AcDbEntity
  8
図面枠
  6
CONTINUOUS
 62
     3
100
AcDbLine
 10
2583.0
 20
105.0
 30
0.0
 11
2835.0
 21
105.0
 31
0.0
  0
DIMENSION
  5
11E
330
1F
100
AcDbEntity
  8
Ｓ_１_１
  6
CONTINUOUS
 62
     2
100
AcDbDimension
  2
*D15
 10
540.0
 20
180.0000000000028
 30
0.0
 11
520.75
 21
143.2500000000026
 31
0.0
 70
   160
  3
ISO-25
100
AcDbAlignedDimension
 13
645.0000000000043
 23
208.000000000002
 33
0.0
 14
645.0000000000043
 24
180.0000000000028
 34
0.0
 50
90.0
100
AcDbRotatedDimension
1001
ACAD
1000
DSTYLE
1002
{
1070
   270
1070
     2
1070
     6
1000
EX_NORM
1070
     7
1000
EX_NORM
1070
    41
1040
21.0
1070
    42
1040
10.5
1070
    44
1040
7.0
1070
    73
1070
     0
1070
    74
1070
     0
1070
    75
1070
     0
1070
    76
1070
     0
1070
    77
1070
     1
1070
    78
1070
     8
1070
   140
1040
24.24032763153705
1070
   147
1040
0.0
1070
   173
1070
     1
1070
   176
1070
     2
1070
   177
1070
     2
1070
   178
1070
     2
1070
   271
1070
     2
1070
   277
1070
     2
1070
   279
1070
     2
1070
   280
1070
     2
1070
   287
1070
     5
1070
   340
1005
11D
1002
}
  0
DIMENSION
  5
12E
330
1F
100
AcDbEntity
  8
Ｓ_１_１
  6
CONTINUOUS
 62
     2
100
AcDbDimension
  2
*D16
 10
540.0
 20
608.0
 30
0.0
 11
520.75
 21
407.9999999999999
 31
0.0
 70
   160
  3
ISO-25
100
AcDbAlignedDimension
 13
645.0
 23
208.0
 33
0.0
 14
770.20000000001
 24
608.0
 34
0.0
 50
90.0
100
AcDbRotatedDimension
1001
ACAD
1000
DSTYLE
1002
{
1070
   270
1070
     2
1070
     6
1000
EX_NORM
1070
     7
1000
EX_NORM
1070
    41
1040
21.0
1070
    42
1040
10.5
1070
    44
1040
7.0
1070
    73
1070
     0
1070
    74
1070
     0
1070
    75
1070
     0
1070
    76
1070
     0
1070
    77
1070
     1
1070
    78
1070
     8
1070
   140
1040
24.24032763153705
1070
   147
1040
0.0
1070
   173
1070
     1
1070
   176
1070
     2
1070
   177
1070
     2
1070
   178
1070
     2
1070
   271
1070
     2
1070
   277
1070
     2
1070
   279
1070
     2
1070
   280
1070
     0
1070
   287
1070
     5
1070
   340
1005
11D
1002
}
  0
DIMENSION
  5
13B
330
1F
100
AcDbEntity
  8
Ｓ_１_１
  6
CONTINUOUS
 62
     2
100
AcDbDimension
  2
*D17
 10
540.0
 20
922.9999670080299
 30
0.0
 11
520.75
 21
765.4999835040148
 31
0.0
 70
   160
  3
ISO-25
100
AcDbAlignedDimension
 13
770.20000000001
 23
608.0
 33
0.0
 14
827.0000065984
 24
922.9999670080299
 34
0.0
 50
90.0
100
AcDbRotatedDimension
1001
ACAD
1000
DSTYLE
1002
{
1070
   270
1070
     2
1070
     6
1000
EX_NORM
1070
     7
1000
EX_NORM
1070
    41
1040
21.0
1070
    42
1040
10.5
1070
    44
1040
7.0
1070
    73
1070
     0
1070
    74
1070
     0
1070
    75
1070
     0
1070
    76
1070
     0
1070
    77
1070
     1
1070
    78
1070
     8
1070
   140
1040
24.24032763153705
1070
   147
1040
0.0
1070
   173
1070
     1
1070
   176
1070
     2
1070
   177
1070
     2
1070
   178
1070
     2
1070
   271
1070
     2
1070
   277
1070
     2
1070
   279
1070
     2
1070
   280
1070
     0
1070
   287
1070
     5
1070
   340
1005
11D
1002
}
  0
DIMENSION
  5
148
330
1F
100
AcDbEntity
  8
Ｓ_１_１
  6
CONTINUOUS
 62
     2
100
AcDbDimension
  2
*D18
 10
495.0
 20
180.0
 30
0.0
 11
475.7500000000001
 21
551.499983504015
 31
0.0
 70
   160
  3
ISO-25
100
AcDbAlignedDimension
 13
827.0000065984
 23
922.9999670080299
 33
0.0
 14
645.0
 24
180.0
 34
0.0
 50
90.0
100
AcDbRotatedDimension
1001
ACAD
1000
DSTYLE
1002
{
1070
   270
1070
     2
1070
     6
1000
EX_NORM
1070
     7
1000
EX_NORM
1070
    41
1040
21.0
1070
    42
1040
10.5
1070
    44
1040
7.0
1070
    73
1070
     0
1070
    74
1070
     0
1070
    75
1070
     0
1070
    76
1070
     0
1070
    77
1070
     1
1070
    78
1070
     8
1070
   140
1040
24.24032763153705
1070
   147
1040
0.0
1070
   173
1070
     1
1070
   176
1070
     2
1070
   177
1070
     2
1070
   178
1070
     2
1070
   271
1070
     2
1070
   277
1070
     2
1070
   279
1070
     2
1070
   280
1070
     0
1070
   287
1070
     5
1070
   340
1005
11D
1002
}
  0
DIMENSION
  5
155
330
1F
100
AcDbEntity
  8
Ｓ_１_１
  6
CONTINUOUS
 62
     2
100
AcDbDimension
  2
*D19
 10
540.0
 20
1545.0
 30
0.0
 11
520.7500000000001
 21
1470.0
 31
0.0
 70
   160
  3
ISO-25
100
AcDbAlignedDimension
 13
630.0
 23
1395.0
 33
0.0
 14
675.0
 24
1545.0
 34
0.0
 50
90.0
100
AcDbRotatedDimension
1001
ACAD
1000
DSTYLE
1002
{
1070
   270
1070
     2
1070
     6
1000
EX_NORM
1070
     7
1000
EX_NORM
1070
    41
1040
21.0
1070
    42
1040
10.5
1070
    44
1040
7.0
1070
    73
1070
     0
1070
    74
1070
     0
1070
    75
1070
     0
1070
    76
1070
     0
1070
    77
1070
     1
1070
    78
1070
     8
1070
   140
1040
24.24032763153705
1070
   147
1040
0.0
1070
   173
1070
     1
1070
   176
1070
     2
1070
   177
1070
     2
1070
   178
1070
     2
1070
   271
1070
     2
1070
   277
1070
     2
1070
   279
1070
     2
1070
   280
1070
     0
1070
   287
1070
     5
1070
   340
1005
11D
1002
}
  0
DIMENSION
  5
162
330
1F
100
AcDbEntity
  8
Ｓ_１_１
  6
CONTINUOUS
 62
     2
100
AcDbDimension
  2
*D20
 10
540.0
 20
1645.0
 30
0.0
 11
520.7500000000001
 21
1595.0
 31
0.0
 70
   160
  3
ISO-25
100
AcDbAlignedDimension
 13
675.0
 23
1545.0
 33
0.0
 14
675.0
 24
1645.0
 34
0.0
 50
90.0
100
AcDbRotatedDimension
1001
ACAD
1000
DSTYLE
1002
{
1070
   270
1070
     2
1070
     6
1000
EX_NORM
1070
     7
1000
EX_NORM
1070
    41
1040
21.0
1070
    42
1040
10.5
1070
    44
1040
7.0
1070
    73
1070
     0
1070
    74
1070
     0
1070
    75
1070
     0
1070
    76
1070
     0
1070
    77
1070
     1
1070
    78
1070
     8
1070
   140
1040
24.24032763153705
1070
   147
1040
0.0
1070
   173
1070
     1
1070
   176
1070
     2
1070
   177
1070
     2
1070
   178
1070
     2
1070
   271
1070
     2
1070
   277
1070
     2
1070
   279
1070
     2
1070
   280
1070
     0
1070
   287
1070
     5
1070
   340
1005
11D
1002
}
  0
DIMENSION
  5
16F
330
1F
100
AcDbEntity
  8
Ｓ_１_１
  6
CONTINUOUS
 62
     2
100
AcDbDimension
  2
*D21
 10
540.0
 20
1245.0
 30
0.0
 11
520.7500000000001
 21
1320.0
 31
0.0
 70
   160
  3
ISO-25
100
AcDbAlignedDimension
 13
630.0
 23
1395.0
 33
0.0
 14
675.0
 24
1245.0
 34
0.0
 50
90.0
100
AcDbRotatedDimension
1001
ACAD
1000
DSTYLE
1002
{
1070
   270
1070
     2
1070
     6
1000
EX_NORM
1070
     7
1000
EX_NORM
1070
    41
1040
21.0
1070
    42
1040
10.5
1070
    44
1040
7.0
1070
    73
1070
     0
1070
    74
1070
     0
1070
    75
1070
     0
1070
    76
1070
     0
1070
    77
1070
     1
1070
    78
1070
     8
1070
   140
1040
24.24032763153705
1070
   147
1040
0.0
1070
   173
1070
     1
1070
   176
1070
     2
1070
   177
1070
     2
1070
   178
1070
     2
1070
   271
1070
     2
1070
   277
1070
     2
1070
   279
1070
     2
1070
   280
1070
     0
1070
   287
1070
     5
1070
   340
1005
11D
1002
}
  0
DIMENSION
  5
17C
330
1F
100
AcDbEntity
  8
Ｓ_１_１
  6
CONTINUOUS
 62
     2
100
AcDbDimension
  2
*D22
 10
540.0
 20
1145.0
 30
0.0
 11
520.7500000000001
 21
1195.0
 31
0.0
 70
   160
  3
ISO-25
100
AcDbAlignedDimension
 13
675.0
 23
1245.0
 33
0.0
 14
675.0
 24
1145.0
 34
0.0
 50
90.0
100
AcDbRotatedDimension
1001
ACAD
1000
DSTYLE
1002
{
1070
   270
1070
     2
1070
     6
1000
EX_NORM
1070
     7
1000
EX_NORM
1070
    41
1040
21.0
1070
    42
1040
10.5
1070
    44
1040
7.0
1070
    73
1070
     0
1070
    74
1070
     0
1070
    75
1070
     0
1070
    76
1070
     0
1070
    77
1070
     1
1070
    78
1070
     8
1070
   140
1040
24.24032763153705
1070
   147
1040
0.0
1070
   173
1070
     1
1070
   176
1070
     2
1070
   177
1070
     2
1070
   178
1070
     2
1070
   271
1070
     2
1070
   277
1070
     2
1070
   279
1070
     2
1070
   280
1070
     0
1070
   287
1070
     5
1070
   340
1005
11D
1002
}
  0
DIMENSION
  5
189
330
1F
100
AcDbEntity
  8
Ｓ_１_１
  6
CONTINUOUS
 62
     2
100
AcDbDimension
  2
*D23
 10
495.0
 20
1695.0
 30
0.0
 11
475.7500000000001
 21
1395.0
 31
0.0
 70
   160
  3
ISO-25
100
AcDbAlignedDimension
 13
675.0
 23
1095.0
 33
0.0
 14
675.0
 24
1695.0
 34
0.0
 50
90.0
100
AcDbRotatedDimension
1001
ACAD
1000
DSTYLE
1002
{
1070
   270
1070
     2
1070
     6
1000
EX_NORM
1070
     7
1000
EX_NORM
1070
    41
1040
21.0
1070
    42
1040
10.5
1070
    44
1040
7.0
1070
    73
1070
     0
1070
    74
1070
     0
1070
    75
1070
     0
1070
    76
1070
     0
1070
    77
1070
     1
1070
    78
1070
     8
1070
   140
1040
24.24032763153705
1070
   147
1040
0.0
1070
   173
1070
     1
1070
   176
1070
     2
1070
   177
1070
     2
1070
   178
1070
     2
1070
   271
1070
     2
1070
   277
1070
     2
1070
   279
1070
     2
1070
   280
1070
     0
1070
   287
1070
     5
1070
   340
1005
11D
1002
}
  0
DIMENSION
  5
196
330
1F
100
AcDbEntity
  8
Ｓ_１_１
  6
CONTINUOUS
 62
     2
100
AcDbDimension
  2
*D24
 10
945.0
 20
1800.0
 30
0.0
 11
870.0000000000001
 21
1819.25
 31
0.0
 70
   160
  3
ISO-25
100
AcDbAlignedDimension
 13
795.0
 23
1665.0
 33
0.0
 14
945.0
 24
1710.0
 34
0.0
100
AcDbRotatedDimension
1001
ACAD
1000
DSTYLE
1002
{
1070
   270
1070
     2
1070
     6
1000
EX_NORM
1070
     7
1000
EX_NORM
1070
    41
1040
21.0
1070
    42
1040
10.5
1070
    44
1040
7.0
1070
    73
1070
     0
1070
    74
1070
     0
1070
    75
1070
     0
1070
    76
1070
     0
1070
    77
1070
     1
1070
    78
1070
     8
1070
   140
1040
24.24032763153705
1070
   147
1040
0.0
1070
   173
1070
     1
1070
   176
1070
     2
1070
   177
1070
     2
1070
   178
1070
     2
1070
   271
1070
     2
1070
   277
1070
     2
1070
   279
1070
     2
1070
   280
1070
     0
1070
   287
1070
     5
1070
   340
1005
11D
1002
}
  0
DIMENSION
  5
1A3
330
1F
100
AcDbEntity
  8
Ｓ_１_１
  6
CONTINUOUS
 62
     2
100
AcDbDimension
  2
*D25
 10
1095.0
 20
1800.0
 30
0.0
 11
1020.0
 21
1819.25
 31
0.0
 70
   160
  3
ISO-25
100
AcDbAlignedDimension
 13
945.0
 23
1710.0
 33
0.0
 14
1095.0
 24
1665.0
 34
0.0
100
AcDbRotatedDimension
1001
ACAD
1000
DSTYLE
1002
{
1070
   270
1070
     2
1070
     6
1000
EX_NORM
1070
     7
1000
EX_NORM
1070
    41
1040
21.0
1070
    42
1040
10.5
1070
    44
1040
7.0
1070
    73
1070
     0
1070
    74
1070
     0
1070
    75
1070
     0
1070
    76
1070
     0
1070
    77
1070
     1
1070
    78
1070
     8
1070
   140
1040
24.24032763153705
1070
   147
1040
0.0
1070
   173
1070
     1
1070
   176
1070
     2
1070
   177
1070
     2
1070
   178
1070
     2
1070
   271
1070
     2
1070
   277
1070
     2
1070
   279
1070
     2
1070
   280
1070
     0
1070
   287
1070
     5
1070
   340
1005
11D
1002
}
  0
DIMENSION
  5
1B0
330
1F
100
AcDbEntity
  8
Ｓ_１_１
  6
CONTINUOUS
 62
     2
100
AcDbDimension
  2
*D26
 10
795.0
 20
1800.0
 30
0.0
 11
745.0
 21
1819.25
 31
0.0
 70
   160
  3
ISO-25
100
AcDbAlignedDimension
 13
695.0
 23
1665.0
 33
0.0
 14
795.0
 24
1665.0
 34
0.0
100
AcDbRotatedDimension
1001
ACAD
1000
DSTYLE
1002
{
1070
   270
1070
     2
1070
     6
1000
EX_NORM
1070
     7
1000
EX_NORM
1070
    41
1040
21.0
1070
    42
1040
10.5
1070
    44
1040
7.0
1070
    73
1070
     0
1070
    74
1070
     0
1070
    75
1070
     0
1070
    76
1070
     0
1070
    77
1070
     1
1070
    78
1070
     8
1070
   140
1040
24.24032763153705
1070
   147
1040
0.0
1070
   173
1070
     1
1070
   176
1070
     2
1070
   177
1070
     2
1070
   178
1070
     2
1070
   271
1070
     2
1070
   277
1070
     2
1070
   279
1070
     2
1070
   280
1070
     0
1070
   287
1070
     5
1070
   340
1005
11D
1002
}
  0
DIMENSION
  5
1BD
330
1F
100
AcDbEntity
  8
Ｓ_１_１
  6
CONTINUOUS
 62
     2
100
AcDbDimension
  2
*D27
 10
1195.0
 20
1800.0
 30
0.0
 11
1145.0
 21
1819.25
 31
0.0
 70
   160
  3
ISO-25
100
AcDbAlignedDimension
 13
1095.0
 23
1665.0
 33
0.0
 14
1195.0
 24
1665.0
 34
0.0
100
AcDbRotatedDimension
1001
ACAD
1000
DSTYLE
1002
{
1070
   270
1070
     2
1070
     6
1000
EX_NORM
1070
     7
1000
EX_NORM
1070
    41
1040
21.0
1070
    42
1040
10.5
1070
    44
1040
7.0
1070
    73
1070
     0
1070
    74
1070
     0
1070
    75
1070
     0
1070
    76
1070
     0
1070
    77
1070
     1
1070
    78
1070
     8
1070
   140
1040
24.24032763153705
1070
   147
1040
0.0
1070
   173
1070
     1
1070
   176
1070
     2
1070
   177
1070
     2
1070
   178
1070
     2
1070
   271
1070
     2
1070
   277
1070
     2
1070
   279
1070
     2
1070
   280
1070
     0
1070
   287
1070
     5
1070
   340
1005
11D
1002
}
  0
DIMENSION
  5
1CA
330
1F
100
AcDbEntity
  8
Ｓ_１_１
  6
CONTINUOUS
 62
     2
100
AcDbDimension
  2
*D28
 10
1245.0
 20
1845.0
 30
0.0
 11
945.0000000000002
 21
1864.25
 31
0.0
 70
   160
  3
ISO-25
100
AcDbAlignedDimension
 13
645.0
 23
1665.0
 33
0.0
 14
1245.0
 24
1665.0
 34
0.0
100
AcDbRotatedDimension
1001
ACAD
1000
DSTYLE
1002
{
1070
   270
1070
     2
1070
     6
1000
EX_NORM
1070
     7
1000
EX_NORM
1070
    41
1040
21.0
1070
    42
1040
10.5
1070
    44
1040
7.0
1070
    73
1070
     0
1070
    74
1070
     0
1070
    75
1070
     0
1070
    76
1070
     0
1070
    77
1070
     1
1070
    78
1070
     8
1070
   140
1040
24.24032763153705
1070
   147
1040
0.0
1070
   173
1070
     1
1070
   176
1070
     2
1070
   177
1070
     2
1070
   178
1070
     2
1070
   271
1070
     2
1070
   277
1070
     2
1070
   279
1070
     2
1070
   280
1070
     0
1070
   287
1070
     5
1070
   340
1005
11D
1002
}
  0
DIMENSION
  5
1D7
330
1F
100
AcDbEntity
  8
Ｓ_１_１
  6
CONTINUOUS
 62
     2
100
AcDbDimension
  2
*D29
 10
1065.000000000004
 20
990.0
 30
0.0
 11
945.0000000000024
 21
1009.25
 31
0.0
 70
   160
  1
%%c240
  3
ISO-25
100
AcDbAlignedDimension
 13
825.0000000000007
 23
920.9999604096802
 33
0.0
 14
1065.000000000004
 24
920.9999604096802
 34
0.0
100
AcDbRotatedDimension
1001
ACAD
1000
DSTYLE
1002
{
1070
   270
1070
     2
1070
     6
1000
EX_NORM
1070
     7
1000
EX_NORM
1070
    41
1040
21.0
1070
    42
1040
10.5
1070
    44
1040
7.0
1070
    73
1070
     0
1070
    74
1070
     0
1070
    75
1070
     0
1070
    76
1070
     0
1070
    77
1070
     1
1070
    78
1070
     8
1070
   140
1040
24.24032763153705
1070
   147
1040
0.0
1070
   173
1070
     1
1070
   176
1070
     2
1070
   177
1070
     2
1070
   178
1070
     2
1070
   271
1070
     2
1070
   277
1070
     2
1070
   279
1070
     2
1070
   280
1070
     0
1070
   287
1070
     5
1070
   340
1005
11D
1002
}
  0
LINE
  5
1E4
330
1F
100
AcDbEntity
  8
Ｓ_１_１
  6
CONTINUOUS
 62
     3
100
AcDbLine
 10
1750.000032991981
 20
869.9999406144444
 30
0.0
 11
1750.000032991981
 21
822.9999835040136
 31
0.0
  0
LINE
  5
1E5
330
1F
100
AcDbEntity
  8
Ｓ_１_１
  6
CONTINUOUS
 62
     3
100
AcDbLine
 10
1755.000000000004
 20
874.9999571104328
 30
0.0
 11
1750.000032991981
 21
869.9999406144444
 31
0.0
  0
LINE
  5
1E6
330
1F
100
AcDbEntity
  8
Ｓ_１_１
  6
CONTINUOUS
 62
     3
100
AcDbLine
 10
1725.000000000004
 20
883.1444388724686
 30
0.0
 11
1726.997284760352
 21
881.0397652290977
 31
0.0
  0
LINE
  5
1E7
330
1F
100
AcDbEntity
  8
Ｓ_１_１
  6
CONTINUOUS
 62
     3
100
AcDbLine
 10
1789.986357817783
 20
877.7386705553228
 30
0.0
 11
1726.997284760352
 21
881.0397652290977
 31
0.0
  0
LINE
  5
1E8
330
1F
100
AcDbEntity
  8
Ｓ_１_１
  6
CONTINUOUS
 62
     3
100
AcDbLine
 10
1965.000000000004
 20
883.1444388724686
 30
0.0
 11
1963.002764727622
 21
881.0397652290977
 31
0.0
  0
LINE
  5
1E9
330
1F
100
AcDbEntity
  8
Ｓ_１_１
  6
CONTINUOUS
 62
     3
100
AcDbLine
 10
1900.013691670191
 20
877.7386705553228
 30
0.0
 11
1963.002764727622
 21
881.0397652290977
 31
0.0
  0
LINE
  5
1EA
330
1F
100
AcDbEntity
  8
Ｓ_１_１
  6
CONTINUOUS
 62
     3
100
AcDbLine
 10
1744.999917520063
 20
817.9999670080252
 30
0.0
 11
1747.886599978889
 21
822.9999835040136
 31
0.0
  0
LINE
  5
1EB
330
1F
100
AcDbEntity
  8
Ｓ_１_１
  6
CONTINUOUS
 62
     3
100
AcDbLine
 10
1992.500065983957
 20
812.9999505120378
 30
0.0
 11
1997.500032991981
 21
807.9999835040136
 31
0.0
  0
LINE
  5
1EC
330
1F
100
AcDbEntity
  8
Ｓ_１_１
  6
CONTINUOUS
 62
     3
100
AcDbLine
 10
1697.499538112336
 20
812.9999505120378
 30
0.0
 11
1692.500016495993
 21
807.9999835040136
 31
0.0
  0
LINE
  5
1ED
330
1F
100
AcDbEntity
  8
Ｓ_１_１
  6
CONTINUOUS
 62
     3
100
AcDbLine
 10
1942.113004117404
 20
822.9999835040136
 30
0.0
 11
1945.000032991981
 21
817.9999670080252
 31
0.0
  0
LINE
  5
1EE
330
1F
100
AcDbEntity
  8
Ｓ_１_１
  6
CONTINUOUS
 62
     3
100
AcDbLine
 10
1725.000000000004
 20
920.9999604096303
 30
0.0
 11
1727.000006598401
 21
922.9999670080251
 31
0.0
  0
LINE
  5
1EF
330
1F
100
AcDbEntity
  8
Ｓ_１_１
  6
CONTINUOUS
 62
     3
100
AcDbLine
 10
1963.000042889573
 20
922.9999670080251
 30
0.0
 11
1965.000000000004
 21
920.9999604096303
 31
0.0
  0
LINE
  5
1F0
330
1F
100
AcDbEntity
  8
Ｓ_１_１
  6
CONTINUOUS
 62
     3
100
AcDbLine
 10
1725.000000000004
 20
920.9999604096303
 30
0.0
 11
1725.000000000004
 21
883.1444388724686
 31
0.0
  0
LINE
  5
1F1
330
1F
100
AcDbEntity
  8
Ｓ_１_１
  6
CONTINUOUS
 62
     3
100
AcDbLine
 10
1965.000000000004
 20
920.9999604096303
 30
0.0
 11
1965.000000000004
 21
883.1444388724686
 31
0.0
  0
LINE
  5
1F2
330
1F
100
AcDbEntity
  8
Ｓ_１_１
  6
CONTINUOUS
 62
     3
100
AcDbLine
 10
1963.000042889573
 20
922.9999670080251
 30
0.0
 11
1727.000006598401
 21
922.9999670080251
 31
0.0
  0
LINE
  5
1F3
330
1F
100
AcDbEntity
  8
Ｓ_１_１
  6
CONTINUOUS
 62
     3
100
AcDbLine
 10
1940.000016495994
 20
869.9999406144444
 30
0.0
 11
1940.000016495994
 21
822.9999835040136
 31
0.0
  0
LINE
  5
1F4
330
1F
100
AcDbEntity
  8
Ｓ_１_１
  6
CONTINUOUS
 62
     3
100
AcDbLine
 10
1940.000016495994
 20
869.9999406144444
 30
0.0
 11
1935.000000000004
 21
874.9999571104328
 31
0.0
  0
LINE
  5
1F5
330
1F
100
AcDbEntity
  8
Ｓ_１_１
  6
CONTINUOUS
 62
     3
100
AcDbLine
 10
1789.98635781778
 20
877.73867055528
 30
0.0
 11
1899.999381369104
 21
877.73867055528
 31
0.0
  0
LINE
  5
1F6
330
1F
100
AcDbEntity
  8
Ｓ_１_１
  6
CONTINUOUS
 62
     3
100
AcDbLine
 10
1935.000000000004
 20
874.9999571104328
 30
0.0
 11
1755.000000000004
 21
874.9999571104328
 31
0.0
  0
LINE
  5
1F7
330
1F
100
AcDbEntity
  8
Ｓ_１_１
  6
CONTINUOUS
 62
     3
100
AcDbLine
 10
1942.113004117404
 20
822.9999835040136
 30
0.0
 11
1747.886599978889
 21
822.9999835040136
 31
0.0
  0
LINE
  5
1F8
330
1F
100
AcDbEntity
  8
Ｓ_１_１
  6
CONTINUOUS
 62
     3
100
AcDbLine
 10
1992.500065983957
 20
812.9999505120378
 30
0.0
 11
1697.499538112336
 21
812.9999505120378
 31
0.0
  0
LINE
  5
1F9
330
1F
100
AcDbEntity
  8
Ｓ_１_１
  6
CONTINUOUS
 62
     3
100
AcDbLine
 10
1745.000016495993
 20
817.9999670080252
 30
0.0
 11
1745.000016495993
 21
812.9999505120378
 31
0.0
  0
LINE
  5
1FA
330
1F
100
AcDbEntity
  8
Ｓ_１_１
  6
CONTINUOUS
 62
     3
100
AcDbLine
 10
1945.000032991981
 20
817.9999670080252
 30
0.0
 11
1945.000032991981
 21
812.9999505120378
 31
0.0
  0
LINE
  5
1FB
330
1F
100
AcDbEntity
  8
Ｓ_１_１
  6
CONTINUOUS
 62
     3
100
AcDbLine
 10
1745.00001649599
 20
818.0001384439803
 30
0.0
 11
1945.000032991981
 21
818.0001384439803
 31
0.0
  0
ARC
  5
1FC
330
1F
100
AcDbEntity
  8
Ｓ_１_１
  6
CONTINUOUS
 62
     3
100
AcDbCircle
 10
1845.000000000004
 20
877.9999670080252
 30
0.0
 40
55.00000206199852
100
AcDbArc
 50
180.2721099853515
 51
183.1267863223427
  0
ARC
  5
1FD
330
1F
100
AcDbEntity
  8
Ｓ_１_１
  6
CONTINUOUS
 62
     3
100
AcDbCircle
 10
1845.000000000004
 20
877.9999670080252
 30
0.0
 40
55.00000206199852
100
AcDbArc
 50
356.8732136776573
 51
359.7278747558593
  0
LINE
  5
1FE
330
1F
100
AcDbEntity
  8
Ｓ_１_１
  6
CONTINUOUS
 62
     3
100
AcDbLine
 10
1940.000016495989
 20
869.9999406144799
 30
0.0
 11
1750.000032991981
 21
869.9999406144799
 31
0.0
  0
LINE
  5
1FF
330
1F
100
AcDbEntity
  8
Ｓ_１_１
  6
CONTINUOUS
 62
     3
100
AcDbLine
 10
1692.50001649599
 20
807.9999835039799
 30
0.0
 11
1997.500032991981
 21
807.9999835039799
 31
0.0
  0
LINE
  5
200
330
1F
100
AcDbEntity
  8
Ｓ_１_１
  6
CONTINUOUS
 62
     3
100
AcDbLine
 10
2145.000000000005
 20
208.0000000000019
 30
0.0
 11
2145.000000000005
 21
180.0000000000028
 31
0.0
  0
LINE
  5
201
330
1F
100
AcDbEntity
  8
Ｓ_１_１
  6
CONTINUOUS
 62
     3
100
AcDbLine
 10
1545.000000000004
 20
208.0000000000019
 30
0.0
 11
1545.000000000004
 21
180.0000000000028
 31
0.0
  0
LINE
  5
202
330
1F
100
AcDbEntity
  8
Ｓ_１_１
  6
CONTINUOUS
 62
     3
100
AcDbLine
 10
1545.000000000004
 20
180.0000000000019
 30
0.0
 11
2145.000000000005
 21
180.0000000000019
 31
0.0
  0
LINE
  5
203
330
1F
100
AcDbEntity
  8
Ｓ_１_１
  6
CONTINUOUS
 62
     3
100
AcDbLine
 10
1725.0
 20
920.9999604096802
 30
0.0
 11
1965.000000000004
 21
920.9999604096802
 31
0.0
  0
LINE
  5
204
330
1F
100
AcDbEntity
  8
Ｓ_１_１
  6
CONTINUOUS
 62
     3
100
AcDbLine
 10
1965.0
 20
883.1444388724805
 30
0.0
 11
1725.000000000004
 21
883.1444388724805
 31
0.0
  0
LINE
  5
205
330
1F
100
AcDbEntity
  8
Ｓ_１_１
  6
CONTINUOUS
 62
     3
100
AcDbLine
 10
1726.99728476035
 20
881.0397652290804
 30
0.0
 11
1963.002764727619
 21
881.0397652290804
 31
0.0
  0
LINE
  5
206
330
1F
100
AcDbEntity
  8
Ｓ_１_１
  6
CONTINUOUS
 62
     3
100
AcDbLine
 10
1667.200000000005
 20
605.0000000000019
 30
0.0
 11
1670.200000000005
 21
608.0000000000019
 31
0.0
  0
LINE
  5
207
330
1F
100
AcDbEntity
  8
Ｓ_１_１
  6
CONTINUOUS
 62
     3
100
AcDbLine
 10
2019.800000000003
 20
608.0000000000019
 30
0.0
 11
1670.200000000005
 21
608.0000000000019
 31
0.0
  0
LINE
  5
208
330
1F
100
AcDbEntity
  8
Ｓ_１_１
  6
CONTINUOUS
 62
     3
100
AcDbLine
 10
2019.800000000003
 20
608.0000000000019
 30
0.0
 11
2022.800000000003
 21
605.0000000000019
 31
0.0
  0
LINE
  5
209
330
1F
100
AcDbEntity
  8
Ｓ_１_１
  6
CONTINUOUS
 62
     3
100
AcDbLine
 10
1667.200000000001
 20
605.0000000000001
 30
0.0
 11
2022.800000000003
 21
605.0000000000001
 31
0.0
  0
LINE
  5
20A
330
1F
100
AcDbEntity
  8
Ｓ_１_１
  6
CONTINUOUS
 62
     3
100
AcDbLine
 10
1545.000000000004
 20
208.0000000000019
 30
0.0
 11
2145.000000000005
 21
208.0000000000019
 31
0.0
  0
LINE
  5
20B
330
1F
100
AcDbEntity
  8
Ｓ_１_１
  6
CONTINUOUS
 62
     3
100
AcDbLine
 10
1784.349921985601
 20
508.0000000000019
 30
0.0
 11
1784.349921985601
 21
208.0000000000019
 31
0.0
  0
LINE
  5
20C
330
1F
100
AcDbEntity
  8
Ｓ_１_１
  6
CONTINUOUS
 62
     3
100
AcDbLine
 10
1742.254744425431
 20
508.0000000000001
 30
0.0
 11
1734.60107577813
 21
488.0000000000001
 31
0.0
  0
LINE
  5
20D
330
1F
100
AcDbEntity
  8
Ｓ_１_１
  6
CONTINUOUS
 62
     3
100
AcDbLine
 10
1727.472671905251
 20
508.0000000000001
 30
0.0
 11
1719.81900325795
 21
488.0000000000001
 31
0.0
  0
LINE
  5
20E
330
1F
100
AcDbEntity
  8
Ｓ_１_１
  6
CONTINUOUS
 62
     3
100
AcDbLine
 10
1734.60107577813
 20
488.000000000002
 30
0.0
 11
1734.60107577813
 21
208.0000000000019
 31
0.0
  0
LINE
  5
20F
330
1F
100
AcDbEntity
  8
Ｓ_１_１
  6
CONTINUOUS
 62
     3
100
AcDbLine
 10
1719.81900325795
 20
488.000000000002
 30
0.0
 11
1719.81900325795
 21
208.0000000000019
 31
0.0
  0
LINE
  5
210
330
1F
100
AcDbEntity
  8
Ｓ_１_１
  6
CONTINUOUS
 62
     3
100
AcDbLine
 10
1727.472671905251
 20
508.0000000000019
 30
0.0
 11
1784.349921985601
 21
508.0000000000019
 31
0.0
  0
LINE
  5
211
330
1F
100
AcDbEntity
  8
Ｓ_１_１
  6
CONTINUOUS
 62
     3
100
AcDbLine
 10
1719.81900325795
 20
488.000000000002
 30
0.0
 11
1734.601075778132
 21
488.000000000002
 31
0.0
  0
ELLIPSE
  5
212
330
1F
100
AcDbEntity
  8
Ｓ_１_１
  6
CONTINUOUS
 62
     3
100
AcDbEllipse
 10
1753.73524739639
 20
458.0000000000001
 30
0.0
 11
-4.592425496802574E-15
 21
-25.0
 31
0.0
210
0.0
220
0.0
230
1.0
 40
0.3936579944794147
 41
0.0
 42
6.283185307179586
  0
ELLIPSE
  5
213
330
1F
100
AcDbEntity
  8
Ｓ_１_１
  6
CONTINUOUS
 62
     3
100
AcDbEllipse
 10
1738.678810823351
 20
458.0000000000001
 30
0.0
 11
-4.592425496802574E-15
 21
-25.0
 31
0.0
210
0.0
220
0.0
230
1.0
 40
0.3936579944794147
 41
0.8709638895173866
 42
2.270628764072399
  0
ELLIPSE
  5
214
330
1F
100
AcDbEntity
  8
Ｓ_１_１
  6
CONTINUOUS
 62
     3
100
AcDbEllipse
 10
1753.73524739639
 20
258.0000000000001
 30
0.0
 11
-4.592425496802574E-15
 21
-25.0
 31
0.0
210
0.0
220
0.0
230
1.0
 40
0.3936579944794147
 41
0.0
 42
6.283185307179586
  0
ELLIPSE
  5
215
330
1F
100
AcDbEntity
  8
Ｓ_１_１
  6
CONTINUOUS
 62
     3
100
AcDbEllipse
 10
1738.678810823351
 20
258.0000000000001
 30
0.0
 11
-4.592425496802574E-15
 21
-25.0
 31
0.0
210
0.0
220
0.0
230
1.0
 40
0.3936579944794147
 41
0.8709638895173866
 42
2.270628764072399
  0
LINE
  5
216
330
1F
100
AcDbEntity
  8
Ｓ_１_１
  6
CONTINUOUS
 62
     3
100
AcDbLine
 10
1582.16893800216
 20
508.0000000000001
 30
0.0
 11
1563.69134735194
 21
488.0000000000001
 31
0.0
  0
LINE
  5
217
330
1F
100
AcDbEntity
  8
Ｓ_１_１
  6
CONTINUOUS
 62
     3
100
AcDbLine
 10
1563.69134735194
 20
488.0000000000001
 30
0.0
 11
1557.56841243409
 21
488.0000000000001
 31
0.0
  0
LINE
  5
218
330
1F
100
AcDbEntity
  8
Ｓ_１_１
  6
CONTINUOUS
 62
     3
100
AcDbLine
 10
1563.69134735194
 20
488.0000000000001
 30
0.0
 11
1563.69134735194
 21
208.0000000000019
 31
0.0
  0
LINE
  5
219
330
1F
100
AcDbEntity
  8
Ｓ_１_１
  6
CONTINUOUS
 62
     3
100
AcDbLine
 10
1683.7956865784
 20
508.0000000000001
 30
0.0
 11
1576.046003084321
 21
508.0000000000001
 31
0.0
  0
LINE
  5
21A
330
1F
100
AcDbEntity
  8
Ｓ_１_１
  6
CONTINUOUS
 62
     3
100
AcDbLine
 10
1576.046003084321
 20
508.0000000000001
 30
0.0
 11
1557.568412434101
 21
488.0000000000001
 31
0.0
  0
LINE
  5
21B
330
1F
100
AcDbEntity
  8
Ｓ_１_１
  6
CONTINUOUS
 62
     3
100
AcDbLine
 10
1557.56841243409
 20
488.0000000000001
 30
0.0
 11
1557.56841243409
 21
208.0000000000019
 31
0.0
  0
LINE
  5
21C
330
1F
100
AcDbEntity
  8
Ｓ_１_１
  6
CONTINUOUS
 62
     3
100
AcDbLine
 10
1683.7956865784
 20
508.0000000000001
 30
0.0
 11
1683.7956865784
 21
208.0000000000019
 31
0.0
  0
ELLIPSE
  5
21D
330
1F
100
AcDbEntity
  8
Ｓ_１_１
  6
CONTINUOUS
 62
     3
100
AcDbEllipse
 10
1609.8853239775
 20
458.0000000000001
 30
0.0
 11
-4.592425496802574E-15
 21
-25.0
 31
0.0
210
0.0
220
0.0
230
1.0
 40
0.9238795325111983
 41
0.0
 42
6.283185307179586
  0
ELLIPSE
  5
21E
330
1F
100
AcDbEntity
  8
Ｓ_１_１
  6
CONTINUOUS
 62
     3
100
AcDbEllipse
 10
1603.762389059661
 20
458.0000000000001
 30
0.0
 11
-4.592425496802574E-15
 21
-25.0
 31
0.0
210
0.0
220
0.0
230
1.0
 40
0.9238795325111983
 41
0.1329395659947726
 42
3.008653087595019
  0
ELLIPSE
  5
21F
330
1F
100
AcDbEntity
  8
Ｓ_１_１
  6
CONTINUOUS
 62
     3
100
AcDbEllipse
 10
1609.8853239775
 20
258.0000000000001
 30
0.0
 11
-4.592425496802574E-15
 21
-25.0
 31
0.0
210
0.0
220
0.0
230
1.0
 40
0.9238795325111983
 41
0.0
 42
6.283185307179586
  0
ELLIPSE
  5
220
330
1F
100
AcDbEntity
  8
Ｓ_１_１
  6
CONTINUOUS
 62
     3
100
AcDbEllipse
 10
1603.762389059661
 20
258.0000000000001
 30
0.0
 11
-4.592425496802574E-15
 21
-25.0
 31
0.0
210
0.0
220
0.0
230
1.0
 40
0.9238795325111983
 41
0.1329395659947726
 42
3.008653087595019
  0
LINE
  5
221
330
1F
100
AcDbEntity
  8
Ｓ_１_１
  6
CONTINUOUS
 62
     3
100
AcDbLine
 10
1667.200000000005
 20
605.0000000000019
 30
0.0
 11
1667.200000000005
 21
508.0000000000001
 31
0.0
  0
LINE
  5
222
330
1F
100
AcDbEntity
  8
Ｓ_１_１
  6
CONTINUOUS
 62
     3
100
AcDbLine
 10
2107.831061997848
 20
508.0000000000001
 30
0.0
 11
2126.30865264807
 21
488.0000000000001
 31
0.0
  0
LINE
  5
223
330
1F
100
AcDbEntity
  8
Ｓ_１_１
  6
CONTINUOUS
 62
     3
100
AcDbLine
 10
2126.30865264807
 20
488.0000000000001
 30
0.0
 11
2132.43158756592
 21
488.0000000000001
 31
0.0
  0
LINE
  5
224
330
1F
100
AcDbEntity
  8
Ｓ_１_１
  6
CONTINUOUS
 62
     3
100
AcDbLine
 10
2126.30865264807
 20
488.0000000000001
 30
0.0
 11
2126.30865264807
 21
208.0000000000019
 31
0.0
  0
LINE
  5
225
330
1F
100
AcDbEntity
  8
Ｓ_１_１
  6
CONTINUOUS
 62
     3
100
AcDbLine
 10
2006.204313421608
 20
508.0000000000001
 30
0.0
 11
2113.953996915689
 21
508.0000000000001
 31
0.0
  0
LINE
  5
226
330
1F
100
AcDbEntity
  8
Ｓ_１_１
  6
CONTINUOUS
 62
     3
100
AcDbLine
 10
2113.953996915689
 20
508.0000000000001
 30
0.0
 11
2132.431587565909
 21
488.0000000000001
 31
0.0
  0
LINE
  5
227
330
1F
100
AcDbEntity
  8
Ｓ_１_１
  6
CONTINUOUS
 62
     3
100
AcDbLine
 10
2132.43158756592
 20
488.0000000000001
 30
0.0
 11
2132.43158756592
 21
208.0000000000019
 31
0.0
  0
LINE
  5
228
330
1F
100
AcDbEntity
  8
Ｓ_１_１
  6
CONTINUOUS
 62
     3
100
AcDbLine
 10
2006.204313421608
 20
508.0000000000001
 30
0.0
 11
2006.204313421608
 21
208.0000000000019
 31
0.0
  0
ELLIPSE
  5
229
330
1F
100
AcDbEntity
  8
Ｓ_１_１
  6
CONTINUOUS
 62
     3
100
AcDbEllipse
 10
2080.11467602251
 20
458.0000000000001
 30
0.0
 11
-4.592425496802574E-15
 21
-25.0
 31
0.0
210
0.0
220
0.0
230
1.0
 40
0.9238795325111983
 41
0.0
 42
6.283185307179586
  0
ELLIPSE
  5
22A
330
1F
100
AcDbEntity
  8
Ｓ_１_１
  6
CONTINUOUS
 62
     3
100
AcDbEllipse
 10
2086.237610940349
 20
458.0000000000001
 30
0.0
 11
-4.592425496802574E-15
 21
-25.0
 31
0.0
210
0.0
220
0.0
230
1.0
 40
0.9238795325111983
 41
3.274532219584562
 42
6.150245741184818
  0
ELLIPSE
  5
22B
330
1F
100
AcDbEntity
  8
Ｓ_１_１
  6
CONTINUOUS
 62
     3
100
AcDbEllipse
 10
2080.11467602251
 20
258.0000000000001
 30
0.0
 11
-4.592425496802574E-15
 21
-25.0
 31
0.0
210
0.0
220
0.0
230
1.0
 40
0.9238795325111983
 41
0.0
 42
6.283185307179586
  0
ELLIPSE
  5
22C
330
1F
100
AcDbEntity
  8
Ｓ_１_１
  6
CONTINUOUS
 62
     3
100
AcDbEllipse
 10
2086.237610940349
 20
258.0000000000001
 30
0.0
 11
-4.592425496802574E-15
 21
-25.0
 31
0.0
210
0.0
220
0.0
230
1.0
 40
0.9238795325111983
 41
3.274532219584567
 42
6.150245741184812
  0
LINE
  5
22D
330
1F
100
AcDbEntity
  8
Ｓ_１_１
  6
CONTINUOUS
 62
     3
100
AcDbLine
 10
2022.800000000003
 20
605.0000000000019
 30
0.0
 11
2022.800000000003
 21
508.0000000000001
 31
0.0
  0
LINE
  5
22E
330
1F
100
AcDbEntity
  8
Ｓ_１_１
  6
CONTINUOUS
 62
     3
100
AcDbLine
 10
1905.650078014409
 20
508.0000000000019
 30
0.0
 11
1905.650078014409
 21
208.0000000000019
 31
0.0
  0
LINE
  5
22F
330
1F
100
AcDbEntity
  8
Ｓ_１_１
  6
CONTINUOUS
 62
     3
100
AcDbLine
 10
1947.745255574579
 20
508.0000000000001
 30
0.0
 11
1955.398924221878
 21
488.0000000000001
 31
0.0
  0
LINE
  5
230
330
1F
100
AcDbEntity
  8
Ｓ_１_１
  6
CONTINUOUS
 62
     3
100
AcDbLine
 10
1962.527328094759
 20
508.0000000000001
 30
0.0
 11
1970.18099674206
 21
488.0000000000001
 31
0.0
  0
LINE
  5
231
330
1F
100
AcDbEntity
  8
Ｓ_１_１
  6
CONTINUOUS
 62
     3
100
AcDbLine
 10
1955.398924221878
 20
488.000000000002
 30
0.0
 11
1955.398924221878
 21
208.0000000000019
 31
0.0
  0
LINE
  5
232
330
1F
100
AcDbEntity
  8
Ｓ_１_１
  6
CONTINUOUS
 62
     3
100
AcDbLine
 10
1970.18099674206
 20
488.000000000002
 30
0.0
 11
1970.18099674206
 21
208.0000000000019
 31
0.0
  0
LINE
  5
233
330
1F
100
AcDbEntity
  8
Ｓ_１_１
  6
CONTINUOUS
 62
     3
100
AcDbLine
 10
1962.527328094759
 20
508.0000000000019
 30
0.0
 11
1905.650078014409
 21
508.0000000000019
 31
0.0
  0
LINE
  5
234
330
1F
100
AcDbEntity
  8
Ｓ_１_１
  6
CONTINUOUS
 62
     3
100
AcDbLine
 10
1970.18099674206
 20
488.000000000002
 30
0.0
 11
1955.398924221878
 21
488.000000000002
 31
0.0
  0
ELLIPSE
  5
235
330
1F
100
AcDbEntity
  8
Ｓ_１_１
  6
CONTINUOUS
 62
     3
100
AcDbEllipse
 10
1936.264752603619
 20
458.0000000000001
 30
0.0
 11
-4.592425496802574E-15
 21
-25.0
 31
0.0
210
0.0
220
0.0
230
1.0
 40
0.3936579944794147
 41
0.0
 42
6.283185307179586
  0
ELLIPSE
  5
236
330
1F
100
AcDbEntity
  8
Ｓ_１_１
  6
CONTINUOUS
 62
     3
100
AcDbEllipse
 10
1951.321189176659
 20
458.0000000000001
 30
0.0
 11
-4.592425496802574E-15
 21
-25.0
 31
0.0
210
0.0
220
0.0
230
1.0
 40
0.3936579944794147
 41
4.012556543107191
 42
5.4122214176622
  0
ELLIPSE
  5
237
330
1F
100
AcDbEntity
  8
Ｓ_１_１
  6
CONTINUOUS
 62
     3
100
AcDbEllipse
 10
1936.264752603619
 20
258.0000000000001
 30
0.0
 11
-4.592425496802574E-15
 21
-25.0
 31
0.0
210
0.0
220
0.0
230
1.0
 40
0.3936579944794147
 41
0.0
 42
6.283185307179586
  0
ELLIPSE
  5
238
330
1F
100
AcDbEntity
  8
Ｓ_１_１
  6
CONTINUOUS
 62
     3
100
AcDbEllipse
 10
1951.321189176659
 20
258.0000000000001
 30
0.0
 11
-4.592425496802574E-15
 21
-25.0
 31
0.0
210
0.0
220
0.0
230
1.0
 40
0.3936579944794147
 41
4.012556543107191
 42
5.412221417662196
  0
LINE
  5
239
330
1F
100
AcDbEntity
  8
Ｓ_１_１
  6
CONTINUOUS
 62
     3
100
AcDbLine
 10
1575.000000000006
 20
208.0000000000019
 30
0.0
 11
1575.000000000004
 21
180.0000000000028
 31
0.0
  0
LINE
  5
23A
330
1F
100
AcDbEntity
  8
Ｓ_１_１
  6
CONTINUOUS
 62
     3
100
AcDbLine
 10
2115.000000000005
 20
208.0000000000019
 30
0.0
 11
2115.000000000005
 21
180.0000000000028
 31
0.0
  0
LINE
  5
23B
330
1F
100
AcDbEntity
  8
Ｓ_１_１
  6
CONTINUOUS
 62
     3
100
AcDbLine
 10
1692.500016495993
 20
608.0000000000019
 30
0.0
 11
1692.500016495993
 21
807.9999835039799
 31
0.0
  0
LINE
  5
23C
330
1F
100
AcDbEntity
  8
Ｓ_１_１
  6
CONTINUOUS
 62
     3
100
AcDbLine
 10
1997.500032991981
 20
608.0000000000019
 30
0.0
 11
1997.500032991981
 21
807.9999835039799
 31
0.0
  0
LINE
  5
23D
330
1F
100
AcDbEntity
  8
Ｓ_１_１
  6
EXLTYPE2
 62
     1
100
AcDbLine
 10
2010.4997228674
 20
268.0000000000019
 30
0.0
 11
1970.4997228674
 21
268.0000000000019
 31
0.0
  0
LINE
  5
23E
330
1F
100
AcDbEntity
  8
Ｓ_１_１
  6
EXLTYPE2
 62
     1
100
AcDbLine
 10
1770.000000000004
 20
876.9575030352636
 30
0.0
 11
1770.000000000004
 21
780.6364548141911
 31
0.0
  0
LINE
  5
23F
330
1F
100
AcDbEntity
  8
Ｓ_１_１
  6
EXLTYPE2
 62
     1
100
AcDbLine
 10
1920.000000000004
 20
878.3298042915977
 30
0.0
 11
1920.000000000004
 21
777.7180010821386
 31
0.0
  0
LINE
  5
240
330
1F
100
AcDbEntity
  8
Ｓ_１_１
  6
EXLTYPE2
 62
     1
100
AcDbLine
 10
1935.000000000004
 20
926.5958614864885
 30
0.0
 11
1935.000000000004
 21
877.1833661053653
 31
0.0
  0
LINE
  5
241
330
1F
100
AcDbEntity
  8
Ｓ_１_１
  6
EXLTYPE2
 62
     1
100
AcDbLine
 10
1755.000000000004
 20
926.5958614864885
 30
0.0
 11
1755.000000000004
 21
877.1833661053653
 31
0.0
  0
LINE
  5
242
330
1F
100
AcDbEntity
  8
Ｓ_１_１
  6
EXLTYPE2
 62
     1
100
AcDbLine
 10
1775.000016495993
 20
924.7740115603901
 30
0.0
 11
1775.000016495993
 21
920.1872195682027
 31
0.0
  0
LINE
  5
243
330
1F
100
AcDbEntity
  8
Ｓ_１_１
  6
EXLTYPE2
 62
     1
100
AcDbLine
 10
1795.000032991981
 20
925.2917051573078
 30
0.0
 11
1795.000032991981
 21
920.5047343486077
 31
0.0
  0
LINE
  5
244
330
1F
100
AcDbEntity
  8
Ｓ_１_１
  6
EXLTYPE2
 62
     1
100
AcDbLine
 10
1895.000016495993
 20
925.2917051573078
 30
0.0
 11
1895.000016495993
 21
920.5047343486077
 31
0.0
  0
LINE
  5
245
330
1F
100
AcDbEntity
  8
Ｓ_１_１
  6
EXLTYPE2
 62
     1
100
AcDbLine
 10
1915.000032991981
 20
924.7740115603901
 30
0.0
 11
1915.000032991981
 21
920.1872195682027
 31
0.0
  0
LINE
  5
246
330
1F
100
AcDbEntity
  8
Ｓ_１_１
  6
EXLTYPE2
 62
     1
100
AcDbLine
 10
1737.609722867401
 20
458.0000000000019
 30
0.0
 11
1769.3197228674
 21
458.0000000000019
 31
0.0
  0
LINE
  5
247
330
1F
100
AcDbEntity
  8
Ｓ_１_１
  6
EXLTYPE2
 62
     1
100
AcDbLine
 10
1753.73524739639
 20
491.1775971283807
 30
0.0
 11
1753.73524739639
 21
423.2775971283801
 31
0.0
  0
LINE
  5
248
330
1F
100
AcDbEntity
  8
Ｓ_１_１
  6
EXLTYPE2
 62
     1
100
AcDbLine
 10
1737.609722867401
 20
258.0000000000019
 30
0.0
 11
1769.3197228674
 21
258.0000000000019
 31
0.0
  0
LINE
  5
249
330
1F
100
AcDbEntity
  8
Ｓ_１_１
  6
EXLTYPE2
 62
     1
100
AcDbLine
 10
1753.73524739639
 20
291.1775971283806
 30
0.0
 11
1753.73524739639
 21
223.2775971283801
 31
0.0
  0
LINE
  5
24A
330
1F
100
AcDbEntity
  8
Ｓ_１_１
  6
EXLTYPE2
 62
     1
100
AcDbLine
 10
1640.7997228674
 20
458.0000000000001
 30
0.0
 11
1580.599722867401
 21
458.0000000000001
 31
0.0
  0
LINE
  5
24B
330
1F
100
AcDbEntity
  8
Ｓ_１_１
  6
EXLTYPE2
 62
     1
100
AcDbLine
 10
1640.3797228674
 20
258.0000000000001
 30
0.0
 11
1581.509722867401
 21
258.0000000000001
 31
0.0
  0
LINE
  5
24C
330
1F
100
AcDbEntity
  8
Ｓ_１_１
  6
EXLTYPE2
 62
     1
100
AcDbLine
 10
1609.8853239775
 20
290.5575971283798
 30
0.0
 11
1609.8853239775
 21
224.3375971283805
 31
0.0
  0
LINE
  5
24D
330
1F
100
AcDbEntity
  8
Ｓ_１_１
  6
EXLTYPE2
 62
     1
100
AcDbLine
 10
1609.8853239775
 20
494.6775971283807
 30
0.0
 11
1609.8853239775
 21
423.3475971283807
 31
0.0
  0
LINE
  5
24E
330
1F
100
AcDbEntity
  8
Ｓ_１_１
  6
EXLTYPE2
 62
     1
100
AcDbLine
 10
2049.200277132608
 20
458.0000000000001
 30
0.0
 11
2109.40027713261
 21
458.0000000000001
 31
0.0
  0
LINE
  5
24F
330
1F
100
AcDbEntity
  8
Ｓ_１_１
  6
EXLTYPE2
 62
     1
100
AcDbLine
 10
2049.62027713261
 20
258.0000000000001
 30
0.0
 11
2108.49027713261
 21
258.0000000000001
 31
0.0
  0
LINE
  5
250
330
1F
100
AcDbEntity
  8
Ｓ_１_１
  6
EXLTYPE2
 62
     1
100
AcDbLine
 10
2080.11467602251
 20
290.5575971283798
 30
0.0
 11
2080.11467602251
 21
224.3375971283805
 31
0.0
  0
LINE
  5
251
330
1F
100
AcDbEntity
  8
Ｓ_１_１
  6
EXLTYPE2
 62
     1
100
AcDbLine
 10
2080.11467602251
 20
494.6775971283807
 30
0.0
 11
2080.11467602251
 21
423.3475971283807
 31
0.0
  0
LINE
  5
252
330
1F
100
AcDbEntity
  8
Ｓ_１_１
  6
EXLTYPE2
 62
     1
100
AcDbLine
 10
1952.390277132609
 20
458.0000000000019
 30
0.0
 11
1920.680277132608
 21
458.0000000000019
 31
0.0
  0
LINE
  5
253
330
1F
100
AcDbEntity
  8
Ｓ_１_１
  6
EXLTYPE2
 62
     1
100
AcDbLine
 10
1936.264752603619
 20
491.1775971283807
 30
0.0
 11
1936.264752603619
 21
423.2775971283801
 31
0.0
  0
LINE
  5
254
330
1F
100
AcDbEntity
  8
Ｓ_１_１
  6
EXLTYPE2
 62
     1
100
AcDbLine
 10
1952.390277132609
 20
258.0000000000019
 30
0.0
 11
1920.680277132608
 21
258.0000000000019
 31
0.0
  0
LINE
  5
255
330
1F
100
AcDbEntity
  8
Ｓ_１_１
  6
EXLTYPE2
 62
     1
100
AcDbLine
 10
1936.264752603619
 20
291.1775971283806
 30
0.0
 11
1936.264752603619
 21
223.2775971283801
 31
0.0
  0
LINE
  5
256
330
1F
100
AcDbEntity
  8
Ｓ_１_１
  6
EXLTYPE2
 62
     1
100
AcDbLine
 10
1845.000000000004
 20
929.7013302364885
 30
0.0
 11
1845.000000000004
 21
167.7775971283801
 31
0.0
  0
LINE
  5
257
330
1F
100
AcDbEntity
  8
Ｓ_１_１
  6
EXLTYPE0
 62
     2
100
AcDbLine
 10
1692.50001649599
 20
608.0000000000001
 30
0.0
 11
1692.50001649599
 21
242.9999670080253
 31
0.0
  0
LINE
  5
258
330
1F
100
AcDbEntity
  8
Ｓ_１_１
  6
EXLTYPE0
 62
     2
100
AcDbLine
 10
1997.49998350402
 20
242.9999670080307
 30
0.0
 11
1997.49998350402
 21
608.0000000000019
 31
0.0
  0
LINE
  5
259
330
1F
100
AcDbEntity
  8
Ｓ_１_１
  6
EXLTYPE0
 62
     2
100
AcDbLine
 10
1999.800000000003
 20
608.0000000000019
 30
0.0
 11
1999.800000000003
 21
208.0000000000019
 31
0.0
  0
LINE
  5
25A
330
1F
100
AcDbEntity
  8
Ｓ_１_１
  6
EXLTYPE0
 62
     2
100
AcDbLine
 10
1690.200000000005
 20
608.0000000000019
 30
0.0
 11
1690.200000000005
 21
208.0000000000019
 31
0.0
  0
LINE
  5
25B
330
1F
100
AcDbEntity
  8
Ｓ_１_１
  6
EXLTYPE0
 62
     2
100
AcDbLine
 10
1692.500016495993
 20
242.9999670080253
 30
0.0
 11
1702.49995051204
 21
242.9999670080253
 31
0.0
  0
LINE
  5
25C
330
1F
100
AcDbEntity
  8
Ｓ_１_１
  6
EXLTYPE0
 62
     2
100
AcDbLine
 10
1702.49995051204
 20
208.0000000000019
 30
0.0
 11
1702.49995051204
 21
242.9999670080253
 31
0.0
  0
LINE
  5
25D
330
1F
100
AcDbEntity
  8
Ｓ_１_１
  6
EXLTYPE0
 62
     2
100
AcDbLine
 10
1699.999967008027
 20
210.5000000000019
 30
0.0
 11
1702.499967008027
 21
208.0000000000019
 31
0.0
  0
LINE
  5
25E
330
1F
100
AcDbEntity
  8
Ｓ_１_１
  6
EXLTYPE0
 62
     2
100
AcDbLine
 10
1699.999967008027
 20
210.5000000000019
 30
0.0
 11
1699.999967008027
 21
237.9999670080253
 31
0.0
  0
LINE
  5
25F
330
1F
100
AcDbEntity
  8
Ｓ_１_１
  6
EXLTYPE0
 62
     2
100
AcDbLine
 10
1699.999967008027
 20
237.9999670080253
 30
0.0
 11
1702.49995051204
 21
237.9999670080253
 31
0.0
  0
LINE
  5
260
330
1F
100
AcDbEntity
  8
Ｓ_１_１
  6
EXLTYPE0
 62
     2
100
AcDbLine
 10
1997.499983504015
 20
242.9999670080253
 30
0.0
 11
1987.500049487968
 21
242.9999670080253
 31
0.0
  0
LINE
  5
261
330
1F
100
AcDbEntity
  8
Ｓ_１_１
  6
EXLTYPE0
 62
     2
100
AcDbLine
 10
1987.500049487968
 20
208.0000000000019
 30
0.0
 11
1987.500049487968
 21
242.9999670080253
 31
0.0
  0
LINE
  5
262
330
1F
100
AcDbEntity
  8
Ｓ_１_１
  6
EXLTYPE0
 62
     2
100
AcDbLine
 10
1990.000032991981
 20
210.5000000000019
 30
0.0
 11
1987.500032991981
 21
208.0000000000019
 31
0.0
  0
LINE
  5
263
330
1F
100
AcDbEntity
  8
Ｓ_１_１
  6
EXLTYPE0
 62
     2
100
AcDbLine
 10
1990.000032991981
 20
210.5000000000019
 30
0.0
 11
1990.000032991981
 21
237.9999670080253
 31
0.0
  0
LINE
  5
264
330
1F
100
AcDbEntity
  8
Ｓ_１_１
  6
EXLTYPE0
 62
     2
100
AcDbLine
 10
1990.000032991981
 20
237.9999670080253
 30
0.0
 11
1987.500049487968
 21
237.9999670080253
 31
0.0
  0
LINE
  5
265
330
1F
100
AcDbEntity
  8
Ｓ_１_１
  6
EXLTYPE0
 62
     2
100
AcDbLine
 10
1667.200000000001
 20
508.0000000000001
 30
0.0
 11
1667.200000000001
 21
208.0000000000019
 31
0.0
  0
LINE
  5
266
330
1F
100
AcDbEntity
  8
Ｓ_１_１
  6
EXLTYPE0
 62
     2
100
AcDbLine
 10
2022.800000000009
 20
508.0000000000001
 30
0.0
 11
2022.800000000009
 21
208.0000000000019
 31
0.0
  0
LINE
  5
267
330
1F
100
AcDbEntity
  8
Ｓ_１_１
  6
CONTINUOUS
 62
     3
100
AcDbLine
 10
850.000032991981
 20
869.9999406144444
 30
0.0
 11
850.000032991981
 21
822.9999835040136
 31
0.0
  0
LINE
  5
268
330
1F
100
AcDbEntity
  8
Ｓ_１_１
  6
CONTINUOUS
 62
     3
100
AcDbLine
 10
855.0000000000043
 20
874.9999571104328
 30
0.0
 11
850.000032991981
 21
869.9999406144444
 31
0.0
  0
LINE
  5
269
330
1F
100
AcDbEntity
  8
Ｓ_１_１
  6
CONTINUOUS
 62
     3
100
AcDbLine
 10
825.0000000000043
 20
883.1444388724686
 30
0.0
 11
826.9972847603519
 21
881.0397652290977
 31
0.0
  0
LINE
  5
26A
330
1F
100
AcDbEntity
  8
Ｓ_１_１
  6
CONTINUOUS
 62
     3
100
AcDbLine
 10
889.9863578177835
 20
877.7386705553228
 30
0.0
 11
826.9972847603519
 21
881.0397652290977
 31
0.0
  0
LINE
  5
26B
330
1F
100
AcDbEntity
  8
Ｓ_１_１
  6
CONTINUOUS
 62
     3
100
AcDbLine
 10
1065.000000000004
 20
883.1444388724686
 30
0.0
 11
1063.002764727623
 21
881.0397652290977
 31
0.0
  0
LINE
  5
26C
330
1F
100
AcDbEntity
  8
Ｓ_１_１
  6
CONTINUOUS
 62
     3
100
AcDbLine
 10
1000.013691670191
 20
877.7386705553228
 30
0.0
 11
1063.002764727623
 21
881.0397652290977
 31
0.0
  0
LINE
  5
26D
330
1F
100
AcDbEntity
  8
Ｓ_１_１
  6
CONTINUOUS
 62
     3
100
AcDbLine
 10
844.9999175200635
 20
817.9999670080252
 30
0.0
 11
847.8865999788893
 21
822.9999835040136
 31
0.0
  0
LINE
  5
26E
330
1F
100
AcDbEntity
  8
Ｓ_１_１
  6
CONTINUOUS
 62
     3
100
AcDbLine
 10
1092.500065983958
 20
812.9999505120378
 30
0.0
 11
1097.500032991981
 21
807.9999835040136
 31
0.0
  0
LINE
  5
26F
330
1F
100
AcDbEntity
  8
Ｓ_１_１
  6
CONTINUOUS
 62
     3
100
AcDbLine
 10
797.499538112336
 20
812.9999505120378
 30
0.0
 11
792.5000164959936
 21
807.9999835040136
 31
0.0
  0
LINE
  5
270
330
1F
100
AcDbEntity
  8
Ｓ_１_１
  6
CONTINUOUS
 62
     3
100
AcDbLine
 10
1042.113004117404
 20
822.9999835040136
 30
0.0
 11
1045.000032991981
 21
817.9999670080252
 31
0.0
  0
LINE
  5
271
330
1F
100
AcDbEntity
  8
Ｓ_１_１
  6
CONTINUOUS
 62
     3
100
AcDbLine
 10
825.0000000000043
 20
920.9999604096303
 30
0.0
 11
827.0000065984011
 21
922.9999670080251
 31
0.0
  0
LINE
  5
272
330
1F
100
AcDbEntity
  8
Ｓ_１_１
  6
CONTINUOUS
 62
     3
100
AcDbLine
 10
1063.000042889573
 20
922.9999670080251
 30
0.0
 11
1065.000000000004
 21
920.9999604096303
 31
0.0
  0
LINE
  5
273
330
1F
100
AcDbEntity
  8
Ｓ_１_１
  6
CONTINUOUS
 62
     3
100
AcDbLine
 10
825.0000000000043
 20
920.9999604096303
 30
0.0
 11
825.0000000000043
 21
883.1444388724686
 31
0.0
  0
LINE
  5
274
330
1F
100
AcDbEntity
  8
Ｓ_１_１
  6
CONTINUOUS
 62
     3
100
AcDbLine
 10
1065.000000000004
 20
920.9999604096303
 30
0.0
 11
1065.000000000004
 21
883.1444388724686
 31
0.0
  0
LINE
  5
275
330
1F
100
AcDbEntity
  8
Ｓ_１_１
  6
CONTINUOUS
 62
     3
100
AcDbLine
 10
1063.000042889573
 20
922.9999670080251
 30
0.0
 11
827.0000065984011
 21
922.9999670080251
 31
0.0
  0
LINE
  5
276
330
1F
100
AcDbEntity
  8
Ｓ_１_１
  6
CONTINUOUS
 62
     3
100
AcDbLine
 10
1040.000016495994
 20
869.9999406144444
 30
0.0
 11
1040.000016495994
 21
822.9999835040136
 31
0.0
  0
LINE
  5
277
330
1F
100
AcDbEntity
  8
Ｓ_１_１
  6
CONTINUOUS
 62
     3
100
AcDbLine
 10
1040.000016495994
 20
869.9999406144444
 30
0.0
 11
1035.000000000004
 21
874.9999571104328
 31
0.0
  0
LINE
  5
278
330
1F
100
AcDbEntity
  8
Ｓ_１_１
  6
CONTINUOUS
 62
     3
100
AcDbLine
 10
889.9863578177799
 20
877.73867055528
 30
0.0
 11
999.9993813691042
 21
877.73867055528
 31
0.0
  0
LINE
  5
279
330
1F
100
AcDbEntity
  8
Ｓ_１_１
  6
CONTINUOUS
 62
     3
100
AcDbLine
 10
1035.000000000004
 20
874.9999571104328
 30
0.0
 11
855.0000000000043
 21
874.9999571104328
 31
0.0
  0
LINE
  5
27A
330
1F
100
AcDbEntity
  8
Ｓ_１_１
  6
CONTINUOUS
 62
     3
100
AcDbLine
 10
1042.113004117404
 20
822.9999835040136
 30
0.0
 11
847.8865999788893
 21
822.9999835040136
 31
0.0
  0
LINE
  5
27B
330
1F
100
AcDbEntity
  8
Ｓ_１_１
  6
CONTINUOUS
 62
     3
100
AcDbLine
 10
1092.500065983958
 20
812.9999505120378
 30
0.0
 11
797.499538112336
 21
812.9999505120378
 31
0.0
  0
LINE
  5
27C
330
1F
100
AcDbEntity
  8
Ｓ_１_１
  6
CONTINUOUS
 62
     3
100
AcDbLine
 10
845.0000164959936
 20
817.9999670080252
 30
0.0
 11
845.0000164959936
 21
812.9999505120378
 31
0.0
  0
LINE
  5
27D
330
1F
100
AcDbEntity
  8
Ｓ_１_１
  6
CONTINUOUS
 62
     3
100
AcDbLine
 10
1045.000032991981
 20
817.9999670080252
 30
0.0
 11
1045.000032991981
 21
812.9999505120378
 31
0.0
  0
LINE
  5
27E
330
1F
100
AcDbEntity
  8
Ｓ_１_１
  6
CONTINUOUS
 62
     3
100
AcDbLine
 10
845.0000164959899
 20
818.0001384439803
 30
0.0
 11
1045.000032991981
 21
818.0001384439803
 31
0.0
  0
ARC
  5
27F
330
1F
100
AcDbEntity
  8
Ｓ_１_１
  6
CONTINUOUS
 62
     3
100
AcDbCircle
 10
945.0000000000042
 20
877.9999670080252
 30
0.0
 40
55.00000206199852
100
AcDbArc
 50
356.8732136776573
 51
359.7278747558593
  0
LINE
  5
280
330
1F
100
AcDbEntity
  8
Ｓ_１_１
  6
CONTINUOUS
 62
     3
100
AcDbLine
 10
1040.00001649599
 20
869.9999406144799
 30
0.0
 11
850.000032991981
 21
869.9999406144799
 31
0.0
  0
LINE
  5
281
330
1F
100
AcDbEntity
  8
Ｓ_１_１
  6
CONTINUOUS
 62
     3
100
AcDbLine
 10
792.5000164959899
 20
807.9999835039799
 30
0.0
 11
1097.500032991981
 21
807.9999835039799
 31
0.0
  0
LINE
  5
282
330
1F
100
AcDbEntity
  8
Ｓ_１_１
  6
CONTINUOUS
 62
     3
100
AcDbLine
 10
1245.000000000004
 20
208.0000000000019
 30
0.0
 11
1245.000000000004
 21
180.0000000000028
 31
0.0
  0
LINE
  5
283
330
1F
100
AcDbEntity
  8
Ｓ_１_１
  6
CONTINUOUS
 62
     3
100
AcDbLine
 10
645.0000000000043
 20
208.0000000000019
 30
0.0
 11
645.0000000000043
 21
180.0000000000028
 31
0.0
  0
LINE
  5
284
330
1F
100
AcDbEntity
  8
Ｓ_１_１
  6
CONTINUOUS
 62
     3
100
AcDbLine
 10
645.0000000000043
 20
180.0000000000019
 30
0.0
 11
1245.000000000004
 21
180.0000000000019
 31
0.0
  0
LINE
  5
285
330
1F
100
AcDbEntity
  8
Ｓ_１_１
  6
CONTINUOUS
 62
     3
100
AcDbLine
 10
825.0000000000007
 20
920.9999604096802
 30
0.0
 11
1065.000000000004
 21
920.9999604096802
 31
0.0
  0
LINE
  5
286
330
1F
100
AcDbEntity
  8
Ｓ_１_１
  6
CONTINUOUS
 62
     3
100
AcDbLine
 10
1065.000000000001
 20
883.1444388724805
 30
0.0
 11
825.0000000000043
 21
883.1444388724805
 31
0.0
  0
LINE
  5
287
330
1F
100
AcDbEntity
  8
Ｓ_１_１
  6
CONTINUOUS
 62
     3
100
AcDbLine
 10
826.9972847603501
 20
881.0397652290804
 30
0.0
 11
1063.002764727621
 21
881.0397652290804
 31
0.0
  0
LINE
  5
288
330
1F
100
AcDbEntity
  8
Ｓ_１_１
  6
CONTINUOUS
 62
     3
100
AcDbLine
 10
767.200000000005
 20
605.0000000000019
 30
0.0
 11
770.200000000005
 21
608.0000000000019
 31
0.0
  0
LINE
  5
289
330
1F
100
AcDbEntity
  8
Ｓ_１_１
  6
CONTINUOUS
 62
     3
100
AcDbLine
 10
1119.800000000005
 20
608.0000000000019
 30
0.0
 11
770.200000000005
 21
608.0000000000019
 31
0.0
  0
LINE
  5
28A
330
1F
100
AcDbEntity
  8
Ｓ_１_１
  6
CONTINUOUS
 62
     3
100
AcDbLine
 10
1119.800000000005
 20
608.0000000000019
 30
0.0
 11
1122.800000000005
 21
605.0000000000019
 31
0.0
  0
LINE
  5
28B
330
1F
100
AcDbEntity
  8
Ｓ_１_１
  6
CONTINUOUS
 62
     3
100
AcDbLine
 10
767.2000000000014
 20
605.0000000000001
 30
0.0
 11
1122.800000000005
 21
605.0000000000001
 31
0.0
  0
LINE
  5
28C
330
1F
100
AcDbEntity
  8
Ｓ_１_１
  6
CONTINUOUS
 62
     3
100
AcDbLine
 10
645.0000000000043
 20
208.0000000000019
 30
0.0
 11
1245.000000000004
 21
208.0000000000019
 31
0.0
  0
LINE
  5
28D
330
1F
100
AcDbEntity
  8
Ｓ_１_１
  6
CONTINUOUS
 62
     3
100
AcDbLine
 10
884.349921985601
 20
508.0000000000019
 30
0.0
 11
884.349921985601
 21
208.0000000000019
 31
0.0
  0
LINE
  5
28E
330
1F
100
AcDbEntity
  8
Ｓ_１_１
  6
CONTINUOUS
 62
     3
100
AcDbLine
 10
842.2547444254312
 20
508.0000000000001
 30
0.0
 11
834.6010757781303
 21
488.0000000000001
 31
0.0
  0
LINE
  5
28F
330
1F
100
AcDbEntity
  8
Ｓ_１_１
  6
CONTINUOUS
 62
     3
100
AcDbLine
 10
827.4726719052512
 20
508.0000000000001
 30
0.0
 11
819.8190032579503
 21
488.0000000000001
 31
0.0
  0
LINE
  5
290
330
1F
100
AcDbEntity
  8
Ｓ_１_１
  6
CONTINUOUS
 62
     3
100
AcDbLine
 10
834.6010757781303
 20
488.000000000002
 30
0.0
 11
834.6010757781303
 21
208.0000000000019
 31
0.0
  0
LINE
  5
291
330
1F
100
AcDbEntity
  8
Ｓ_１_１
  6
CONTINUOUS
 62
     3
100
AcDbLine
 10
819.8190032579503
 20
488.000000000002
 30
0.0
 11
819.8190032579503
 21
208.0000000000019
 31
0.0
  0
LINE
  5
292
330
1F
100
AcDbEntity
  8
Ｓ_１_１
  6
CONTINUOUS
 62
     3
100
AcDbLine
 10
827.4726719052512
 20
508.0000000000019
 30
0.0
 11
884.349921985601
 21
508.0000000000019
 31
0.0
  0
LINE
  5
293
330
1F
100
AcDbEntity
  8
Ｓ_１_１
  6
CONTINUOUS
 62
     3
100
AcDbLine
 10
819.8190032579503
 20
488.000000000002
 30
0.0
 11
834.6010757781321
 21
488.000000000002
 31
0.0
  0
ELLIPSE
  5
294
330
1F
100
AcDbEntity
  8
Ｓ_１_１
  6
CONTINUOUS
 62
     3
100
AcDbEllipse
 10
853.7352473963899
 20
458.0000000000001
 30
0.0
 11
-4.592425496802574E-15
 21
-25.0
 31
0.0
210
0.0
220
0.0
230
1.0
 40
0.3936579944794147
 41
0.0
 42
6.283185307179586
  0
ELLIPSE
  5
295
330
1F
100
AcDbEntity
  8
Ｓ_１_１
  6
CONTINUOUS
 62
     3
100
AcDbEllipse
 10
838.6788108233511
 20
458.0000000000001
 30
0.0
 11
-4.592425496802574E-15
 21
-25.0
 31
0.0
210
0.0
220
0.0
230
1.0
 40
0.3936579944794147
 41
0.8709638895173866
 42
2.270628764072399
  0
ELLIPSE
  5
296
330
1F
100
AcDbEntity
  8
Ｓ_１_１
  6
CONTINUOUS
 62
     3
100
AcDbEllipse
 10
853.7352473963899
 20
258.0000000000001
 30
0.0
 11
-4.592425496802574E-15
 21
-25.0
 31
0.0
210
0.0
220
0.0
230
1.0
 40
0.3936579944794147
 41
0.0
 42
6.283185307179586
  0
ELLIPSE
  5
297
330
1F
100
AcDbEntity
  8
Ｓ_１_１
  6
CONTINUOUS
 62
     3
100
AcDbEllipse
 10
838.6788108233511
 20
258.0000000000001
 30
0.0
 11
-4.592425496802574E-15
 21
-25.0
 31
0.0
210
0.0
220
0.0
230
1.0
 40
0.3936579944794147
 41
0.8709638895173866
 42
2.270628764072399
  0
LINE
  5
298
330
1F
100
AcDbEntity
  8
Ｓ_１_１
  6
CONTINUOUS
 62
     3
100
AcDbLine
 10
682.1689380021605
 20
508.0000000000001
 30
0.0
 11
663.6913473519405
 21
488.0000000000001
 31
0.0
  0
LINE
  5
299
330
1F
100
AcDbEntity
  8
Ｓ_１_１
  6
CONTINUOUS
 62
     3
100
AcDbLine
 10
663.6913473519405
 20
488.0000000000001
 30
0.0
 11
657.5684124340903
 21
488.0000000000001
 31
0.0
  0
LINE
  5
29A
330
1F
100
AcDbEntity
  8
Ｓ_１_１
  6
CONTINUOUS
 62
     3
100
AcDbLine
 10
663.6913473519405
 20
488.0000000000001
 30
0.0
 11
663.6913473519405
 21
208.0000000000019
 31
0.0
  0
LINE
  5
29B
330
1F
100
AcDbEntity
  8
Ｓ_１_１
  6
CONTINUOUS
 62
     3
100
AcDbLine
 10
783.7956865784006
 20
508.0000000000001
 30
0.0
 11
676.0460030843212
 21
508.0000000000001
 31
0.0
  0
LINE
  5
29C
330
1F
100
AcDbEntity
  8
Ｓ_１_１
  6
CONTINUOUS
 62
     3
100
AcDbLine
 10
676.0460030843212
 20
508.0000000000001
 30
0.0
 11
657.5684124341012
 21
488.0000000000001
 31
0.0
  0
LINE
  5
29D
330
1F
100
AcDbEntity
  8
Ｓ_１_１
  6
CONTINUOUS
 62
     3
100
AcDbLine
 10
657.5684124340903
 20
488.0000000000001
 30
0.0
 11
657.5684124340903
 21
208.0000000000019
 31
0.0
  0
LINE
  5
29E
330
1F
100
AcDbEntity
  8
Ｓ_１_１
  6
CONTINUOUS
 62
     3
100
AcDbLine
 10
783.7956865784006
 20
508.0000000000001
 30
0.0
 11
783.7956865784006
 21
208.0000000000019
 31
0.0
  0
ELLIPSE
  5
29F
330
1F
100
AcDbEntity
  8
Ｓ_１_１
  6
CONTINUOUS
 62
     3
100
AcDbEllipse
 10
709.8853239775005
 20
458.0000000000001
 30
0.0
 11
-4.592425496802574E-15
 21
-25.0
 31
0.0
210
0.0
220
0.0
230
1.0
 40
0.9238795325111983
 41
0.0
 42
6.283185307179586
  0
ELLIPSE
  5
2A0
330
1F
100
AcDbEntity
  8
Ｓ_１_１
  6
CONTINUOUS
 62
     3
100
AcDbEllipse
 10
703.7623890596612
 20
458.0000000000001
 30
0.0
 11
-4.592425496802574E-15
 21
-25.0
 31
0.0
210
0.0
220
0.0
230
1.0
 40
0.9238795325111983
 41
0.1329395659947726
 42
3.008653087595019
  0
ELLIPSE
  5
2A1
330
1F
100
AcDbEntity
  8
Ｓ_１_１
  6
CONTINUOUS
 62
     3
100
AcDbEllipse
 10
709.8853239775005
 20
258.0000000000001
 30
0.0
 11
-4.592425496802574E-15
 21
-25.0
 31
0.0
210
0.0
220
0.0
230
1.0
 40
0.9238795325111983
 41
0.0
 42
6.283185307179586
  0
ELLIPSE
  5
2A2
330
1F
100
AcDbEntity
  8
Ｓ_１_１
  6
CONTINUOUS
 62
     3
100
AcDbEllipse
 10
703.7623890596612
 20
258.0000000000001
 30
0.0
 11
-4.592425496802574E-15
 21
-25.0
 31
0.0
210
0.0
220
0.0
230
1.0
 40
0.9238795325111983
 41
0.1329395659947726
 42
3.008653087595019
  0
LINE
  5
2A3
330
1F
100
AcDbEntity
  8
Ｓ_１_１
  6
CONTINUOUS
 62
     3
100
AcDbLine
 10
767.200000000005
 20
605.0000000000019
 30
0.0
 11
767.200000000005
 21
508.0000000000001
 31
0.0
  0
LINE
  5
2A4
330
1F
100
AcDbEntity
  8
Ｓ_１_１
  6
CONTINUOUS
 62
     3
100
AcDbLine
 10
1207.83106199785
 20
508.0000000000001
 30
0.0
 11
1226.30865264807
 21
488.0000000000001
 31
0.0
  0
LINE
  5
2A5
330
1F
100
AcDbEntity
  8
Ｓ_１_１
  6
CONTINUOUS
 62
     3
100
AcDbLine
 10
1226.30865264807
 20
488.0000000000001
 30
0.0
 11
1232.43158756592
 21
488.0000000000001
 31
0.0
  0
LINE
  5
2A6
330
1F
100
AcDbEntity
  8
Ｓ_１_１
  6
CONTINUOUS
 62
     3
100
AcDbLine
 10
1226.30865264807
 20
488.0000000000001
 30
0.0
 11
1226.30865264807
 21
208.0000000000019
 31
0.0
  0
LINE
  5
2A7
330
1F
100
AcDbEntity
  8
Ｓ_１_１
  6
CONTINUOUS
 62
     3
100
AcDbLine
 10
1106.20431342161
 20
508.0000000000001
 30
0.0
 11
1213.953996915689
 21
508.0000000000001
 31
0.0
  0
LINE
  5
2A8
330
1F
100
AcDbEntity
  8
Ｓ_１_１
  6
CONTINUOUS
 62
     3
100
AcDbLine
 10
1213.953996915689
 20
508.0000000000001
 30
0.0
 11
1232.431587565909
 21
488.0000000000001
 31
0.0
  0
LINE
  5
2A9
330
1F
100
AcDbEntity
  8
Ｓ_１_１
  6
CONTINUOUS
 62
     3
100
AcDbLine
 10
1232.43158756592
 20
488.0000000000001
 30
0.0
 11
1232.43158756592
 21
208.0000000000019
 31
0.0
  0
LINE
  5
2AA
330
1F
100
AcDbEntity
  8
Ｓ_１_１
  6
CONTINUOUS
 62
     3
100
AcDbLine
 10
1106.20431342161
 20
508.0000000000001
 30
0.0
 11
1106.20431342161
 21
208.0000000000019
 31
0.0
  0
ELLIPSE
  5
2AB
330
1F
100
AcDbEntity
  8
Ｓ_１_１
  6
CONTINUOUS
 62
     3
100
AcDbEllipse
 10
1180.11467602251
 20
458.0000000000001
 30
0.0
 11
-4.592425496802574E-15
 21
-25.0
 31
0.0
210
0.0
220
0.0
230
1.0
 40
0.9238795325111983
 41
0.0
 42
6.283185307179586
  0
ELLIPSE
  5
2AC
330
1F
100
AcDbEntity
  8
Ｓ_１_１
  6
CONTINUOUS
 62
     3
100
AcDbEllipse
 10
1186.237610940349
 20
458.0000000000001
 30
0.0
 11
-4.592425496802574E-15
 21
-25.0
 31
0.0
210
0.0
220
0.0
230
1.0
 40
0.9238795325111983
 41
3.274532219584562
 42
6.150245741184818
  0
ELLIPSE
  5
2AD
330
1F
100
AcDbEntity
  8
Ｓ_１_１
  6
CONTINUOUS
 62
     3
100
AcDbEllipse
 10
1180.11467602251
 20
258.0000000000001
 30
0.0
 11
-4.592425496802574E-15
 21
-25.0
 31
0.0
210
0.0
220
0.0
230
1.0
 40
0.9238795325111983
 41
0.0
 42
6.283185307179586
  0
ELLIPSE
  5
2AE
330
1F
100
AcDbEntity
  8
Ｓ_１_１
  6
CONTINUOUS
 62
     3
100
AcDbEllipse
 10
1186.237610940349
 20
258.0000000000001
 30
0.0
 11
-4.592425496802574E-15
 21
-25.0
 31
0.0
210
0.0
220
0.0
230
1.0
 40
0.9238795325111983
 41
3.274532219584567
 42
6.150245741184812
  0
LINE
  5
2AF
330
1F
100
AcDbEntity
  8
Ｓ_１_１
  6
CONTINUOUS
 62
     3
100
AcDbLine
 10
1122.800000000005
 20
605.0000000000019
 30
0.0
 11
1122.800000000005
 21
508.0000000000001
 31
0.0
  0
LINE
  5
2B0
330
1F
100
AcDbEntity
  8
Ｓ_１_１
  6
CONTINUOUS
 62
     3
100
AcDbLine
 10
1005.65007801441
 20
508.0000000000019
 30
0.0
 11
1005.65007801441
 21
208.0000000000019
 31
0.0
  0
LINE
  5
2B1
330
1F
100
AcDbEntity
  8
Ｓ_１_１
  6
CONTINUOUS
 62
     3
100
AcDbLine
 10
1047.745255574579
 20
508.0000000000001
 30
0.0
 11
1055.39892422188
 21
488.0000000000001
 31
0.0
  0
LINE
  5
2B2
330
1F
100
AcDbEntity
  8
Ｓ_１_１
  6
CONTINUOUS
 62
     3
100
AcDbLine
 10
1062.527328094759
 20
508.0000000000001
 30
0.0
 11
1070.18099674206
 21
488.0000000000001
 31
0.0
  0
LINE
  5
2B3
330
1F
100
AcDbEntity
  8
Ｓ_１_１
  6
CONTINUOUS
 62
     3
100
AcDbLine
 10
1055.39892422188
 20
488.000000000002
 30
0.0
 11
1055.39892422188
 21
208.0000000000019
 31
0.0
  0
LINE
  5
2B4
330
1F
100
AcDbEntity
  8
Ｓ_１_１
  6
CONTINUOUS
 62
     3
100
AcDbLine
 10
1070.18099674206
 20
488.000000000002
 30
0.0
 11
1070.18099674206
 21
208.0000000000019
 31
0.0
  0
LINE
  5
2B5
330
1F
100
AcDbEntity
  8
Ｓ_１_１
  6
CONTINUOUS
 62
     3
100
AcDbLine
 10
1062.527328094759
 20
508.0000000000019
 30
0.0
 11
1005.65007801441
 21
508.0000000000019
 31
0.0
  0
LINE
  5
2B6
330
1F
100
AcDbEntity
  8
Ｓ_１_１
  6
CONTINUOUS
 62
     3
100
AcDbLine
 10
1070.18099674206
 20
488.000000000002
 30
0.0
 11
1055.398924221878
 21
488.000000000002
 31
0.0
  0
ELLIPSE
  5
2B7
330
1F
100
AcDbEntity
  8
Ｓ_１_１
  6
CONTINUOUS
 62
     3
100
AcDbEllipse
 10
1036.264752603619
 20
458.0000000000001
 30
0.0
 11
-4.592425496802574E-15
 21
-25.0
 31
0.0
210
0.0
220
0.0
230
1.0
 40
0.3936579944794147
 41
0.0
 42
6.283185307179586
  0
ELLIPSE
  5
2B8
330
1F
100
AcDbEntity
  8
Ｓ_１_１
  6
CONTINUOUS
 62
     3
100
AcDbEllipse
 10
1051.321189176659
 20
458.0000000000001
 30
0.0
 11
-4.592425496802574E-15
 21
-25.0
 31
0.0
210
0.0
220
0.0
230
1.0
 40
0.3936579944794147
 41
4.012556543107191
 42
5.4122214176622
  0
ELLIPSE
  5
2B9
330
1F
100
AcDbEntity
  8
Ｓ_１_１
  6
CONTINUOUS
 62
     3
100
AcDbEllipse
 10
1036.264752603619
 20
258.0000000000001
 30
0.0
 11
-4.592425496802574E-15
 21
-25.0
 31
0.0
210
0.0
220
0.0
230
1.0
 40
0.3936579944794147
 41
0.0
 42
6.283185307179586
  0
ELLIPSE
  5
2BA
330
1F
100
AcDbEntity
  8
Ｓ_１_１
  6
CONTINUOUS
 62
     3
100
AcDbEllipse
 10
1051.321189176659
 20
258.0000000000001
 30
0.0
 11
-4.592425496802574E-15
 21
-25.0
 31
0.0
210
0.0
220
0.0
230
1.0
 40
0.3936579944794147
 41
4.012556543107191
 42
5.412221417662196
  0
CIRCLE
  5
2BB
330
1F
100
AcDbEntity
  8
Ｓ_１_１
  6
CONTINUOUS
 62
     3
100
AcDbCircle
 10
945.0000000000007
 20
268.0000000000001
 30
0.0
 40
40.0
  0
LINE
  5
2BC
330
1F
100
AcDbEntity
  8
Ｓ_１_１
  6
CONTINUOUS
 62
     3
100
AcDbLine
 10
675.0000000000061
 20
208.0000000000019
 30
0.0
 11
675.0000000000043
 21
180.0000000000028
 31
0.0
  0
LINE
  5
2BD
330
1F
100
AcDbEntity
  8
Ｓ_１_１
  6
CONTINUOUS
 62
     3
100
AcDbLine
 10
1215.000000000004
 20
208.0000000000019
 30
0.0
 11
1215.000000000004
 21
180.0000000000028
 31
0.0
  0
LINE
  5
2BE
330
1F
100
AcDbEntity
  8
Ｓ_１_１
  6
CONTINUOUS
 62
     3
100
AcDbLine
 10
792.5000164959936
 20
608.0000000000019
 30
0.0
 11
792.5000164959936
 21
807.9999835039799
 31
0.0
  0
LINE
  5
2BF
330
1F
100
AcDbEntity
  8
Ｓ_１_１
  6
CONTINUOUS
 62
     3
100
AcDbLine
 10
1097.500032991981
 20
608.0000000000019
 30
0.0
 11
1097.500032991981
 21
807.9999835039799
 31
0.0
  0
LINE
  5
2C0
330
1F
100
AcDbEntity
  8
Ｓ_１_１
  6
EXLTYPE2
 62
     1
100
AcDbLine
 10
1110.499722867401
 20
268.0000000000019
 30
0.0
 11
1070.499722867401
 21
268.0000000000019
 31
0.0
  0
LINE
  5
2C1
330
1F
100
AcDbEntity
  8
Ｓ_１_１
  6
EXLTYPE2
 62
     1
100
AcDbLine
 10
870.0000000000043
 20
876.9575030352636
 30
0.0
 11
870.0000000000043
 21
780.6364548141911
 31
0.0
  0
LINE
  5
2C2
330
1F
100
AcDbEntity
  8
Ｓ_１_１
  6
EXLTYPE2
 62
     1
100
AcDbLine
 10
1020.000000000004
 20
878.3298042915977
 30
0.0
 11
1020.000000000004
 21
777.7180010821386
 31
0.0
  0
LINE
  5
2C3
330
1F
100
AcDbEntity
  8
Ｓ_１_１
  6
EXLTYPE2
 62
     1
100
AcDbLine
 10
1035.000000000004
 20
926.5958614864885
 30
0.0
 11
1035.000000000004
 21
877.1833661053653
 31
0.0
  0
LINE
  5
2C4
330
1F
100
AcDbEntity
  8
Ｓ_１_１
  6
EXLTYPE2
 62
     1
100
AcDbLine
 10
855.0000000000043
 20
926.5958614864885
 30
0.0
 11
855.0000000000043
 21
877.1833661053653
 31
0.0
  0
LINE
  5
2C5
330
1F
100
AcDbEntity
  8
Ｓ_１_１
  6
EXLTYPE2
 62
     1
100
AcDbLine
 10
875.0000164959936
 20
924.7740115603901
 30
0.0
 11
875.0000164959936
 21
920.1872195682027
 31
0.0
  0
LINE
  5
2C6
330
1F
100
AcDbEntity
  8
Ｓ_１_１
  6
EXLTYPE2
 62
     1
100
AcDbLine
 10
895.000032991981
 20
925.2917051573078
 30
0.0
 11
895.000032991981
 21
920.5047343486077
 31
0.0
  0
LINE
  5
2C7
330
1F
100
AcDbEntity
  8
Ｓ_１_１
  6
EXLTYPE2
 62
     1
100
AcDbLine
 10
995.0000164959937
 20
925.2917051573078
 30
0.0
 11
995.0000164959937
 21
920.5047343486077
 31
0.0
  0
LINE
  5
2C8
330
1F
100
AcDbEntity
  8
Ｓ_１_１
  6
EXLTYPE2
 62
     1
100
AcDbLine
 10
1015.000032991981
 20
924.7740115603901
 30
0.0
 11
1015.000032991981
 21
920.1872195682027
 31
0.0
  0
LINE
  5
2C9
330
1F
100
AcDbEntity
  8
Ｓ_１_１
  6
EXLTYPE2
 62
     1
100
AcDbLine
 10
837.6097228674014
 20
458.0000000000019
 30
0.0
 11
869.3197228674005
 21
458.0000000000019
 31
0.0
  0
LINE
  5
2CA
330
1F
100
AcDbEntity
  8
Ｓ_１_１
  6
EXLTYPE2
 62
     1
100
AcDbLine
 10
853.7352473963899
 20
491.1775971283807
 30
0.0
 11
853.7352473963899
 21
423.2775971283801
 31
0.0
  0
LINE
  5
2CB
330
1F
100
AcDbEntity
  8
Ｓ_１_１
  6
EXLTYPE2
 62
     1
100
AcDbLine
 10
837.6097228674014
 20
258.0000000000019
 30
0.0
 11
869.3197228674005
 21
258.0000000000019
 31
0.0
  0
LINE
  5
2CC
330
1F
100
AcDbEntity
  8
Ｓ_１_１
  6
EXLTYPE2
 62
     1
100
AcDbLine
 10
853.7352473963899
 20
291.1775971283806
 30
0.0
 11
853.7352473963899
 21
223.2775971283801
 31
0.0
  0
LINE
  5
2CD
330
1F
100
AcDbEntity
  8
Ｓ_１_１
  6
EXLTYPE2
 62
     1
100
AcDbLine
 10
740.7997228674001
 20
458.0000000000001
 30
0.0
 11
680.5997228674012
 21
458.0000000000001
 31
0.0
  0
LINE
  5
2CE
330
1F
100
AcDbEntity
  8
Ｓ_１_１
  6
EXLTYPE2
 62
     1
100
AcDbLine
 10
740.3797228674
 20
258.0000000000001
 30
0.0
 11
681.509722867401
 21
258.0000000000001
 31
0.0
  0
LINE
  5
2CF
330
1F
100
AcDbEntity
  8
Ｓ_１_１
  6
EXLTYPE2
 62
     1
100
AcDbLine
 10
709.8853239775005
 20
290.5575971283798
 30
0.0
 11
709.8853239775005
 21
224.3375971283805
 31
0.0
  0
LINE
  5
2D0
330
1F
100
AcDbEntity
  8
Ｓ_１_１
  6
EXLTYPE2
 62
     1
100
AcDbLine
 10
709.8853239775005
 20
494.6775971283807
 30
0.0
 11
709.8853239775005
 21
423.3475971283807
 31
0.0
  0
LINE
  5
2D1
330
1F
100
AcDbEntity
  8
Ｓ_１_１
  6
EXLTYPE2
 62
     1
100
AcDbLine
 10
1149.20027713261
 20
458.0000000000001
 30
0.0
 11
1209.400277132609
 21
458.0000000000001
 31
0.0
  0
LINE
  5
2D2
330
1F
100
AcDbEntity
  8
Ｓ_１_１
  6
EXLTYPE2
 62
     1
100
AcDbLine
 10
1149.62027713261
 20
258.0000000000001
 30
0.0
 11
1208.490277132609
 21
258.0000000000001
 31
0.0
  0
LINE
  5
2D3
330
1F
100
AcDbEntity
  8
Ｓ_１_１
  6
EXLTYPE2
 62
     1
100
AcDbLine
 10
1180.11467602251
 20
290.5575971283798
 30
0.0
 11
1180.11467602251
 21
224.3375971283805
 31
0.0
  0
LINE
  5
2D4
330
1F
100
AcDbEntity
  8
Ｓ_１_１
  6
EXLTYPE2
 62
     1
100
AcDbLine
 10
1180.11467602251
 20
494.6775971283807
 30
0.0
 11
1180.11467602251
 21
423.3475971283807
 31
0.0
  0
LINE
  5
2D5
330
1F
100
AcDbEntity
  8
Ｓ_１_１
  6
EXLTYPE2
 62
     1
100
AcDbLine
 10
1052.390277132609
 20
458.0000000000019
 30
0.0
 11
1020.68027713261
 21
458.0000000000019
 31
0.0
  0
LINE
  5
2D6
330
1F
100
AcDbEntity
  8
Ｓ_１_１
  6
EXLTYPE2
 62
     1
100
AcDbLine
 10
1036.264752603619
 20
491.1775971283807
 30
0.0
 11
1036.264752603619
 21
423.2775971283801
 31
0.0
  0
LINE
  5
2D7
330
1F
100
AcDbEntity
  8
Ｓ_１_１
  6
EXLTYPE2
 62
     1
100
AcDbLine
 10
1052.390277132609
 20
258.0000000000019
 30
0.0
 11
1020.68027713261
 21
258.0000000000019
 31
0.0
  0
LINE
  5
2D8
330
1F
100
AcDbEntity
  8
Ｓ_１_１
  6
EXLTYPE2
 62
     1
100
AcDbLine
 10
1036.264752603619
 20
291.1775971283806
 30
0.0
 11
1036.264752603619
 21
223.2775971283801
 31
0.0
  0
LINE
  5
2D9
330
1F
100
AcDbEntity
  8
Ｓ_１_１
  6
EXLTYPE2
 62
     1
100
AcDbLine
 10
945.0000000000042
 20
929.7013302364885
 30
0.0
 11
945.0000000000042
 21
167.7775971283801
 31
0.0
  0
LINE
  5
2DA
330
1F
100
AcDbEntity
  8
Ｓ_１_１
  6
EXLTYPE2
 62
     1
100
AcDbLine
 10
893.3997228674004
 20
268.0000000000019
 30
0.0
 11
996.599722867401
 21
268.0000000000019
 31
0.0
  0
LINE
  5
2DB
330
1F
100
AcDbEntity
  8
Ｓ_１_１
  6
EXLTYPE0
 62
     2
100
AcDbLine
 10
792.5000164959899
 20
608.0000000000001
 30
0.0
 11
792.5000164959899
 21
242.9999670080253
 31
0.0
  0
LINE
  5
2DC
330
1F
100
AcDbEntity
  8
Ｓ_１_１
  6
EXLTYPE0
 62
     2
100
AcDbLine
 10
1097.499983504021
 20
242.9999670080307
 30
0.0
 11
1097.499983504021
 21
608.0000000000019
 31
0.0
  0
LINE
  5
2DD
330
1F
100
AcDbEntity
  8
Ｓ_１_１
  6
EXLTYPE0
 62
     2
100
AcDbLine
 10
1099.800000000005
 20
608.0000000000019
 30
0.0
 11
1099.800000000005
 21
208.0000000000019
 31
0.0
  0
LINE
  5
2DE
330
1F
100
AcDbEntity
  8
Ｓ_１_１
  6
EXLTYPE0
 62
     2
100
AcDbLine
 10
790.200000000005
 20
608.0000000000019
 30
0.0
 11
790.200000000005
 21
208.0000000000019
 31
0.0
  0
LINE
  5
2DF
330
1F
100
AcDbEntity
  8
Ｓ_１_１
  6
EXLTYPE0
 62
     2
100
AcDbLine
 10
792.5000164959936
 20
242.9999670080253
 30
0.0
 11
802.4999505120402
 21
242.9999670080253
 31
0.0
  0
LINE
  5
2E0
330
1F
100
AcDbEntity
  8
Ｓ_１_１
  6
EXLTYPE0
 62
     2
100
AcDbLine
 10
802.4999505120402
 20
208.0000000000019
 30
0.0
 11
802.4999505120402
 21
242.9999670080253
 31
0.0
  0
LINE
  5
2E1
330
1F
100
AcDbEntity
  8
Ｓ_１_１
  6
EXLTYPE0
 62
     2
100
AcDbLine
 10
799.9999670080276
 20
210.5000000000019
 30
0.0
 11
802.4999670080276
 21
208.0000000000019
 31
0.0
  0
LINE
  5
2E2
330
1F
100
AcDbEntity
  8
Ｓ_１_１
  6
EXLTYPE0
 62
     2
100
AcDbLine
 10
799.9999670080276
 20
210.5000000000019
 30
0.0
 11
799.9999670080276
 21
237.9999670080253
 31
0.0
  0
LINE
  5
2E3
330
1F
100
AcDbEntity
  8
Ｓ_１_１
  6
EXLTYPE0
 62
     2
100
AcDbLine
 10
799.9999670080276
 20
237.9999670080253
 30
0.0
 11
802.4999505120402
 21
237.9999670080253
 31
0.0
  0
LINE
  5
2E4
330
1F
100
AcDbEntity
  8
Ｓ_１_１
  6
EXLTYPE0
 62
     2
100
AcDbLine
 10
1097.499983504017
 20
242.9999670080253
 30
0.0
 11
1087.50004948797
 21
242.9999670080253
 31
0.0
  0
LINE
  5
2E5
330
1F
100
AcDbEntity
  8
Ｓ_１_１
  6
EXLTYPE0
 62
     2
100
AcDbLine
 10
1087.50004948797
 20
208.0000000000019
 30
0.0
 11
1087.50004948797
 21
242.9999670080253
 31
0.0
  0
LINE
  5
2E6
330
1F
100
AcDbEntity
  8
Ｓ_１_１
  6
EXLTYPE0
 62
     2
100
AcDbLine
 10
1090.000032991981
 20
210.5000000000019
 30
0.0
 11
1087.500032991981
 21
208.0000000000019
 31
0.0
  0
LINE
  5
2E7
330
1F
100
AcDbEntity
  8
Ｓ_１_１
  6
EXLTYPE0
 62
     2
100
AcDbLine
 10
1090.000032991981
 20
210.5000000000019
 30
0.0
 11
1090.000032991981
 21
237.9999670080253
 31
0.0
  0
LINE
  5
2E8
330
1F
100
AcDbEntity
  8
Ｓ_１_１
  6
EXLTYPE0
 62
     2
100
AcDbLine
 10
1090.000032991981
 20
237.9999670080253
 30
0.0
 11
1087.50004948797
 21
237.9999670080253
 31
0.0
  0
LINE
  5
2E9
330
1F
100
AcDbEntity
  8
Ｓ_１_１
  6
EXLTYPE0
 62
     2
100
AcDbLine
 10
767.2000000000014
 20
508.0000000000001
 30
0.0
 11
767.2000000000014
 21
208.0000000000019
 31
0.0
  0
LINE
  5
2EA
330
1F
100
AcDbEntity
  8
Ｓ_１_１
  6
EXLTYPE0
 62
     2
100
AcDbLine
 10
1122.800000000009
 20
508.0000000000001
 30
0.0
 11
1122.800000000009
 21
208.0000000000019
 31
0.0
  0
LINE
  5
2EB
330
1F
100
AcDbEntity
  8
Ｓ_１_１
  6
CONTINUOUS
 62
     3
100
AcDbLine
 10
949.0414593670855
 20
1402.000023094367
 30
0.0
 11
940.9585653769052
 21
1402.000023094367
 31
0.0
  0
LINE
  5
2EC
330
1F
100
AcDbEntity
  8
Ｓ_１_１
  6
CONTINUOUS
 62
     3
100
AcDbLine
 10
940.9585653769052
 20
1402.000023094367
 30
0.0
 11
936.9171307538043
 21
1394.999999999985
 31
0.0
  0
LINE
  5
2ED
330
1F
100
AcDbEntity
  8
Ｓ_１_１
  6
CONTINUOUS
 62
     3
100
AcDbLine
 10
953.0828939901866
 20
1394.999999999985
 30
0.0
 11
949.0414593670855
 21
1402.000023094367
 31
0.0
  0
LINE
  5
2EE
330
1F
100
AcDbEntity
  8
Ｓ_１_１
  6
CONTINUOUS
 62
     3
100
AcDbLine
 10
940.9585653769052
 20
1388.000026393565
 30
0.0
 11
949.0414593670855
 21
1388.000026393565
 31
0.0
  0
LINE
  5
2EF
330
1F
100
AcDbEntity
  8
Ｓ_１_１
  6
CONTINUOUS
 62
     3
100
AcDbLine
 10
949.0414593670855
 20
1388.000026393565
 30
0.0
 11
953.0828939901866
 21
1394.999999999985
 31
0.0
  0
LINE
  5
2F0
330
1F
100
AcDbEntity
  8
Ｓ_１_１
  6
CONTINUOUS
 62
     3
100
AcDbLine
 10
936.9171307538043
 20
1394.999999999985
 30
0.0
 11
940.9585653769052
 21
1388.000026393565
 31
0.0
  0
CIRCLE
  5
2F1
330
1F
100
AcDbEntity
  8
Ｓ_１_１
  6
CONTINUOUS
 62
     3
100
AcDbCircle
 10
945.0000000000042
 20
1394.999999999985
 30
0.0
 40
51.99999835040119
  0
CIRCLE
  5
2F2
330
1F
100
AcDbEntity
  8
Ｓ_１_１
  6
CONTINUOUS
 62
     3
100
AcDbCircle
 10
945.0000000000042
 20
1394.999999999985
 30
0.0
 40
48.00000061859956
  0
CIRCLE
  5
2F3
330
1F
100
AcDbEntity
  8
Ｓ_１_１
  6
CONTINUOUS
 62
     3
100
AcDbCircle
 10
945.0000000000042
 20
1394.999999999985
 30
0.0
 40
68.00000164959881
  0
CIRCLE
  5
2F4
330
1F
100
AcDbEntity
  8
Ｓ_１_１
  6
CONTINUOUS
 62
     3
100
AcDbCircle
 10
945.0000000000042
 20
1394.999999999985
 30
0.0
 40
72.00000247439823
  0
CIRCLE
  5
2F5
330
1F
100
AcDbEntity
  8
Ｓ_１_１
  6
CONTINUOUS
 62
     3
100
AcDbCircle
 10
945.0000000000042
 20
1394.999999999985
 30
0.0
 40
10.99999994845004
  0
CIRCLE
  5
2F6
330
1F
100
AcDbEntity
  8
Ｓ_１_１
  6
CONTINUOUS
 62
     3
100
AcDbCircle
 10
945.0000000000042
 20
1394.999999999985
 30
0.0
 40
12.00000015464989
  0
CIRCLE
  5
2F7
330
1F
100
AcDbEntity
  8
Ｓ_１_１
  6
CONTINUOUS
 62
     3
100
AcDbCircle
 10
945.0000000000042
 20
1394.999999999985
 30
0.0
 40
137.499995876003
  0
CIRCLE
  5
2F8
330
1F
100
AcDbEntity
  8
Ｓ_１_１
  6
CONTINUOUS
 62
     3
100
AcDbCircle
 10
945.0000000000042
 20
1394.999999999985
 30
0.0
 40
135.5000016495988
  0
CIRCLE
  5
2F9
330
1F
100
AcDbEntity
  8
Ｓ_１_１
  6
CONTINUOUS
 62
     3
100
AcDbCircle
 10
945.0000000000042
 20
1394.999999999985
 30
0.0
 40
19.99999948450037
  0
CIRCLE
  5
2FA
330
1F
100
AcDbEntity
  8
Ｓ_１_１
  6
CONTINUOUS
 62
     3
100
AcDbCircle
 10
945.0000000000042
 20
1484.999999999985
 30
0.0
 40
8.00000010309993
  0
CIRCLE
  5
2FB
330
1F
100
AcDbEntity
  8
Ｓ_１_１
  6
CONTINUOUS
 62
     3
100
AcDbCircle
 10
945.0000000000042
 20
1304.999999999985
 30
0.0
 40
8.00000010309993
  0
CIRCLE
  5
2FC
330
1F
100
AcDbEntity
  8
Ｓ_１_１
  6
CONTINUOUS
 62
     3
100
AcDbCircle
 10
855.0000123719954
 20
1394.999999999985
 30
0.0
 40
8.00000010309993
  0
CIRCLE
  5
2FD
330
1F
100
AcDbEntity
  8
Ｓ_１_１
  6
CONTINUOUS
 62
     3
100
AcDbCircle
 10
945.0000000000042
 20
1394.999999999985
 30
0.0
 40
120.0
  0
CIRCLE
  5
2FE
330
1F
100
AcDbEntity
  8
Ｓ_１_１
  6
CONTINUOUS
 62
     3
100
AcDbCircle
 10
945.0000000000042
 20
1394.999999999985
 30
0.0
 40
118.0000057735959
  0
CIRCLE
  5
2FF
330
1F
100
AcDbEntity
  8
Ｓ_１_１
  6
CONTINUOUS
 62
     3
100
AcDbCircle
 10
1035.000000000004
 20
1394.999999999985
 30
0.0
 40
8.00000010309993
  0
CIRCLE
  5
300
330
1F
100
AcDbEntity
  8
Ｓ_１_１
  6
CONTINUOUS
 62
     3
100
AcDbCircle
 10
945.0000000000042
 20
1394.999999999985
 30
0.0
 40
50.00000103099926
  0
CIRCLE
  5
301
330
1F
100
AcDbEntity
  8
Ｓ_１_１
  6
CONTINUOUS
 62
     3
100
AcDbCircle
 10
855.0000123719954
 20
1394.999999999985
 30
0.0
 40
6.499999793800148
  0
CIRCLE
  5
302
330
1F
100
AcDbEntity
  8
Ｓ_１_１
  6
CONTINUOUS
 62
     3
100
AcDbCircle
 10
945.0000000000042
 20
1484.999999999985
 30
0.0
 40
6.499999793800148
  0
CIRCLE
  5
303
330
1F
100
AcDbEntity
  8
Ｓ_１_１
  6
CONTINUOUS
 62
     3
100
AcDbCircle
 10
945.0000000000042
 20
1304.999999999985
 30
0.0
 40
6.499999793800148
  0
CIRCLE
  5
304
330
1F
100
AcDbEntity
  8
Ｓ_１_１
  6
CONTINUOUS
 62
     3
100
AcDbCircle
 10
945.0000000000042
 20
1394.999999999985
 30
0.0
 40
70.00000206199853
  0
CIRCLE
  5
305
330
1F
100
AcDbEntity
  8
Ｓ_１_１
  6
CONTINUOUS
 62
     3
100
AcDbCircle
 10
1035.000000000004
 20
1394.999999999985
 30
0.0
 40
6.499999793800148
  0
CIRCLE
  5
306
330
1F
100
AcDbEntity
  8
Ｓ_１_１
  6
CONTINUOUS
 62
     3
100
AcDbCircle
 10
945.0000000000042
 20
1394.999999999985
 30
0.0
 40
150.0
  0
CIRCLE
  5
307
330
1F
100
AcDbEntity
  8
Ｓ_１_１
  6
CONTINUOUS
 62
     3
100
AcDbCircle
 10
945.0000000000042
 20
1394.999999999985
 30
0.0
 40
152.499995876003
  0
CIRCLE
  5
308
330
1F
100
AcDbEntity
  8
Ｓ_１_１
  6
CONTINUOUS
 62
     3
100
AcDbCircle
 10
944.9999999999989
 20
1394.99999999998
 30
0.0
 40
177.8
  0
LINE
  5
309
330
1F
100
AcDbEntity
  8
Ｓ_１_１
  6
CONTINUOUS
 62
     3
100
AcDbLine
 10
644.9999999999989
 20
1664.999999999979
 30
0.0
 11
674.9999999999989
 21
1694.999999999979
 31
0.0
  0
LINE
  5
30A
330
1F
100
AcDbEntity
  8
Ｓ_１_１
  6
CONTINUOUS
 62
     3
100
AcDbLine
 10
1214.999999999999
 20
1694.999999999979
 30
0.0
 11
674.9999999999989
 21
1694.999999999979
 31
0.0
  0
LINE
  5
30B
330
1F
100
AcDbEntity
  8
Ｓ_１_１
  6
CONTINUOUS
 62
     3
100
AcDbLine
 10
1244.999999999999
 20
1664.999999999979
 30
0.0
 11
1214.999999999999
 21
1694.999999999979
 31
0.0
  0
LINE
  5
30C
330
1F
100
AcDbEntity
  8
Ｓ_１_１
  6
CONTINUOUS
 62
     3
100
AcDbLine
 10
1244.999999999999
 20
1124.99999999998
 30
0.0
 11
1244.999999999999
 21
1664.999999999979
 31
0.0
  0
LINE
  5
30D
330
1F
100
AcDbEntity
  8
Ｓ_１_１
  6
CONTINUOUS
 62
     3
100
AcDbLine
 10
1214.999999999999
 20
1094.99999999998
 30
0.0
 11
1244.999999999999
 21
1124.99999999998
 31
0.0
  0
LINE
  5
30E
330
1F
100
AcDbEntity
  8
Ｓ_１_１
  6
CONTINUOUS
 62
     3
100
AcDbLine
 10
675.0000000000007
 20
1094.99999999998
 30
0.0
 11
1214.999999999999
 21
1094.99999999998
 31
0.0
  0
LINE
  5
30F
330
1F
100
AcDbEntity
  8
Ｓ_１_１
  6
CONTINUOUS
 62
     3
100
AcDbLine
 10
645.0000000000007
 20
1124.99999999998
 30
0.0
 11
644.9999999999989
 21
1664.999999999979
 31
0.0
  0
LINE
  5
310
330
1F
100
AcDbEntity
  8
Ｓ_１_１
  6
CONTINUOUS
 62
     3
100
AcDbLine
 10
675.0000000000007
 20
1094.99999999998
 30
0.0
 11
645.0000000000007
 21
1124.99999999998
 31
0.0
  0
LINE
  5
311
330
1F
100
AcDbEntity
  8
Ｓ_１_１
  6
CONTINUOUS
 62
     3
100
AcDbLine
 10
1106.204313421603
 20
1470.43215053456
 30
0.0
 11
1112.327248339446
 21
1455.65007801438
 31
0.0
  0
LINE
  5
312
330
1F
100
AcDbEntity
  8
Ｓ_１_１
  6
CONTINUOUS
 62
     3
100
AcDbLine
 10
1226.308652648064
 20
1520.180996742034
 30
0.0
 11
1232.431587565907
 21
1505.398924221855
 31
0.0
  0
LINE
  5
313
330
1F
100
AcDbEntity
  8
Ｓ_１_１
  6
CONTINUOUS
 62
     3
100
AcDbLine
 10
1232.431587565907
 20
1505.398924221853
 30
0.0
 11
1112.327248339446
 21
1455.65007801438
 31
0.0
  0
LINE
  5
314
330
1F
100
AcDbEntity
  8
Ｓ_１_１
  6
CONTINUOUS
 62
     3
100
AcDbLine
 10
1226.308652648064
 20
1520.180996742033
 30
0.0
 11
1106.204313421603
 21
1470.43215053456
 31
0.0
  0
LINE
  5
315
330
1F
100
AcDbEntity
  8
Ｓ_１_１
  6
CONTINUOUS
 62
     3
100
AcDbLine
 10
1106.204313421603
 20
1319.567849465399
 30
0.0
 11
1112.327248339446
 21
1334.349921985579
 31
0.0
  0
LINE
  5
316
330
1F
100
AcDbEntity
  8
Ｓ_１_１
  6
CONTINUOUS
 62
     3
100
AcDbLine
 10
1226.308652648064
 20
1269.819003257925
 30
0.0
 11
1232.431587565907
 21
1284.601075778105
 31
0.0
  0
LINE
  5
317
330
1F
100
AcDbEntity
  8
Ｓ_１_１
  6
CONTINUOUS
 62
     3
100
AcDbLine
 10
1232.431587565907
 20
1284.601075778106
 30
0.0
 11
1112.327248339446
 21
1334.349921985579
 31
0.0
  0
LINE
  5
318
330
1F
100
AcDbEntity
  8
Ｓ_１_１
  6
CONTINUOUS
 62
     3
100
AcDbLine
 10
1226.308652648064
 20
1269.819003257926
 30
0.0
 11
1106.204313421603
 21
1319.567849465399
 31
0.0
  0
LINE
  5
319
330
1F
100
AcDbEntity
  8
Ｓ_１_１
  6
CONTINUOUS
 62
     3
100
AcDbLine
 10
783.795686578397
 20
1470.43215053456
 30
0.0
 11
777.672751660554
 21
1455.65007801438
 31
0.0
  0
LINE
  5
31A
330
1F
100
AcDbEntity
  8
Ｓ_１_１
  6
CONTINUOUS
 62
     3
100
AcDbLine
 10
663.6913473519351
 20
1520.180996742034
 30
0.0
 11
657.5684124340921
 21
1505.398924221855
 31
0.0
  0
LINE
  5
31B
330
1F
100
AcDbEntity
  8
Ｓ_１_１
  6
CONTINUOUS
 62
     3
100
AcDbLine
 10
657.5684124340921
 20
1505.398924221853
 30
0.0
 11
777.672751660554
 21
1455.65007801438
 31
0.0
  0
LINE
  5
31C
330
1F
100
AcDbEntity
  8
Ｓ_１_１
  6
CONTINUOUS
 62
     3
100
AcDbLine
 10
663.6913473519351
 20
1520.180996742033
 30
0.0
 11
783.795686578397
 21
1470.43215053456
 31
0.0
  0
LINE
  5
31D
330
1F
100
AcDbEntity
  8
Ｓ_１_１
  6
CONTINUOUS
 62
     3
100
AcDbLine
 10
783.795686578397
 20
1319.567849465399
 30
0.0
 11
777.672751660554
 21
1334.349921985579
 31
0.0
  0
LINE
  5
31E
330
1F
100
AcDbEntity
  8
Ｓ_１_１
  6
CONTINUOUS
 62
     3
100
AcDbLine
 10
663.6913473519351
 20
1269.819003257925
 30
0.0
 11
657.5684124340921
 21
1284.601075778105
 31
0.0
  0
LINE
  5
31F
330
1F
100
AcDbEntity
  8
Ｓ_１_１
  6
CONTINUOUS
 62
     3
100
AcDbLine
 10
657.5684124340921
 20
1284.601075778106
 30
0.0
 11
777.672751660554
 21
1334.349921985579
 31
0.0
  0
LINE
  5
320
330
1F
100
AcDbEntity
  8
Ｓ_１_１
  6
CONTINUOUS
 62
     3
100
AcDbLine
 10
663.6913473519351
 20
1269.819003257926
 30
0.0
 11
783.795686578397
 21
1319.567849465399
 31
0.0
  0
LINE
  5
321
330
1F
100
AcDbEntity
  8
Ｓ_１_１
  6
CONTINUOUS
 62
     3
100
AcDbLine
 10
1020.43215053458
 20
1556.204313421582
 30
0.0
 11
1005.6500780144
 21
1562.327248339425
 31
0.0
  0
LINE
  5
322
330
1F
100
AcDbEntity
  8
Ｓ_１_１
  6
CONTINUOUS
 62
     3
100
AcDbLine
 10
1070.180996742055
 20
1676.308652648045
 30
0.0
 11
1055.398924221875
 21
1682.431587565888
 31
0.0
  0
LINE
  5
323
330
1F
100
AcDbEntity
  8
Ｓ_１_１
  6
CONTINUOUS
 62
     3
100
AcDbLine
 10
1055.398924221873
 20
1682.431587565888
 30
0.0
 11
1005.6500780144
 21
1562.327248339425
 31
0.0
  0
LINE
  5
324
330
1F
100
AcDbEntity
  8
Ｓ_１_１
  6
CONTINUOUS
 62
     3
100
AcDbLine
 10
1070.180996742053
 20
1676.308652648045
 30
0.0
 11
1020.43215053458
 21
1556.204313421582
 31
0.0
  0
LINE
  5
325
330
1F
100
AcDbEntity
  8
Ｓ_１_１
  6
CONTINUOUS
 62
     3
100
AcDbLine
 10
869.5678494654192
 20
1556.204313421582
 30
0.0
 11
884.3499219855992
 21
1562.327248339425
 31
0.0
  0
LINE
  5
326
330
1F
100
AcDbEntity
  8
Ｓ_１_１
  6
CONTINUOUS
 62
     3
100
AcDbLine
 10
819.8190032579448
 20
1676.308652648045
 30
0.0
 11
834.6010757781248
 21
1682.431587565888
 31
0.0
  0
LINE
  5
327
330
1F
100
AcDbEntity
  8
Ｓ_１_１
  6
CONTINUOUS
 62
     3
100
AcDbLine
 10
834.6010757781266
 20
1682.431587565888
 30
0.0
 11
884.3499219855992
 21
1562.327248339425
 31
0.0
  0
LINE
  5
328
330
1F
100
AcDbEntity
  8
Ｓ_１_１
  6
CONTINUOUS
 62
     3
100
AcDbLine
 10
819.8190032579466
 20
1676.308652648045
 30
0.0
 11
869.5678494654192
 21
1556.204313421582
 31
0.0
  0
LINE
  5
329
330
1F
100
AcDbEntity
  8
Ｓ_１_１
  6
CONTINUOUS
 62
     3
100
AcDbLine
 10
1020.43215053458
 20
1233.795686578377
 30
0.0
 11
1005.6500780144
 21
1227.672751660534
 31
0.0
  0
LINE
  5
32A
330
1F
100
AcDbEntity
  8
Ｓ_１_１
  6
CONTINUOUS
 62
     3
100
AcDbLine
 10
1070.180996742055
 20
1113.691347351915
 30
0.0
 11
1055.398924221875
 21
1107.568412434072
 31
0.0
  0
LINE
  5
32B
330
1F
100
AcDbEntity
  8
Ｓ_１_１
  6
CONTINUOUS
 62
     3
100
AcDbLine
 10
1055.398924221873
 20
1107.568412434072
 30
0.0
 11
1005.6500780144
 21
1227.672751660534
 31
0.0
  0
LINE
  5
32C
330
1F
100
AcDbEntity
  8
Ｓ_１_１
  6
CONTINUOUS
 62
     3
100
AcDbLine
 10
1070.180996742053
 20
1113.691347351915
 30
0.0
 11
1020.43215053458
 21
1233.795686578377
 31
0.0
  0
LINE
  5
32D
330
1F
100
AcDbEntity
  8
Ｓ_１_１
  6
CONTINUOUS
 62
     3
100
AcDbLine
 10
869.5678494654192
 20
1233.795686578377
 30
0.0
 11
884.3499219855992
 21
1227.672751660534
 31
0.0
  0
LINE
  5
32E
330
1F
100
AcDbEntity
  8
Ｓ_１_１
  6
CONTINUOUS
 62
     3
100
AcDbLine
 10
819.8190032579448
 20
1113.691347351915
 30
0.0
 11
834.6010757781248
 21
1107.568412434072
 31
0.0
  0
LINE
  5
32F
330
1F
100
AcDbEntity
  8
Ｓ_１_１
  6
CONTINUOUS
 62
     3
100
AcDbLine
 10
834.6010757781266
 20
1107.568412434072
 30
0.0
 11
884.3499219855992
 21
1227.672751660534
 31
0.0
  0
LINE
  5
330
330
1F
100
AcDbEntity
  8
Ｓ_１_１
  6
CONTINUOUS
 62
     3
100
AcDbLine
 10
819.8190032579466
 20
1113.691347351915
 30
0.0
 11
869.5678494654192
 21
1233.795686578377
 31
0.0
  0
CIRCLE
  5
331
330
1F
100
AcDbEntity
  8
Ｓ_１_１
  6
CONTINUOUS
 62
     3
100
AcDbCircle
 10
794.9999999999989
 20
1644.99999999998
 30
0.0
 40
12.5
  0
CIRCLE
  5
332
330
1F
100
AcDbEntity
  8
Ｓ_１_１
  6
CONTINUOUS
 62
     3
100
AcDbCircle
 10
694.9999999999989
 20
1644.99999999998
 30
0.0
 40
12.5
  0
CIRCLE
  5
333
330
1F
100
AcDbEntity
  8
Ｓ_１_１
  6
CONTINUOUS
 62
     3
100
AcDbCircle
 10
694.9999999999989
 20
1544.99999999998
 30
0.0
 40
12.5
  0
CIRCLE
  5
334
330
1F
100
AcDbEntity
  8
Ｓ_１_１
  6
CONTINUOUS
 62
     3
100
AcDbCircle
 10
695.0000000000007
 20
1144.99999999998
 30
0.0
 40
12.5
  0
CIRCLE
  5
335
330
1F
100
AcDbEntity
  8
Ｓ_１_１
  6
CONTINUOUS
 62
     3
100
AcDbCircle
 10
694.9999999999989
 20
1244.99999999998
 30
0.0
 40
12.5
  0
CIRCLE
  5
336
330
1F
100
AcDbEntity
  8
Ｓ_１_１
  6
CONTINUOUS
 62
     3
100
AcDbCircle
 10
795.0000000000007
 20
1144.99999999998
 30
0.0
 40
12.5
  0
CIRCLE
  5
337
330
1F
100
AcDbEntity
  8
Ｓ_１_１
  6
CONTINUOUS
 62
     3
100
AcDbCircle
 10
1095.000000000001
 20
1644.99999999998
 30
0.0
 40
12.5
  0
CIRCLE
  5
338
330
1F
100
AcDbEntity
  8
Ｓ_１_１
  6
CONTINUOUS
 62
     3
100
AcDbCircle
 10
1195.000000000001
 20
1644.99999999998
 30
0.0
 40
12.5
  0
CIRCLE
  5
339
330
1F
100
AcDbEntity
  8
Ｓ_１_１
  6
CONTINUOUS
 62
     3
100
AcDbCircle
 10
1195.000000000001
 20
1544.99999999998
 30
0.0
 40
12.5
  0
CIRCLE
  5
33A
330
1F
100
AcDbEntity
  8
Ｓ_１_１
  6
CONTINUOUS
 62
     3
100
AcDbCircle
 10
1195.000000000001
 20
1144.99999999998
 30
0.0
 40
12.5
  0
CIRCLE
  5
33B
330
1F
100
AcDbEntity
  8
Ｓ_１_１
  6
CONTINUOUS
 62
     3
100
AcDbCircle
 10
1195.000000000001
 20
1244.99999999998
 30
0.0
 40
12.5
  0
CIRCLE
  5
33C
330
1F
100
AcDbEntity
  8
Ｓ_１_１
  6
CONTINUOUS
 62
     3
100
AcDbCircle
 10
1095.000000000001
 20
1144.99999999998
 30
0.0
 40
12.5
  0
CIRCLE
  5
33D
330
1F
100
AcDbEntity
  8
Ｓ_１_１
  6
CONTINUOUS
 62
     3
100
AcDbCircle
 10
945.0000000000007
 20
1144.99999999998
 30
0.0
 40
12.5
  0
CIRCLE
  5
33E
330
1F
100
AcDbEntity
  8
Ｓ_１_１
  6
CONTINUOUS
 62
     3
100
AcDbCircle
 10
1195.000000000001
 20
1394.99999999998
 30
0.0
 40
12.5
  0
CIRCLE
  5
33F
330
1F
100
AcDbEntity
  8
Ｓ_１_１
  6
CONTINUOUS
 62
     3
100
AcDbCircle
 10
945.0000000000007
 20
1644.99999999998
 30
0.0
 40
12.5
  0
CIRCLE
  5
340
330
1F
100
AcDbEntity
  8
Ｓ_１_１
  6
CONTINUOUS
 62
     3
100
AcDbCircle
 10
695.0000000000007
 20
1394.99999999998
 30
0.0
 40
12.5
  0
LINE
  5
341
330
1F
100
AcDbEntity
  8
Ｓ_１_１
  6
CONTINUOUS
 62
     3
100
AcDbLine
 10
827.4726719052494
 20
1132.168938002141
 30
0.0
 11
842.2547444254294
 21
1126.046003084298
 31
0.0
  0
LINE
  5
342
330
1F
100
AcDbEntity
  8
Ｓ_１_１
  6
CONTINUOUS
 62
     3
100
AcDbLine
 10
682.1689380021605
 20
1277.472671905229
 30
0.0
 11
676.0460030843176
 21
1292.254744425409
 31
0.0
  0
LINE
  5
343
330
1F
100
AcDbEntity
  8
Ｓ_１_１
  6
CONTINUOUS
 62
     3
100
AcDbLine
 10
682.1689380021605
 20
1512.52732809473
 30
0.0
 11
676.0460030843176
 21
1497.74525557455
 31
0.0
  0
LINE
  5
344
330
1F
100
AcDbEntity
  8
Ｓ_１_１
  6
CONTINUOUS
 62
     3
100
AcDbLine
 10
1062.52732809475
 20
1132.168938002141
 30
0.0
 11
1047.74525557457
 21
1126.046003084298
 31
0.0
  0
LINE
  5
345
330
1F
100
AcDbEntity
  8
Ｓ_１_１
  6
CONTINUOUS
 62
     3
100
AcDbLine
 10
1207.831061997839
 20
1277.47267190523
 30
0.0
 11
1213.953996915682
 21
1292.254744425409
 31
0.0
  0
LINE
  5
346
330
1F
100
AcDbEntity
  8
Ｓ_１_１
  6
CONTINUOUS
 62
     3
100
AcDbLine
 10
1207.831061997839
 20
1512.52732809473
 30
0.0
 11
1213.953996915682
 21
1497.74525557455
 31
0.0
  0
LINE
  5
347
330
1F
100
AcDbEntity
  8
Ｓ_１_１
  6
CONTINUOUS
 62
     3
100
AcDbLine
 10
827.4726719052494
 20
1657.831061997819
 30
0.0
 11
842.2547444254294
 21
1663.953996915662
 31
0.0
  0
LINE
  5
348
330
1F
100
AcDbEntity
  8
Ｓ_１_１
  6
CONTINUOUS
 62
     3
100
AcDbLine
 10
1062.52732809475
 20
1657.831061997819
 30
0.0
 11
1047.74525557457
 21
1663.953996915662
 31
0.0
  0
CIRCLE
  5
349
330
1F
100
AcDbEntity
  8
Ｓ_１_１
  6
CONTINUOUS
 62
     3
100
AcDbCircle
 10
944.9999999999989
 20
1394.99999999998
 30
0.0
 40
174.8
  0
CIRCLE
  5
34A
330
1F
100
AcDbEntity
  8
Ｓ_１_１
  6
EXLTYPE2
 62
     1
100
AcDbCircle
 10
945.0000000000042
 20
1394.999999999985
 30
0.0
 40
90.0
  0
LINE
  5
34B
330
1F
100
AcDbEntity
  8
Ｓ_１_１
  6
EXLTYPE2
 62
     1
100
AcDbLine
 10
824.9859871359884
 20
1684.739457531133
 30
0.0
 11
880.2090464490636
 21
1551.419198781809
 31
0.0
  0
LINE
  5
34C
330
1F
100
AcDbEntity
  8
Ｓ_１_１
  6
EXLTYPE2
 62
     1
100
AcDbLine
 10
655.260542468847
 20
1515.014012863991
 30
0.0
 11
788.5808012181703
 21
1459.790953550915
 31
0.0
  0
LINE
  5
34D
330
1F
100
AcDbEntity
  8
Ｓ_１_１
  6
EXLTYPE2
 62
     1
100
AcDbLine
 10
655.260542468847
 20
1274.985987135969
 30
0.0
 11
788.5808012181703
 21
1330.209046449044
 31
0.0
  0
LINE
  5
34E
330
1F
100
AcDbEntity
  8
Ｓ_１_１
  6
EXLTYPE2
 62
     1
100
AcDbLine
 10
1065.014012864011
 20
1684.739457531133
 30
0.0
 11
1009.790953550936
 21
1551.419198781809
 31
0.0
  0
LINE
  5
34F
330
1F
100
AcDbEntity
  8
Ｓ_１_１
  6
EXLTYPE2
 62
     1
100
AcDbLine
 10
1234.739457531153
 20
1515.014012863991
 30
0.0
 11
1101.419198781829
 21
1459.790953550915
 31
0.0
  0
LINE
  5
350
330
1F
100
AcDbEntity
  8
Ｓ_１_１
  6
EXLTYPE2
 62
     1
100
AcDbLine
 10
1234.739457531153
 20
1274.985987135969
 30
0.0
 11
1101.419198781829
 21
1330.209046449044
 31
0.0
  0
LINE
  5
351
330
1F
100
AcDbEntity
  8
Ｓ_１_１
  6
EXLTYPE2
 62
     1
100
AcDbLine
 10
1065.014012864011
 20
1105.260542468827
 30
0.0
 11
1009.790953550936
 21
1238.580801218151
 31
0.0
  0
LINE
  5
352
330
1F
100
AcDbEntity
  8
Ｓ_１_１
  6
EXLTYPE2
 62
     1
100
AcDbLine
 10
824.9859871359884
 20
1105.260542468827
 30
0.0
 11
880.2090464490636
 21
1238.580801218151
 31
0.0
  0
LINE
  5
353
330
1F
100
AcDbEntity
  8
Ｓ_１_１
  6
EXLTYPE2
 62
     1
100
AcDbLine
 10
830.3598506177902
 20
1163.444795431184
 30
0.0
 11
863.848690241032
 21
1149.573263871095
 31
0.0
  0
LINE
  5
354
330
1F
100
AcDbEntity
  8
Ｓ_１_１
  6
EXLTYPE2
 62
     1
100
AcDbLine
 10
700.2029176059666
 20
1312.328571654745
 30
0.0
 11
714.0744491660487
 21
1278.839732031501
 31
0.0
  0
LINE
  5
355
330
1F
100
AcDbEntity
  8
Ｓ_１_１
  6
EXLTYPE2
 62
     1
100
AcDbLine
 10
700.2029176059666
 20
1477.671428345215
 30
0.0
 11
714.0744491660469
 21
1511.160267968459
 31
0.0
  0
LINE
  5
356
330
1F
100
AcDbEntity
  8
Ｓ_１_１
  6
EXLTYPE2
 62
     1
100
AcDbLine
 10
1059.640149382209
 20
1163.444795431184
 30
0.0
 11
1026.151309758967
 21
1149.573263871095
 31
0.0
  0
LINE
  5
357
330
1F
100
AcDbEntity
  8
Ｓ_１_１
  6
EXLTYPE2
 62
     1
100
AcDbLine
 10
1189.797082394033
 20
1312.328571654745
 30
0.0
 11
1175.925550833951
 21
1278.839732031501
 31
0.0
  0
LINE
  5
358
330
1F
100
AcDbEntity
  8
Ｓ_１_１
  6
EXLTYPE2
 62
     1
100
AcDbLine
 10
1189.797082394033
 20
1477.671428345215
 30
0.0
 11
1175.925550833951
 21
1511.160267968459
 31
0.0
  0
LINE
  5
359
330
1F
100
AcDbEntity
  8
Ｓ_１_１
  6
EXLTYPE2
 62
     1
100
AcDbLine
 10
830.3598506177902
 20
1626.555204568775
 30
0.0
 11
863.848690241032
 21
1640.426736128865
 31
0.0
  0
LINE
  5
35A
330
1F
100
AcDbEntity
  8
Ｓ_１_１
  6
EXLTYPE2
 62
     1
100
AcDbLine
 10
1059.640149382209
 20
1626.555204568776
 30
0.0
 11
1026.151309758967
 21
1640.426736128865
 31
0.0
  0
LINE
  5
35B
330
1F
100
AcDbEntity
  8
Ｓ_１_１
  6
EXLTYPE0
 62
     2
100
AcDbLine
 10
848.5202606853352
 20
1182.982312290258
 30
0.0
 11
863.3023332055152
 21
1176.859377372415
 31
0.0
  0
LINE
  5
35C
330
1F
100
AcDbEntity
  8
Ｓ_１_１
  6
EXLTYPE0
 62
     2
100
AcDbLine
 10
829.3860890670755
 20
1136.788335664696
 30
0.0
 11
844.1681615872556
 21
1130.665400746853
 31
0.0
  0
LINE
  5
35D
330
1F
100
AcDbEntity
  8
Ｓ_１_１
  6
EXLTYPE0
 62
     2
100
AcDbLine
 10
726.859377372454
 20
1313.302333205454
 30
0.0
 11
732.9823122902951
 21
1298.520260685272
 31
0.0
  0
LINE
  5
35E
330
1F
100
AcDbEntity
  8
Ｓ_１_１
  6
EXLTYPE0
 62
     2
100
AcDbLine
 10
680.6654007468885
 20
1294.168161587204
 30
0.0
 11
686.7883356647278
 21
1279.386089067023
 31
0.0
  0
LINE
  5
35F
330
1F
100
AcDbEntity
  8
Ｓ_１_１
  6
EXLTYPE0
 62
     2
100
AcDbLine
 10
726.859377372454
 20
1476.697666794506
 30
0.0
 11
732.9823122902951
 21
1491.479739314687
 31
0.0
  0
LINE
  5
360
330
1F
100
AcDbEntity
  8
Ｓ_１_１
  6
EXLTYPE0
 62
     2
100
AcDbLine
 10
680.6654007468885
 20
1495.831838412755
 30
0.0
 11
686.7883356647278
 21
1510.613910932937
 31
0.0
  0
LINE
  5
361
330
1F
100
AcDbEntity
  8
Ｓ_１_１
  6
EXLTYPE0
 62
     2
100
AcDbLine
 10
1041.479739314664
 20
1182.982312290258
 30
0.0
 11
1026.697666794484
 21
1176.859377372415
 31
0.0
  0
LINE
  5
362
330
1F
100
AcDbEntity
  8
Ｓ_１_１
  6
EXLTYPE0
 62
     2
100
AcDbLine
 10
1060.613910932924
 20
1136.788335664696
 30
0.0
 11
1045.831838412744
 21
1130.665400746853
 31
0.0
  0
LINE
  5
363
330
1F
100
AcDbEntity
  8
Ｓ_１_１
  6
EXLTYPE0
 62
     2
100
AcDbLine
 10
1163.140622627546
 20
1313.302333205454
 30
0.0
 11
1157.017687709704
 21
1298.520260685272
 31
0.0
  0
LINE
  5
364
330
1F
100
AcDbEntity
  8
Ｓ_１_１
  6
EXLTYPE0
 62
     2
100
AcDbLine
 10
1209.334599253111
 20
1294.168161587205
 30
0.0
 11
1203.211664335272
 21
1279.386089067023
 31
0.0
  0
LINE
  5
365
330
1F
100
AcDbEntity
  8
Ｓ_１_１
  6
EXLTYPE0
 62
     2
100
AcDbLine
 10
1163.140622627546
 20
1476.697666794506
 30
0.0
 11
1157.017687709704
 21
1491.479739314687
 31
0.0
  0
LINE
  5
366
330
1F
100
AcDbEntity
  8
Ｓ_１_１
  6
EXLTYPE0
 62
     2
100
AcDbLine
 10
1209.334599253111
 20
1495.831838412755
 30
0.0
 11
1203.211664335272
 21
1510.613910932937
 31
0.0
  0
LINE
  5
367
330
1F
100
AcDbEntity
  8
Ｓ_１_１
  6
EXLTYPE0
 62
     2
100
AcDbLine
 10
848.5202606853352
 20
1607.017687709701
 30
0.0
 11
863.3023332055152
 21
1613.140622627544
 31
0.0
  0
LINE
  5
368
330
1F
100
AcDbEntity
  8
Ｓ_１_１
  6
EXLTYPE0
 62
     2
100
AcDbLine
 10
829.3860890670755
 20
1653.211664335264
 30
0.0
 11
844.1681615872556
 21
1659.334599253107
 31
0.0
  0
LINE
  5
369
330
1F
100
AcDbEntity
  8
Ｓ_１_１
  6
EXLTYPE0
 62
     2
100
AcDbLine
 10
1041.479739314664
 20
1607.017687709702
 30
0.0
 11
1026.697666794484
 21
1613.140622627545
 31
0.0
  0
LINE
  5
36A
330
1F
100
AcDbEntity
  8
Ｓ_１_１
  6
EXLTYPE0
 62
     2
100
AcDbLine
 10
1060.613910932924
 20
1653.211664335264
 30
0.0
 11
1045.831838412744
 21
1659.334599253107
 31
0.0
  0
LINE
  5
36B
330
1F
100
AcDbEntity
  8
Ｓ_１_１
  6
EXLTYPE2
 62
     1
100
AcDbLine
 10
675.0
 20
1644.99999999998
 30
0.0
 11
715.0
 21
1644.99999999998
 31
0.0
  0
LINE
  5
36C
330
1F
100
AcDbEntity
  8
Ｓ_１_１
  6
EXLTYPE2
 62
     1
100
AcDbLine
 10
694.9999999999989
 20
1625.00000000002
 30
0.0
 11
694.9999999999989
 21
1665.00000000002
 31
0.0
  0
LINE
  5
36D
330
1F
100
AcDbEntity
  8
Ｓ_１_１
  6
EXLTYPE2
 62
     1
100
AcDbLine
 10
774.9999999999999
 20
1644.99999999998
 30
0.0
 11
814.9999999999999
 21
1644.99999999998
 31
0.0
  0
LINE
  5
36E
330
1F
100
AcDbEntity
  8
Ｓ_１_１
  6
EXLTYPE2
 62
     1
100
AcDbLine
 10
794.9999999999987
 20
1625.00000000002
 30
0.0
 11
794.9999999999987
 21
1665.00000000002
 31
0.0
  0
LINE
  5
36F
330
1F
100
AcDbEntity
  8
Ｓ_１_１
  6
EXLTYPE2
 62
     1
100
AcDbLine
 10
925.0
 20
1644.99999999998
 30
0.0
 11
965.0000000000001
 21
1644.99999999998
 31
0.0
  0
LINE
  5
370
330
1F
100
AcDbEntity
  8
Ｓ_１_１
  6
EXLTYPE2
 62
     1
100
AcDbLine
 10
1075.0
 20
1644.99999999998
 30
0.0
 11
1115.0
 21
1644.99999999998
 31
0.0
  0
LINE
  5
371
330
1F
100
AcDbEntity
  8
Ｓ_１_１
  6
EXLTYPE2
 62
     1
100
AcDbLine
 10
1094.999999999999
 20
1625.00000000002
 30
0.0
 11
1094.999999999999
 21
1665.00000000002
 31
0.0
  0
LINE
  5
372
330
1F
100
AcDbEntity
  8
Ｓ_１_１
  6
EXLTYPE2
 62
     1
100
AcDbLine
 10
1175.0
 20
1644.99999999998
 30
0.0
 11
1215.0
 21
1644.99999999998
 31
0.0
  0
LINE
  5
373
330
1F
100
AcDbEntity
  8
Ｓ_１_１
  6
EXLTYPE2
 62
     1
100
AcDbLine
 10
1194.999999999999
 20
1625.00000000002
 30
0.0
 11
1194.999999999999
 21
1665.00000000002
 31
0.0
  0
LINE
  5
374
330
1F
100
AcDbEntity
  8
Ｓ_１_１
  6
EXLTYPE2
 62
     1
100
AcDbLine
 10
1175.0
 20
1544.99999999998
 30
0.0
 11
1215.0
 21
1544.99999999998
 31
0.0
  0
LINE
  5
375
330
1F
100
AcDbEntity
  8
Ｓ_１_１
  6
EXLTYPE2
 62
     1
100
AcDbLine
 10
1194.999999999999
 20
1525.00000000002
 30
0.0
 11
1194.999999999999
 21
1565.00000000002
 31
0.0
  0
LINE
  5
376
330
1F
100
AcDbEntity
  8
Ｓ_１_１
  6
EXLTYPE2
 62
     1
100
AcDbLine
 10
675.0
 20
1544.99999999998
 30
0.0
 11
715.0
 21
1544.99999999998
 31
0.0
  0
LINE
  5
377
330
1F
100
AcDbEntity
  8
Ｓ_１_１
  6
EXLTYPE2
 62
     1
100
AcDbLine
 10
694.9999999999989
 20
1525.00000000002
 30
0.0
 11
694.9999999999989
 21
1565.00000000002
 31
0.0
  0
LINE
  5
378
330
1F
100
AcDbEntity
  8
Ｓ_１_１
  6
EXLTYPE2
 62
     1
100
AcDbLine
 10
694.9999999999989
 20
1375.00000000002
 30
0.0
 11
694.9999999999989
 21
1415.00000000002
 31
0.0
  0
LINE
  5
379
330
1F
100
AcDbEntity
  8
Ｓ_１_１
  6
EXLTYPE2
 62
     1
100
AcDbLine
 10
675.0
 20
1244.99999999998
 30
0.0
 11
715.0
 21
1244.99999999998
 31
0.0
  0
LINE
  5
37A
330
1F
100
AcDbEntity
  8
Ｓ_１_１
  6
EXLTYPE2
 62
     1
100
AcDbLine
 10
694.9999999999989
 20
1225.00000000002
 30
0.0
 11
694.9999999999989
 21
1265.00000000002
 31
0.0
  0
LINE
  5
37B
330
1F
100
AcDbEntity
  8
Ｓ_１_１
  6
EXLTYPE2
 62
     1
100
AcDbLine
 10
675.0
 20
1144.99999999998
 30
0.0
 11
715.0
 21
1144.99999999998
 31
0.0
  0
LINE
  5
37C
330
1F
100
AcDbEntity
  8
Ｓ_１_１
  6
EXLTYPE2
 62
     1
100
AcDbLine
 10
694.9999999999989
 20
1125.00000000002
 30
0.0
 11
694.9999999999989
 21
1165.00000000002
 31
0.0
  0
LINE
  5
37D
330
1F
100
AcDbEntity
  8
Ｓ_１_１
  6
EXLTYPE2
 62
     1
100
AcDbLine
 10
774.9999999999999
 20
1144.99999999998
 30
0.0
 11
814.9999999999999
 21
1144.99999999998
 31
0.0
  0
LINE
  5
37E
330
1F
100
AcDbEntity
  8
Ｓ_１_１
  6
EXLTYPE2
 62
     1
100
AcDbLine
 10
794.9999999999987
 20
1125.00000000002
 30
0.0
 11
794.9999999999987
 21
1165.00000000002
 31
0.0
  0
LINE
  5
37F
330
1F
100
AcDbEntity
  8
Ｓ_１_１
  6
EXLTYPE2
 62
     1
100
AcDbLine
 10
925.0
 20
1144.99999999998
 30
0.0
 11
965.0000000000001
 21
1144.99999999998
 31
0.0
  0
LINE
  5
380
330
1F
100
AcDbEntity
  8
Ｓ_１_１
  6
EXLTYPE2
 62
     1
100
AcDbLine
 10
1075.0
 20
1144.99999999998
 30
0.0
 11
1115.0
 21
1144.99999999998
 31
0.0
  0
LINE
  5
381
330
1F
100
AcDbEntity
  8
Ｓ_１_１
  6
EXLTYPE2
 62
     1
100
AcDbLine
 10
1094.999999999999
 20
1125.00000000002
 30
0.0
 11
1094.999999999999
 21
1165.00000000002
 31
0.0
  0
LINE
  5
382
330
1F
100
AcDbEntity
  8
Ｓ_１_１
  6
EXLTYPE2
 62
     1
100
AcDbLine
 10
1175.0
 20
1144.99999999998
 30
0.0
 11
1215.0
 21
1144.99999999998
 31
0.0
  0
LINE
  5
383
330
1F
100
AcDbEntity
  8
Ｓ_１_１
  6
EXLTYPE2
 62
     1
100
AcDbLine
 10
1194.999999999999
 20
1125.00000000002
 30
0.0
 11
1194.999999999999
 21
1165.00000000002
 31
0.0
  0
LINE
  5
384
330
1F
100
AcDbEntity
  8
Ｓ_１_１
  6
EXLTYPE2
 62
     1
100
AcDbLine
 10
1175.0
 20
1244.99999999998
 30
0.0
 11
1215.0
 21
1244.99999999998
 31
0.0
  0
LINE
  5
385
330
1F
100
AcDbEntity
  8
Ｓ_１_１
  6
EXLTYPE2
 62
     1
100
AcDbLine
 10
1194.999999999999
 20
1225.00000000002
 30
0.0
 11
1194.999999999999
 21
1265.00000000002
 31
0.0
  0
LINE
  5
386
330
1F
100
AcDbEntity
  8
Ｓ_１_１
  6
EXLTYPE2
 62
     1
100
AcDbLine
 10
1194.999999999999
 20
1375.00000000002
 30
0.0
 11
1194.999999999999
 21
1415.00000000002
 31
0.0
  0
LINE
  5
387
330
1F
100
AcDbEntity
  8
Ｓ_１_１
  6
EXLTYPE2
 62
     1
100
AcDbLine
 10
630.0
 20
1394.99999999998
 30
0.0
 11
1260.0
 21
1394.99999999998
 31
0.0
  0
LINE
  5
388
330
1F
100
AcDbEntity
  8
Ｓ_１_１
  6
EXLTYPE2
 62
     1
100
AcDbLine
 10
944.9999999999989
 20
1080.0
 30
0.0
 11
944.9999999999986
 21
1710.0
 31
0.0
  0
DIMENSION
  5
389
330
1F
100
AcDbEntity
  8
Ｓ_１_１
  6
CONTINUOUS
 62
     2
100
AcDbDimension
  2
*D30
 10
2132.4315875659
 20
675.0
 30
0.0
 11
2192.8065875659
 21
694.25
 31
0.0
 70
   160
  1
(575)
  3
ISO-25
100
AcDbAlignedDimension
 13
1557.5684124341
 23
487.9999999999901
 33
0.0
 14
2132.4315875659
 24
488.0
 34
0.0
100
AcDbRotatedDimension
1001
ACAD
1000
DSTYLE
1002
{
1070
   270
1070
     2
1070
     6
1000
EX_NORM
1070
     7
1000
EX_NORM
1070
    41
1040
21.0
1070
    42
1040
10.5
1070
    44
1040
7.0
1070
    73
1070
     0
1070
    74
1070
     0
1070
    75
1070
     0
1070
    76
1070
     0
1070
    77
1070
     1
1070
    78
1070
     8
1070
   140
1040
24.24032763153705
1070
   147
1040
0.0
1070
   173
1070
     1
1070
   176
1070
     2
1070
   177
1070
     2
1070
   178
1070
     2
1070
   271
1070
     2
1070
   277
1070
     2
1070
   279
1070
     2
1070
   280
1070
     2
1070
   287
1070
     5
1070
   340
1005
11D
1002
}
  0
ARC
  5
396
330
1F
100
AcDbEntity
  8
Ｓ_１_１
  6
CONTINUOUS
 62
     3
100
AcDbCircle
 10
945.0000000000042
 20
877.9999670080252
 30
0.0
 40
55.00000206199852
100
AcDbArc
 50
180.2721099853515
 51
183.1267863223421
  0
ARC
  5
397
330
1F
100
AcDbEntity
  8
Ｓ_１_１
  6
EXLTYPE0
 62
     2
100
AcDbCircle
 10
945.0000000000042
 20
877.9999670080252
 30
0.0
 40
55.00000206199852
100
AcDbArc
 50
183.1267863223422
 51
356.8732136776579
  0
ARC
  5
398
330
1F
100
AcDbEntity
  8
Ｓ_１_１
  6
EXLTYPE0
 62
     2
100
AcDbCircle
 10
1845.000000000004
 20
877.9999670080252
 30
0.0
 40
55.00000206199852
100
AcDbArc
 50
183.1267863223422
 51
356.8732136776579
  0
TEXT
  5
399
330
1F
100
AcDbEntity
  8
Ｓ_１_１
  6
CONTINUOUS
 62
     4
100
AcDbText
 10
1141.7
 20
719.2083280575291
 30
0.0
 40
24.24032763153705
  1
球面回転ヘッド
 41
0.9992308297349456
  7
EXCADTTF1
 72
     5
 11
1362.2
 21
719.2083280575291
 31
0.0
100
AcDbText
  0
LEADER
  5
39A
330
1F
100
AcDbEntity
  8
Ｓ_１_１
  6
CONTINUOUS
 62
     2
100
AcDbLeader
  3
ISO-25
 76
     3
 10
989.6593630949
 20
845.8979185566
 30
0.0
 10
1124.2786408258
 20
711.27864082575
 30
0.0
 10
1362.2
 20
711.27864082575
 30
0.0
1001
ACAD
1000
DSTYLE
1002
{
1070
     5
1000
EX_NORM
1070
    41
1040
21.0
1070
   341
1005
7E
1002
}
  0
TEXT
  5
39B
330
1F
100
AcDbEntity
  8
Ｓ_１_１
  6
CONTINUOUS
 62
     4
100
AcDbText
 10
1306.9
 20
411.3138934488291
 30
0.0
 40
24.24032763153705
  1
安定架台
 41
0.9992308297349457
  7
EXCADTTF1
 72
     5
 11
1432.9
 21
411.3138934488291
 31
0.0
100
AcDbText
  0
LEADER
  5
39C
330
1F
100
AcDbEntity
  8
Ｓ_１_１
  6
CONTINUOUS
 62
     2
100
AcDbLeader
  3
ISO-25
 76
     3
 10
1232.4315875659
 20
348.0
 30
0.0
 10
1287.815793783
 20
403.38420621705
 30
0.0
 10
1432.9
 20
403.38420621705
 30
0.0
1001
ACAD
1000
DSTYLE
1002
{
1070
     5
1000
EX_NORM
1070
    41
1040
21.0
1070
   341
1005
7E
1002
}
  0
TEXT
  5
39D
330
1F
100
AcDbEntity
  8
Ｓ_１_１
  6
CONTINUOUS
 62
     4
100
AcDbText
 10
1289.75
 20
1739.812404518879
 30
0.0
 40
24.24032763153705
  1
16-25キリ
 41
0.9992308297349457
  7
EXCADTTF1
 72
     5
 11
1431.5
 21
1739.812404518879
 31
0.0
100
AcDbText
  0
LEADER
  5
39E
330
1F
100
AcDbEntity
  8
Ｓ_１_１
  6
CONTINUOUS
 62
     2
100
AcDbLeader
  3
ISO-25
 76
     3
 10
1204.0534463727
 20
1653.6188809468
 30
0.0
 10
1282.317282713
 20
1731.8827172871
 30
0.0
 10
1431.5
 20
1731.8827172871
 30
0.0
1001
ACAD
1000
DSTYLE
1002
{
1070
     5
1000
EX_NORM
1070
    41
1040
21.0
1070
   341
1005
7E
1002
}
  0
CIRCLE
  5
39F
330
1F
100
AcDbEntity
  8
Ｓ_１_１
  6
CONTINUOUS
 62
     3
100
AcDbCircle
 10
945.0
 20
1395.0
 30
0.0
 40
154.79999999999
  0
CIRCLE
  5
3A0
330
1F
100
AcDbEntity
  8
Ｓ_１_１
  6
CONTINUOUS
 62
     3
100
AcDbCircle
 10
945.0000000000064
 20
267.9999999999999
 30
0.0
 40
16.0
  0
CIRCLE
  5
3A1
330
1F
100
AcDbEntity
  8
Ｓ_１_１
  6
CONTINUOUS
 62
     3
100
AcDbCircle
 10
945.0000000000064
 20
267.9999999999999
 30
0.0
 40
14.58898671826498
  0
CIRCLE
  5
3A2
330
1F
100
AcDbEntity
  8
Ｓ_１_１
  6
CONTINUOUS
 62
     3
100
AcDbCircle
 10
945.0000000000064
 20
267.9999999999999
 30
0.0
 40
10.62462489497569
  0
CIRCLE
  5
3A3
330
1F
100
AcDbEntity
  8
Ｓ_１_１
  6
CONTINUOUS
 62
     3
100
AcDbCircle
 10
945.0000000000064
 20
267.9999999999999
 30
0.0
 40
4.98315573269052
  0
POLYLINE
  5
3A4
330
1F
100
AcDbEntity
  8
Ｓ_１_１
  6
CONTINUOUS
 62
     3
100
AcDb2dPolyline
 66
     1
 10
0.0
 20
0.0
 30
0.0
 70
   128
  0
VERTEX
  5
3A5
330
3A4
100
AcDbEntity
  8
Ｓ_１_１
  6
CONTINUOUS
 62
     3
100
AcDbVertex
100
AcDb2dVertex
 10
944.9999999999962
 20
736.8563569726316
 30
0.0
  0
VERTEX
  5
3A6
330
3A4
100
AcDbEntity
  8
Ｓ_１_１
  6
CONTINUOUS
 62
     3
100
AcDbVertex
100
AcDb2dVertex
 10
956.9999999999964
 20
729.9281537423553
 30
0.0
  0
VERTEX
  5
3A7
330
3A4
100
AcDbEntity
  8
Ｓ_１_１
  6
CONTINUOUS
 62
     3
100
AcDbVertex
100
AcDb2dVertex
 10
956.9999999999964
 20
716.0717472818046
 30
0.0
  0
VERTEX
  5
3A8
330
3A4
100
AcDbEntity
  8
Ｓ_１_１
  6
CONTINUOUS
 62
     3
100
AcDbVertex
100
AcDb2dVertex
 10
944.9999999999962
 20
709.1435440515284
 30
0.0
  0
VERTEX
  5
3A9
330
3A4
100
AcDbEntity
  8
Ｓ_１_１
  6
CONTINUOUS
 62
     3
100
AcDbVertex
100
AcDb2dVertex
 10
932.9999999999964
 20
716.0717472818046
 30
0.0
  0
VERTEX
  5
3AA
330
3A4
100
AcDbEntity
  8
Ｓ_１_１
  6
CONTINUOUS
 62
     3
100
AcDbVertex
100
AcDb2dVertex
 10
932.9999999999964
 20
729.9281537423553
 30
0.0
  0
VERTEX
  5
3AB
330
3A4
100
AcDbEntity
  8
Ｓ_１_１
  6
CONTINUOUS
 62
     3
100
AcDbVertex
100
AcDb2dVertex
 10
944.9999999999962
 20
736.8563569726316
 30
0.0
  0
SEQEND
  5
3AC
330
3A4
100
AcDbEntity
  8
Ｓ_１_１
  6
CONTINUOUS
 62
     3
  0
CIRCLE
  5
3AD
330
1F
100
AcDbEntity
  8
Ｓ_１_１
  6
CONTINUOUS
 62
     3
100
AcDbCircle
 10
944.9999999999962
 20
722.99995051208
 30
0.0
 40
12.00000000000102
  0
CIRCLE
  5
3AE
330
1F
100
AcDbEntity
  8
Ｓ_１_１
  6
CONTINUOUS
 62
     3
100
AcDbCircle
 10
944.9999999999962
 20
722.99995051208
 30
0.0
 40
10.72532284355114
  0
CIRCLE
  5
3AF
330
1F
100
AcDbEntity
  8
Ｓ_１_１
  6
CONTINUOUS
 62
     3
100
AcDbCircle
 10
944.9999999999962
 20
722.99995051208
 30
0.0
 40
6.323600530683808
  0
CIRCLE
  5
3B0
330
1F
100
AcDbEntity
  8
Ｓ_１_１
  6
CONTINUOUS
 62
     3
100
AcDbCircle
 10
944.9999999999962
 20
722.99995051208
 30
0.0
 40
4.217842489549019
  0
LINE
  5
3B1
330
1F
100
AcDbEntity
  8
Ｓ_１_１
  6
CONTINUOUS
 62
     3
100
AcDbLine
 10
993.9999999999909
 20
727.2499505120792
 30
0.0
 11
998.9999999999909
 21
727.2499505120792
 31
0.0
  0
LINE
  5
3B2
330
1F
100
AcDbEntity
  8
Ｓ_１_１
  6
CONTINUOUS
 62
     3
100
AcDbLine
 10
993.9999999999909
 20
718.7499505120792
 30
0.0
 11
998.9999999999909
 21
718.7499505120792
 31
0.0
  0
LINE
  5
3B3
330
1F
100
AcDbEntity
  8
Ｓ_１_１
  6
CONTINUOUS
 62
     3
100
AcDbLine
 10
993.9999999999909
 20
717.9999505120792
 30
0.0
 11
998.2499999999909
 21
717.9999505120792
 31
0.0
  0
LINE
  5
3B4
330
1F
100
AcDbEntity
  8
Ｓ_１_１
  6
CONTINUOUS
 62
     3
100
AcDbLine
 10
993.9999999999909
 20
727.9999505120792
 30
0.0
 11
998.2499999999909
 21
727.9999505120792
 31
0.0
  0
LINE
  5
3B5
330
1F
100
AcDbEntity
  8
Ｓ_１_１
  6
CONTINUOUS
 62
     3
100
AcDbLine
 10
998.9999999999909
 20
718.7499505120792
 30
0.0
 11
998.9999999999909
 21
727.2499505120792
 31
0.0
  0
LINE
  5
3B6
330
1F
100
AcDbEntity
  8
Ｓ_１_１
  6
CONTINUOUS
 62
     3
100
AcDbLine
 10
998.2499999999909
 20
717.9999505120792
 30
0.0
 11
998.2499999999909
 21
727.9999505120792
 31
0.0
  0
LINE
  5
3B7
330
1F
100
AcDbEntity
  8
Ｓ_１_１
  6
CONTINUOUS
 62
     3
100
AcDbLine
 10
998.2500025576909
 20
717.9999516370791
 30
0.0
 11
999.000000656491
 21
718.749949799079
 31
0.0
  0
LINE
  5
3B8
330
1F
100
AcDbEntity
  8
Ｓ_１_１
  6
CONTINUOUS
 62
     3
100
AcDbLine
 10
999.0000016469908
 20
727.249952437379
 30
0.0
 11
998.2500014618907
 21
727.999952559179
 31
0.0
  0
LINE
  5
3B9
330
1F
100
AcDbEntity
  8
Ｓ_１_１
  6
CONTINUOUS
 62
     3
100
AcDbLine
 10
986.9999999999909
 20
722.9999505120792
 30
0.0
 11
986.9999999999909
 21
732.9999505120792
 31
0.0
  0
LINE
  5
3BA
330
1F
100
AcDbEntity
  8
Ｓ_１_１
  6
CONTINUOUS
 62
     3
100
AcDbLine
 10
986.9999999999909
 20
712.9999505120792
 30
0.0
 11
986.9999999999909
 21
722.9999505120792
 31
0.0
  0
LINE
  5
3BB
330
1F
100
AcDbEntity
  8
Ｓ_１_１
  6
CONTINUOUS
 62
     3
100
AcDbLine
 10
987.000000550991
 20
732.9999499610791
 30
0.0
 11
988.0000005799908
 21
731.9999498477788
 31
0.0
  0
LINE
  5
3BC
330
1F
100
AcDbEntity
  8
Ｓ_１_１
  6
CONTINUOUS
 62
     3
100
AcDbLine
 10
988.000000284891
 20
713.9999507126792
 30
0.0
 11
987.000000487691
 21
712.9999509997789
 31
0.0
  0
LINE
  5
3BD
330
1F
100
AcDbEntity
  8
Ｓ_１_１
  6
CONTINUOUS
 62
     3
100
AcDbLine
 10
987.9999999999909
 20
713.9999507126792
 30
0.0
 11
987.9999999999909
 21
722.9999505120792
 31
0.0
  0
LINE
  5
3BE
330
1F
100
AcDbEntity
  8
Ｓ_１_１
  6
CONTINUOUS
 62
     3
100
AcDbLine
 10
987.9999999999909
 20
722.9999505120792
 30
0.0
 11
987.9999999999909
 21
731.9999498477788
 31
0.0
  0
LINE
  5
3BF
330
1F
100
AcDbEntity
  8
Ｓ_１_１
  6
CONTINUOUS
 62
     3
100
AcDbLine
 10
957.4999999999905
 20
732.9999505120792
 30
0.0
 11
986.9999999999909
 21
732.9999505120792
 31
0.0
  0
LINE
  5
3C0
330
1F
100
AcDbEntity
  8
Ｓ_１_１
  6
CONTINUOUS
 62
     3
100
AcDbLine
 10
993.9999981655911
 20
730.4923631752791
 30
0.0
 11
992.9999979723907
 21
732.4999497649789
 31
0.0
  0
LINE
  5
3C1
330
1F
100
AcDbEntity
  8
Ｓ_１_１
  6
CONTINUOUS
 62
     3
100
AcDbLine
 10
993.9999995144908
 20
715.507536756079
 30
0.0
 11
992.9999993212909
 21
713.4999501663789
 31
0.0
  0
LINE
  5
3C2
330
1F
100
AcDbEntity
  8
Ｓ_１_１
  6
CONTINUOUS
 62
     3
100
AcDbLine
 10
987.999999976591
 20
730.4923638182792
 30
0.0
 11
989.0000001697907
 21
732.4999504079789
 31
0.0
  0
LINE
  5
3C3
330
1F
100
AcDbEntity
  8
Ｓ_１_１
  6
CONTINUOUS
 62
     3
100
AcDbLine
 10
987.999998485891
 20
715.5075363977791
 30
0.0
 11
988.9999985374908
 21
713.4999500925788
 31
0.0
  0
LINE
  5
3C4
330
1F
100
AcDbEntity
  8
Ｓ_１_１
  6
CONTINUOUS
 62
     3
100
AcDbLine
 10
988.9999999999908
 20
713.4999505120792
 30
0.0
 11
992.9999999999909
 21
713.4999505120792
 31
0.0
  0
LINE
  5
3C5
330
1F
100
AcDbEntity
  8
Ｓ_１_１
  6
CONTINUOUS
 62
     3
100
AcDbLine
 10
988.9999999999908
 20
732.4999505120792
 30
0.0
 11
992.9999999999909
 21
732.4999505120792
 31
0.0
  0
LINE
  5
3C6
330
1F
100
AcDbEntity
  8
Ｓ_１_１
  6
CONTINUOUS
 62
     3
100
AcDbLine
 10
993.9999999999909
 20
722.9999505120792
 30
0.0
 11
993.9999999999909
 21
730.4923643507792
 31
0.0
  0
LINE
  5
3C7
330
1F
100
AcDbEntity
  8
Ｓ_１_１
  6
CONTINUOUS
 62
     3
100
AcDbLine
 10
993.9999999999909
 20
715.5075366733791
 30
0.0
 11
993.9999999999909
 21
722.9999505120792
 31
0.0
  0
ARC
  5
3C8
330
1F
100
AcDbEntity
  8
Ｓ_１_１
  6
CONTINUOUS
 62
     3
100
AcDbCircle
 10
1003.541666666691
 20
722.9999505120792
 30
0.0
 40
15.5416666667
100
AcDbArc
 50
159.3345163543002
 51
159.3345238904477
  0
ARC
  5
3C9
330
1F
100
AcDbEntity
  8
Ｓ_１_１
  6
CONTINUOUS
 62
     3
100
AcDbCircle
 10
978.4583333332907
 20
722.9999505120792
 30
0.0
 40
15.5416666667
100
AcDbArc
 50
20.66547610955293
 51
20.66547840939962
  0
ARC
  5
3CA
330
1F
100
AcDbEntity
  8
Ｓ_１_１
  6
CONTINUOUS
 62
     3
100
AcDbCircle
 10
1003.541666666691
 20
722.9999505120792
 30
0.0
 40
15.5416666667
100
AcDbArc
 50
162.8126324028145
 51
197.1873680951787
  0
ARC
  5
3CB
330
1F
100
AcDbEntity
  8
Ｓ_１_１
  6
CONTINUOUS
 62
     3
100
AcDbCircle
 10
1003.541666666691
 20
722.9999505120792
 30
0.0
 40
15.5416666667
100
AcDbArc
 50
200.6654786560356
 51
200.6654800033002
  0
ARC
  5
3CC
330
1F
100
AcDbEntity
  8
Ｓ_１_１
  6
CONTINUOUS
 62
     3
100
AcDbCircle
 10
978.4583333332907
 20
722.9999505120792
 30
0.0
 40
15.5416666667
100
AcDbArc
 50
342.8126319048212
 51
17.18736759718547
  0
LINE
  5
3CD
330
1F
100
AcDbEntity
  8
Ｓ_１_１
  6
CONTINUOUS
 62
     3
100
AcDbLine
 10
993.3059641178529
 20
727.5924730067592
 30
0.0
 11
988.6940358821288
 21
727.5924730067592
 31
0.0
  0
LINE
  5
3CE
330
1F
100
AcDbEntity
  8
Ｓ_１_１
  6
CONTINUOUS
 62
     3
100
AcDbLine
 10
993.3059640779366
 20
718.4074278883492
 30
0.0
 11
988.6940359220451
 21
718.4074278883492
 31
0.0
  0
ARC
  5
3CF
330
1F
100
AcDbEntity
  8
Ｓ_１_１
  6
CONTINUOUS
 62
     3
100
AcDbCircle
 10
987.9999999999909
 20
715.5075333580891
 30
0.0
 40
6.000000000001596
100
AcDbArc
 50
0.0000417559226242
 51
28.90218407791362
  0
ARC
  5
3D0
330
1F
100
AcDbEntity
  8
Ｓ_１_１
  6
CONTINUOUS
 62
     3
100
AcDbCircle
 10
993.9999999999909
 20
715.507537730759
 30
0.0
 40
6.000000000001596
100
AcDbArc
 50
151.0978636188124
 51
180.0000417558857
  0
ARC
  5
3D1
330
1F
100
AcDbEntity
  8
Ｓ_１_１
  6
CONTINUOUS
 62
     3
100
AcDbCircle
 10
993.9999999999909
 20
730.4923638652591
 30
0.0
 40
6.000000000000006
100
AcDbArc
 50
179.9999920172612
 51
208.9021440266621
  0
ARC
  5
3D2
330
1F
100
AcDbEntity
  8
Ｓ_１_１
  6
CONTINUOUS
 62
     3
100
AcDbCircle
 10
987.9999999999909
 20
730.4923638652591
 30
0.0
 40
6.000000000001596
100
AcDbArc
 50
331.0978559733464
 51
0.0
  0
LINE
  5
3D3
330
1F
100
AcDbEntity
  8
Ｓ_１_１
  6
CONTINUOUS
 62
     3
100
AcDbLine
 10
957.4999999999905
 20
712.9999505120792
 30
0.0
 11
986.9999999999909
 21
712.9999505120792
 31
0.0
  0
LINE
  5
3D4
330
1F
100
AcDbEntity
  8
Ｓ_１_１
  6
CONTINUOUS
 62
     3
100
AcDbLine
 10
932.4999999999903
 20
735.49995051208
 30
0.0
 11
932.4999999999903
 21
710.4999505120801
 31
0.0
  0
LINE
  5
3D5
330
1F
100
AcDbEntity
  8
Ｓ_１_１
  6
CONTINUOUS
 62
     3
100
AcDbLine
 10
957.4999999999905
 20
735.49995051208
 30
0.0
 11
957.4999999999905
 21
710.49995051208
 31
0.0
  0
ARC
  5
3D6
330
1F
100
AcDbEntity
  8
Ｓ_１_１
  6
CONTINUOUS
 62
     3
100
AcDbCircle
 10
944.9999999999962
 20
722.9999505120799
 30
0.0
 40
15.0
100
AcDbArc
 50
56.44269023807936
 51
123.5573097619206
  0
ARC
  5
3D7
330
1F
100
AcDbEntity
  8
Ｓ_１_１
  6
CONTINUOUS
 62
     3
100
AcDbCircle
 10
944.9999999999962
 20
722.9999505120799
 30
0.0
 40
15.0
100
AcDbArc
 50
146.4426902381223
 51
213.5573097618778
  0
ARC
  5
3D8
330
1F
100
AcDbEntity
  8
Ｓ_１_１
  6
CONTINUOUS
 62
     3
100
AcDbCircle
 10
944.9999999999962
 20
722.9999505120799
 30
0.0
 40
15.0
100
AcDbArc
 50
236.4426902380792
 51
303.5573097619207
  0
ARC
  5
3D9
330
1F
100
AcDbEntity
  8
Ｓ_１_１
  6
CONTINUOUS
 62
     3
100
AcDbCircle
 10
944.9999999999962
 20
722.9999505120799
 30
0.0
 40
15.0
100
AcDbArc
 50
326.4426902380361
 51
33.55730976196409
  0
LINE
  5
3DA
330
1F
100
AcDbEntity
  8
Ｓ_１_１
  6
CONTINUOUS
 62
     3
100
AcDbLine
 10
932.4999999999903
 20
710.49995051208
 30
0.0
 11
942.6506350946066
 21
710.49995051208
 31
0.0
  0
LINE
  5
3DB
330
1F
100
AcDbEntity
  8
Ｓ_１_１
  6
CONTINUOUS
 62
     3
100
AcDbLine
 10
947.3493649053861
 20
710.49995051208
 30
0.0
 11
957.49999999999
 21
710.49995051208
 31
0.0
  0
LINE
  5
3DC
330
1F
100
AcDbEntity
  8
Ｓ_１_１
  6
CONTINUOUS
 62
     3
100
AcDbLine
 10
933.4999999999899
 20
711.4999505120799
 30
0.0
 11
940.918584287038
 21
711.4999505120799
 31
0.0
  0
LINE
  5
3DD
330
1F
100
AcDbEntity
  8
Ｓ_１_１
  6
CONTINUOUS
 62
     3
100
AcDbLine
 10
949.0814157129547
 20
711.4999505120799
 30
0.0
 11
956.4999999999905
 21
711.4999505120799
 31
0.0
  0
LINE
  5
3DE
330
1F
100
AcDbEntity
  8
Ｓ_１_１
  6
CONTINUOUS
 62
     3
100
AcDbLine
 10
933.4999999999899
 20
715.7830721472134
 30
0.0
 11
933.4999999999899
 21
711.4999505120799
 31
0.0
  0
LINE
  5
3DF
330
1F
100
AcDbEntity
  8
Ｓ_１_１
  6
CONTINUOUS
 62
     3
100
AcDbLine
 10
933.4999999999899
 20
734.49995051208
 30
0.0
 11
933.4999999999899
 21
730.2168288769466
 31
0.0
  0
LINE
  5
3E0
330
1F
100
AcDbEntity
  8
Ｓ_１_１
  6
CONTINUOUS
 62
     3
100
AcDbLine
 10
956.4999999999905
 20
734.49995051208
 30
0.0
 11
956.4999999999905
 21
730.2168288769536
 31
0.0
  0
LINE
  5
3E1
330
1F
100
AcDbEntity
  8
Ｓ_１_１
  6
CONTINUOUS
 62
     3
100
AcDbLine
 10
956.4999999999905
 20
715.7830721472062
 30
0.0
 11
956.4999999999905
 21
711.4999505120799
 31
0.0
  0
LINE
  5
3E2
330
1F
100
AcDbEntity
  8
Ｓ_１_１
  6
CONTINUOUS
 62
     3
100
AcDbLine
 10
933.4999999999899
 20
734.49995051208
 30
0.0
 11
940.918584287038
 21
734.49995051208
 31
0.0
  0
LINE
  5
3E3
330
1F
100
AcDbEntity
  8
Ｓ_１_１
  6
CONTINUOUS
 62
     3
100
AcDbLine
 10
932.4999999999903
 20
735.49995051208
 30
0.0
 11
942.6506350946066
 21
735.49995051208
 31
0.0
  0
LINE
  5
3E4
330
1F
100
AcDbEntity
  8
Ｓ_１_１
  6
CONTINUOUS
 62
     3
100
AcDbLine
 10
947.3493649053861
 20
735.49995051208
 30
0.0
 11
957.49999999999
 21
735.49995051208
 31
0.0
  0
LINE
  5
3E5
330
1F
100
AcDbEntity
  8
Ｓ_１_１
  6
CONTINUOUS
 62
     3
100
AcDbLine
 10
949.0814157129547
 20
734.49995051208
 30
0.0
 11
956.4999999999905
 21
734.49995051208
 31
0.0
  0
LINE
  5
3E6
330
1F
100
AcDbEntity
  8
Ｓ_１_１
  6
EXLTYPE8
 62
     1
100
AcDbLine
 10
925.5331068038848
 20
722.9999505120754
 30
0.0
 11
1002.47999999999
 21
722.9999505120754
 31
0.0
  0
LINE
  5
3E7
330
1F
100
AcDbEntity
  8
Ｓ_１_１
  6
CONTINUOUS
 62
     3
100
AcDbLine
 10
1686.137740495991
 20
711.4999505120797
 30
0.0
 11
1686.137740495991
 21
722.9999505120797
 31
0.0
  0
LINE
  5
3E8
330
1F
100
AcDbEntity
  8
Ｓ_１_１
  6
CONTINUOUS
 62
     3
100
AcDbLine
 10
1686.137740495991
 20
722.9999505120797
 30
0.0
 11
1686.137740495991
 21
734.4999505120797
 31
0.0
  0
LINE
  5
3E9
330
1F
100
AcDbEntity
  8
Ｓ_１_１
  6
CONTINUOUS
 62
     3
100
AcDbLine
 10
1685.137740495991
 20
735.4999505120797
 30
0.0
 11
1669.637740495991
 21
735.4999505120797
 31
0.0
  0
LINE
  5
3EA
330
1F
100
AcDbEntity
  8
Ｓ_１_１
  6
CONTINUOUS
 62
     3
100
AcDbLine
 10
1654.137740495991
 20
735.4999505120797
 30
0.0
 11
1669.637740495991
 21
735.4999505120797
 31
0.0
  0
LINE
  5
3EB
330
1F
100
AcDbEntity
  8
Ｓ_１_１
  6
CONTINUOUS
 62
     3
100
AcDbLine
 10
1653.137740495991
 20
711.4999505120797
 30
0.0
 11
1653.137740495991
 21
722.9999505120797
 31
0.0
  0
LINE
  5
3EC
330
1F
100
AcDbEntity
  8
Ｓ_１_１
  6
CONTINUOUS
 62
     3
100
AcDbLine
 10
1653.137740495991
 20
722.9999505120797
 30
0.0
 11
1653.137740495991
 21
734.4999505120797
 31
0.0
  0
LINE
  5
3ED
330
1F
100
AcDbEntity
  8
Ｓ_１_１
  6
CONTINUOUS
 62
     3
100
AcDbLine
 10
1653.137738937291
 20
734.4999518809798
 30
0.0
 11
1654.137739071691
 21
735.4999519309797
 31
0.0
  0
LINE
  5
3EE
330
1F
100
AcDbEntity
  8
Ｓ_１_１
  6
CONTINUOUS
 62
     3
100
AcDbLine
 10
1685.137741593091
 20
735.4999512987795
 30
0.0
 11
1686.137741305991
 21
734.4999515016796
 31
0.0
  0
LINE
  5
3EF
330
1F
100
AcDbEntity
  8
Ｓ_１_１
  6
CONTINUOUS
 62
     3
100
AcDbLine
 10
1685.137740420191
 20
710.4999505601797
 30
0.0
 11
1686.137740462991
 21
711.4999506872798
 31
0.0
  0
LINE
  5
3F0
330
1F
100
AcDbEntity
  8
Ｓ_１_１
  6
CONTINUOUS
 62
     3
100
AcDbLine
 10
1685.137740495991
 20
710.4999505120797
 30
0.0
 11
1669.637740495991
 21
710.4999505120797
 31
0.0
  0
LINE
  5
3F1
330
1F
100
AcDbEntity
  8
Ｓ_１_１
  6
CONTINUOUS
 62
     3
100
AcDbLine
 10
1653.137740033191
 20
711.4999502236799
 30
0.0
 11
1654.137739830291
 21
710.4999505107796
 31
0.0
  0
LINE
  5
3F2
330
1F
100
AcDbEntity
  8
Ｓ_１_１
  6
CONTINUOUS
 62
     3
100
AcDbLine
 10
1654.137740495991
 20
710.4999505120797
 30
0.0
 11
1669.637740495991
 21
710.4999505120797
 31
0.0
  0
LINE
  5
3F3
330
1F
100
AcDbEntity
  8
Ｓ_１_１
  6
CONTINUOUS
 62
     3
100
AcDbLine
 10
1654.137740495991
 20
710.4999505120797
 30
0.0
 11
1654.137740495991
 21
735.4999505120797
 31
0.0
  0
LINE
  5
3F4
330
1F
100
AcDbEntity
  8
Ｓ_１_１
  6
CONTINUOUS
 62
     3
100
AcDbLine
 10
1685.137740495991
 20
710.4999505120797
 30
0.0
 11
1685.137740495991
 21
735.4999505120797
 31
0.0
  0
LINE
  5
3F5
330
1F
100
AcDbEntity
  8
Ｓ_１_１
  6
CONTINUOUS
 62
     3
100
AcDbLine
 10
1651.77546849598
 20
731.2648125120797
 30
0.0
 11
1651.77546849598
 21
714.7350955120799
 31
0.0
  0
LINE
  5
3F6
330
1F
100
AcDbEntity
  8
Ｓ_１_１
  6
CONTINUOUS
 62
     3
100
AcDbLine
 10
1645.63776749598
 20
715.8200695120797
 30
0.0
 11
1651.77548049598
 21
715.4364615120801
 31
0.0
  0
LINE
  5
3F7
330
1F
100
AcDbEntity
  8
Ｓ_１_１
  6
CONTINUOUS
 62
     3
100
AcDbLine
 10
1645.63774949598
 20
715.11869951208
 30
0.0
 11
1653.13776349598
 21
714.6499485120801
 31
0.0
  0
LINE
  5
3F8
330
1F
100
AcDbEntity
  8
Ｓ_１_１
  6
CONTINUOUS
 62
     3
100
AcDbLine
 10
1651.77546049598
 20
715.4364765120799
 30
0.0
 11
1653.13774349598
 21
714.6499615120799
 31
0.0
  0
LINE
  5
3F9
330
1F
100
AcDbEntity
  8
Ｓ_１_１
  6
CONTINUOUS
 62
     3
100
AcDbLine
 10
1645.63773749598
 20
730.8812005120797
 30
0.0
 11
1653.13778249598
 21
731.3499535120798
 31
0.0
  0
LINE
  5
3FA
330
1F
100
AcDbEntity
  8
Ｓ_１_１
  6
CONTINUOUS
 62
     3
100
AcDbLine
 10
1653.13775949598
 20
731.34993951208
 30
0.0
 11
1651.77548949598
 21
730.5634335120797
 31
0.0
  0
LINE
  5
3FB
330
1F
100
AcDbEntity
  8
Ｓ_１_１
  6
CONTINUOUS
 62
     3
100
AcDbLine
 10
1645.63775549598
 20
730.1798385120799
 30
0.0
 11
1651.77549849598
 21
730.5634475120798
 31
0.0
  0
LINE
  5
3FC
330
1F
100
AcDbEntity
  8
Ｓ_１_１
  6
CONTINUOUS
 62
     3
100
AcDbLine
 10
1692.500031496
 20
730.2509395120799
 30
0.0
 11
1687.500021496
 21
730.5634405120798
 31
0.0
  0
LINE
  5
3FD
330
1F
100
AcDbEntity
  8
Ｓ_１_１
  6
CONTINUOUS
 62
     3
100
AcDbLine
 10
1692.500019496
 20
730.9523035120799
 30
0.0
 11
1686.137768496
 21
731.34994351208
 31
0.0
  0
LINE
  5
3FE
330
1F
100
AcDbEntity
  8
Ｓ_１_１
  6
CONTINUOUS
 62
     3
100
AcDbLine
 10
1687.500012496
 20
731.2648125120797
 30
0.0
 11
1687.500012496
 21
714.7350955120799
 31
0.0
  0
LINE
  5
3FF
330
1F
100
AcDbEntity
  8
Ｓ_１_１
  6
CONTINUOUS
 62
     3
100
AcDbLine
 10
1686.137721496
 20
731.3499625120801
 30
0.0
 11
1687.500004496
 21
730.5634485120797
 31
0.0
  0
LINE
  5
400
330
1F
100
AcDbEntity
  8
Ｓ_１_１
  6
CONTINUOUS
 62
     3
100
AcDbLine
 10
1692.500019496
 20
715.7489645120797
 30
0.0
 11
1687.500009495999
 21
715.4364635120799
 31
0.0
  0
LINE
  5
401
330
1F
100
AcDbEntity
  8
Ｓ_１_１
  6
CONTINUOUS
 62
     3
100
AcDbLine
 10
1692.500006496
 20
715.04760051208
 30
0.0
 11
1686.137756496
 21
714.64996051208
 31
0.0
  0
LINE
  5
402
330
1F
100
AcDbEntity
  8
Ｓ_１_１
  6
CONTINUOUS
 62
     3
100
AcDbLine
 10
1687.500020495999
 20
715.4364535120801
 30
0.0
 11
1686.137750496
 21
714.6499465120799
 31
0.0
  0
ARC
  5
403
330
1F
100
AcDbEntity
  8
Ｓ_１_１
  6
CONTINUOUS
 62
     3
100
AcDbCircle
 10
1644.771574495981
 20
733.3922390120695
 30
0.0
 40
6.133925000000002
100
AcDbArc
 50
145.6154380000004
 51
214.3845830000003
  0
ARC
  5
404
330
1F
100
AcDbEntity
  8
Ｓ_１_１
  6
CONTINUOUS
 62
     3
100
AcDbCircle
 10
1661.565886495981
 20
722.9999350120695
 30
0.0
 40
22.927938
100
AcDbArc
 50
162.411858
 51
197.5881660000002
  0
ARC
  5
405
330
1F
100
AcDbEntity
  8
Ｓ_１_１
  6
CONTINUOUS
 62
     3
100
AcDbCircle
 10
1639.503874495982
 20
712.6076010120698
 30
0.0
 40
6.133925000000002
100
AcDbArc
 50
325.6154019999991
 51
34.38456099999978
  0
ARC
  5
406
330
1F
100
AcDbEntity
  8
Ｓ_１_１
  6
CONTINUOUS
 62
     3
100
AcDbCircle
 10
1601.637907495981
 20
718.49993501207
 30
0.0
 40
1.0
100
AcDbArc
 50
179.9999779999953
 51
269.9999749999977
  0
ARC
  5
407
330
1F
100
AcDbEntity
  8
Ｓ_１_１
  6
CONTINUOUS
 62
     3
100
AcDbCircle
 10
1644.771574495981
 20
712.6076010120698
 30
0.0
 40
6.133925000000002
100
AcDbArc
 50
145.6153689999997
 51
214.384513999999
  0
ARC
  5
408
330
1F
100
AcDbEntity
  8
Ｓ_１_１
  6
CONTINUOUS
 62
     3
100
AcDbCircle
 10
1622.709807495981
 20
722.9999350120695
 30
0.0
 40
22.927942
100
AcDbArc
 50
342.4118210000002
 51
17.58811500000014
  0
ARC
  5
409
330
1F
100
AcDbEntity
  8
Ｓ_１_１
  6
CONTINUOUS
 62
     3
100
AcDbCircle
 10
1639.503874495982
 20
733.3922390120695
 30
0.0
 40
6.133925000000002
100
AcDbArc
 50
325.6154159999999
 51
34.38457399999984
  0
ARC
  5
40A
330
1F
100
AcDbEntity
  8
Ｓ_１_１
  6
CONTINUOUS
 62
     3
100
AcDbCircle
 10
1601.637907495981
 20
727.4999050120693
 30
0.0
 40
1.0
100
AcDbArc
 50
89.99999700000235
 51
179.9999780000017
  0
LINE
  5
40B
330
1F
100
AcDbEntity
  8
Ｓ_１_１
  6
CONTINUOUS
 62
     3
100
AcDbLine
 10
1598.637785495982
 20
721.4999660120695
 30
0.0
 11
1598.637785495982
 21
724.4999350120695
 31
0.0
  0
LINE
  5
40C
330
1F
100
AcDbEntity
  8
Ｓ_１_１
  6
CONTINUOUS
 62
     3
100
AcDbLine
 10
1645.637663495981
 20
710.99993501207
 30
0.0
 11
1645.637663495981
 21
734.9999050120693
 31
0.0
  0
LINE
  5
40D
330
1F
100
AcDbEntity
  8
Ｓ_１_１
  6
CONTINUOUS
 62
     3
100
AcDbLine
 10
1601.637907495981
 20
717.4999050120698
 30
0.0
 11
1610.637663495981
 21
717.4999050120698
 31
0.0
  0
LINE
  5
40E
330
1F
100
AcDbEntity
  8
Ｓ_１_１
  6
CONTINUOUS
 62
     3
100
AcDbLine
 10
1610.637663495981
 20
717.4999050120698
 30
0.0
 11
1610.637663495981
 21
728.4999350120695
 31
0.0
  0
LINE
  5
40F
330
1F
100
AcDbEntity
  8
Ｓ_１_１
  6
CONTINUOUS
 62
     3
100
AcDbLine
 10
1614.137907495981
 20
713.99996601207
 30
0.0
 11
1616.137785495982
 21
713.99996601207
 31
0.0
  0
LINE
  5
410
330
1F
100
AcDbEntity
  8
Ｓ_１_１
  6
CONTINUOUS
 62
     3
100
AcDbLine
 10
1614.137907495981
 20
731.9999350120695
 30
0.0
 11
1616.137785495982
 21
731.9999350120695
 31
0.0
  0
LINE
  5
411
330
1F
100
AcDbEntity
  8
Ｓ_１_１
  6
CONTINUOUS
 62
     3
100
AcDbLine
 10
1629.637785495982
 20
711.74993501207
 30
0.0
 11
1629.637785495982
 21
734.2499350120695
 31
0.0
  0
LINE
  5
412
330
1F
100
AcDbEntity
  8
Ｓ_１_１
  6
CONTINUOUS
 62
     3
100
AcDbLine
 10
1630.137785495982
 20
734.7499350120695
 30
0.0
 11
1638.637785495982
 21
734.7499350120695
 31
0.0
  0
LINE
  5
413
330
1F
100
AcDbEntity
  8
Ｓ_１_１
  6
CONTINUOUS
 62
     3
100
AcDbLine
 10
1630.137785495982
 20
711.2499050120698
 30
0.0
 11
1638.637785495982
 21
711.2499050120698
 31
0.0
  0
LINE
  5
414
330
1F
100
AcDbEntity
  8
Ｓ_１_１
  6
CONTINUOUS
 62
     3
100
AcDbLine
 10
1644.565811495981
 20
709.1435670120698
 30
0.0
 11
1645.637588495981
 21
710.99993901207
 31
0.0
  0
LINE
  5
415
330
1F
100
AcDbEntity
  8
Ｓ_１_１
  6
CONTINUOUS
 62
     3
100
AcDbLine
 10
1638.637594495982
 20
734.9998620120693
 30
0.0
 11
1639.709433495982
 21
736.8563400120695
 31
0.0
  0
LINE
  5
416
330
1F
100
AcDbEntity
  8
Ｓ_１_１
  6
CONTINUOUS
 62
     3
100
AcDbLine
 10
1645.637630495981
 20
734.9999040120695
 30
0.0
 11
1644.565853495981
 21
736.8562770120695
 31
0.0
  0
LINE
  5
417
330
1F
100
AcDbEntity
  8
Ｓ_１_１
  6
CONTINUOUS
 62
     3
100
AcDbLine
 10
1639.709293495982
 20
709.1435740120698
 30
0.0
 11
1638.637516495982
 21
710.9999470120699
 31
0.0
  0
LINE
  5
418
330
1F
100
AcDbEntity
  8
Ｓ_１_１
  6
CONTINUOUS
 62
     3
100
AcDbLine
 10
1639.709563495981
 20
736.8563500120692
 30
0.0
 11
1644.565886495981
 21
736.8563500120692
 31
0.0
  0
LINE
  5
419
330
1F
100
AcDbEntity
  8
Ｓ_１_１
  6
CONTINUOUS
 62
     3
100
AcDbLine
 10
1639.709563495981
 20
729.9281580120694
 30
0.0
 11
1644.565886495981
 21
729.9281580120694
 31
0.0
  0
LINE
  5
41A
330
1F
100
AcDbEntity
  8
Ｓ_１_１
  6
CONTINUOUS
 62
     3
100
AcDbLine
 10
1639.709563495981
 20
716.0718040120698
 30
0.0
 11
1644.565886495981
 21
716.0718040120698
 31
0.0
  0
LINE
  5
41B
330
1F
100
AcDbEntity
  8
Ｓ_１_１
  6
CONTINUOUS
 62
     3
100
AcDbLine
 10
1639.709563495981
 20
709.1435360120697
 30
0.0
 11
1644.565886495981
 21
709.1435360120697
 31
0.0
  0
LINE
  5
41C
330
1F
100
AcDbEntity
  8
Ｓ_１_１
  6
CONTINUOUS
 62
     3
100
AcDbLine
 10
1638.637785495982
 20
710.99993501207
 30
0.0
 11
1638.637785495982
 21
734.9999050120693
 31
0.0
  0
LINE
  5
41D
330
1F
100
AcDbEntity
  8
Ｓ_１_１
  6
CONTINUOUS
 62
     3
100
AcDbLine
 10
1600.637663495981
 20
718.49993501207
 30
0.0
 11
1600.637663495981
 21
727.4999050120693
 31
0.0
  0
LINE
  5
41E
330
1F
100
AcDbEntity
  8
Ｓ_１_１
  6
CONTINUOUS
 62
     3
100
AcDbLine
 10
1598.637598495981
 20
724.4997940120695
 30
0.0
 11
1600.637643495981
 21
726.4998390120693
 31
0.0
  0
LINE
  5
41F
330
1F
100
AcDbEntity
  8
Ｓ_１_１
  6
CONTINUOUS
 62
     3
100
AcDbLine
 10
1600.637600495982
 20
719.4997670120699
 30
0.0
 11
1598.637641495981
 21
721.4997260120692
 31
0.0
  0
LINE
  5
420
330
1F
100
AcDbEntity
  8
Ｓ_１_１
  6
CONTINUOUS
 62
     3
100
AcDbLine
 10
1619.137907495981
 20
715.49993501207
 30
0.0
 11
1619.137907495981
 21
730.4999350120695
 31
0.0
  0
LINE
  5
421
330
1F
100
AcDbEntity
  8
Ｓ_１_１
  6
CONTINUOUS
 62
     3
100
AcDbLine
 10
1617.637785495982
 20
715.49993501207
 30
0.0
 11
1617.637785495982
 21
730.4999350120695
 31
0.0
  0
LINE
  5
422
330
1F
100
AcDbEntity
  8
Ｓ_１_１
  6
CONTINUOUS
 62
     3
100
AcDbLine
 10
1614.137907495981
 20
713.99996601207
 30
0.0
 11
1614.137907495981
 21
731.9999350120695
 31
0.0
  0
LINE
  5
423
330
1F
100
AcDbEntity
  8
Ｓ_１_１
  6
CONTINUOUS
 62
     3
100
AcDbLine
 10
1620.637663495981
 20
731.9999350120695
 30
0.0
 11
1629.637785495982
 21
731.9999350120695
 31
0.0
  0
LINE
  5
424
330
1F
100
AcDbEntity
  8
Ｓ_１_１
  6
CONTINUOUS
 62
     3
100
AcDbLine
 10
1620.637663495981
 20
713.99996601207
 30
0.0
 11
1629.637785495982
 21
713.99996601207
 31
0.0
  0
LINE
  5
425
330
1F
100
AcDbEntity
  8
Ｓ_１_１
  6
CONTINUOUS
 62
     3
100
AcDbLine
 10
1616.137764495981
 20
713.9998230120698
 30
0.0
 11
1617.637777495982
 21
715.4998350120698
 31
0.0
  0
LINE
  5
426
330
1F
100
AcDbEntity
  8
Ｓ_１_１
  6
CONTINUOUS
 62
     3
100
AcDbLine
 10
1617.637778495981
 20
730.4999010120694
 30
0.0
 11
1616.137895495982
 21
731.9997840120693
 31
0.0
  0
LINE
  5
427
330
1F
100
AcDbEntity
  8
Ｓ_１_１
  6
CONTINUOUS
 62
     3
100
AcDbLine
 10
1616.137785495982
 20
713.99996601207
 30
0.0
 11
1616.137785495982
 21
731.9999350120695
 31
0.0
  0
LINE
  5
428
330
1F
100
AcDbEntity
  8
Ｓ_１_１
  6
CONTINUOUS
 62
     3
100
AcDbLine
 10
1620.637630495981
 20
713.9999370120697
 30
0.0
 11
1619.137747495982
 21
715.4998200120697
 31
0.0
  0
LINE
  5
429
330
1F
100
AcDbEntity
  8
Ｓ_１_１
  6
CONTINUOUS
 62
     3
100
AcDbLine
 10
1619.137789495981
 20
730.4997870120694
 30
0.0
 11
1620.637801495982
 21
731.9998000120693
 31
0.0
  0
LINE
  5
42A
330
1F
100
AcDbEntity
  8
Ｓ_１_１
  6
CONTINUOUS
 62
     3
100
AcDbLine
 10
1630.137785495982
 20
711.2499050120698
 30
0.0
 11
1630.137785495982
 21
734.7499350120695
 31
0.0
  0
LINE
  5
42B
330
1F
100
AcDbEntity
  8
Ｓ_１_１
  6
CONTINUOUS
 62
     3
100
AcDbLine
 10
1620.637663495981
 20
713.99996601207
 30
0.0
 11
1620.637663495981
 21
731.9999350120695
 31
0.0
  0
LINE
  5
42C
330
1F
100
AcDbEntity
  8
Ｓ_１_１
  6
CONTINUOUS
 62
     3
100
AcDbLine
 10
1617.637785495982
 20
715.49993501207
 30
0.0
 11
1619.137907495981
 21
715.49993501207
 31
0.0
  0
LINE
  5
42D
330
1F
100
AcDbEntity
  8
Ｓ_１_１
  6
CONTINUOUS
 62
     3
100
AcDbLine
 10
1617.637785495982
 20
730.4999350120695
 30
0.0
 11
1619.137907495981
 21
730.4999350120695
 31
0.0
  0
LINE
  5
42E
330
1F
100
AcDbEntity
  8
Ｓ_１_１
  6
CONTINUOUS
 62
     3
100
AcDbLine
 10
1629.637696495982
 20
734.2498310120693
 30
0.0
 11
1630.137642495981
 21
734.7497780120696
 31
0.0
  0
LINE
  5
42F
330
1F
100
AcDbEntity
  8
Ｓ_１_１
  6
CONTINUOUS
 62
     3
100
AcDbLine
 10
1630.137694495982
 20
711.24986001207
 30
0.0
 11
1629.637785495982
 21
711.7497580120701
 31
0.0
  0
LINE
  5
430
330
1F
100
AcDbEntity
  8
Ｓ_１_１
  6
CONTINUOUS
 62
     3
100
AcDbLine
 10
1614.137676495981
 20
713.9998940120697
 30
0.0
 11
1610.637662495981
 21
717.4999080120699
 31
0.0
  0
LINE
  5
431
330
1F
100
AcDbEntity
  8
Ｓ_１_１
  6
CONTINUOUS
 62
     3
100
AcDbLine
 10
1610.637876495982
 20
728.4997850120697
 30
0.0
 11
1614.137848495981
 21
731.9997560120694
 31
0.0
  0
LINE
  5
432
330
1F
100
AcDbEntity
  8
Ｓ_１_１
  6
CONTINUOUS
 62
     3
100
AcDbLine
 10
1601.637907495981
 20
728.4999350120695
 30
0.0
 11
1610.637663495981
 21
728.4999350120695
 31
0.0
  0
CIRCLE
  5
433
330
1F
100
AcDbEntity
  8
Ｓ_１_１
  6
CONTINUOUS
 62
     3
100
AcDbCircle
 10
1669.63774049599
 20
722.9999505120797
 30
0.0
 40
10.0
  0
POLYLINE
  5
434
330
1F
100
AcDbEntity
  8
Ｓ_１_１
  6
CONTINUOUS
 62
     3
100
AcDb2dPolyline
 66
     1
 10
0.0
 20
0.0
 30
0.0
 70
   128
  0
VERTEX
  5
435
330
434
100
AcDbEntity
  8
Ｓ_１_１
  6
CONTINUOUS
 62
     3
100
AcDbVertex
100
AcDb2dVertex
 10
1660.13774049599
 20
722.9999505120797
 30
0.0
  0
VERTEX
  5
436
330
434
100
AcDbEntity
  8
Ｓ_１_１
  6
CONTINUOUS
 62
     3
100
AcDbVertex
100
AcDb2dVertex
 10
1664.88774049599
 20
714.7727091761278
 30
0.0
  0
VERTEX
  5
437
330
434
100
AcDbEntity
  8
Ｓ_１_１
  6
CONTINUOUS
 62
     3
100
AcDbVertex
100
AcDb2dVertex
 10
1674.38774049599
 20
714.7727091761278
 30
0.0
  0
VERTEX
  5
438
330
434
100
AcDbEntity
  8
Ｓ_１_１
  6
CONTINUOUS
 62
     3
100
AcDbVertex
100
AcDb2dVertex
 10
1679.13774049599
 20
722.9999505120797
 30
0.0
  0
VERTEX
  5
439
330
434
100
AcDbEntity
  8
Ｓ_１_１
  6
CONTINUOUS
 62
     3
100
AcDbVertex
100
AcDb2dVertex
 10
1674.38774049599
 20
731.2271918480321
 30
0.0
  0
VERTEX
  5
43A
330
434
100
AcDbEntity
  8
Ｓ_１_１
  6
CONTINUOUS
 62
     3
100
AcDbVertex
100
AcDb2dVertex
 10
1664.88774049599
 20
731.2271918480321
 30
0.0
  0
VERTEX
  5
43B
330
434
100
AcDbEntity
  8
Ｓ_１_１
  6
CONTINUOUS
 62
     3
100
AcDbVertex
100
AcDb2dVertex
 10
1660.13774049599
 20
722.9999505120797
 30
0.0
  0
SEQEND
  5
43C
330
434
100
AcDbEntity
  8
Ｓ_１_１
  6
CONTINUOUS
 62
     3
  0
CIRCLE
  5
43D
330
1F
100
AcDbEntity
  8
Ｓ_１_１
  6
CONTINUOUS
 62
     3
100
AcDbCircle
 10
1669.63774049599
 20
722.9999505120797
 30
0.0
 40
8.227241335951572
  0
ARC
  5
43E
330
1F
100
AcDbEntity
  8
Ｓ_１_１
  6
CONTINUOUS
 62
     3
100
AcDbCircle
 10
1669.63774049599
 20
722.9999505120797
 30
0.0
 40
8.999999915700016
100
AcDbArc
 50
186.0835974972829
 51
233.9164025027172
  0
ARC
  5
43F
330
1F
100
AcDbEntity
  8
Ｓ_１_１
  6
CONTINUOUS
 62
     3
100
AcDbCircle
 10
1669.63774049599
 20
722.9999505120797
 30
0.0
 40
8.999999915700016
100
AcDbArc
 50
246.0835974972827
 51
293.9164025027173
  0
ARC
  5
440
330
1F
100
AcDbEntity
  8
Ｓ_１_１
  6
CONTINUOUS
 62
     3
100
AcDbCircle
 10
1669.63774049599
 20
722.9999505120797
 30
0.0
 40
8.999999915700016
100
AcDbArc
 50
306.0835974972829
 51
353.9164025027171
  0
ARC
  5
441
330
1F
100
AcDbEntity
  8
Ｓ_１_１
  6
CONTINUOUS
 62
     3
100
AcDbCircle
 10
1669.63774049599
 20
722.9999505120797
 30
0.0
 40
8.999999915700016
100
AcDbArc
 50
6.083597497282877
 51
53.91640250271725
  0
ARC
  5
442
330
1F
100
AcDbEntity
  8
Ｓ_１_１
  6
CONTINUOUS
 62
     3
100
AcDbCircle
 10
1669.63774049599
 20
722.9999505120797
 30
0.0
 40
8.999999915700016
100
AcDbArc
 50
66.08359749728265
 51
113.9164025027174
  0
ARC
  5
443
330
1F
100
AcDbEntity
  8
Ｓ_１_１
  6
CONTINUOUS
 62
     3
100
AcDbCircle
 10
1669.63774049599
 20
722.9999505120797
 30
0.0
 40
8.999999915700016
100
AcDbArc
 50
126.0835974972829
 51
173.9164025027172
  0
CIRCLE
  5
444
330
1F
100
AcDbEntity
  8
Ｓ_１_１
  6
CONTINUOUS
 62
     3
100
AcDbCircle
 10
1669.63774049599
 20
722.9999505120797
 30
0.0
 40
5.0
  0
CIRCLE
  5
445
330
1F
100
AcDbEntity
  8
Ｓ_１_１
  6
CONTINUOUS
 62
     3
100
AcDbCircle
 10
1669.63774049599
 20
722.9999505120797
 30
0.0
 40
4.25
  0
LINE
  5
446
330
1F
100
AcDbEntity
  8
Ｓ_１_１
  6
EXLTYPE2
 62
     1
100
AcDbLine
 10
1669.637740495991
 20
735.9999505120797
 30
0.0
 11
1669.637740495991
 21
709.9999505120797
 31
0.0
  0
LINE
  5
447
330
1F
100
AcDbEntity
  8
Ｓ_１_１
  6
EXLTYPE2
 62
     1
100
AcDbLine
 10
1589.56
 20
722.9999505120765
 30
0.0
 11
1696.66
 21
722.9999505120765
 31
0.0
  0
POLYLINE
  5
448
330
1F
100
AcDbEntity
  8
Ｓ_１_１
  6
CONTINUOUS
 62
     3
100
AcDb2dPolyline
 66
     1
 10
0.0
 20
0.0
 30
0.0
 70
   128
  0
VERTEX
  5
449
330
448
100
AcDbEntity
  8
Ｓ_１_１
  6
CONTINUOUS
 62
     3
100
AcDbVertex
100
AcDb2dVertex
 10
1666.750989150052
 20
722.99995051208
 30
0.0
  0
VERTEX
  5
44A
330
448
100
AcDbEntity
  8
Ｓ_１_１
  6
CONTINUOUS
 62
     3
100
AcDbVertex
100
AcDb2dVertex
 10
1668.194364823026
 20
720.49995051208
 30
0.0
  0
VERTEX
  5
44B
330
448
100
AcDbEntity
  8
Ｓ_１_１
  6
CONTINUOUS
 62
     3
100
AcDbVertex
100
AcDb2dVertex
 10
1671.081116168974
 20
720.49995051208
 30
0.0
  0
VERTEX
  5
44C
330
448
100
AcDbEntity
  8
Ｓ_１_１
  6
CONTINUOUS
 62
     3
100
AcDbVertex
100
AcDb2dVertex
 10
1672.524491841948
 20
722.99995051208
 30
0.0
  0
VERTEX
  5
44D
330
448
100
AcDbEntity
  8
Ｓ_１_１
  6
CONTINUOUS
 62
     3
100
AcDbVertex
100
AcDb2dVertex
 10
1671.081116168974
 20
725.49995051208
 30
0.0
  0
VERTEX
  5
44E
330
448
100
AcDbEntity
  8
Ｓ_１_１
  6
CONTINUOUS
 62
     3
100
AcDbVertex
100
AcDb2dVertex
 10
1668.194364823026
 20
725.49995051208
 30
0.0
  0
VERTEX
  5
44F
330
448
100
AcDbEntity
  8
Ｓ_１_１
  6
CONTINUOUS
 62
     3
100
AcDbVertex
100
AcDb2dVertex
 10
1666.750989150052
 20
722.99995051208
 30
0.0
  0
SEQEND
  5
450
330
448
100
AcDbEntity
  8
Ｓ_１_１
  6
CONTINUOUS
 62
     3
  0
ENDSEC
  0
SECTION
  2
OBJECTS
  0
DICTIONARY
  5
C
330
0
100
AcDbDictionary
  3
ACAD_GROUP
350
D
  3
ACAD_LAYOUT
350
1A
  3
ACAD_MATERIAL
350
43
  3
ACAD_MLEADERSTYLE
350
6B
  3
ACAD_MLINESTYLE
350
17
  3
ACAD_PLOTSETTINGS
350
19
  3
ACAD_SCALELIST
350
47
  3
ACAD_VISUALSTYLE
350
2A
  3
ACDBHEADERROUNDTRIPXREC
350
451
  3
ACDBVARIABLEDICTIONARY
350
472
  0
DICTIONARY
  5
47D
330
8
100
AcDbDictionary
280
     1
  3
ACAD_XREC_ROUNDTRIP
360
47E
  0
DICTIONARY
  5
D
102
{ACAD_REACTORS
330
C
102
}
330
C
100
AcDbDictionary
  0
DICTIONARY
  5
1A
102
{ACAD_REACTORS
330
C
102
}
330
C
100
AcDbDictionary
  0
DICTIONARY
  5
43
102
{ACAD_REACTORS
330
C
102
}
330
C
100
AcDbDictionary
  3
BYBLOCK
350
45
  3
BYLAYER
350
44
  3
GLOBAL
350
46
  0
DICTIONARY
  5
6B
102
{ACAD_REACTORS
330
C
102
}
330
C
100
AcDbDictionary
  3
STANDARD
350
6C
  0
DICTIONARY
  5
17
102
{ACAD_REACTORS
330
C
102
}
330
C
100
AcDbDictionary
  3
STANDARD
350
18
  0
DICTIONARY
  5
19
102
{ACAD_REACTORS
330
C
102
}
330
C
100
AcDbDictionary
  0
DICTIONARY
  5
47
102
{ACAD_REACTORS
330
C
102
}
330
C
100
AcDbDictionary
  3
A0
350
48
  3
A1
350
49
  3
A2
350
4A
  3
A3
350
4B
  3
A4
350
4C
  3
A5
350
4D
  3
A6
350
4E
  3
A7
350
4F
  3
A8
350
50
  3
A9
350
51
  3
B0
350
52
  3
B1
350
53
  3
B2
350
54
  3
B3
350
55
  3
B4
350
56
  3
B5
350
57
  3
B6
350
58
  3
B7
350
59
  3
B8
350
5A
  3
B9
350
5B
  3
C0
350
5C
  3
C1
350
5D
  3
C2
350
5E
  3
C3
350
5F
  3
C4
350
60
  3
C5
350
61
  3
C6
350
62
  3
C7
350
63
  3
C8
350
64
  3
C9
350
65
  3
D0
350
66
  3
D1
350
67
  3
D2
350
68
  0
DICTIONARY
  5
2A
102
{ACAD_REACTORS
330
C
102
}
330
C
100
AcDbDictionary
  3
2DWIREFRAME
350
2F
  3
BASIC
350
32
  3
BRIGHTEN
350
36
  3
COLORCHANGE
350
3A
  3
CONCEPTUAL
350
34
  3
DIM
350
35
  3
EDGECOLOROFF
350
3D
  3
FACEPATTERN
350
39
  3
FLAT
350
2B
  3
FLATWITHEDGES
350
2C
  3
GOURAUD
350
2D
  3
GOURAUDWITHEDGES
350
2E
  3
HIDDEN
350
31
  3
JITTEROFF
350
3B
  3
LINEPATTERN
350
38
  3
OVERHANGOFF
350
3C
  3
REALISTIC
350
33
  3
SHADED
350
42
  3
SHADED_WITH_EDGES
350
41
  3
SHADES_OF_GRAY
350
3E
  3
SKETCHY
350
3F
  3
THICKEN
350
37
  3
WIREFRAME
350
30
  3
X-RAY
350
40
  0
DICTIONARY
  5
451
102
{ACAD_REACTORS
330
C
102
}
330
C
100
AcDbDictionary
  3
CEPSNID
350
45B
  3
CEPSNTYPE
350
45A
  3
DIMSTYLEDATA
350
471
  3
FINGERPRINTGUID
350
45C
  3
HYPERLINKBASE
350
454
  3
INSUNITS
350
459
  3
LAYOUTDICT
350
456
  3
LWETCUNION
350
458
  3
PLOTSETDICT
350
457
  3
PSVPSCALE
350
45E
  3
PUCSBASE
350
461
  3
PUCSORGBACK
350
467
  3
PUCSORGBOTTOM
350
463
  3
PUCSORGFRONT
350
466
  3
PUCSORGLEFT
350
464
  3
PUCSORGRIGHT
350
465
  3
PUCSORGTOP
350
462
  3
PUCSORTHOREF
350
45F
  3
PUCSORTHOVIEW
350
460
  3
STYLESHEET
350
455
  3
TSTACKALIGN
350
452
  3
TSTACKSIZE
350
453
  3
UCSBASE
350
46A
  3
UCSORGBACK
350
470
  3
UCSORGBOTTOM
350
46C
  3
UCSORGFRONT
350
46F
  3
UCSORGLEFT
350
46D
  3
UCSORGRIGHT
350
46E
  3
UCSORGTOP
350
46B
  3
UCSORTHOREF
350
468
  3
UCSORTHOVIEW
350
469
  3
VERSIONGUID
350
45D
  0
DICTIONARY
  5
472
102
{ACAD_REACTORS
330
C
102
}
330
C
100
AcDbDictionary
  3
CANNOSCALE
350
47F
  3
CENTEREXE
350
479
  3
CENTERLTYPEFILE
350
47A
  3
CMLEADERSTYLE
350
474
  3
CTABLESTYLE
350
473
  3
DIMASSOC
350
47B
  3
HIDETEXT
350
47C
  3
MSLTSCALE
350
480
  3
PSOLHEIGHT
350
476
  3
PSOLWIDTH
350
475
  0
XRECORD
  5
47E
102
{ACAD_REACTORS
330
47D
102
}
330
47D
100
AcDbXrecord
102
VTR_0.000_0.000_1.000_1.000_VISUALSTYLE
340
2F
102
VTR_0.000_0.000_1.000_1.000_GRIDDISPLAY
 70
     3
102
VTR_0.000_0.000_1.000_1.000_GRIDMAJOR
 70
     5
102
VTR_0.000_0.000_1.000_1.000_DEFAULTLIGHTING
280
     1
102
VTR_0.000_0.000_1.000_1.000_DEFAULTLIGHTINGTYPE
 70
     1
102
VTR_0.000_0.000_1.000_1.000_BRIGHTNESS
141
0.0
102
VTR_0.000_0.000_1.000_1.000_CONTRAST
142
0.0
  0
MATERIAL
  5
45
102
{ACAD_REACTORS
330
43
102
}
102
{ACAD_XDICTIONARY
360
483
102
}
330
43
100
AcDbMaterial
  1
BYBLOCK
  0
MATERIAL
  5
44
102
{ACAD_REACTORS
330
43
102
}
102
{ACAD_XDICTIONARY
360
481
102
}
330
43
100
AcDbMaterial
  1
BYLAYER
  0
MATERIAL
  5
46
102
{ACAD_REACTORS
330
43
102
}
102
{ACAD_XDICTIONARY
360
485
102
}
330
43
100
AcDbMaterial
  1
GLOBAL
  0
ACAD_PROXY_OBJECT
  5
6C
102
{ACAD_REACTORS
330
6B
102
}
330
6B
100
AcDbProxyObject
 90
      499
 91
      505
 93
      610
310
40901902A4063FBFFFFFE0000000000000020400000000000020404214DD185B99185C990000000000000104090141901A00000000000004100000000000000041025764000000000000039000
340
14
340
0
340
11
340
0
 94
        0
1001
ACAD_MLEADERVER
1070
     2
  0
MLINESTYLE
  5
18
102
{ACAD_REACTORS
330
17
102
}
330
17
100
AcDbMlineStyle
  2
Standard
 70
     0
  3

 62
   256
 51
90.0
 52
90.0
 71
     2
 49
0.5
 62
   256
  6
BYLAYER
 49
-0.5
 62
   256
  6
BYLAYER
  0
ACAD_PROXY_OBJECT
  5
48
102
{ACAD_REACTORS
330
47
102
}
330
47
100
AcDbProxyObject
 90
      499
 91
      503
 93
       41
310
903313A31580
  0
ACAD_PROXY_OBJECT
  5
49
102
{ACAD_REACTORS
330
47
102
}
330
47
100
AcDbProxyObject
 90
      499
 91
      503
 93
      105
310
903313A324000000000000004000
  0
ACAD_PROXY_OBJECT
  5
4A
102
{ACAD_REACTORS
330
47
102
}
330
47
100
AcDbProxyObject
 90
      499
 91
      503
 93
      105
310
903313A344000000000000104000
  0
ACAD_PROXY_OBJECT
  5
4B
102
{ACAD_REACTORS
330
47
102
}
330
47
100
AcDbProxyObject
 90
      499
 91
      503
 93
      105
310
903313A354000000000000144000
  0
ACAD_PROXY_OBJECT
  5
4C
102
{ACAD_REACTORS
330
47
102
}
330
47
100
AcDbProxyObject
 90
      499
 91
      503
 93
      105
310
903313A384000000000000204000
  0
ACAD_PROXY_OBJECT
  5
4D
102
{ACAD_REACTORS
330
47
102
}
330
47
100
AcDbProxyObject
 90
      499
 91
      503
 93
      113
310
904313A31304000000000000244000
  0
ACAD_PROXY_OBJECT
  5
4E
102
{ACAD_REACTORS
330
47
102
}
330
47
100
AcDbProxyObject
 90
      499
 91
      503
 93
      113
310
904313A31364000000000000304000
  0
ACAD_PROXY_OBJECT
  5
4F
102
{ACAD_REACTORS
330
47
102
}
330
47
100
AcDbProxyObject
 90
      499
 91
      503
 93
      113
310
904313A32304000000000000344000
  0
ACAD_PROXY_OBJECT
  5
50
102
{ACAD_REACTORS
330
47
102
}
330
47
100
AcDbProxyObject
 90
      499
 91
      503
 93
      113
310
904313A333040000000000003E4000
  0
ACAD_PROXY_OBJECT
  5
51
102
{ACAD_REACTORS
330
47
102
}
330
47
100
AcDbProxyObject
 90
      499
 91
      503
 93
      113
310
904313A34304000000000000444000
  0
ACAD_PROXY_OBJECT
  5
52
102
{ACAD_REACTORS
330
47
102
}
330
47
100
AcDbProxyObject
 90
      499
 91
      503
 93
      113
310
904313A35304000000000000494000
  0
ACAD_PROXY_OBJECT
  5
53
102
{ACAD_REACTORS
330
47
102
}
330
47
100
AcDbProxyObject
 90
      499
 91
      503
 93
      121
310
905313A3130304000000000000594000
  0
ACAD_PROXY_OBJECT
  5
54
102
{ACAD_REACTORS
330
47
102
}
330
47
100
AcDbProxyObject
 90
      499
 91
      503
 93
      105
310
903323A310000000000000010100
  0
ACAD_PROXY_OBJECT
  5
55
102
{ACAD_REACTORS
330
47
102
}
330
47
100
AcDbProxyObject
 90
      499
 91
      503
 93
      105
310
903343A310000000000000410100
  0
ACAD_PROXY_OBJECT
  5
56
102
{ACAD_REACTORS
330
47
102
}
330
47
100
AcDbProxyObject
 90
      499
 91
      503
 93
      105
310
903383A310000000000000810100
  0
ACAD_PROXY_OBJECT
  5
57
102
{ACAD_REACTORS
330
47
102
}
330
47
100
AcDbProxyObject
 90
      499
 91
      503
 93
      113
310
90431303A310000000000000910100
  0
ACAD_PROXY_OBJECT
  5
58
102
{ACAD_REACTORS
330
47
102
}
330
47
100
AcDbProxyObject
 90
      499
 91
      503
 93
      121
310
9053130303A310000000000001650100
  0
ACAD_PROXY_OBJECT
  5
59
102
{ACAD_REACTORS
330
47
102
}
330
47
100
AcDbProxyObject
 90
      499
 91
      503
 93
      257
310
90E312F31323822203D2031272D3022000000000000200FC000000000000284000
  0
ACAD_PROXY_OBJECT
  5
5A
102
{ACAD_REACTORS
330
47
102
}
330
47
100
AcDbProxyObject
 90
      499
 91
      503
 93
      249
310
90D312F363422203D2031272D3022000000000000240FC000000000000284000
  0
ACAD_PROXY_OBJECT
  5
5B
102
{ACAD_REACTORS
330
47
102
}
330
47
100
AcDbProxyObject
 90
      499
 91
      503
 93
      249
310
90D312F333222203D2031272D3022000000000000280FC000000000000284000
  0
ACAD_PROXY_OBJECT
  5
5C
102
{ACAD_REACTORS
330
47
102
}
330
47
100
AcDbProxyObject
 90
      499
 91
      503
 93
      249
310
90D312F313622203D2031272D30220000000000002C0FC000000000000284000
  0
ACAD_PROXY_OBJECT
  5
5D
102
{ACAD_REACTORS
330
47
102
}
330
47
100
AcDbProxyObject
 90
      499
 91
      503
 93
      249
310
90D332F333222203D2031272D30220000000000002E0FC000000000000284000
  0
ACAD_PROXY_OBJECT
  5
5E
102
{ACAD_REACTORS
330
47
102
}
330
47
100
AcDbProxyObject
 90
      499
 91
      503
 93
      241
310
90C312F3822203D2031272D3022000000000000300FC000000000000284000
  0
ACAD_PROXY_OBJECT
  5
5F
102
{ACAD_REACTORS
330
47
102
}
330
47
100
AcDbProxyObject
 90
      499
 91
      503
 93
      249
310
90D332F313622203D2031272D3022000000000000320FC000000000000284000
  0
ACAD_PROXY_OBJECT
  5
60
102
{ACAD_REACTORS
330
47
102
}
330
47
100
AcDbProxyObject
 90
      499
 91
      503
 93
      241
310
90C312F3422203D2031272D3022000000000000340FC000000000000284000
  0
ACAD_PROXY_OBJECT
  5
61
102
{ACAD_REACTORS
330
47
102
}
330
47
100
AcDbProxyObject
 90
      499
 91
      503
 93
      241
310
90C332F3822203D2031272D3022000000000000360FC000000000000284000
  0
ACAD_PROXY_OBJECT
  5
62
102
{ACAD_REACTORS
330
47
102
}
330
47
100
AcDbProxyObject
 90
      499
 91
      503
 93
      241
310
90C312F3222203D2031272D3022000000000000380FC000000000000284000
  0
ACAD_PROXY_OBJECT
  5
63
102
{ACAD_REACTORS
330
47
102
}
330
47
100
AcDbProxyObject
 90
      499
 91
      503
 93
      241
310
90C332F3422203D2031272D30220000000000003A0FC000000000000284000
  0
ACAD_PROXY_OBJECT
  5
64
102
{ACAD_REACTORS
330
47
102
}
330
47
100
AcDbProxyObject
 90
      499
 91
      503
 93
      161
310
90A3122203D2031272D30224000000000000284000
  0
ACAD_PROXY_OBJECT
  5
65
102
{ACAD_REACTORS
330
47
102
}
330
47
100
AcDbProxyObject
 90
      499
 91
      503
 93
      257
310
90E312D312F3222203D2031272D30220000000000003E0FC000000000000284000
  0
ACAD_PROXY_OBJECT
  5
66
102
{ACAD_REACTORS
330
47
102
}
330
47
100
AcDbProxyObject
 90
      499
 91
      503
 93
      225
310
90A3322203D2031272D302200000000000002100000000000000284000
  0
ACAD_PROXY_OBJECT
  5
67
102
{ACAD_REACTORS
330
47
102
}
330
47
100
AcDbProxyObject
 90
      499
 91
      503
 93
      225
310
90A3622203D2031272D302200000000000006100000000000000284000
  0
ACAD_PROXY_OBJECT
  5
68
102
{ACAD_REACTORS
330
47
102
}
330
47
100
AcDbProxyObject
 90
      499
 91
      503
 93
      249
310
90D31272D3022203D2031272D30220000000000000A100000000000000284000
  0
ACAD_PROXY_OBJECT
  5
2F
102
{ACAD_REACTORS
330
2A
102
}
330
2A
100
AcDbProxyObject
 90
      499
 91
      501
 93
      436
310
42CC9915DA5C99599C985B595049028333333333333E33F0000000000000F90107901411070040501600405405064090741402480A0340
1001
ACAD
1000
AcDbSavedByObjectVersion
1070
     0
  0
ACAD_PROXY_OBJECT
  5
32
102
{ACAD_REACTORS
330
2A
102
}
330
2A
100
AcDbProxyObject
 90
      499
 91
      501
 93
      388
310
4150985CDA58D07406404333333333333E33F0000000000000F90107A41107004050150841D405064090741402480A0350
1001
ACAD
1000
AcDbSavedByObjectVersion
1070
     0
  0
ACAD_PROXY_OBJECT
  5
36
102
{ACAD_REACTORS
330
2A
102
}
330
2A
100
AcDbProxyObject
 90
      499
 91
      501
 93
      428
310
42109C9A59DA1D195B90C409028333333333333E33F0000000000000F9010790141107004050150841D405064090741402480A029950
1001
ACAD
1000
AcDbSavedByObjectVersion
1070
     0
  0
ACAD_PROXY_OBJECT
  5
3A
102
{ACAD_REACTORS
330
2A
102
}
330
2A
100
AcDbProxyObject
 90
      499
 91
      501
 93
      452
310
42D0DBDB1BDC90DA185B99D95104090240C333333333333E33F0000000000000F90108901411070040501508421405064090741402480A0350
1001
ACAD
1000
AcDbSavedByObjectVersion
1070
     0
  0
ACAD_PROXY_OBJECT
  5
34
102
{ACAD_REACTORS
330
2A
102
}
330
2A
100
AcDbProxyObject
 90
      499
 91
      501
 93
      500
310
4290DBDB98D95C1D1D585B10940D028333333333333E33F0000000000000F90107902409070040501000000000018199010841D405064090740C02480A0340
1001
ACAD
1000
AcDbSavedByObjectVersion
1070
     0
  0
ACAD_PROXY_OBJECT
  5
35
102
{ACAD_REACTORS
330
2A
102
}
330
2A
100
AcDbProxyObject
 90
      499
 91
      501
 93
      412
310
40D11A5B50B409028333333333333E33F0000000000000F9010790141107004050150841D405064090741402480A02677FFFFFD0
1001
ACAD
1000
AcDbSavedByObjectVersion
1070
     0
  0
ACAD_PROXY_OBJECT
  5
3D
102
{ACAD_REACTORS
330
2A
102
}
330
2A
100
AcDbProxyObject
 90
      499
 91
      501
 93
      452
310
43115919D950DBDB1BDC93D999916409028333333333333E33F0000000000000F9010790141107004050150841D405064090741402480A0350
1001
ACAD
1000
AcDbSavedByObjectVersion
1070
     0
  0
ACAD_PROXY_OBJECT
  5
39
102
{ACAD_REACTORS
330
2A
102
}
330
2A
100
AcDbProxyObject
 90
      499
 91
      501
 93
      444
310
42D19858D95C185D1D195C9B90F409028333333333333E33F0000000000000F9010790141107004050150841D405064090741402480A0350
1001
ACAD
1000
AcDbSavedByObjectVersion
1070
     0
  0
ACAD_PROXY_OBJECT
  5
2B
102
{ACAD_REACTORS
330
2A
102
}
330
2A
100
AcDbProxyObject
 90
      499
 91
      501
 93
      380
310
41119B185D240901404333333333333E33F0000000000000F9010740A907004050150841D405064090741402480A1B50
1001
ACAD
1000
AcDbSavedByObjectVersion
1070
     0
  0
ACAD_PROXY_OBJECT
  5
2C
102
{ACAD_REACTORS
330
2A
102
}
330
2A
100
AcDbProxyObject
 90
      499
 91
      501
 93
      468
310
43519B185D15DA5D1A115919D95CD0140901404333333333333E33F0000000000000F90107409019070040501600405405064090741402480A1B50
1001
ACAD
1000
AcDbSavedByObjectVersion
1070
     0
  0
ACAD_PROXY_OBJECT
  5
2D
102
{ACAD_REACTORS
330
2A
102
}
330
2A
100
AcDbProxyObject
 90
      499
 91
      501
 93
      404
310
41D1DBDD5C985D5910240902404333333333333E33F0000000000000F9010740A9070040501641D405064090741402480A1B50
1001
ACAD
1000
AcDbSavedByObjectVersion
1070
     0
  0
ACAD_PROXY_OBJECT
  5
2E
102
{ACAD_REACTORS
330
2A
102
}
330
2A
100
AcDbProxyObject
 90
      499
 91
      501
 93
      492
310
4411DBDD5C985D5915DA5D1A115919D95CD0340902404333333333333E33F0000000000000F90107409019070040501600405405064090741402480A1B50
1001
ACAD
1000
AcDbSavedByObjectVersion
1070
     0
  0
ACAD_PROXY_OBJECT
  5
31
102
{ACAD_REACTORS
330
2A
102
}
330
2A
100
AcDbProxyObject
 90
      499
 91
      501
 93
      476
310
41921A5919195B90640502408333333333333E33F0000000000000F901079024090700405020000000000001110200405405064090740C02480A0340
1001
ACAD
1000
AcDbSavedByObjectVersion
1070
     0
  0
ACAD_PROXY_OBJECT
  5
3B
102
{ACAD_REACTORS
330
2A
102
}
330
2A
100
AcDbProxyObject
 90
      499
 91
      501
 93
      428
310
42529A5D1D195C93D999914409028333333333333E33F0000000000000F9010790141107004050150A41D405064090741402480A0350
1001
ACAD
1000
AcDbSavedByObjectVersion
1070
     0
  0
ACAD_PROXY_OBJECT
  5
38
102
{ACAD_REACTORS
330
2A
102
}
330
2A
100
AcDbProxyObject
 90
      499
 91
      501
 93
      444
310
42D31A5B995C185D1D195C9B90E409028333333333333E33F0000000000000F9010790141107004050750841D405064090741402483A0350
1001
ACAD
1000
AcDbSavedByObjectVersion
1070
     0
  0
ACAD_PROXY_OBJECT
  5
3C
102
{ACAD_REACTORS
330
2A
102
}
330
2A
100
AcDbProxyObject
 90
      499
 91
      501
 93
      444
310
42D3DD995C9A185B99D3D999915409028333333333333E33F0000000000000F9010790141107004050150941D405064090741402480A0350
1001
ACAD
1000
AcDbSavedByObjectVersion
1070
     0
  0
ACAD_PROXY_OBJECT
  5
33
102
{ACAD_REACTORS
330
2A
102
}
330
2A
100
AcDbProxyObject
 90
      499
 91
      501
 93
      428
310
425499585B1A5CDD1A58D08409038333333333333E33F0000000000000F9010740A907004050150800405405064090740C02480A1B40
1001
ACAD
1000
AcDbSavedByObjectVersion
1070
     0
  0
ACAD_PROXY_OBJECT
  5
42
102
{ACAD_REACTORS
330
2A
102
}
330
2A
100
AcDbProxyObject
 90
      499
 91
      501
 93
      420
310
4194DA1859195911B40902404333333333333E33F0000000000000F9010740A41107004050150800405405064090840C02480A0B40
1001
ACAD
1000
AcDbSavedByObjectVersion
1070
     0
  0
ACAD_PROXY_OBJECT
  5
41
102
{ACAD_REACTORS
330
2A
102
}
330
2A
100
AcDbProxyObject
 90
      499
 91
      501
 93
      516
310
4454DA18591959081DDA5D1A08195919D95CD1A40902404333333333333E33F0000000000000F901074090142907004050250800405405064090740C02480A0B40
1001
ACAD
1000
AcDbSavedByObjectVersion
1070
     0
  0
ACAD_PROXY_OBJECT
  5
3E
102
{ACAD_REACTORS
330
2A
102
}
330
2A
100
AcDbProxyObject
 90
      499
 91
      501
 93
      532
310
4394DA1859195CC81BD98811DC985E5174090240C333333333333E33F0000000000000F901079024090741D01000000000000111010841D405064090740C02480A0340
1001
ACAD
1000
AcDbSavedByObjectVersion
1070
     0
  0
ACAD_PROXY_OBJECT
  5
3F
102
{ACAD_REACTORS
330
2A
102
}
330
2A
100
AcDbProxyObject
 90
      499
 91
      501
 93
      476
310
41D4DAD95D18DA1E51840502408333333333333E33F0000000000000F901079024090741D01000000000000111010B41D405064090741802480A0340
1001
ACAD
1000
AcDbSavedByObjectVersion
1070
     0
  0
ACAD_PROXY_OBJECT
  5
37
102
{ACAD_REACTORS
330
2A
102
}
330
2A
100
AcDbProxyObject
 90
      499
 91
      501
 93
      412
310
41D51A1A58DAD95B90D409028333333333333E33F0000000000000F9010790141107004050150C41D405064090741402480A0350
1001
ACAD
1000
AcDbSavedByObjectVersion
1070
     0
  0
ACAD_PROXY_OBJECT
  5
30
102
{ACAD_REACTORS
330
2A
102
}
330
2A
100
AcDbProxyObject
 90
      499
 91
      501
 93
      420
310
4255DA5C99599C985B595059028333333333333E33F0000000000000F90107901411070040501600405405064090740C02480A0340
1001
ACAD
1000
AcDbSavedByObjectVersion
1070
     0
  0
ACAD_PROXY_OBJECT
  5
40
102
{ACAD_REACTORS
330
2A
102
}
330
2A
100
AcDbProxyObject
 90
      499
 91
      501
 93
      404
310
41560B54985E51940902404000000000000E03F0000000000000F9010740501907004050150841D405064090740C02480A1B40
1001
ACAD
1000
AcDbSavedByObjectVersion
1070
     0
  0
XRECORD
  5
45B
102
{ACAD_REACTORS
330
451
102
}
330
451
100
AcDbXrecord
340
0
  0
XRECORD
  5
45A
102
{ACAD_REACTORS
330
451
102
}
330
451
100
AcDbXrecord
 90
        0
  0
XRECORD
  5
471
102
{ACAD_REACTORS
330
451
102
}
330
451
100
AcDbXrecord
1000
DSTYLE
1002
{
1070
   340
340
11
1002
}
  0
XRECORD
  5
45C
102
{ACAD_REACTORS
330
451
102
}
330
451
100
AcDbXrecord
  1
{b66b35ca-7b57-43d9-b56c-3ddac8a47b0e}
  0
XRECORD
  5
454
102
{ACAD_REACTORS
330
451
102
}
330
451
100
AcDbXrecord
  1

  0
XRECORD
  5
459
102
{ACAD_REACTORS
330
451
102
}
330
451
100
AcDbXrecord
 90
        4
  0
XRECORD
  5
456
102
{ACAD_REACTORS
330
451
102
}
330
451
100
AcDbXrecord
340
1A
  0
XRECORD
  5
458
102
{ACAD_REACTORS
330
451
102
}
330
451
100
AcDbXrecord
 90
    10781
  0
XRECORD
  5
457
102
{ACAD_REACTORS
330
451
102
}
330
451
100
AcDbXrecord
340
19
  0
XRECORD
  5
45E
102
{ACAD_REACTORS
330
451
102
}
330
451
100
AcDbXrecord
 40
0.0
  0
XRECORD
  5
461
102
{ACAD_REACTORS
330
451
102
}
330
451
100
AcDbXrecord
340
0
  0
XRECORD
  5
467
102
{ACAD_REACTORS
330
451
102
}
330
451
100
AcDbXrecord
 10
0.0
 20
0.0
 30
0.0
  0
XRECORD
  5
463
102
{ACAD_REACTORS
330
451
102
}
330
451
100
AcDbXrecord
 10
0.0
 20
0.0
 30
0.0
  0
XRECORD
  5
466
102
{ACAD_REACTORS
330
451
102
}
330
451
100
AcDbXrecord
 10
0.0
 20
0.0
 30
0.0
  0
XRECORD
  5
464
102
{ACAD_REACTORS
330
451
102
}
330
451
100
AcDbXrecord
 10
0.0
 20
0.0
 30
0.0
  0
XRECORD
  5
465
102
{ACAD_REACTORS
330
451
102
}
330
451
100
AcDbXrecord
 10
0.0
 20
0.0
 30
0.0
  0
XRECORD
  5
462
102
{ACAD_REACTORS
330
451
102
}
330
451
100
AcDbXrecord
 10
0.0
 20
0.0
 30
0.0
  0
XRECORD
  5
45F
102
{ACAD_REACTORS
330
451
102
}
330
451
100
AcDbXrecord
340
0
  0
XRECORD
  5
460
102
{ACAD_REACTORS
330
451
102
}
330
451
100
AcDbXrecord
 70
     0
  0
XRECORD
  5
455
102
{ACAD_REACTORS
330
451
102
}
330
451
100
AcDbXrecord
  1

  0
XRECORD
  5
452
102
{ACAD_REACTORS
330
451
102
}
330
451
100
AcDbXrecord
 90
        1
  0
XRECORD
  5
453
102
{ACAD_REACTORS
330
451
102
}
330
451
100
AcDbXrecord
 90
       70
  0
XRECORD
  5
46A
102
{ACAD_REACTORS
330
451
102
}
330
451
100
AcDbXrecord
340
0
  0
XRECORD
  5
470
102
{ACAD_REACTORS
330
451
102
}
330
451
100
AcDbXrecord
 10
0.0
 20
0.0
 30
0.0
  0
XRECORD
  5
46C
102
{ACAD_REACTORS
330
451
102
}
330
451
100
AcDbXrecord
 10
0.0
 20
0.0
 30
0.0
  0
XRECORD
  5
46F
102
{ACAD_REACTORS
330
451
102
}
330
451
100
AcDbXrecord
 10
0.0
 20
0.0
 30
0.0
  0
XRECORD
  5
46D
102
{ACAD_REACTORS
330
451
102
}
330
451
100
AcDbXrecord
 10
0.0
 20
0.0
 30
0.0
  0
XRECORD
  5
46E
102
{ACAD_REACTORS
330
451
102
}
330
451
100
AcDbXrecord
 10
0.0
 20
0.0
 30
0.0
  0
XRECORD
  5
46B
102
{ACAD_REACTORS
330
451
102
}
330
451
100
AcDbXrecord
 10
0.0
 20
0.0
 30
0.0
  0
XRECORD
  5
468
102
{ACAD_REACTORS
330
451
102
}
330
451
100
AcDbXrecord
340
0
  0
XRECORD
  5
469
102
{ACAD_REACTORS
330
451
102
}
330
451
100
AcDbXrecord
 70
     0
  0
XRECORD
  5
45D
102
{ACAD_REACTORS
330
451
102
}
330
451
100
AcDbXrecord
  1
{FAEB1C32-E019-11D5-929B-00C0DF256EC4}
  0
DICTIONARYVAR
  5
47F
102
{ACAD_REACTORS
330
472
102
}
330
472
100
DictionaryVariables
280
     0
  1
1:1
  0
DICTIONARYVAR
  5
479
102
{ACAD_REACTORS
330
472
102
}
330
472
100
DictionaryVariables
280
     0
  1
3.500000
  0
DICTIONARYVAR
  5
47A
102
{ACAD_REACTORS
330
472
102
}
330
472
100
DictionaryVariables
280
     0
  1
acadiso.lin
  0
DICTIONARYVAR
  5
474
102
{ACAD_REACTORS
330
472
102
}
330
472
100
DictionaryVariables
280
     0
  1
Standard
  0
DICTIONARYVAR
  5
473
102
{ACAD_REACTORS
330
472
102
}
330
472
100
DictionaryVariables
280
     0
  1
Standard
  0
DICTIONARYVAR
  5
47B
102
{ACAD_REACTORS
330
472
102
}
330
472
100
DictionaryVariables
280
     0
  1
2
  0
DICTIONARYVAR
  5
47C
102
{ACAD_REACTORS
330
472
102
}
330
472
100
DictionaryVariables
280
     0
  1
1
  0
DICTIONARYVAR
  5
480
102
{ACAD_REACTORS
330
472
102
}
330
472
100
DictionaryVariables
280
     0
  1
1
  0
DICTIONARYVAR
  5
476
102
{ACAD_REACTORS
330
472
102
}
330
472
100
DictionaryVariables
280
     0
  1
80.000000
  0
DICTIONARYVAR
  5
475
102
{ACAD_REACTORS
330
472
102
}
330
472
100
DictionaryVariables
280
     0
  1
5.000000
  0
DICTIONARY
  5
483
330
45
100
AcDbDictionary
280
     1
  3
ACAD_XREC_ROUNDTRIP
360
484
  0
DICTIONARY
  5
481
330
44
100
AcDbDictionary
280
     1
  3
ACAD_XREC_ROUNDTRIP
360
482
  0
DICTIONARY
  5
485
330
46
100
AcDbDictionary
280
     1
  3
ACAD_XREC_ROUNDTRIP
360
486
  0
XRECORD
  5
484
102
{ACAD_REACTORS
330
483
102
}
330
483
100
AcDbXrecord
102
MATERIAL
148
0.0
149
0.0
149
0.0
 93
        0
 94
      127
282
     0
 72
     1
 77
     1
171
     1
175
     1
179
     1
273
     0
  0
XRECORD
  5
482
102
{ACAD_REACTORS
330
481
102
}
330
481
100
AcDbXrecord
102
MATERIAL
148
0.0
149
0.0
149
0.0
 93
        0
 94
      127
282
     0
 72
     1
 77
     1
171
     1
175
     1
179
     1
273
     0
  0
XRECORD
  5
486
102
{ACAD_REACTORS
330
485
102
}
330
485
100
AcDbXrecord
102
MATERIAL
148
0.0
149
0.0
149
0.0
 93
        0
 94
      127
282
     0
 72
     1
 77
     1
171
     1
175
     1
179
     1
273
     0
  0
ENDSEC
  0
EOF
