  0
SECTION
  2
HEADER
  9
$ACADVER
  1
AC1014
  9
$ACADMAINTVER
 70
     9
  9
$DWGCODEPAGE
  3
ANSI_932
  9
$INSBASE
 10
0.0
 20
0.0
 30
0.0
  9
$EXTMIN
 10
70.0
 20
70.0
 30
0.0
  9
$EXTMAX
 10
2870.0
 20
2009.0
 30
0.0
  9
$LIMMIN
 10
0.0
 20
0.0
  9
$LIMMAX
 10
420.0
 20
297.0
  9
$ORTHOMODE
 70
     0
  9
$REGENMODE
 70
     1
  9
$FILLMODE
 70
     1
  9
$QTEXTMODE
 70
     0
  9
$MIRRTEXT
 70
     1
  9
$DRAGMODE
 70
     2
  9
$LTSCALE
 40
1.0
  9
$OSMODE
 70
    37
  9
$ATTMODE
 70
     1
  9
$TEXTSIZE
 40
2.5
  9
$TRACEWID
 40
1.0
  9
$TEXTSTYLE
  7
STANDARD
  9
$CLAYER
  8
Ｓ_１_１
  9
$CELTYPE
  6
BYLAYER
  9
$CECOLOR
 62
   256
  9
$CELTSCALE
 40
1.0
  9
$DELOBJ
 70
     1
  9
$DISPSILH
 70
     0
  9
$DIMSCALE
 40
1.0
  9
$DIMASZ
 40
2.5
  9
$DIMEXO
 40
0.625
  9
$DIMDLI
 40
3.75
  9
$DIMRND
 40
0.0
  9
$DIMDLE
 40
0.0
  9
$DIMEXE
 40
1.25
  9
$DIMTP
 40
0.0
  9
$DIMTM
 40
0.0
  9
$DIMTXT
 40
2.5
  9
$DIMCEN
 40
2.5
  9
$DIMTSZ
 40
0.0
  9
$DIMTOL
 70
     0
  9
$DIMLIM
 70
     0
  9
$DIMTIH
 70
     0
  9
$DIMTOH
 70
     0
  9
$DIMSE1
 70
     0
  9
$DIMSE2
 70
     0
  9
$DIMTAD
 70
     1
  9
$DIMZIN
 70
     8
  9
$DIMBLK
  1

  9
$DIMASO
 70
     1
  9
$DIMSHO
 70
     1
  9
$DIMPOST
  1

  9
$DIMAPOST
  1

  9
$DIMALT
 70
     0
  9
$DIMALTD
 70
     3
  9
$DIMALTF
 40
0.03937007874016
  9
$DIMLFAC
 40
1.0
  9
$DIMTOFL
 70
     1
  9
$DIMTVP
 40
0.0
  9
$DIMTIX
 70
     0
  9
$DIMSOXD
 70
     0
  9
$DIMSAH
 70
     0
  9
$DIMBLK1
  1

  9
$DIMBLK2
  1

  9
$DIMSTYLE
  2
ISO-25
  9
$DIMCLRD
 70
     0
  9
$DIMCLRE
 70
     0
  9
$DIMCLRT
 70
     0
  9
$DIMTFAC
 40
1.0
  9
$DIMGAP
 40
0.625
  9
$DIMJUST
 70
     0
  9
$DIMSD1
 70
     0
  9
$DIMSD2
 70
     0
  9
$DIMTOLJ
 70
     0
  9
$DIMTZIN
 70
     8
  9
$DIMALTZ
 70
     0
  9
$DIMALTTZ
 70
     0
  9
$DIMFIT
 70
     3
  9
$DIMUPT
 70
     0
  9
$DIMUNIT
 70
     2
  9
$DIMDEC
 70
     2
  9
$DIMTDEC
 70
     2
  9
$DIMALTU
 70
     2
  9
$DIMALTTD
 70
     3
  9
$DIMTXSTY
  7
STANDARD
  9
$DIMAUNIT
 70
     0
  9
$LUNITS
 70
     2
  9
$LUPREC
 70
     4
  9
$SKETCHINC
 40
1.0
  9
$FILLETRAD
 40
10.0
  9
$AUNITS
 70
     0
  9
$AUPREC
 70
     0
  9
$MENU
  1
.
  9
$ELEVATION
 40
0.0
  9
$PELEVATION
 40
0.0
  9
$THICKNESS
 40
0.0
  9
$LIMCHECK
 70
     0
  9
$CHAMFERA
 40
0.0
  9
$CHAMFERB
 40
0.0
  9
$CHAMFERC
 40
0.0
  9
$CHAMFERD
 40
0.0
  9
$SKPOLY
 70
     0
  9
$TDCREATE
 40
2459586.418469491
  9
$TDUPDATE
 40
2459586.41847118
  9
$TDINDWG
 40
0.0000000116
  9
$TDUSRTIMER
 40
0.0000000116
  9
$USRTIMER
 70
     1
  9
$ANGBASE
 50
0.0
  9
$ANGDIR
 70
     0
  9
$PDMODE
 70
     0
  9
$PDSIZE
 40
0.0
  9
$PLINEWID
 40
0.0
  9
$COORDS
 70
     1
  9
$SPLFRAME
 70
     0
  9
$SPLINETYPE
 70
     6
  9
$SPLINESEGS
 70
     8
  9
$ATTDIA
 70
     0
  9
$ATTREQ
 70
     1
  9
$HANDLING
 70
     1
  9
$HANDSEED
  5
457
  9
$SURFTAB1
 70
     6
  9
$SURFTAB2
 70
     6
  9
$SURFTYPE
 70
     6
  9
$SURFU
 70
     6
  9
$SURFV
 70
     6
  9
$UCSNAME
  2

  9
$UCSORG
 10
0.0
 20
0.0
 30
0.0
  9
$UCSXDIR
 10
1.0
 20
0.0
 30
0.0
  9
$UCSYDIR
 10
0.0
 20
1.0
 30
0.0
  9
$PUCSNAME
  2

  9
$PUCSORG
 10
0.0
 20
0.0
 30
0.0
  9
$PUCSXDIR
 10
1.0
 20
0.0
 30
0.0
  9
$PUCSYDIR
 10
0.0
 20
1.0
 30
0.0
  9
$USERI1
 70
     0
  9
$USERI2
 70
     0
  9
$USERI3
 70
     0
  9
$USERI4
 70
     0
  9
$USERI5
 70
     0
  9
$USERR1
 40
0.0
  9
$USERR2
 40
0.0
  9
$USERR3
 40
0.0
  9
$USERR4
 40
0.0
  9
$USERR5
 40
0.0
  9
$WORLDVIEW
 70
     1
  9
$SHADEDGE
 70
     3
  9
$SHADEDIF
 70
    70
  9
$TILEMODE
 70
     1
  9
$MAXACTVP
 70
    64
  9
$PINSBASE
 10
0.0
 20
0.0
 30
0.0
  9
$PLIMCHECK
 70
     0
  9
$PEXTMIN
 10
1.000000000000000E+20
 20
1.000000000000000E+20
 30
1.000000000000000E+20
  9
$PEXTMAX
 10
-1.000000000000000E+20
 20
-1.000000000000000E+20
 30
-1.000000000000000E+20
  9
$PLIMMIN
 10
0.0
 20
0.0
  9
$PLIMMAX
 10
420.0
 20
297.0
  9
$UNITMODE
 70
     0
  9
$VISRETAIN
 70
     1
  9
$PLINEGEN
 70
     0
  9
$PSLTSCALE
 70
     1
  9
$TREEDEPTH
 70
  3020
  9
$PICKSTYLE
 70
     1
  9
$CMLSTYLE
  2
STANDARD
  9
$CMLJUST
 70
     0
  9
$CMLSCALE
 40
20.0
  9
$PROXYGRAPHICS
 70
     1
  9
$MEASUREMENT
 70
     1
  0
ENDSEC
  0
SECTION
  2
CLASSES
  0
CLASS
  1
ACDBDICTIONARYWDFLT
  2
AcDbDictionaryWithDefault
  3
ObjectDBX Classes
 90
        0
280
     0
281
     0
  0
CLASS
  1
VISUALSTYLE
  2
AcDbVisualStyle
  3
ObjectDBX Classes
 90
     4095
280
     0
281
     0
  0
CLASS
  1
MATERIAL
  2
AcDbMaterial
  3
ObjectDBX Classes
 90
     1153
280
     0
281
     0
  0
CLASS
  1
SCALE
  2
AcDbScale
  3
ObjectDBX Classes
 90
     1153
280
     0
281
     0
  0
CLASS
  1
TABLESTYLE
  2
AcDbTableStyle
  3
ObjectDBX Classes
 90
     4095
280
     0
281
     0
  0
CLASS
  1
MLEADERSTYLE
  2
AcDbMLeaderStyle
  3
ACDB_MLEADERSTYLE_CLASS
 90
     4095
280
     0
281
     0
  0
CLASS
  1
SUN
  2
AcDbSun
  3
SCENEOE
 90
     1153
280
     0
281
     0
  0
CLASS
  1
DICTIONARYVAR
  2
AcDbDictionaryVar
  3
ObjectDBX Classes
 90
        0
280
     0
281
     0
  0
CLASS
  1
XRECORD
  2
AcDbXrecord
  3
ObjectDBX Classes
 90
        0
280
     0
281
     0
  0
CLASS
  1
LWPOLYLINE
  2
AcDbPolyline
  3
ObjectDBX Classes
 90
        0
280
     0
281
     1
  0
CLASS
  1
HATCH
  2
AcDbHatch
  3
ObjectDBX Classes
 90
        0
280
     0
281
     1
  0
CLASS
  1
ACDBPLACEHOLDER
  2
AcDbPlaceHolder
  3
ObjectDBX Classes
 90
        0
280
     0
281
     0
  0
CLASS
  1
LAYOUT
  2
AcDbLayout
  3
ObjectDBX Classes
 90
        0
280
     0
281
     0
  0
ENDSEC
  0
SECTION
  2
TABLES
  0
TABLE
  2
VPORT
  5
8
102
{ACAD_XDICTIONARY
360
44C
102
}
330
0
100
AcDbSymbolTable
 70
     1
  0
VPORT
  5
29
330
8
100
AcDbSymbolTableRecord
100
AcDbViewportTableRecord
  2
*ACTIVE
 70
     0
 10
0.0
 20
0.0
 11
1.0
 21
1.0
 12
1470.0
 22
1039.5
 13
0.0
 23
0.0
 14
10.0
 24
10.0
 15
10.0
 25
10.0
 16
0.0
 26
0.0
 36
1.0
 17
0.0
 27
0.0
 37
0.0
 40
1939.0
 41
1.444043321299639
 42
50.0
 43
0.0
 44
0.0
 50
0.0
 51
0.0
 71
     0
 72
  1000
 73
     1
 74
     3
 75
     0
 76
     0
 77
     0
 78
     0
  0
ENDTAB
  0
TABLE
  2
LTYPE
  5
5
330
0
100
AcDbSymbolTable
 70
    13
  0
LTYPE
  5
14
330
5
100
AcDbSymbolTableRecord
100
AcDbLinetypeTableRecord
  2
BYBLOCK
 70
     0
  3

 72
    65
 73
     0
 40
0.0
  0
LTYPE
  5
15
330
5
100
AcDbSymbolTableRecord
100
AcDbLinetypeTableRecord
  2
BYLAYER
 70
     0
  3

 72
    65
 73
     0
 40
0.0
  0
LTYPE
  5
16
330
5
100
AcDbSymbolTableRecord
100
AcDbLinetypeTableRecord
  2
CONTINUOUS
 70
     0
  3
Solid line
 72
    65
 73
     0
 40
0.0
  0
LTYPE
  5
6E
330
5
100
AcDbSymbolTableRecord
100
AcDbLinetypeTableRecord
  2
EXLTYPE0
 70
     0
  3
破線
 72
    65
 73
     2
 40
4.0
 49
3.0
 74
     0
 49
-1.0
 74
     0
  0
LTYPE
  5
6F
330
5
100
AcDbSymbolTableRecord
100
AcDbLinetypeTableRecord
  2
EXLTYPE1
 70
     0
  3
点線
 72
    65
 73
     2
 40
2.0
 49
1.0
 74
     0
 49
-1.0
 74
     0
  0
LTYPE
  5
70
330
5
100
AcDbSymbolTableRecord
100
AcDbLinetypeTableRecord
  2
EXLTYPE2
 70
     0
  3
一点鎖線
 72
    65
 73
     4
 40
13.0
 49
10.0
 74
     0
 49
-1.0
 74
     0
 49
1.0
 74
     0
 49
-1.0
 74
     0
  0
LTYPE
  5
71
330
5
100
AcDbSymbolTableRecord
100
AcDbLinetypeTableRecord
  2
EXLTYPE3
 70
     0
  3
二点鎖線
 72
    65
 73
     6
 40
15.0
 49
10.0
 74
     0
 49
-1.0
 74
     0
 49
1.0
 74
     0
 49
-1.0
 74
     0
 49
1.0
 74
     0
 49
-1.0
 74
     0
  0
LTYPE
  5
72
330
5
100
AcDbSymbolTableRecord
100
AcDbLinetypeTableRecord
  2
EXLTYPE4
 70
     0
  3
一点鎖線2
 72
    65
 73
     4
 40
3.5
 49
2.0
 74
     0
 49
-0.5
 74
     0
 49
0.5
 74
     0
 49
-0.5
 74
     0
  0
LTYPE
  5
73
330
5
100
AcDbSymbolTableRecord
100
AcDbLinetypeTableRecord
  2
EXLTYPE5
 70
     0
  3
二点鎖線2
 72
    65
 73
     6
 40
4.5
 49
2.0
 74
     0
 49
-0.5
 74
     0
 49
0.5
 74
     0
 49
-0.5
 74
     0
 49
0.5
 74
     0
 49
-0.5
 74
     0
  0
LTYPE
  5
74
330
5
100
AcDbSymbolTableRecord
100
AcDbLinetypeTableRecord
  2
EXLTYPE6
 70
     0
  3
一点鎖線5
 72
    65
 73
     4
 40
13.0
 49
10.0
 74
     0
 49
-1.0
 74
     0
 49
1.0
 74
     0
 49
-1.0
 74
     0
  0
LTYPE
  5
75
330
5
100
AcDbSymbolTableRecord
100
AcDbLinetypeTableRecord
  2
EXLTYPE7
 70
     0
  3
破線7
 72
    65
 73
     2
 40
2.5
 49
1.5
 74
     0
 49
-1.0
 74
     0
  0
LTYPE
  5
76
330
5
100
AcDbSymbolTableRecord
100
AcDbLinetypeTableRecord
  2
EXLTYPE8
 70
     0
  3
一点鎖線4
 72
    65
 73
     4
 40
13.0
 49
10.0
 74
     0
 49
-1.0
 74
     0
 49
1.0
 74
     0
 49
-1.0
 74
     0
  0
LTYPE
  5
77
330
5
100
AcDbSymbolTableRecord
100
AcDbLinetypeTableRecord
  2
EXLTYPE9
 70
     0
  3
破線2
 72
    65
 73
     2
 40
2.5
 49
1.5
 74
     0
 49
-1.0
 74
     0
  0
LTYPE
  5
78
330
5
100
AcDbSymbolTableRecord
100
AcDbLinetypeTableRecord
  2
EXLTYPE10
 70
     0
  3
一点鎖線3
 72
    65
 73
     4
 40
13.0
 49
10.0
 74
     0
 49
-1.0
 74
     0
 49
1.0
 74
     0
 49
-1.0
 74
     0
  0
LTYPE
  5
79
330
5
100
AcDbSymbolTableRecord
100
AcDbLinetypeTableRecord
  2
EXLTYPE11
 70
     0
  3
破線5
 72
    65
 73
     2
 40
2.5
 49
1.5
 74
     0
 49
-1.0
 74
     0
  0
ENDTAB
  0
TABLE
  2
LAYER
  5
2
330
0
100
AcDbSymbolTable
 70
     4
  0
LAYER
  5
10
330
2
100
AcDbSymbolTableRecord
100
AcDbLayerTableRecord
  2
0
 70
     0
 62
     7
  6
CONTINUOUS
  0
LAYER
  5
7C
330
2
100
AcDbSymbolTableRecord
100
AcDbLayerTableRecord
  2
図面枠
 70
     4
 62
     7
  6
CONTINUOUS
  0
LAYER
  5
7D
330
2
100
AcDbSymbolTableRecord
100
AcDbLayerTableRecord
  2
Ｓ_１_１
 70
     0
 62
     7
  6
CONTINUOUS
  0
LAYER
  5
121
330
2
100
AcDbSymbolTableRecord
100
AcDbLayerTableRecord
  2
DEFPOINTS
 70
     0
 62
     7
  6
CONTINUOUS
  0
ENDTAB
  0
TABLE
  2
STYLE
  5
3
330
0
100
AcDbSymbolTable
 70
     5
  0
STYLE
  5
11
330
3
100
AcDbSymbolTableRecord
100
AcDbTextStyleTableRecord
  2
STANDARD
 70
     0
 40
0.0
 41
1.0
 50
0.0
 71
     0
 42
2.5
  3
monotxt
  4
extfont
  0
STYLE
  5
7A
330
3
100
AcDbSymbolTableRecord
100
AcDbTextStyleTableRecord
  2
EXCADSTD
 70
     0
 40
0.0
 41
1.0
 50
0.0
 71
     0
 42
2.5
  3
monotxt
  4
extfont
  0
STYLE
  5
7B
330
3
100
AcDbSymbolTableRecord
100
AcDbTextStyleTableRecord
  2
EXCADVERT
 70
     4
 40
0.0
 41
1.0
 50
0.0
 71
     0
 42
2.5
  3
monotxt
  4
extfont
  0
STYLE
  5
E0
330
3
100
AcDbSymbolTableRecord
100
AcDbTextStyleTableRecord
  2
EXCADTTF1
 70
     0
 40
0.0
 41
1.0
 50
0.0
 71
     0
 42
2.5
  3
msgothic.ttc
  4

1001
ACAD
1000
MS Gothic
1071
    32817
  0
STYLE
  5
11F
330
3
100
AcDbSymbolTableRecord
100
AcDbTextStyleTableRecord
  2
EXCADDIM1
 70
     0
 40
0.0
 41
1.0
 50
0.0
 71
     0
 42
2.5
  3
msgothic.ttc
  4

1001
ACAD
1000
MS Gothic
1071
    32817
  0
ENDTAB
  0
TABLE
  2
VIEW
  5
6
330
0
100
AcDbSymbolTable
 70
     0
  0
ENDTAB
  0
TABLE
  2
UCS
  5
7
330
0
100
AcDbSymbolTable
 70
     0
  0
ENDTAB
  0
TABLE
  2
APPID
  5
9
330
0
100
AcDbSymbolTable
 70
     2
  0
APPID
  5
12
330
9
100
AcDbSymbolTableRecord
100
AcDbRegAppTableRecord
  2
ACAD
 70
     0
  0
APPID
  5
456
330
9
100
AcDbSymbolTableRecord
100
AcDbRegAppTableRecord
  2
ACAD_MLEADERVER
 70
     0
  0
ENDTAB
  0
TABLE
  2
DIMSTYLE
  5
A
330
0
100
AcDbSymbolTable
 70
     1
  0
DIMSTYLE
105
27
102
{ACAD_REACTORS
330
120
330
130
330
13D
330
14A
330
157
330
164
330
171
330
17E
330
18B
330
198
330
1A5
330
281
102
}
330
A
100
AcDbSymbolTableRecord
100
AcDbDimStyleTableRecord
  2
ISO-25
 70
     0
  3

  4

  5

  6

  7

 40
1.0
 41
2.5
 42
0.625
 43
3.75
 44
1.25
 45
0.0
 46
0.0
 47
0.0
 48
0.0
140
2.5
141
2.5
142
0.0
143
0.03937007874016
144
1.0
145
0.0
146
1.0
147
0.625
 71
     0
 72
     0
 73
     0
 74
     0
 75
     0
 76
     0
 77
     1
 78
     8
170
     0
171
     3
172
     1
173
     0
174
     0
175
     0
176
     0
177
     0
178
     0
270
     2
271
     2
272
     2
273
     2
274
     3
340
11
275
     0
280
     0
281
     0
282
     0
283
     0
284
     8
285
     0
286
     0
287
     5
288
     0
  0
ENDTAB
  0
TABLE
  2
BLOCK_RECORD
  5
1
330
0
100
AcDbSymbolTable
 70
    26
  0
BLOCK_RECORD
  5
1F
330
1
100
AcDbSymbolTableRecord
100
AcDbBlockTableRecord
  2
*MODEL_SPACE
  0
BLOCK_RECORD
  5
1B
330
1
100
AcDbSymbolTableRecord
100
AcDbBlockTableRecord
  2
*PAPER_SPACE
  0
BLOCK_RECORD
  5
7E
330
1
100
AcDbSymbolTableRecord
100
AcDbBlockTableRecord
  2
EX_NORM
  0
BLOCK_RECORD
  5
81
330
1
100
AcDbSymbolTableRecord
100
AcDbBlockTableRecord
  2
EX_BNORM
  0
BLOCK_RECORD
  5
84
330
1
100
AcDbSymbolTableRecord
100
AcDbBlockTableRecord
  2
EX_BCIR
  0
BLOCK_RECORD
  5
87
330
1
100
AcDbSymbolTableRecord
100
AcDbBlockTableRecord
  2
EX_RCIVIL
  0
BLOCK_RECORD
  5
8A
330
1
100
AcDbSymbolTableRecord
100
AcDbBlockTableRecord
  2
EX_SLANT
  0
BLOCK_RECORD
  5
8D
330
1
100
AcDbSymbolTableRecord
100
AcDbBlockTableRecord
  2
EX_NONE
  0
BLOCK_RECORD
  5
90
330
1
100
AcDbSymbolTableRecord
100
AcDbBlockTableRecord
  2
EX_CIVIL
  0
BLOCK_RECORD
  5
93
330
1
100
AcDbSymbolTableRecord
100
AcDbBlockTableRecord
  2
EX_WCIR
  0
BLOCK_RECORD
  5
96
330
1
100
AcDbSymbolTableRecord
100
AcDbBlockTableRecord
  2
EX_WCIR2
  0
BLOCK_RECORD
  5
99
330
1
100
AcDbSymbolTableRecord
100
AcDbBlockTableRecord
  2
EX_WNORM
  0
BLOCK_RECORD
  5
9C
330
1
100
AcDbSymbolTableRecord
100
AcDbBlockTableRecord
  2
EX_NNORM
  0
BLOCK_RECORD
  5
9F
330
1
100
AcDbSymbolTableRecord
100
AcDbBlockTableRecord
  2
EX_BBOX
  0
BLOCK_RECORD
  5
A2
330
1
100
AcDbSymbolTableRecord
100
AcDbBlockTableRecord
  2
EX_WBOX
  0
BLOCK_RECORD
  5
A5
330
1
100
AcDbSymbolTableRecord
100
AcDbBlockTableRecord
  2
EX_INTEGRAL
  0
BLOCK_RECORD
  5
122
330
1
100
AcDbSymbolTableRecord
100
AcDbBlockTableRecord
  2
*D15
  0
BLOCK_RECORD
  5
131
330
1
100
AcDbSymbolTableRecord
100
AcDbBlockTableRecord
  2
*D16
  0
BLOCK_RECORD
  5
13E
330
1
100
AcDbSymbolTableRecord
100
AcDbBlockTableRecord
  2
*D17
  0
BLOCK_RECORD
  5
14B
330
1
100
AcDbSymbolTableRecord
100
AcDbBlockTableRecord
  2
*D18
  0
BLOCK_RECORD
  5
158
330
1
100
AcDbSymbolTableRecord
100
AcDbBlockTableRecord
  2
*D19
  0
BLOCK_RECORD
  5
165
330
1
100
AcDbSymbolTableRecord
100
AcDbBlockTableRecord
  2
*D20
  0
BLOCK_RECORD
  5
172
330
1
100
AcDbSymbolTableRecord
100
AcDbBlockTableRecord
  2
*D21
  0
BLOCK_RECORD
  5
17F
330
1
100
AcDbSymbolTableRecord
100
AcDbBlockTableRecord
  2
*D22
  0
BLOCK_RECORD
  5
18C
330
1
100
AcDbSymbolTableRecord
100
AcDbBlockTableRecord
  2
*D23
  0
BLOCK_RECORD
  5
199
330
1
100
AcDbSymbolTableRecord
100
AcDbBlockTableRecord
  2
*D24
  0
BLOCK_RECORD
  5
1A6
330
1
100
AcDbSymbolTableRecord
100
AcDbBlockTableRecord
  2
*D25
  0
BLOCK_RECORD
  5
282
330
1
100
AcDbSymbolTableRecord
100
AcDbBlockTableRecord
  2
*D26
  0
ENDTAB
  0
ENDSEC
  0
SECTION
  2
BLOCKS
  0
BLOCK
  5
20
330
1F
100
AcDbEntity
  8
0
100
AcDbBlockBegin
  2
*MODEL_SPACE
 70
     0
 10
0.0
 20
0.0
 30
0.0
  3
*MODEL_SPACE
  1

  0
ENDBLK
  5
21
330
1F
100
AcDbEntity
  8
0
100
AcDbBlockEnd
  0
BLOCK
  5
1C
330
1B
100
AcDbEntity
 67
     1
  8
0
100
AcDbBlockBegin
  2
*PAPER_SPACE
 70
     0
 10
0.0
 20
0.0
 30
0.0
  3
*PAPER_SPACE
  1

  0
ENDBLK
  5
1D
330
1B
100
AcDbEntity
 67
     1
  8
0
100
AcDbBlockEnd
  0
BLOCK
  5
7F
330
7E
100
AcDbEntity
  8
0
100
AcDbBlockBegin
  2
EX_NORM
 70
     0
 10
0.0
 20
0.0
 30
0.0
  3
EX_NORM
  1

  0
LINE
  5
A8
330
7E
100
AcDbEntity
  8
0
  6
CONTINUOUS
 62
     0
100
AcDbLine
 10
0.0
 20
0.0
 30
0.0
 11
-1.0
 21
0.0
 31
0.0
  0
LINE
  5
A9
330
7E
100
AcDbEntity
  8
0
  6
CONTINUOUS
 62
     0
100
AcDbLine
 10
0.0
 20
0.0
 30
0.0
 11
-1.0
 21
0.166666667
 31
0.0
  0
LINE
  5
AA
330
7E
100
AcDbEntity
  8
0
  6
CONTINUOUS
 62
     0
100
AcDbLine
 10
0.0
 20
0.0
 30
0.0
 11
-1.0
 21
-0.166666667
 31
0.0
  0
ENDBLK
  5
80
330
7E
100
AcDbEntity
  8
0
100
AcDbBlockEnd
  0
BLOCK
  5
82
330
81
100
AcDbEntity
  8
0
100
AcDbBlockBegin
  2
EX_BNORM
 70
     0
 10
0.0
 20
0.0
 30
0.0
  3
EX_BNORM
  1

  0
LINE
  5
AB
330
81
100
AcDbEntity
  8
0
  6
CONTINUOUS
 62
     0
100
AcDbLine
 10
0.0
 20
0.0
 30
0.0
 11
-1.0
 21
0.0
 31
0.0
  0
LINE
  5
AC
330
81
100
AcDbEntity
  8
0
  6
CONTINUOUS
 62
     0
100
AcDbLine
 10
0.0
 20
0.0
 30
0.0
 11
-1.0
 21
0.166666667
 31
0.0
  0
LINE
  5
AD
330
81
100
AcDbEntity
  8
0
  6
CONTINUOUS
 62
     0
100
AcDbLine
 10
0.0
 20
0.0
 30
0.0
 11
-1.0
 21
-0.166666667
 31
0.0
  0
LINE
  5
AE
330
81
100
AcDbEntity
  8
0
  6
CONTINUOUS
 62
     0
100
AcDbLine
 10
0.0
 20
0.0
 30
0.0
 11
-1.0
 21
0.083333333
 31
0.0
  0
LINE
  5
AF
330
81
100
AcDbEntity
  8
0
  6
CONTINUOUS
 62
     0
100
AcDbLine
 10
0.0
 20
0.0
 30
0.0
 11
-1.0
 21
-0.083333333
 31
0.0
  0
LINE
  5
B0
330
81
100
AcDbEntity
  8
0
  6
CONTINUOUS
 62
     0
100
AcDbLine
 10
-1.0
 20
0.166666667
 30
0.0
 11
-1.0
 21
-0.166666667
 31
0.0
  0
ENDBLK
  5
83
330
81
100
AcDbEntity
  8
0
100
AcDbBlockEnd
  0
BLOCK
  5
85
330
84
100
AcDbEntity
  8
0
100
AcDbBlockBegin
  2
EX_BCIR
 70
     0
 10
0.0
 20
0.0
 30
0.0
  3
EX_BCIR
  1

  0
LINE
  5
B1
330
84
100
AcDbEntity
  8
0
  6
CONTINUOUS
 62
     0
100
AcDbLine
 10
0.0
 20
0.0
 30
0.0
 11
-1.0
 21
0.0
 31
0.0
  0
CIRCLE
  5
B2
330
84
100
AcDbEntity
  8
0
  6
CONTINUOUS
 62
     0
100
AcDbCircle
 10
0.0
 20
0.0
 30
0.0
 40
0.5
  0
CIRCLE
  5
B3
330
84
100
AcDbEntity
  8
0
  6
CONTINUOUS
 62
     0
100
AcDbCircle
 10
0.0
 20
0.0
 30
0.0
 40
0.25
  0
ENDBLK
  5
86
330
84
100
AcDbEntity
  8
0
100
AcDbBlockEnd
  0
BLOCK
  5
88
330
87
100
AcDbEntity
  8
0
100
AcDbBlockBegin
  2
EX_RCIVIL
 70
     0
 10
0.0
 20
0.0
 30
0.0
  3
EX_RCIVIL
  1

  0
LINE
  5
B4
330
87
100
AcDbEntity
  8
0
  6
CONTINUOUS
 62
     0
100
AcDbLine
 10
0.0
 20
0.0
 30
0.0
 11
-1.0
 21
0.0
 31
0.0
  0
LINE
  5
B5
330
87
100
AcDbEntity
  8
0
  6
CONTINUOUS
 62
     0
100
AcDbLine
 10
-1.0
 20
-0.25
 30
0.0
 11
0.0
 21
-0.25
 31
0.0
  0
LINE
  5
B6
330
87
100
AcDbEntity
  8
0
  6
CONTINUOUS
 62
     0
100
AcDbLine
 10
-1.0
 20
-0.125
 30
0.0
 11
0.0
 21
-0.125
 31
0.0
  0
ENDBLK
  5
89
330
87
100
AcDbEntity
  8
0
100
AcDbBlockEnd
  0
BLOCK
  5
8B
330
8A
100
AcDbEntity
  8
0
100
AcDbBlockBegin
  2
EX_SLANT
 70
     0
 10
0.0
 20
0.0
 30
0.0
  3
EX_SLANT
  1

  0
LINE
  5
B7
330
8A
100
AcDbEntity
  8
0
  6
CONTINUOUS
 62
     0
100
AcDbLine
 10
0.0
 20
0.0
 30
0.0
 11
-1.0
 21
0.0
 31
0.0
  0
LINE
  5
B8
330
8A
100
AcDbEntity
  8
0
  6
CONTINUOUS
 62
     0
100
AcDbLine
 10
0.707106781
 20
0.707106781
 30
0.0
 11
-0.707106781
 21
-0.707106781
 31
0.0
  0
ENDBLK
  5
8C
330
8A
100
AcDbEntity
  8
0
100
AcDbBlockEnd
  0
BLOCK
  5
8E
330
8D
100
AcDbEntity
  8
0
100
AcDbBlockBegin
  2
EX_NONE
 70
     0
 10
0.0
 20
0.0
 30
0.0
  3
EX_NONE
  1

  0
LINE
  5
B9
330
8D
100
AcDbEntity
  8
0
  6
CONTINUOUS
 62
     0
100
AcDbLine
 10
0.0
 20
0.0
 30
0.0
 11
-1.0
 21
0.0
 31
0.0
  0
ENDBLK
  5
8F
330
8D
100
AcDbEntity
  8
0
100
AcDbBlockEnd
  0
BLOCK
  5
91
330
90
100
AcDbEntity
  8
0
100
AcDbBlockBegin
  2
EX_CIVIL
 70
     0
 10
0.0
 20
0.0
 30
0.0
  3
EX_CIVIL
  1

  0
LINE
  5
BA
330
90
100
AcDbEntity
  8
0
  6
CONTINUOUS
 62
     0
100
AcDbLine
 10
0.0
 20
0.0
 30
0.0
 11
-1.0
 21
0.0
 31
0.0
  0
LINE
  5
BB
330
90
100
AcDbEntity
  8
0
  6
CONTINUOUS
 62
     0
100
AcDbLine
 10
-1.0
 20
0.25
 30
0.0
 11
0.0
 21
0.25
 31
0.0
  0
LINE
  5
BC
330
90
100
AcDbEntity
  8
0
  6
CONTINUOUS
 62
     0
100
AcDbLine
 10
-1.0
 20
0.125
 30
0.0
 11
0.0
 21
0.125
 31
0.0
  0
ENDBLK
  5
92
330
90
100
AcDbEntity
  8
0
100
AcDbBlockEnd
  0
BLOCK
  5
94
330
93
100
AcDbEntity
  8
0
100
AcDbBlockBegin
  2
EX_WCIR
 70
     0
 10
0.0
 20
0.0
 30
0.0
  3
EX_WCIR
  1

  0
LINE
  5
BD
330
93
100
AcDbEntity
  8
0
  6
CONTINUOUS
 62
     0
100
AcDbLine
 10
0.0
 20
0.0
 30
0.0
 11
-1.0
 21
0.0
 31
0.0
  0
CIRCLE
  5
BE
330
93
100
AcDbEntity
  8
0
  6
CONTINUOUS
 62
     0
100
AcDbCircle
 10
0.0
 20
0.0
 30
0.0
 40
0.5
  0
ENDBLK
  5
95
330
93
100
AcDbEntity
  8
0
100
AcDbBlockEnd
  0
BLOCK
  5
97
330
96
100
AcDbEntity
  8
0
100
AcDbBlockBegin
  2
EX_WCIR2
 70
     0
 10
0.0
 20
0.0
 30
0.0
  3
EX_WCIR2
  1

  0
LINE
  5
BF
330
96
100
AcDbEntity
  8
0
  6
CONTINUOUS
 62
     0
100
AcDbLine
 10
-0.5
 20
0.0
 30
0.0
 11
-1.0
 21
0.0
 31
0.0
  0
CIRCLE
  5
C0
330
96
100
AcDbEntity
  8
0
  6
CONTINUOUS
 62
     0
100
AcDbCircle
 10
0.0
 20
0.0
 30
0.0
 40
0.5
  0
ENDBLK
  5
98
330
96
100
AcDbEntity
  8
0
100
AcDbBlockEnd
  0
BLOCK
  5
9A
330
99
100
AcDbEntity
  8
0
100
AcDbBlockBegin
  2
EX_WNORM
 70
     0
 10
0.0
 20
0.0
 30
0.0
  3
EX_WNORM
  1

  0
LINE
  5
C1
330
99
100
AcDbEntity
  8
0
  6
CONTINUOUS
 62
     0
100
AcDbLine
 10
-1.0
 20
0.0
 30
0.0
 11
-1.0
 21
0.0
 31
0.0
  0
LINE
  5
C2
330
99
100
AcDbEntity
  8
0
  6
CONTINUOUS
 62
     0
100
AcDbLine
 10
0.0
 20
0.0
 30
0.0
 11
-1.0
 21
0.166666667
 31
0.0
  0
LINE
  5
C3
330
99
100
AcDbEntity
  8
0
  6
CONTINUOUS
 62
     0
100
AcDbLine
 10
0.0
 20
0.0
 30
0.0
 11
-1.0
 21
-0.166666667
 31
0.0
  0
LINE
  5
C4
330
99
100
AcDbEntity
  8
0
  6
CONTINUOUS
 62
     0
100
AcDbLine
 10
-1.0
 20
0.166666667
 30
0.0
 11
-1.0
 21
-0.166666667
 31
0.0
  0
ENDBLK
  5
9B
330
99
100
AcDbEntity
  8
0
100
AcDbBlockEnd
  0
BLOCK
  5
9D
330
9C
100
AcDbEntity
  8
0
100
AcDbBlockBegin
  2
EX_NNORM
 70
     0
 10
0.0
 20
0.0
 30
0.0
  3
EX_NNORM
  1

  0
LINE
  5
C5
330
9C
100
AcDbEntity
  8
0
  6
CONTINUOUS
 62
     0
100
AcDbLine
 10
0.0
 20
0.0
 30
0.0
 11
-1.0
 21
0.0
 31
0.0
  0
LINE
  5
C6
330
9C
100
AcDbEntity
  8
0
  6
CONTINUOUS
 62
     0
100
AcDbLine
 10
0.0
 20
0.0
 30
0.0
 11
-1.0
 21
0.166666667
 31
0.0
  0
LINE
  5
C7
330
9C
100
AcDbEntity
  8
0
  6
CONTINUOUS
 62
     0
100
AcDbLine
 10
0.0
 20
0.0
 30
0.0
 11
-1.0
 21
-0.166666667
 31
0.0
  0
LINE
  5
C8
330
9C
100
AcDbEntity
  8
0
  6
CONTINUOUS
 62
     0
100
AcDbLine
 10
-1.0
 20
0.166666667
 30
0.0
 11
-1.0
 21
-0.166666667
 31
0.0
  0
ENDBLK
  5
9E
330
9C
100
AcDbEntity
  8
0
100
AcDbBlockEnd
  0
BLOCK
  5
A0
330
9F
100
AcDbEntity
  8
0
100
AcDbBlockBegin
  2
EX_BBOX
 70
     0
 10
0.0
 20
0.0
 30
0.0
  3
EX_BBOX
  1

  0
LINE
  5
C9
330
9F
100
AcDbEntity
  8
0
  6
CONTINUOUS
 62
     0
100
AcDbLine
 10
0.0
 20
0.0
 30
0.0
 11
-1.0
 21
0.0
 31
0.0
  0
LINE
  5
CA
330
9F
100
AcDbEntity
  8
0
  6
CONTINUOUS
 62
     0
100
AcDbLine
 10
-0.5
 20
0.5
 30
0.0
 11
0.5
 21
0.5
 31
0.0
  0
LINE
  5
CB
330
9F
100
AcDbEntity
  8
0
  6
CONTINUOUS
 62
     0
100
AcDbLine
 10
0.5
 20
0.5
 30
0.0
 11
0.5
 21
-0.5
 31
0.0
  0
LINE
  5
CC
330
9F
100
AcDbEntity
  8
0
  6
CONTINUOUS
 62
     0
100
AcDbLine
 10
0.5
 20
-0.5
 30
0.0
 11
-0.5
 21
-0.5
 31
0.0
  0
LINE
  5
CD
330
9F
100
AcDbEntity
  8
0
  6
CONTINUOUS
 62
     0
100
AcDbLine
 10
-0.5
 20
-0.5
 30
0.0
 11
-0.5
 21
0.5
 31
0.0
  0
LINE
  5
CE
330
9F
100
AcDbEntity
  8
0
  6
CONTINUOUS
 62
     0
100
AcDbLine
 10
-0.25
 20
0.25
 30
0.0
 11
0.25
 21
0.25
 31
0.0
  0
LINE
  5
CF
330
9F
100
AcDbEntity
  8
0
  6
CONTINUOUS
 62
     0
100
AcDbLine
 10
0.25
 20
0.25
 30
0.0
 11
0.25
 21
-0.25
 31
0.0
  0
LINE
  5
D0
330
9F
100
AcDbEntity
  8
0
  6
CONTINUOUS
 62
     0
100
AcDbLine
 10
0.25
 20
-0.25
 30
0.0
 11
-0.25
 21
-0.25
 31
0.0
  0
LINE
  5
D1
330
9F
100
AcDbEntity
  8
0
  6
CONTINUOUS
 62
     0
100
AcDbLine
 10
-0.25
 20
-0.25
 30
0.0
 11
-0.25
 21
0.25
 31
0.0
  0
ENDBLK
  5
A1
330
9F
100
AcDbEntity
  8
0
100
AcDbBlockEnd
  0
BLOCK
  5
A3
330
A2
100
AcDbEntity
  8
0
100
AcDbBlockBegin
  2
EX_WBOX
 70
     0
 10
0.0
 20
0.0
 30
0.0
  3
EX_WBOX
  1

  0
LINE
  5
D2
330
A2
100
AcDbEntity
  8
0
  6
CONTINUOUS
 62
     0
100
AcDbLine
 10
-0.5
 20
0.0
 30
0.0
 11
-1.0
 21
0.0
 31
0.0
  0
LINE
  5
D3
330
A2
100
AcDbEntity
  8
0
  6
CONTINUOUS
 62
     0
100
AcDbLine
 10
-0.5
 20
0.5
 30
0.0
 11
0.5
 21
0.5
 31
0.0
  0
LINE
  5
D4
330
A2
100
AcDbEntity
  8
0
  6
CONTINUOUS
 62
     0
100
AcDbLine
 10
0.5
 20
0.5
 30
0.0
 11
0.5
 21
-0.5
 31
0.0
  0
LINE
  5
D5
330
A2
100
AcDbEntity
  8
0
  6
CONTINUOUS
 62
     0
100
AcDbLine
 10
0.5
 20
-0.5
 30
0.0
 11
-0.5
 21
-0.5
 31
0.0
  0
LINE
  5
D6
330
A2
100
AcDbEntity
  8
0
  6
CONTINUOUS
 62
     0
100
AcDbLine
 10
-0.5
 20
-0.5
 30
0.0
 11
-0.5
 21
0.5
 31
0.0
  0
ENDBLK
  5
A4
330
A2
100
AcDbEntity
  8
0
100
AcDbBlockEnd
  0
BLOCK
  5
A6
330
A5
100
AcDbEntity
  8
0
100
AcDbBlockBegin
  2
EX_INTEGRAL
 70
     0
 10
0.0
 20
0.0
 30
0.0
  3
EX_INTEGRAL
  1

  0
LINE
  5
D7
330
A5
100
AcDbEntity
  8
0
  6
CONTINUOUS
 62
     0
100
AcDbLine
 10
0.0
 20
0.0
 30
0.0
 11
-1.0
 21
0.0
 31
0.0
  0
ARC
  5
D8
330
A5
100
AcDbEntity
  8
0
  6
CONTINUOUS
 62
     0
100
AcDbCircle
 10
0.542115
 20
0.164992
 30
0.0
 40
0.56667
100
AcDbArc
 50
73.07249033629006
 51
196.9275130221199
  0
ARC
  5
D9
330
A5
100
AcDbEntity
  8
0
  6
CONTINUOUS
 62
     0
100
AcDbCircle
 10
-0.542115
 20
-0.164992
 30
0.0
 40
0.56667
100
AcDbArc
 50
253.0724869220464
 51
16.9275130559125
  0
ENDBLK
  5
A7
330
A5
100
AcDbEntity
  8
0
100
AcDbBlockEnd
  0
BLOCK
  5
123
330
122
100
AcDbEntity
  8
0
100
AcDbBlockBegin
  2
*D15
 70
     1
 10
0.0
 20
0.0
 30
0.0
  3
*D15
  1

  0
LINE
  5
125
330
122
100
AcDbEntity
  8
Ｓ_１_１
  6
CONTINUOUS
 62
     2
100
AcDbLine
 10
724.5000000000019
 20
257.0000000000008
 30
0.0
 11
623.0
 21
257.0000000000008
 31
0.0
  0
LINE
  5
126
330
122
100
AcDbEntity
  8
Ｓ_１_１
  6
CONTINUOUS
 62
     2
100
AcDbLine
 10
724.5000000000019
 20
224.9999999999998
 30
0.0
 11
623.0
 21
224.9999999999999
 31
0.0
  0
LINE
  5
127
330
122
100
AcDbEntity
  8
Ｓ_１_１
  6
CONTINUOUS
 62
     2
100
AcDbLine
 10
630.0
 20
257.0000000000008
 30
0.0
 11
630.0
 21
224.9999999999999
 31
0.0
  0
LINE
  5
128
330
122
100
AcDbEntity
  8
Ｓ_１_１
  6
CONTINUOUS
 62
     2
100
AcDbLine
 10
630.0
 20
278.0000000000008
 30
0.0
 11
630.0
 21
299.0000000000008
 31
0.0
  0
LINE
  5
129
330
122
100
AcDbEntity
  8
Ｓ_１_１
  6
CONTINUOUS
 62
     2
100
AcDbLine
 10
630.0
 20
203.9999999999999
 30
0.0
 11
630.0
 21
182.9999999999999
 31
0.0
  0
INSERT
  5
12A
330
122
100
AcDbEntity
  8
Ｓ_１_１
 62
     2
100
AcDbBlockReference
  2
EX_NORM
 10
630.0
 20
257.0000000000008
 30
0.0
 41
21.0
 42
21.0
 43
21.0
 50
270.0
  0
INSERT
  5
12B
330
122
100
AcDbEntity
  8
Ｓ_１_１
 62
     2
100
AcDbBlockReference
  2
EX_NORM
 10
630.0
 20
224.9999999999999
 30
0.0
 41
21.0
 42
21.0
 43
21.0
 50
90.0
  0
MTEXT
  5
12C
330
122
100
AcDbEntity
  8
Ｓ_１_１
 62
     2
100
AcDbMText
 10
610.75
 20
188.2499999999997
 30
0.0
 40
24.24032763153705
 41
0.0
 71
     5
 72
     1
  1
32
  7
EXCADDIM1
 11
0.0
 21
1.0
 31
0.0
  0
POINT
  5
12D
330
122
100
AcDbEntity
  8
DEFPOINTS
 62
     0
100
AcDbPoint
 10
735.0000000000019
 20
257.0000000000008
 30
0.0
  0
POINT
  5
12E
330
122
100
AcDbEntity
  8
DEFPOINTS
 62
     0
100
AcDbPoint
 10
735.0000000000019
 20
224.9999999999998
 30
0.0
  0
POINT
  5
12F
330
122
100
AcDbEntity
  8
DEFPOINTS
 62
     0
100
AcDbPoint
 10
630.0
 20
224.9999999999999
 30
0.0
  0
ENDBLK
  5
124
330
122
100
AcDbEntity
  8
0
100
AcDbBlockEnd
  0
BLOCK
  5
132
330
131
100
AcDbEntity
  8
0
100
AcDbBlockBegin
  2
*D16
 70
     1
 10
0.0
 20
0.0
 30
0.0
  3
*D16
  1

  0
LINE
  5
134
330
131
100
AcDbEntity
  8
Ｓ_１_１
  6
CONTINUOUS
 62
     2
100
AcDbLine
 10
724.5
 20
257.0
 30
0.0
 11
623.0
 21
257.0000000000001
 31
0.0
  0
LINE
  5
135
330
131
100
AcDbEntity
  8
Ｓ_１_１
  6
CONTINUOUS
 62
     2
100
AcDbLine
 10
851.7
 20
517.0
 30
0.0
 11
623.0
 21
517.0
 31
0.0
  0
LINE
  5
136
330
131
100
AcDbEntity
  8
Ｓ_１_１
  6
CONTINUOUS
 62
     2
100
AcDbLine
 10
630.0
 20
278.0000000000001
 30
0.0
 11
630.0
 21
496.0
 31
0.0
  0
INSERT
  5
137
330
131
100
AcDbEntity
  8
Ｓ_１_１
 62
     2
100
AcDbBlockReference
  2
EX_NORM
 10
630.0
 20
257.0000000000001
 30
0.0
 41
21.0
 42
21.0
 43
21.0
 50
270.0
  0
INSERT
  5
138
330
131
100
AcDbEntity
  8
Ｓ_１_１
 62
     2
100
AcDbBlockReference
  2
EX_NORM
 10
630.0
 20
517.0
 30
0.0
 41
21.0
 42
21.0
 43
21.0
 50
90.0
  0
MTEXT
  5
139
330
131
100
AcDbEntity
  8
Ｓ_１_１
 62
     2
100
AcDbMText
 10
610.75
 20
386.9999999999999
 30
0.0
 40
24.24032763153705
 41
0.0
 71
     5
 72
     1
  1
260
  7
EXCADDIM1
 11
0.0
 21
1.0
 31
0.0
  0
POINT
  5
13A
330
131
100
AcDbEntity
  8
DEFPOINTS
 62
     0
100
AcDbPoint
 10
735.0
 20
257.0
 30
0.0
  0
POINT
  5
13B
330
131
100
AcDbEntity
  8
DEFPOINTS
 62
     0
100
AcDbPoint
 10
862.2
 20
517.0
 30
0.0
  0
POINT
  5
13C
330
131
100
AcDbEntity
  8
DEFPOINTS
 62
     0
100
AcDbPoint
 10
630.0
 20
517.0
 30
0.0
  0
ENDBLK
  5
133
330
131
100
AcDbEntity
  8
0
100
AcDbBlockEnd
  0
BLOCK
  5
13F
330
13E
100
AcDbEntity
  8
0
100
AcDbBlockBegin
  2
*D17
 70
     1
 10
0.0
 20
0.0
 30
0.0
  3
*D17
  1

  0
LINE
  5
141
330
13E
100
AcDbEntity
  8
Ｓ_１_１
  6
CONTINUOUS
 62
     2
100
AcDbLine
 10
851.7
 20
517.0
 30
0.0
 11
623.0
 21
517.0
 31
0.0
  0
LINE
  5
142
330
13E
100
AcDbEntity
  8
Ｓ_１_１
  6
CONTINUOUS
 62
     2
100
AcDbLine
 10
898.5000000000001
 20
791.99999200125
 30
0.0
 11
623.0
 21
791.99999200125
 31
0.0
  0
LINE
  5
143
330
13E
100
AcDbEntity
  8
Ｓ_１_１
  6
CONTINUOUS
 62
     2
100
AcDbLine
 10
630.0
 20
538.0
 30
0.0
 11
630.0
 21
770.99999200125
 31
0.0
  0
INSERT
  5
144
330
13E
100
AcDbEntity
  8
Ｓ_１_１
 62
     2
100
AcDbBlockReference
  2
EX_NORM
 10
630.0
 20
517.0
 30
0.0
 41
21.0
 42
21.0
 43
21.0
 50
270.0
  0
INSERT
  5
145
330
13E
100
AcDbEntity
  8
Ｓ_１_１
 62
     2
100
AcDbBlockReference
  2
EX_NORM
 10
630.0
 20
791.99999200125
 30
0.0
 41
21.0
 42
21.0
 43
21.0
 50
90.0
  0
MTEXT
  5
146
330
13E
100
AcDbEntity
  8
Ｓ_１_１
 62
     2
100
AcDbMText
 10
610.75
 20
654.4999960006251
 30
0.0
 40
24.24032763153705
 41
0.0
 71
     5
 72
     1
  1
275
  7
EXCADDIM1
 11
0.0
 21
1.0
 31
0.0
  0
POINT
  5
147
330
13E
100
AcDbEntity
  8
DEFPOINTS
 62
     0
100
AcDbPoint
 10
862.2
 20
517.0
 30
0.0
  0
POINT
  5
148
330
13E
100
AcDbEntity
  8
DEFPOINTS
 62
     0
100
AcDbPoint
 10
909.0000000000001
 20
791.99999200125
 30
0.0
  0
POINT
  5
149
330
13E
100
AcDbEntity
  8
DEFPOINTS
 62
     0
100
AcDbPoint
 10
630.0
 20
791.99999200125
 30
0.0
  0
ENDBLK
  5
140
330
13E
100
AcDbEntity
  8
0
100
AcDbBlockEnd
  0
BLOCK
  5
14C
330
14B
100
AcDbEntity
  8
0
100
AcDbBlockBegin
  2
*D18
 70
     1
 10
0.0
 20
0.0
 30
0.0
  3
*D18
  1

  0
LINE
  5
14E
330
14B
100
AcDbEntity
  8
Ｓ_１_１
  6
CONTINUOUS
 62
     2
100
AcDbLine
 10
724.5
 20
225.0
 30
0.0
 11
578.0
 21
225.0
 31
0.0
  0
LINE
  5
14F
330
14B
100
AcDbEntity
  8
Ｓ_１_１
  6
CONTINUOUS
 62
     2
100
AcDbLine
 10
898.5000000000001
 20
791.99999200125
 30
0.0
 11
578.0
 21
791.99999200125
 31
0.0
  0
LINE
  5
150
330
14B
100
AcDbEntity
  8
Ｓ_１_１
  6
CONTINUOUS
 62
     2
100
AcDbLine
 10
585.0
 20
246.0
 30
0.0
 11
585.0
 21
770.99999200125
 31
0.0
  0
INSERT
  5
151
330
14B
100
AcDbEntity
  8
Ｓ_１_１
 62
     2
100
AcDbBlockReference
  2
EX_NORM
 10
585.0
 20
225.0
 30
0.0
 41
21.0
 42
21.0
 43
21.0
 50
270.0
  0
INSERT
  5
152
330
14B
100
AcDbEntity
  8
Ｓ_１_１
 62
     2
100
AcDbBlockReference
  2
EX_NORM
 10
585.0
 20
791.99999200125
 30
0.0
 41
21.0
 42
21.0
 43
21.0
 50
90.0
  0
MTEXT
  5
153
330
14B
100
AcDbEntity
  8
Ｓ_１_１
 62
     2
100
AcDbMText
 10
565.75
 20
508.4999960006251
 30
0.0
 40
24.24032763153705
 41
0.0
 71
     5
 72
     1
  1
567
  7
EXCADDIM1
 11
0.0
 21
1.0
 31
0.0
  0
POINT
  5
154
330
14B
100
AcDbEntity
  8
DEFPOINTS
 62
     0
100
AcDbPoint
 10
735.0
 20
225.0
 30
0.0
  0
POINT
  5
155
330
14B
100
AcDbEntity
  8
DEFPOINTS
 62
     0
100
AcDbPoint
 10
909.0000000000001
 20
791.99999200125
 30
0.0
  0
POINT
  5
156
330
14B
100
AcDbEntity
  8
DEFPOINTS
 62
     0
100
AcDbPoint
 10
585.0
 20
791.99999200125
 30
0.0
  0
ENDBLK
  5
14D
330
14B
100
AcDbEntity
  8
0
100
AcDbBlockEnd
  0
BLOCK
  5
159
330
158
100
AcDbEntity
  8
0
100
AcDbBlockBegin
  2
*D19
 70
     1
 10
0.0
 20
0.0
 30
0.0
  3
*D19
  1

  0
LINE
  5
15B
330
158
100
AcDbEntity
  8
Ｓ_１_１
  6
CONTINUOUS
 62
     2
100
AcDbLine
 10
906.9999999999999
 20
800.49999200125
 30
0.0
 11
906.9999999999999
 21
906.9999999999999
 31
0.0
  0
LINE
  5
15C
330
158
100
AcDbEntity
  8
Ｓ_１_１
  6
CONTINUOUS
 62
     2
100
AcDbLine
 10
1162.999999999997
 20
800.49999200125
 30
0.0
 11
1162.999999999997
 21
906.9999999999999
 31
0.0
  0
LINE
  5
15D
330
158
100
AcDbEntity
  8
Ｓ_１_１
  6
CONTINUOUS
 62
     2
100
AcDbLine
 10
927.9999999999999
 20
899.9999999999999
 30
0.0
 11
1141.999999999997
 21
899.9999999999999
 31
0.0
  0
INSERT
  5
15E
330
158
100
AcDbEntity
  8
Ｓ_１_１
 62
     2
100
AcDbBlockReference
  2
EX_NORM
 10
906.9999999999999
 20
899.9999999999999
 30
0.0
 41
21.0
 42
21.0
 43
21.0
 50
180.0
  0
INSERT
  5
15F
330
158
100
AcDbEntity
  8
Ｓ_１_１
 62
     2
100
AcDbBlockReference
  2
EX_NORM
 10
1162.999999999997
 20
899.9999999999999
 30
0.0
 41
21.0
 42
21.0
 43
21.0
  0
MTEXT
  5
160
330
158
100
AcDbEntity
  8
Ｓ_１_１
 62
     2
100
AcDbMText
 10
1034.999999999998
 20
919.2499999999999
 30
0.0
 40
24.24032763153705
 41
0.0
 71
     5
 72
     1
  1
%%c256
  7
EXCADDIM1
  0
POINT
  5
161
330
158
100
AcDbEntity
  8
DEFPOINTS
 62
     0
100
AcDbPoint
 10
906.9999999999999
 20
789.99999200125
 30
0.0
  0
POINT
  5
162
330
158
100
AcDbEntity
  8
DEFPOINTS
 62
     0
100
AcDbPoint
 10
1162.999999999997
 20
789.99999200125
 30
0.0
  0
POINT
  5
163
330
158
100
AcDbEntity
  8
DEFPOINTS
 62
     0
100
AcDbPoint
 10
1162.999999999997
 20
899.9999999999999
 30
0.0
  0
ENDBLK
  5
15A
330
158
100
AcDbEntity
  8
0
100
AcDbBlockEnd
  0
BLOCK
  5
166
330
165
100
AcDbEntity
  8
0
100
AcDbBlockBegin
  2
*D20
 70
     1
 10
0.0
 20
0.0
 30
0.0
  3
*D20
  1

  0
LINE
  5
168
330
165
100
AcDbEntity
  8
Ｓ_１_１
  6
CONTINUOUS
 62
     2
100
AcDbLine
 10
750.299988
 20
1055.0
 30
0.0
 11
623.0
 21
1055.0
 31
0.0
  0
LINE
  5
169
330
165
100
AcDbEntity
  8
Ｓ_１_１
  6
CONTINUOUS
 62
     2
100
AcDbLine
 10
707.099988
 20
1305.0
 30
0.0
 11
623.0
 21
1305.0
 31
0.0
  0
LINE
  5
16A
330
165
100
AcDbEntity
  8
Ｓ_１_１
  6
CONTINUOUS
 62
     2
100
AcDbLine
 10
630.0
 20
1076.0
 30
0.0
 11
630.0
 21
1284.0
 31
0.0
  0
INSERT
  5
16B
330
165
100
AcDbEntity
  8
Ｓ_１_１
 62
     2
100
AcDbBlockReference
  2
EX_NORM
 10
630.0
 20
1055.0
 30
0.0
 41
21.0
 42
21.0
 43
21.0
 50
270.0
  0
INSERT
  5
16C
330
165
100
AcDbEntity
  8
Ｓ_１_１
 62
     2
100
AcDbBlockReference
  2
EX_NORM
 10
630.0
 20
1305.0
 30
0.0
 41
21.0
 42
21.0
 43
21.0
 50
90.0
  0
MTEXT
  5
16D
330
165
100
AcDbEntity
  8
Ｓ_１_１
 62
     2
100
AcDbMText
 10
610.7500000000001
 20
1180.0
 30
0.0
 40
24.24032763153705
 41
0.0
 71
     5
 72
     1
  1
250
  7
EXCADDIM1
 11
0.0
 21
1.0
 31
0.0
  0
POINT
  5
16E
330
165
100
AcDbEntity
  8
DEFPOINTS
 62
     0
100
AcDbPoint
 10
760.799988
 20
1055.0
 30
0.0
  0
POINT
  5
16F
330
165
100
AcDbEntity
  8
DEFPOINTS
 62
     0
100
AcDbPoint
 10
717.599988
 20
1305.0
 30
0.0
  0
POINT
  5
170
330
165
100
AcDbEntity
  8
DEFPOINTS
 62
     0
100
AcDbPoint
 10
630.0
 20
1305.0
 30
0.0
  0
ENDBLK
  5
167
330
165
100
AcDbEntity
  8
0
100
AcDbBlockEnd
  0
BLOCK
  5
173
330
172
100
AcDbEntity
  8
0
100
AcDbBlockBegin
  2
*D21
 70
     1
 10
0.0
 20
0.0
 30
0.0
  3
*D21
  1

  0
LINE
  5
175
330
172
100
AcDbEntity
  8
Ｓ_１_１
  6
CONTINUOUS
 62
     2
100
AcDbLine
 10
707.099988
 20
1305.0
 30
0.0
 11
623.0
 21
1305.0
 31
0.0
  0
LINE
  5
176
330
172
100
AcDbEntity
  8
Ｓ_１_１
  6
CONTINUOUS
 62
     2
100
AcDbLine
 10
750.299988
 20
1555.0
 30
0.0
 11
623.0
 21
1555.0
 31
0.0
  0
LINE
  5
177
330
172
100
AcDbEntity
  8
Ｓ_１_１
  6
CONTINUOUS
 62
     2
100
AcDbLine
 10
630.0
 20
1326.0
 30
0.0
 11
630.0
 21
1534.0
 31
0.0
  0
INSERT
  5
178
330
172
100
AcDbEntity
  8
Ｓ_１_１
 62
     2
100
AcDbBlockReference
  2
EX_NORM
 10
630.0
 20
1305.0
 30
0.0
 41
21.0
 42
21.0
 43
21.0
 50
270.0
  0
INSERT
  5
179
330
172
100
AcDbEntity
  8
Ｓ_１_１
 62
     2
100
AcDbBlockReference
  2
EX_NORM
 10
630.0
 20
1555.0
 30
0.0
 41
21.0
 42
21.0
 43
21.0
 50
90.0
  0
MTEXT
  5
17A
330
172
100
AcDbEntity
  8
Ｓ_１_１
 62
     2
100
AcDbMText
 10
610.7500000000001
 20
1430.0
 30
0.0
 40
24.24032763153705
 41
0.0
 71
     5
 72
     1
  1
250
  7
EXCADDIM1
 11
0.0
 21
1.0
 31
0.0
  0
POINT
  5
17B
330
172
100
AcDbEntity
  8
DEFPOINTS
 62
     0
100
AcDbPoint
 10
717.599988
 20
1305.0
 30
0.0
  0
POINT
  5
17C
330
172
100
AcDbEntity
  8
DEFPOINTS
 62
     0
100
AcDbPoint
 10
760.799988
 20
1555.0
 30
0.0
  0
POINT
  5
17D
330
172
100
AcDbEntity
  8
DEFPOINTS
 62
     0
100
AcDbPoint
 10
630.0
 20
1555.0
 30
0.0
  0
ENDBLK
  5
174
330
172
100
AcDbEntity
  8
0
100
AcDbBlockEnd
  0
BLOCK
  5
180
330
17F
100
AcDbEntity
  8
0
100
AcDbBlockBegin
  2
*D22
 70
     1
 10
0.0
 20
0.0
 30
0.0
  3
*D22
  1

  0
LINE
  5
182
330
17F
100
AcDbEntity
  8
Ｓ_１_１
  6
CONTINUOUS
 62
     2
100
AcDbLine
 10
744.5
 20
1005.0
 30
0.0
 11
578.0
 21
1005.0
 31
0.0
  0
LINE
  5
183
330
17F
100
AcDbEntity
  8
Ｓ_１_１
  6
CONTINUOUS
 62
     2
100
AcDbLine
 10
744.5
 20
1605.0
 30
0.0
 11
578.0
 21
1605.0
 31
0.0
  0
LINE
  5
184
330
17F
100
AcDbEntity
  8
Ｓ_１_１
  6
CONTINUOUS
 62
     2
100
AcDbLine
 10
585.0
 20
1026.0
 30
0.0
 11
585.0
 21
1584.0
 31
0.0
  0
INSERT
  5
185
330
17F
100
AcDbEntity
  8
Ｓ_１_１
 62
     2
100
AcDbBlockReference
  2
EX_NORM
 10
585.0
 20
1005.0
 30
0.0
 41
21.0
 42
21.0
 43
21.0
 50
270.0
  0
INSERT
  5
186
330
17F
100
AcDbEntity
  8
Ｓ_１_１
 62
     2
100
AcDbBlockReference
  2
EX_NORM
 10
585.0
 20
1605.0
 30
0.0
 41
21.0
 42
21.0
 43
21.0
 50
90.0
  0
MTEXT
  5
187
330
17F
100
AcDbEntity
  8
Ｓ_１_１
 62
     2
100
AcDbMText
 10
565.7500000000001
 20
1305.0
 30
0.0
 40
24.24032763153705
 41
0.0
 71
     5
 72
     1
  1
600
  7
EXCADDIM1
 11
0.0
 21
1.0
 31
0.0
  0
POINT
  5
188
330
17F
100
AcDbEntity
  8
DEFPOINTS
 62
     0
100
AcDbPoint
 10
755.0
 20
1005.0
 30
0.0
  0
POINT
  5
189
330
17F
100
AcDbEntity
  8
DEFPOINTS
 62
     0
100
AcDbPoint
 10
755.0
 20
1605.0
 30
0.0
  0
POINT
  5
18A
330
17F
100
AcDbEntity
  8
DEFPOINTS
 62
     0
100
AcDbPoint
 10
585.0
 20
1605.0
 30
0.0
  0
ENDBLK
  5
181
330
17F
100
AcDbEntity
  8
0
100
AcDbBlockEnd
  0
BLOCK
  5
18D
330
18C
100
AcDbEntity
  8
0
100
AcDbBlockBegin
  2
*D23
 70
     1
 10
0.0
 20
0.0
 30
0.0
  3
*D23
  1

  0
LINE
  5
18F
330
18C
100
AcDbEntity
  8
Ｓ_１_１
  6
CONTINUOUS
 62
     2
100
AcDbLine
 10
785.0
 20
1589.9
 30
0.0
 11
785.0
 21
1717.0
 31
0.0
  0
LINE
  5
190
330
18C
100
AcDbEntity
  8
Ｓ_１_１
  6
CONTINUOUS
 62
     2
100
AcDbLine
 10
1035.0
 20
1634.7
 30
0.0
 11
1035.0
 21
1717.0
 31
0.0
  0
LINE
  5
191
330
18C
100
AcDbEntity
  8
Ｓ_１_１
  6
CONTINUOUS
 62
     2
100
AcDbLine
 10
806.0
 20
1710.0
 30
0.0
 11
1014.0
 21
1710.0
 31
0.0
  0
INSERT
  5
192
330
18C
100
AcDbEntity
  8
Ｓ_１_１
 62
     2
100
AcDbBlockReference
  2
EX_NORM
 10
785.0
 20
1710.0
 30
0.0
 41
21.0
 42
21.0
 43
21.0
 50
180.0
  0
INSERT
  5
193
330
18C
100
AcDbEntity
  8
Ｓ_１_１
 62
     2
100
AcDbBlockReference
  2
EX_NORM
 10
1035.0
 20
1710.0
 30
0.0
 41
21.0
 42
21.0
 43
21.0
  0
MTEXT
  5
194
330
18C
100
AcDbEntity
  8
Ｓ_１_１
 62
     2
100
AcDbMText
 10
910.0000000000002
 20
1729.25
 30
0.0
 40
24.24032763153705
 41
0.0
 71
     5
 72
     1
  1
250
  7
EXCADDIM1
  0
POINT
  5
195
330
18C
100
AcDbEntity
  8
DEFPOINTS
 62
     0
100
AcDbPoint
 10
785.0
 20
1579.4
 30
0.0
  0
POINT
  5
196
330
18C
100
AcDbEntity
  8
DEFPOINTS
 62
     0
100
AcDbPoint
 10
1035.0
 20
1624.2
 30
0.0
  0
POINT
  5
197
330
18C
100
AcDbEntity
  8
DEFPOINTS
 62
     0
100
AcDbPoint
 10
1035.0
 20
1710.0
 30
0.0
  0
ENDBLK
  5
18E
330
18C
100
AcDbEntity
  8
0
100
AcDbBlockEnd
  0
BLOCK
  5
19A
330
199
100
AcDbEntity
  8
0
100
AcDbBlockBegin
  2
*D24
 70
     1
 10
0.0
 20
0.0
 30
0.0
  3
*D24
  1

  0
LINE
  5
19C
330
199
100
AcDbEntity
  8
Ｓ_１_１
  6
CONTINUOUS
 62
     2
100
AcDbLine
 10
1035.0
 20
1634.7
 30
0.0
 11
1035.0
 21
1717.0
 31
0.0
  0
LINE
  5
19D
330
199
100
AcDbEntity
  8
Ｓ_１_１
  6
CONTINUOUS
 62
     2
100
AcDbLine
 10
1285.0
 20
1589.9
 30
0.0
 11
1285.0
 21
1717.0
 31
0.0
  0
LINE
  5
19E
330
199
100
AcDbEntity
  8
Ｓ_１_１
  6
CONTINUOUS
 62
     2
100
AcDbLine
 10
1056.0
 20
1710.0
 30
0.0
 11
1264.0
 21
1710.0
 31
0.0
  0
INSERT
  5
19F
330
199
100
AcDbEntity
  8
Ｓ_１_１
 62
     2
100
AcDbBlockReference
  2
EX_NORM
 10
1035.0
 20
1710.0
 30
0.0
 41
21.0
 42
21.0
 43
21.0
 50
180.0
  0
INSERT
  5
1A0
330
199
100
AcDbEntity
  8
Ｓ_１_１
 62
     2
100
AcDbBlockReference
  2
EX_NORM
 10
1285.0
 20
1710.0
 30
0.0
 41
21.0
 42
21.0
 43
21.0
  0
MTEXT
  5
1A1
330
199
100
AcDbEntity
  8
Ｓ_１_１
 62
     2
100
AcDbMText
 10
1160.0
 20
1729.25
 30
0.0
 40
24.24032763153705
 41
0.0
 71
     5
 72
     1
  1
250
  7
EXCADDIM1
  0
POINT
  5
1A2
330
199
100
AcDbEntity
  8
DEFPOINTS
 62
     0
100
AcDbPoint
 10
1035.0
 20
1624.2
 30
0.0
  0
POINT
  5
1A3
330
199
100
AcDbEntity
  8
DEFPOINTS
 62
     0
100
AcDbPoint
 10
1285.0
 20
1579.4
 30
0.0
  0
POINT
  5
1A4
330
199
100
AcDbEntity
  8
DEFPOINTS
 62
     0
100
AcDbPoint
 10
1285.0
 20
1710.0
 30
0.0
  0
ENDBLK
  5
19B
330
199
100
AcDbEntity
  8
0
100
AcDbBlockEnd
  0
BLOCK
  5
1A7
330
1A6
100
AcDbEntity
  8
0
100
AcDbBlockBegin
  2
*D25
 70
     1
 10
0.0
 20
0.0
 30
0.0
  3
*D25
  1

  0
LINE
  5
1A9
330
1A6
100
AcDbEntity
  8
Ｓ_１_１
  6
CONTINUOUS
 62
     2
100
AcDbLine
 10
735.0
 20
1595.5
 30
0.0
 11
735.0
 21
1762.0
 31
0.0
  0
LINE
  5
1AA
330
1A6
100
AcDbEntity
  8
Ｓ_１_１
  6
CONTINUOUS
 62
     2
100
AcDbLine
 10
1335.0
 20
1595.5
 30
0.0
 11
1335.0
 21
1762.0
 31
0.0
  0
LINE
  5
1AB
330
1A6
100
AcDbEntity
  8
Ｓ_１_１
  6
CONTINUOUS
 62
     2
100
AcDbLine
 10
756.0
 20
1755.0
 30
0.0
 11
1314.0
 21
1755.0
 31
0.0
  0
INSERT
  5
1AC
330
1A6
100
AcDbEntity
  8
Ｓ_１_１
 62
     2
100
AcDbBlockReference
  2
EX_NORM
 10
735.0
 20
1755.0
 30
0.0
 41
21.0
 42
21.0
 43
21.0
 50
180.0
  0
INSERT
  5
1AD
330
1A6
100
AcDbEntity
  8
Ｓ_１_１
 62
     2
100
AcDbBlockReference
  2
EX_NORM
 10
1335.0
 20
1755.0
 30
0.0
 41
21.0
 42
21.0
 43
21.0
  0
MTEXT
  5
1AE
330
1A6
100
AcDbEntity
  8
Ｓ_１_１
 62
     2
100
AcDbMText
 10
1035.0
 20
1774.25
 30
0.0
 40
24.24032763153705
 41
0.0
 71
     5
 72
     1
  1
600
  7
EXCADDIM1
  0
POINT
  5
1AF
330
1A6
100
AcDbEntity
  8
DEFPOINTS
 62
     0
100
AcDbPoint
 10
735.0
 20
1585.0
 30
0.0
  0
POINT
  5
1B0
330
1A6
100
AcDbEntity
  8
DEFPOINTS
 62
     0
100
AcDbPoint
 10
1335.0
 20
1585.0
 30
0.0
  0
POINT
  5
1B1
330
1A6
100
AcDbEntity
  8
DEFPOINTS
 62
     0
100
AcDbPoint
 10
1335.0
 20
1755.0
 30
0.0
  0
ENDBLK
  5
1A8
330
1A6
100
AcDbEntity
  8
0
100
AcDbBlockEnd
  0
BLOCK
  5
283
330
282
100
AcDbEntity
  8
0
100
AcDbBlockBegin
  2
*D26
 70
     1
 10
0.0
 20
0.0
 30
0.0
  3
*D26
  1

  0
LINE
  5
285
330
282
100
AcDbEntity
  8
Ｓ_１_１
  6
CONTINUOUS
 62
     2
100
AcDbLine
 10
1791.8072077594
 20
502.4999999999999
 30
0.0
 11
1791.8072077594
 21
637.0
 31
0.0
  0
LINE
  5
286
330
282
100
AcDbEntity
  8
Ｓ_１_１
  6
CONTINUOUS
 62
     2
100
AcDbLine
 10
2348.1927922406
 20
502.4999999999999
 30
0.0
 11
2348.1927922406
 21
637.0
 31
0.0
  0
LINE
  5
287
330
282
100
AcDbEntity
  8
Ｓ_１_１
  6
CONTINUOUS
 62
     2
100
AcDbLine
 10
1812.8072077594
 20
630.0
 30
0.0
 11
2327.1927922406
 21
630.0
 31
0.0
  0
INSERT
  5
288
330
282
100
AcDbEntity
  8
Ｓ_１_１
 62
     2
100
AcDbBlockReference
  2
EX_NORM
 10
1791.8072077594
 20
630.0
 30
0.0
 41
21.0
 42
21.0
 43
21.0
 50
180.0
  0
INSERT
  5
289
330
282
100
AcDbEntity
  8
Ｓ_１_１
 62
     2
100
AcDbBlockReference
  2
EX_NORM
 10
2348.1927922406
 20
630.0
 30
0.0
 41
21.0
 42
21.0
 43
21.0
  0
MTEXT
  5
28A
330
282
100
AcDbEntity
  8
Ｓ_１_１
 62
     2
100
AcDbMText
 10
2408.5677922406
 20
649.25
 30
0.0
 40
24.24032763153705
 41
0.0
 71
     5
 72
     1
  1
(556)
  7
EXCADDIM1
  0
POINT
  5
28B
330
282
100
AcDbEntity
  8
DEFPOINTS
 62
     0
100
AcDbPoint
 10
1791.8072077594
 20
491.9999999999999
 30
0.0
  0
POINT
  5
28C
330
282
100
AcDbEntity
  8
DEFPOINTS
 62
     0
100
AcDbPoint
 10
2348.1927922406
 20
491.9999999999999
 30
0.0
  0
POINT
  5
28D
330
282
100
AcDbEntity
  8
DEFPOINTS
 62
     0
100
AcDbPoint
 10
2348.1927922406
 20
630.0
 30
0.0
  0
ENDBLK
  5
284
330
282
100
AcDbEntity
  8
0
100
AcDbBlockEnd
  0
ENDSEC
  0
SECTION
  2
ENTITIES
  0
LINE
  5
DA
330
1F
100
AcDbEntity
  8
図面枠
  6
CONTINUOUS
 62
     5
100
AcDbLine
 10
70.0
 20
70.0
 30
0.0
 11
2870.0
 21
70.0
 31
0.0
  0
LINE
  5
DB
330
1F
100
AcDbEntity
  8
図面枠
  6
CONTINUOUS
 62
     5
100
AcDbLine
 10
2870.0
 20
70.0
 30
0.0
 11
2870.0
 21
2009.0
 31
0.0
  0
LINE
  5
DC
330
1F
100
AcDbEntity
  8
図面枠
  6
CONTINUOUS
 62
     5
100
AcDbLine
 10
2870.0
 20
2009.0
 30
0.0
 11
70.00000000000037
 21
2009.0
 31
0.0
  0
LINE
  5
DD
330
1F
100
AcDbEntity
  8
図面枠
  6
CONTINUOUS
 62
     5
100
AcDbLine
 10
70.00000000000037
 20
2009.0
 30
0.0
 11
70.0
 21
70.0
 31
0.0
  0
LINE
  5
DE
330
1F
100
AcDbEntity
  8
図面枠
  6
CONTINUOUS
 62
     3
100
AcDbLine
 10
2835.0
 20
168.0
 30
0.0
 11
2835.0
 21
105.0
 31
0.0
  0
LINE
  5
DF
330
1F
100
AcDbEntity
  8
図面枠
  6
CONTINUOUS
 62
     3
100
AcDbLine
 10
105.0000000000001
 20
1974.0
 30
0.0
 11
105.0000000000001
 21
1911.0
 31
0.0
  0
TEXT
  5
E1
330
1F
100
AcDbEntity
  8
図面枠
  6
CONTINUOUS
 62
     4
100
AcDbText
 10
2709.0
 20
1899.679688185453
 30
0.0
 40
24.24032763153705
  1
kN
 41
0.9992308297349457
  7
EXCADTTF1
 72
     5
 11
2740.5
 21
1899.679688185453
 31
0.0
100
AcDbText
  0
TEXT
  5
E2
330
1F
100
AcDbEntity
  8
図面枠
  6
CONTINUOUS
 62
     4
100
AcDbText
 10
2289.0
 20
1899.679688185453
 30
0.0
 40
24.24032763153705
  1
能力
 41
0.9992308297349457
  7
EXCADTTF1
 72
     5
 11
2352.0
 21
1899.679688185453
 31
0.0
100
AcDbText
  0
TEXT
  5
E3
330
1F
100
AcDbEntity
  8
図面枠
  6
CONTINUOUS
 62
     4
100
AcDbText
 10
2476.25
 20
1941.679688185453
 30
0.0
 40
24.24032763153705
  1
仕　　　様
 41
0.9992308297349457
  7
EXCADTTF1
 72
     5
 11
2633.75
 21
1941.679688185453
 31
0.0
100
AcDbText
  0
LINE
  5
E4
330
1F
100
AcDbEntity
  8
図面枠
  6
CONTINUOUS
 62
     3
100
AcDbLine
 10
2275.0
 20
1974.0
 30
0.0
 11
2835.0
 21
1974.0
 31
0.0
  0
LINE
  5
E5
330
1F
100
AcDbEntity
  8
図面枠
  6
CONTINUOUS
 62
     3
100
AcDbLine
 10
2275.0
 20
1932.0
 30
0.0
 11
2835.0
 21
1932.0
 31
0.0
  0
TEXT
  5
E6
330
1F
100
AcDbEntity
  8
図面枠
  6
CONTINUOUS
 62
     4
100
AcDbText
 10
2709.0
 20
1857.679688185453
 30
0.0
 40
24.24032763153705
  1
mm
 41
0.9992308297349457
  7
EXCADTTF1
 72
     5
 11
2740.5
 21
1857.679688185453
 31
0.0
100
AcDbText
  0
TEXT
  5
E7
330
1F
100
AcDbEntity
  8
図面枠
  6
CONTINUOUS
 62
     4
100
AcDbText
 10
2709.0
 20
1815.679688185453
 30
0.0
 40
24.24032763153705
  1
mm
 41
0.9992308297349457
  7
EXCADTTF1
 72
     5
 11
2740.5
 21
1815.679688185453
 31
0.0
100
AcDbText
  0
TEXT
  5
E8
330
1F
100
AcDbEntity
  8
図面枠
  6
CONTINUOUS
 62
     4
100
AcDbText
 10
2709.0
 20
1773.679688185453
 30
0.0
 40
24.24032763153705
  1
mm
 41
0.9992308297349457
  7
EXCADTTF1
 72
     5
 11
2740.5
 21
1773.679688185453
 31
0.0
100
AcDbText
  0
TEXT
  5
E9
330
1F
100
AcDbEntity
  8
図面枠
  6
CONTINUOUS
 62
     4
100
AcDbText
 10
2289.0
 20
1857.679688185453
 30
0.0
 40
24.24032763153705
  1
ストローク
 41
0.9992308297349457
  7
EXCADTTF1
 72
     5
 11
2446.5
 21
1857.679688185453
 31
0.0
100
AcDbText
  0
TEXT
  5
EA
330
1F
100
AcDbEntity
  8
図面枠
  6
CONTINUOUS
 62
     4
100
AcDbText
 10
2289.0
 20
1815.679688185453
 30
0.0
 40
24.24032763153705
  1
最低機械高
 41
0.9992308297349457
  7
EXCADTTF1
 72
     5
 11
2446.5
 21
1815.679688185453
 31
0.0
100
AcDbText
  0
TEXT
  5
EB
330
1F
100
AcDbEntity
  8
図面枠
  6
CONTINUOUS
 62
     4
100
AcDbText
 10
2289.0
 20
1773.679688185453
 30
0.0
 40
24.24032763153705
  1
シリンダー外径
 41
0.9992308297349456
  7
EXCADTTF1
 72
     5
 11
2509.5
 21
1773.679688185453
 31
0.0
100
AcDbText
  0
LINE
  5
EC
330
1F
100
AcDbEntity
  8
図面枠
  6
CONTINUOUS
 62
     2
100
AcDbLine
 10
2275.0
 20
1890.0
 30
0.0
 11
2835.0
 21
1890.0
 31
0.0
  0
LINE
  5
ED
330
1F
100
AcDbEntity
  8
図面枠
  6
CONTINUOUS
 62
     2
100
AcDbLine
 10
2275.0
 20
1848.0
 30
0.0
 11
2835.0
 21
1848.0
 31
0.0
  0
LINE
  5
EE
330
1F
100
AcDbEntity
  8
図面枠
  6
CONTINUOUS
 62
     2
100
AcDbLine
 10
2275.0
 20
1806.0
 30
0.0
 11
2835.0
 21
1806.0
 31
0.0
  0
LINE
  5
EF
330
1F
100
AcDbEntity
  8
図面枠
  6
CONTINUOUS
 62
     2
100
AcDbLine
 10
2275.0
 20
1764.0
 30
0.0
 11
2835.0
 21
1764.0
 31
0.0
  0
TEXT
  5
F0
330
1F
100
AcDbEntity
  8
図面枠
  6
CONTINUOUS
 62
     4
100
AcDbText
 10
2709.0
 20
1731.679687231779
 30
0.0
 40
24.24032763153705
  1
cm
 41
0.9992308297349457
  7
EXCADTTF1
 72
     5
 11
2740.5
 21
1731.679687231779
 31
0.0
100
AcDbText
  0
TEXT
  5
F1
330
1F
100
AcDbEntity
  8
図面枠
  6
CONTINUOUS
 62
     4
100
AcDbText
 10
2731.050000000001
 20
1746.56835950911
 30
0.0
 40
10.90814677369512
  1
2
 41
0.9992308902391421
  7
EXCADTTF1
 72
     5
 11
2738.137500000001
 21
1746.56835950911
 31
0.0
100
AcDbText
  0
LINE
  5
F2
330
1F
100
AcDbEntity
  8
図面枠
  6
CONTINUOUS
 62
     3
100
AcDbLine
 10
1358.0
 20
1974.0
 30
0.0
 11
1358.0
 21
1911.0
 31
0.0
  0
LINE
  5
F3
330
1F
100
AcDbEntity
  8
図面枠
  6
CONTINUOUS
 62
     3
100
AcDbLine
 10
105.0000000000001
 20
1974.0
 30
0.0
 11
1358.0
 21
1974.0
 31
0.0
  0
LINE
  5
F4
330
1F
100
AcDbEntity
  8
図面枠
  6
CONTINUOUS
 62
     3
100
AcDbLine
 10
105.0000000000001
 20
1911.0
 30
0.0
 11
1358.0
 21
1911.0
 31
0.0
  0
TEXT
  5
F5
330
1F
100
AcDbEntity
  8
図面枠
  6
CONTINUOUS
 62
     4
100
AcDbText
 10
2633.75
 20
1773.679688185453
 30
0.0
 40
24.24032763153705
  1
305
 41
0.9992308297349456
  7
EXCADTTF1
 72
     5
 11
2681.0
 21
1773.679688185453
 31
0.0
100
AcDbText
  0
TEXT
  5
F6
330
1F
100
AcDbEntity
  8
図面枠
  6
CONTINUOUS
 62
     4
100
AcDbText
 10
133.0
 20
1927.40625
 30
0.0
 40
32.32043879907621
  1
2500kN200ストローク仮受け用油圧ジャッキ　球面回転ヘッド型
 41
0.999230769230769
  7
EXCADTTF1
 72
     5
 11
1330.0
 21
1927.40625
 31
0.0
100
AcDbText
  0
LINE
  5
F7
330
1F
100
AcDbEntity
  8
図面枠
  6
CONTINUOUS
 62
     3
100
AcDbLine
 10
2583.0
 20
168.0
 30
0.0
 11
2583.0
 21
105.0
 31
0.0
  0
TEXT
  5
F8
330
1F
100
AcDbEntity
  8
図面枠
  6
CONTINUOUS
 62
     4
100
AcDbText
 10
2604.0
 20
121.40625
 30
0.0
 40
32.32043879907621
  1
RJ-25020-A
 41
0.999230769230769
  7
EXCADTTF1
 72
     5
 11
2814.0
 21
121.40625
 31
0.0
100
AcDbText
  0
LINE
  5
F9
330
1F
100
AcDbEntity
  8
図面枠
  6
CONTINUOUS
 62
     3
100
AcDbLine
 10
2583.0
 20
168.0
 30
0.0
 11
2835.0
 21
168.0
 31
0.0
  0
LINE
  5
FA
330
1F
100
AcDbEntity
  8
図面枠
  6
CONTINUOUS
 62
     3
100
AcDbLine
 10
2583.0
 20
105.0
 30
0.0
 11
2835.0
 21
105.0
 31
0.0
  0
TEXT
  5
FB
330
1F
100
AcDbEntity
  8
図面枠
  6
CONTINUOUS
 62
     4
100
AcDbText
 10
2618.0
 20
1899.679688185453
 30
0.0
 40
24.24032763153705
  1
2500
 41
0.9992308297349457
  7
EXCADTTF1
 72
     5
 11
2681.0
 21
1899.679688185453
 31
0.0
100
AcDbText
  0
TEXT
  5
FC
330
1F
100
AcDbEntity
  8
図面枠
  6
CONTINUOUS
 62
     4
100
AcDbText
 10
2633.75
 20
1857.679688185453
 30
0.0
 40
24.24032763153705
  1
200
 41
0.9992308297349456
  7
EXCADTTF1
 72
     5
 11
2681.0
 21
1857.679688185453
 31
0.0
100
AcDbText
  0
TEXT
  5
FD
330
1F
100
AcDbEntity
  8
図面枠
  6
CONTINUOUS
 62
     4
100
AcDbText
 10
2709.0
 20
1689.679688185453
 30
0.0
 40
24.24032763153705
  1
MPa
 41
0.9992308297349456
  7
EXCADTTF1
 72
     5
 11
2756.25
 21
1689.679688185453
 31
0.0
100
AcDbText
  0
TEXT
  5
FE
330
1F
100
AcDbEntity
  8
図面枠
  6
CONTINUOUS
 62
     4
100
AcDbText
 10
2289.0
 20
1731.679688185453
 30
0.0
 40
24.24032763153705
  1
受圧面積
 41
0.9992308297349457
  7
EXCADTTF1
 72
     5
 11
2415.0
 21
1731.679688185453
 31
0.0
100
AcDbText
  0
TEXT
  5
FF
330
1F
100
AcDbEntity
  8
図面枠
  6
CONTINUOUS
 62
     4
100
AcDbText
 10
2289.0
 20
1689.679688185453
 30
0.0
 40
24.24032763153705
  1
最高使用圧力
 41
0.9992308297349456
  7
EXCADTTF1
 72
     5
 11
2478.0
 21
1689.679688185453
 31
0.0
100
AcDbText
  0
LINE
  5
100
330
1F
100
AcDbEntity
  8
図面枠
  6
CONTINUOUS
 62
     2
100
AcDbLine
 10
2275.0
 20
1722.0
 30
0.0
 11
2835.0
 21
1722.0
 31
0.0
  0
TEXT
  5
101
330
1F
100
AcDbEntity
  8
図面枠
  6
CONTINUOUS
 62
     4
100
AcDbText
 10
2709.0
 20
1605.679688185453
 30
0.0
 40
24.24032763153705
  1
kg
 41
0.9992308297349457
  7
EXCADTTF1
 72
     5
 11
2740.5
 21
1605.679688185453
 31
0.0
100
AcDbText
  0
TEXT
  5
102
330
1F
100
AcDbEntity
  8
図面枠
  6
CONTINUOUS
 62
     4
100
AcDbText
 10
2289.0
 20
1647.679688185453
 30
0.0
 40
24.24032763153705
  1
所要油量
 41
0.9992308297349457
  7
EXCADTTF1
 72
     5
 11
2415.0
 21
1647.679688185453
 31
0.0
100
AcDbText
  0
LINE
  5
103
330
1F
100
AcDbEntity
  8
図面枠
  6
CONTINUOUS
 62
     2
100
AcDbLine
 10
2275.0
 20
1680.0
 30
0.0
 11
2835.0
 21
1680.0
 31
0.0
  0
LINE
  5
104
330
1F
100
AcDbEntity
  8
図面枠
  6
CONTINUOUS
 62
     2
100
AcDbLine
 10
2275.0
 20
1638.0
 30
0.0
 11
2835.0
 21
1638.0
 31
0.0
  0
TEXT
  5
105
330
1F
100
AcDbEntity
  8
図面枠
  6
CONTINUOUS
 62
     4
100
AcDbText
 10
2289.0
 20
1605.679688185453
 30
0.0
 40
24.24032763153705
  1
重量
 41
0.9992308297349457
  7
EXCADTTF1
 72
     5
 11
2352.0
 21
1605.679688185453
 31
0.0
100
AcDbText
  0
TEXT
  5
106
330
1F
100
AcDbEntity
  8
図面枠
  6
CONTINUOUS
 62
     4
100
AcDbText
 10
2289.0
 20
1563.679687231779
 30
0.0
 40
24.24032763153705
  1
ユニバーサル
 41
0.9992308297349456
  7
EXCADTTF1
 72
     5
 11
2478.0
 21
1563.679687231779
 31
0.0
100
AcDbText
  0
TEXT
  5
107
330
1F
100
AcDbEntity
  8
図面枠
  6
CONTINUOUS
 62
     4
100
AcDbText
 10
2289.0
 20
1532.179689139128
 30
0.0
 40
24.24032763153705
  1
振り角
 41
0.9992308297349456
  7
EXCADTTF1
 72
     5
 11
2383.5
 21
1532.179689139128
 31
0.0
100
AcDbText
  0
TEXT
  5
108
330
1F
100
AcDbEntity
  8
図面枠
  6
CONTINUOUS
 62
     4
100
AcDbText
 10
2633.75
 20
1563.679688185453
 30
0.0
 40
24.24032763153705
  1
±3
 41
0.9992308297349456
  7
EXCADTTF1
 72
     5
 11
2681.0
 21
1563.679688185453
 31
0.0
100
AcDbText
  0
TEXT
  5
109
330
1F
100
AcDbEntity
  8
図面枠
  6
CONTINUOUS
 62
     4
100
AcDbText
 10
2709.0
 20
1563.679688185453
 30
0.0
 40
24.24032763153705
  1
°
 41
0.9992308297349457
  7
EXCADTTF1
 72
     5
 11
2740.5
 21
1563.679688185453
 31
0.0
100
AcDbText
  0
TEXT
  5
10A
330
1F
100
AcDbEntity
  8
図面枠
  6
CONTINUOUS
 62
     4
100
AcDbText
 10
2709.0
 20
1521.679688185453
 30
0.0
 40
24.24032763153705
  1
%%%
 41
0.9992308297349457
  7
EXCADTTF1
 72
     5
 11
2724.75
 21
1521.679688185453
 31
0.0
100
AcDbText
  0
TEXT
  5
10B
330
1F
100
AcDbEntity
  8
図面枠
  6
CONTINUOUS
 62
     4
100
AcDbText
 10
2633.75
 20
1521.679688185453
 30
0.0
 40
24.24032763153705
  1
±5
 41
0.9992308297349456
  7
EXCADTTF1
 72
     5
 11
2681.0
 21
1521.679688185453
 31
0.0
100
AcDbText
  0
LINE
  5
10C
330
1F
100
AcDbEntity
  8
図面枠
  6
CONTINUOUS
 62
     2
100
AcDbLine
 10
2555.0
 20
1554.0
 30
0.0
 11
2835.0
 21
1554.0
 31
0.0
  0
LINE
  5
10D
330
1F
100
AcDbEntity
  8
図面枠
  6
CONTINUOUS
 62
     3
100
AcDbLine
 10
2275.0
 20
1512.0
 30
0.0
 11
2835.0
 21
1512.0
 31
0.0
  0
LINE
  5
10E
330
1F
100
AcDbEntity
  8
図面枠
  6
CONTINUOUS
 62
     2
100
AcDbLine
 10
2275.0
 20
1596.0
 30
0.0
 11
2835.0
 21
1596.0
 31
0.0
  0
TEXT
  5
10F
330
1F
100
AcDbEntity
  8
図面枠
  6
CONTINUOUS
 62
     4
100
AcDbText
 10
2709.0
 20
1647.679688185453
 30
0.0
 40
24.24032763153705
  1
L
 41
0.9992308297349457
  7
EXCADTTF1
 72
     5
 11
2724.75
 21
1647.679688185453
 31
0.0
100
AcDbText
  0
TEXT
  5
110
330
1F
100
AcDbEntity
  8
図面枠
  6
CONTINUOUS
 62
     4
100
AcDbText
 10
2234.399999999999
 20
1431.729681509729
 30
0.0
 40
24.24032763153705
  1
※）球面回転ヘッドの為、無負荷ジャッキ
 41
0.9992308297349456
  7
EXCADTTF1
 72
     5
 11
2832.899999999999
 21
1431.729681509729
 31
0.0
100
AcDbText
  0
TEXT
  5
111
330
1F
100
AcDbEntity
  8
図面枠
  6
CONTINUOUS
 62
     4
100
AcDbText
 10
2234.399999999999
 20
1400.229683417078
 30
0.0
 40
24.24032763153705
  1
　　作動時にヘッドが急に傾く場合があり
 41
0.9992308297349456
  7
EXCADTTF1
 72
     5
 11
2832.899999999999
 21
1400.229683417078
 31
0.0
100
AcDbText
  0
TEXT
  5
112
330
1F
100
AcDbEntity
  8
図面枠
  6
CONTINUOUS
 62
     4
100
AcDbText
 10
2234.399999999999
 20
1368.729685324427
 30
0.0
 40
24.24032763153705
  1
　　ます。必要に応じて搭載物の転倒防止
 41
0.9992308297349456
  7
EXCADTTF1
 72
     5
 11
2832.899999999999
 21
1368.729685324427
 31
0.0
100
AcDbText
  0
TEXT
  5
113
330
1F
100
AcDbEntity
  8
図面枠
  6
CONTINUOUS
 62
     4
100
AcDbText
 10
2234.399999999999
 20
1337.229687231775
 30
0.0
 40
24.24032763153705
  1
　　を行ってください。
 41
0.9992308297349455
  7
EXCADTTF1
 72
     5
 11
2580.899999999999
 21
1337.229687231775
 31
0.0
100
AcDbText
  0
LINE
  5
114
330
1F
100
AcDbEntity
  8
図面枠
  6
CONTINUOUS
 62
     3
100
AcDbLine
 10
2275.0
 20
1974.0
 30
0.0
 11
2275.0
 21
1512.0
 31
0.0
  0
LINE
  5
115
330
1F
100
AcDbEntity
  8
図面枠
  6
CONTINUOUS
 62
     2
100
AcDbLine
 10
2555.0
 20
1932.0
 30
0.0
 11
2555.0
 21
1512.0
 31
0.0
  0
LINE
  5
116
330
1F
100
AcDbEntity
  8
図面枠
  6
CONTINUOUS
 62
     2
100
AcDbLine
 10
2695.0
 20
1932.0
 30
0.0
 11
2695.0
 21
1512.0
 31
0.0
  0
LINE
  5
117
330
1F
100
AcDbEntity
  8
図面枠
  6
CONTINUOUS
 62
     3
100
AcDbLine
 10
2835.0
 20
1974.0
 30
0.0
 11
2835.0
 21
1512.0
 31
0.0
  0
TEXT
  5
118
330
1F
100
AcDbEntity
  8
図面枠
  6
CONTINUOUS
 62
     4
100
AcDbText
 10
2633.75
 20
1731.679688185453
 30
0.0
 40
24.24032763153705
  1
378
 41
0.9992308297349456
  7
EXCADTTF1
 72
     5
 11
2681.0
 21
1731.679688185453
 31
0.0
100
AcDbText
  0
TEXT
  5
119
330
1F
100
AcDbEntity
  8
図面枠
  6
CONTINUOUS
 62
     4
100
AcDbText
 10
2633.75
 20
1647.679688185453
 30
0.0
 40
24.24032763153705
  1
7.6
 41
0.9992308297349456
  7
EXCADTTF1
 72
     5
 11
2681.0
 21
1647.679688185453
 31
0.0
100
AcDbText
  0
TEXT
  5
11A
330
1F
100
AcDbEntity
  8
図面枠
  6
CONTINUOUS
 62
     4
100
AcDbText
 10
2618.0
 20
1689.679688185453
 30
0.0
 40
24.24032763153705
  1
66.2
 41
0.9992308297349457
  7
EXCADTTF1
 72
     5
 11
2681.0
 21
1689.679688185453
 31
0.0
100
AcDbText
  0
TEXT
  5
11B
330
1F
100
AcDbEntity
  8
図面枠
  6
CONTINUOUS
 62
     4
100
AcDbText
 10
2602.25
 20
1605.679688185453
 30
0.0
 40
24.24032763153705
  1
約409
 41
0.9992308297349457
  7
EXCADTTF1
 72
     5
 11
2681.0
 21
1605.679688185453
 31
0.0
100
AcDbText
  0
TEXT
  5
11C
330
1F
100
AcDbEntity
  8
図面枠
  6
CONTINUOUS
 62
     4
100
AcDbText
 10
2633.75
 20
1815.679688185453
 30
0.0
 40
24.24032763153705
  1
567
 41
0.9992308297349456
  7
EXCADTTF1
 72
     5
 11
2681.0
 21
1815.679688185453
 31
0.0
100
AcDbText
  0
TEXT
  5
11D
330
1F
100
AcDbEntity
  8
Ｓ_１_１
  6
CONTINUOUS
 62
     4
100
AcDbText
 10
1424.2
 20
463.5832911114891
 30
0.0
 40
24.24032763153705
  1
安定架台
 41
0.9992308297349457
  7
EXCADTTF1
 72
     5
 11
1550.2
 21
463.5832911114891
 31
0.0
100
AcDbText
  0
LEADER
  5
11E
330
1F
100
AcDbEntity
  8
Ｓ_１_１
  6
CONTINUOUS
 62
     2
100
AcDbLeader
  3
ISO-25
 76
     3
 10
1313.1927922406
 20
374.50000000002
 30
0.0
 10
1394.3463961203
 20
455.65360387971
 30
0.0
 10
1550.2
 20
455.65360387971
 30
0.0
1001
ACAD
1000
DSTYLE
1002
{
1070
     5
1000
EX_NORM
1070
    41
1040
21.0
1070
   341
1005
7E
1002
}
  0
DIMENSION
  5
120
330
1F
100
AcDbEntity
  8
Ｓ_１_１
  6
CONTINUOUS
 62
     2
100
AcDbDimension
  2
*D15
 10
630.0
 20
224.9999999999999
 30
0.0
 11
610.75
 21
188.2499999999997
 31
0.0
 70
   160
  3
ISO-25
100
AcDbAlignedDimension
 13
735.0000000000019
 23
257.0000000000008
 33
0.0
 14
735.0000000000019
 24
224.9999999999998
 34
0.0
 50
90.0
100
AcDbRotatedDimension
1001
ACAD
1000
DSTYLE
1002
{
1070
   270
1070
     2
1070
     6
1000
EX_NORM
1070
     7
1000
EX_NORM
1070
    41
1040
21.0
1070
    42
1040
10.5
1070
    44
1040
7.0
1070
    73
1070
     0
1070
    74
1070
     0
1070
    75
1070
     0
1070
    76
1070
     0
1070
    77
1070
     1
1070
    78
1070
     8
1070
   140
1040
24.24032763153705
1070
   147
1040
0.0
1070
   173
1070
     1
1070
   176
1070
     2
1070
   177
1070
     2
1070
   178
1070
     2
1070
   271
1070
     2
1070
   277
1070
     2
1070
   279
1070
     2
1070
   280
1070
     2
1070
   287
1070
     5
1070
   340
1005
11F
1002
}
  0
DIMENSION
  5
130
330
1F
100
AcDbEntity
  8
Ｓ_１_１
  6
CONTINUOUS
 62
     2
100
AcDbDimension
  2
*D16
 10
630.0
 20
517.0
 30
0.0
 11
610.75
 21
386.9999999999999
 31
0.0
 70
   160
  3
ISO-25
100
AcDbAlignedDimension
 13
735.0
 23
257.0
 33
0.0
 14
862.2
 24
517.0
 34
0.0
 50
90.0
100
AcDbRotatedDimension
1001
ACAD
1000
DSTYLE
1002
{
1070
   270
1070
     2
1070
     6
1000
EX_NORM
1070
     7
1000
EX_NORM
1070
    41
1040
21.0
1070
    42
1040
10.5
1070
    44
1040
7.0
1070
    73
1070
     0
1070
    74
1070
     0
1070
    75
1070
     0
1070
    76
1070
     0
1070
    77
1070
     1
1070
    78
1070
     8
1070
   140
1040
24.24032763153705
1070
   147
1040
0.0
1070
   173
1070
     1
1070
   176
1070
     2
1070
   177
1070
     2
1070
   178
1070
     2
1070
   271
1070
     2
1070
   277
1070
     2
1070
   279
1070
     2
1070
   280
1070
     0
1070
   287
1070
     5
1070
   340
1005
11F
1002
}
  0
DIMENSION
  5
13D
330
1F
100
AcDbEntity
  8
Ｓ_１_１
  6
CONTINUOUS
 62
     2
100
AcDbDimension
  2
*D17
 10
630.0
 20
791.99999200125
 30
0.0
 11
610.75
 21
654.4999960006251
 31
0.0
 70
   160
  3
ISO-25
100
AcDbAlignedDimension
 13
862.2
 23
517.0
 33
0.0
 14
909.0000000000001
 24
791.99999200125
 34
0.0
 50
90.0
100
AcDbRotatedDimension
1001
ACAD
1000
DSTYLE
1002
{
1070
   270
1070
     2
1070
     6
1000
EX_NORM
1070
     7
1000
EX_NORM
1070
    41
1040
21.0
1070
    42
1040
10.5
1070
    44
1040
7.0
1070
    73
1070
     0
1070
    74
1070
     0
1070
    75
1070
     0
1070
    76
1070
     0
1070
    77
1070
     1
1070
    78
1070
     8
1070
   140
1040
24.24032763153705
1070
   147
1040
0.0
1070
   173
1070
     1
1070
   176
1070
     2
1070
   177
1070
     2
1070
   178
1070
     2
1070
   271
1070
     2
1070
   277
1070
     2
1070
   279
1070
     2
1070
   280
1070
     0
1070
   287
1070
     5
1070
   340
1005
11F
1002
}
  0
DIMENSION
  5
14A
330
1F
100
AcDbEntity
  8
Ｓ_１_１
  6
CONTINUOUS
 62
     2
100
AcDbDimension
  2
*D18
 10
585.0
 20
791.99999200125
 30
0.0
 11
565.75
 21
508.4999960006251
 31
0.0
 70
   160
  3
ISO-25
100
AcDbAlignedDimension
 13
735.0
 23
225.0
 33
0.0
 14
909.0000000000001
 24
791.99999200125
 34
0.0
 50
90.0
100
AcDbRotatedDimension
1001
ACAD
1000
DSTYLE
1002
{
1070
   270
1070
     2
1070
     6
1000
EX_NORM
1070
     7
1000
EX_NORM
1070
    41
1040
21.0
1070
    42
1040
10.5
1070
    44
1040
7.0
1070
    73
1070
     0
1070
    74
1070
     0
1070
    75
1070
     0
1070
    76
1070
     0
1070
    77
1070
     1
1070
    78
1070
     8
1070
   140
1040
24.24032763153705
1070
   147
1040
0.0
1070
   173
1070
     1
1070
   176
1070
     2
1070
   177
1070
     2
1070
   178
1070
     2
1070
   271
1070
     2
1070
   277
1070
     2
1070
   279
1070
     2
1070
   280
1070
     0
1070
   287
1070
     5
1070
   340
1005
11F
1002
}
  0
DIMENSION
  5
157
330
1F
100
AcDbEntity
  8
Ｓ_１_１
  6
CONTINUOUS
 62
     2
100
AcDbDimension
  2
*D19
 10
1162.999999999997
 20
899.9999999999999
 30
0.0
 11
1034.999999999998
 21
919.2499999999999
 31
0.0
 70
   160
  1
%%c256
  3
ISO-25
100
AcDbAlignedDimension
 13
906.9999999999999
 23
789.99999200125
 33
0.0
 14
1162.999999999997
 24
789.99999200125
 34
0.0
100
AcDbRotatedDimension
1001
ACAD
1000
DSTYLE
1002
{
1070
   270
1070
     2
1070
     6
1000
EX_NORM
1070
     7
1000
EX_NORM
1070
    41
1040
21.0
1070
    42
1040
10.5
1070
    44
1040
7.0
1070
    73
1070
     0
1070
    74
1070
     0
1070
    75
1070
     0
1070
    76
1070
     0
1070
    77
1070
     1
1070
    78
1070
     8
1070
   140
1040
24.24032763153705
1070
   147
1040
0.0
1070
   173
1070
     1
1070
   176
1070
     2
1070
   177
1070
     2
1070
   178
1070
     2
1070
   271
1070
     2
1070
   277
1070
     2
1070
   279
1070
     2
1070
   280
1070
     0
1070
   287
1070
     5
1070
   340
1005
11F
1002
}
  0
DIMENSION
  5
164
330
1F
100
AcDbEntity
  8
Ｓ_１_１
  6
CONTINUOUS
 62
     2
100
AcDbDimension
  2
*D20
 10
630.0
 20
1305.0
 30
0.0
 11
610.7500000000001
 21
1180.0
 31
0.0
 70
   160
  3
ISO-25
100
AcDbAlignedDimension
 13
760.799988
 23
1055.0
 33
0.0
 14
717.599988
 24
1305.0
 34
0.0
 50
90.0
100
AcDbRotatedDimension
1001
ACAD
1000
DSTYLE
1002
{
1070
   270
1070
     2
1070
     6
1000
EX_NORM
1070
     7
1000
EX_NORM
1070
    41
1040
21.0
1070
    42
1040
10.5
1070
    44
1040
7.0
1070
    73
1070
     0
1070
    74
1070
     0
1070
    75
1070
     0
1070
    76
1070
     0
1070
    77
1070
     1
1070
    78
1070
     8
1070
   140
1040
24.24032763153705
1070
   147
1040
0.0
1070
   173
1070
     1
1070
   176
1070
     2
1070
   177
1070
     2
1070
   178
1070
     2
1070
   271
1070
     2
1070
   277
1070
     2
1070
   279
1070
     2
1070
   280
1070
     0
1070
   287
1070
     5
1070
   340
1005
11F
1002
}
  0
DIMENSION
  5
171
330
1F
100
AcDbEntity
  8
Ｓ_１_１
  6
CONTINUOUS
 62
     2
100
AcDbDimension
  2
*D21
 10
630.0
 20
1555.0
 30
0.0
 11
610.7500000000001
 21
1430.0
 31
0.0
 70
   160
  3
ISO-25
100
AcDbAlignedDimension
 13
717.599988
 23
1305.0
 33
0.0
 14
760.799988
 24
1555.0
 34
0.0
 50
90.0
100
AcDbRotatedDimension
1001
ACAD
1000
DSTYLE
1002
{
1070
   270
1070
     2
1070
     6
1000
EX_NORM
1070
     7
1000
EX_NORM
1070
    41
1040
21.0
1070
    42
1040
10.5
1070
    44
1040
7.0
1070
    73
1070
     0
1070
    74
1070
     0
1070
    75
1070
     0
1070
    76
1070
     0
1070
    77
1070
     1
1070
    78
1070
     8
1070
   140
1040
24.24032763153705
1070
   147
1040
0.0
1070
   173
1070
     1
1070
   176
1070
     2
1070
   177
1070
     2
1070
   178
1070
     2
1070
   271
1070
     2
1070
   277
1070
     2
1070
   279
1070
     2
1070
   280
1070
     0
1070
   287
1070
     5
1070
   340
1005
11F
1002
}
  0
DIMENSION
  5
17E
330
1F
100
AcDbEntity
  8
Ｓ_１_１
  6
CONTINUOUS
 62
     2
100
AcDbDimension
  2
*D22
 10
585.0
 20
1605.0
 30
0.0
 11
565.7500000000001
 21
1305.0
 31
0.0
 70
   160
  3
ISO-25
100
AcDbAlignedDimension
 13
755.0
 23
1005.0
 33
0.0
 14
755.0
 24
1605.0
 34
0.0
 50
90.0
100
AcDbRotatedDimension
1001
ACAD
1000
DSTYLE
1002
{
1070
   270
1070
     2
1070
     6
1000
EX_NORM
1070
     7
1000
EX_NORM
1070
    41
1040
21.0
1070
    42
1040
10.5
1070
    44
1040
7.0
1070
    73
1070
     0
1070
    74
1070
     0
1070
    75
1070
     0
1070
    76
1070
     0
1070
    77
1070
     1
1070
    78
1070
     8
1070
   140
1040
24.24032763153705
1070
   147
1040
0.0
1070
   173
1070
     1
1070
   176
1070
     2
1070
   177
1070
     2
1070
   178
1070
     2
1070
   271
1070
     2
1070
   277
1070
     2
1070
   279
1070
     2
1070
   280
1070
     0
1070
   287
1070
     5
1070
   340
1005
11F
1002
}
  0
DIMENSION
  5
18B
330
1F
100
AcDbEntity
  8
Ｓ_１_１
  6
CONTINUOUS
 62
     2
100
AcDbDimension
  2
*D23
 10
1035.0
 20
1710.0
 30
0.0
 11
910.0000000000002
 21
1729.25
 31
0.0
 70
   160
  3
ISO-25
100
AcDbAlignedDimension
 13
785.0
 23
1579.4
 33
0.0
 14
1035.0
 24
1624.2
 34
0.0
100
AcDbRotatedDimension
1001
ACAD
1000
DSTYLE
1002
{
1070
   270
1070
     2
1070
     6
1000
EX_NORM
1070
     7
1000
EX_NORM
1070
    41
1040
21.0
1070
    42
1040
10.5
1070
    44
1040
7.0
1070
    73
1070
     0
1070
    74
1070
     0
1070
    75
1070
     0
1070
    76
1070
     0
1070
    77
1070
     1
1070
    78
1070
     8
1070
   140
1040
24.24032763153705
1070
   147
1040
0.0
1070
   173
1070
     1
1070
   176
1070
     2
1070
   177
1070
     2
1070
   178
1070
     2
1070
   271
1070
     2
1070
   277
1070
     2
1070
   279
1070
     2
1070
   280
1070
     0
1070
   287
1070
     5
1070
   340
1005
11F
1002
}
  0
DIMENSION
  5
198
330
1F
100
AcDbEntity
  8
Ｓ_１_１
  6
CONTINUOUS
 62
     2
100
AcDbDimension
  2
*D24
 10
1285.0
 20
1710.0
 30
0.0
 11
1160.0
 21
1729.25
 31
0.0
 70
   160
  3
ISO-25
100
AcDbAlignedDimension
 13
1035.0
 23
1624.2
 33
0.0
 14
1285.0
 24
1579.4
 34
0.0
100
AcDbRotatedDimension
1001
ACAD
1000
DSTYLE
1002
{
1070
   270
1070
     2
1070
     6
1000
EX_NORM
1070
     7
1000
EX_NORM
1070
    41
1040
21.0
1070
    42
1040
10.5
1070
    44
1040
7.0
1070
    73
1070
     0
1070
    74
1070
     0
1070
    75
1070
     0
1070
    76
1070
     0
1070
    77
1070
     1
1070
    78
1070
     8
1070
   140
1040
24.24032763153705
1070
   147
1040
0.0
1070
   173
1070
     1
1070
   176
1070
     2
1070
   177
1070
     2
1070
   178
1070
     2
1070
   271
1070
     2
1070
   277
1070
     2
1070
   279
1070
     2
1070
   280
1070
     0
1070
   287
1070
     5
1070
   340
1005
11F
1002
}
  0
DIMENSION
  5
1A5
330
1F
100
AcDbEntity
  8
Ｓ_１_１
  6
CONTINUOUS
 62
     2
100
AcDbDimension
  2
*D25
 10
1335.0
 20
1755.0
 30
0.0
 11
1035.0
 21
1774.25
 31
0.0
 70
   160
  3
ISO-25
100
AcDbAlignedDimension
 13
735.0
 23
1585.0
 33
0.0
 14
1335.0
 24
1585.0
 34
0.0
100
AcDbRotatedDimension
1001
ACAD
1000
DSTYLE
1002
{
1070
   270
1070
     2
1070
     6
1000
EX_NORM
1070
     7
1000
EX_NORM
1070
    41
1040
21.0
1070
    42
1040
10.5
1070
    44
1040
7.0
1070
    73
1070
     0
1070
    74
1070
     0
1070
    75
1070
     0
1070
    76
1070
     0
1070
    77
1070
     1
1070
    78
1070
     8
1070
   140
1040
24.24032763153705
1070
   147
1040
0.0
1070
   173
1070
     1
1070
   176
1070
     2
1070
   177
1070
     2
1070
   178
1070
     2
1070
   271
1070
     2
1070
   277
1070
     2
1070
   279
1070
     2
1070
   280
1070
     0
1070
   287
1070
     5
1070
   340
1005
11F
1002
}
  0
LINE
  5
1B2
330
1F
100
AcDbEntity
  8
Ｓ_１_１
  6
CONTINUOUS
 62
     3
100
AcDbLine
 10
1770.000000000001
 20
256.9999999999999
 30
0.0
 11
1770.000000000001
 21
224.9999999999998
 31
0.0
  0
LINE
  5
1B3
330
1F
100
AcDbEntity
  8
Ｓ_１_１
  6
CONTINUOUS
 62
     3
100
AcDbLine
 10
2370.000000000001
 20
256.9999999999999
 30
0.0
 11
2370.000000000001
 21
224.9999999999998
 31
0.0
  0
LINE
  5
1B4
330
1F
100
AcDbEntity
  8
Ｓ_１_１
  6
CONTINUOUS
 62
     3
100
AcDbLine
 10
1770.000000000001
 20
224.9999999999998
 30
0.0
 11
2370.000000000001
 21
224.9999999999998
 31
0.0
  0
LINE
  5
1B5
330
1F
100
AcDbEntity
  8
Ｓ_１_１
  6
CONTINUOUS
 62
     3
100
AcDbLine
 10
1790.000000000001
 20
256.9999999999999
 30
0.0
 11
1790.000000000001
 21
224.9999999999998
 31
0.0
  0
LINE
  5
1B6
330
1F
100
AcDbEntity
  8
Ｓ_１_１
  6
CONTINUOUS
 62
     3
100
AcDbLine
 10
2350.000000000001
 20
257.0000000000003
 30
0.0
 11
2350.000000000001
 21
225.0000000000003
 31
0.0
  0
ELLIPSE
  5
1B7
330
1F
100
AcDbEntity
  8
Ｓ_１_１
  6
CONTINUOUS
 62
     3
100
AcDbEllipse
 10
1978.735247395901
 20
302.0000000000003
 30
0.0
 11
-3.673940397442059E-15
 21
-20.0
 31
0.0
210
0.0
220
0.0
230
1.0
 40
0.3826834323650019
 41
0.0
 42
6.283185307179586
  0
ELLIPSE
  5
1B8
330
1F
100
AcDbEntity
  8
Ｓ_１_１
  6
CONTINUOUS
 62
     3
100
AcDbEllipse
 10
1834.885323977701
 20
302.0000000000003
 30
0.0
 11
-3.673940397442059E-15
 21
-20.0
 31
0.0
210
0.0
220
0.0
230
1.0
 40
0.92387953251
 41
0.0
 42
6.283185307179586
  0
ELLIPSE
  5
1B9
330
1F
100
AcDbEntity
  8
Ｓ_１_１
  6
CONTINUOUS
 62
     3
100
AcDbEllipse
 10
1828.762389059802
 20
302.0000000000003
 30
0.0
 11
-3.673940397442059E-15
 21
-20.0
 31
0.0
210
0.0
220
0.0
230
1.0
 40
0.92387953251
 41
0.1664530020077898
 42
2.975139651581993
  0
LINE
  5
1BA
330
1F
100
AcDbEntity
  8
Ｓ_１_１
  6
CONTINUOUS
 62
     3
100
AcDbLine
 10
1770.000000000001
 20
256.9999999999999
 30
0.0
 11
2370.000000000001
 21
256.9999999999999
 31
0.0
  0
LINE
  5
1BB
330
1F
100
AcDbEntity
  8
Ｓ_１_１
  6
CONTINUOUS
 62
     3
100
AcDbLine
 10
1890.318095928401
 20
257.0000000000003
 30
0.0
 11
1908.795686578601
 21
277.0000000000003
 31
0.0
  0
LINE
  5
1BC
330
1F
100
AcDbEntity
  8
Ｓ_１_１
  6
CONTINUOUS
 62
     3
100
AcDbLine
 10
2001.6962533378
 20
257.0000000000003
 30
0.0
 11
2009.349921985101
 21
277.0000000000003
 31
0.0
  0
ELLIPSE
  5
1BD
330
1F
100
AcDbEntity
  8
Ｓ_１_１
  6
CONTINUOUS
 62
     3
100
AcDbEllipse
 10
2161.264752604101
 20
302.0000000000003
 30
0.0
 11
-3.673940397442059E-15
 21
-20.0
 31
0.0
210
0.0
220
0.0
230
1.0
 40
0.3826834323650019
 41
0.0
 42
6.283185307179586
  0
ELLIPSE
  5
1BE
330
1F
100
AcDbEntity
  8
Ｓ_１_１
  6
CONTINUOUS
 62
     3
100
AcDbEllipse
 10
2305.114676022301
 20
302.0000000000003
 30
0.0
 11
-3.673940397442059E-15
 21
-20.0
 31
0.0
210
0.0
220
0.0
230
1.0
 40
0.92387953251
 41
0.0
 42
6.283185307179586
  0
ELLIPSE
  5
1BF
330
1F
100
AcDbEntity
  8
Ｓ_１_１
  6
CONTINUOUS
 62
     3
100
AcDbEllipse
 10
2311.237610940202
 20
302.0000000000003
 30
0.0
 11
-3.673940397442059E-15
 21
-20.0
 31
0.0
210
0.0
220
0.0
230
1.0
 40
0.92387953251
 41
3.308045655597594
 42
6.116732305171797
  0
LINE
  5
1C0
330
1F
100
AcDbEntity
  8
Ｓ_１_１
  6
CONTINUOUS
 62
     3
100
AcDbLine
 10
2249.681904071601
 20
257.0000000000003
 30
0.0
 11
2231.204313421401
 21
277.0000000000003
 31
0.0
  0
LINE
  5
1C1
330
1F
100
AcDbEntity
  8
Ｓ_１_１
  6
CONTINUOUS
 62
     3
100
AcDbLine
 10
2138.303746662202
 20
257.0000000000003
 30
0.0
 11
2130.650078014901
 21
277.0000000000003
 31
0.0
  0
ARC
  5
1C2
330
1F
100
AcDbEntity
  8
Ｓ_１_１
  6
CONTINUOUS
 62
     3
100
AcDbCircle
 10
2070.000000000001
 20
319.9999910000005
 30
0.0
 40
40.0
100
AcDbArc
 50
0.0
 51
180.0000000000004
  0
LINE
  5
1C3
330
1F
100
AcDbEntity
  8
Ｓ_１_１
  6
CONTINUOUS
 62
     3
100
AcDbLine
 10
2110.000000000001
 20
319.9999910000005
 30
0.0
 11
2110.000000000001
 21
256.9999999999999
 31
0.0
  0
LINE
  5
1C4
330
1F
100
AcDbEntity
  8
Ｓ_１_１
  6
CONTINUOUS
 62
     3
100
AcDbLine
 10
2030.000000000001
 20
319.9999910000005
 30
0.0
 11
2030.000000000001
 21
256.9999999999999
 31
0.0
  0
LINE
  5
1C5
330
1F
100
AcDbEntity
  8
Ｓ_１_１
  6
CONTINUOUS
 62
     3
100
AcDbLine
 10
1897.2
 20
516.9999999999999
 30
0.0
 11
1892.2
 21
511.9999999999999
 31
0.0
  0
LINE
  5
1C6
330
1F
100
AcDbEntity
  8
Ｓ_１_１
  6
CONTINUOUS
 62
     3
100
AcDbLine
 10
2242.8
 20
516.9999999999999
 30
0.0
 11
1897.2
 21
516.9999999999999
 31
0.0
  0
LINE
  5
1C7
330
1F
100
AcDbEntity
  8
Ｓ_１_１
  6
CONTINUOUS
 62
     3
100
AcDbLine
 10
2242.8
 20
516.9999999999999
 30
0.0
 11
2247.8
 21
511.9999999999999
 31
0.0
  0
LINE
  5
1C8
330
1F
100
AcDbEntity
  8
Ｓ_１_１
  6
CONTINUOUS
 62
     3
100
AcDbLine
 10
1892.200000000002
 20
512.0000000000003
 30
0.0
 11
2247.8
 21
512.0000000000003
 31
0.0
  0
LINE
  5
1C9
330
1F
100
AcDbEntity
  8
Ｓ_１_１
  6
CONTINUOUS
 62
     3
100
AcDbLine
 10
1948.645837581101
 20
492.0000000000003
 30
0.0
 11
1963.427910101301
 21
492.0000000000003
 31
0.0
  0
LINE
  5
1CA
330
1F
100
AcDbEntity
  8
Ｓ_１_１
  6
CONTINUOUS
 62
     3
100
AcDbLine
 10
1791.807207759402
 20
492.0000000000003
 30
0.0
 11
1797.930142677201
 21
492.0000000000003
 31
0.0
  0
LINE
  5
1CB
330
1F
100
AcDbEntity
  8
Ｓ_１_１
  6
CONTINUOUS
 62
     3
100
AcDbLine
 10
1797.930142677201
 20
492.0000000000003
 30
0.0
 11
1807.168938002301
 21
502.0000000000004
 31
0.0
  0
LINE
  5
1CC
330
1F
100
AcDbEntity
  8
Ｓ_１_１
  6
CONTINUOUS
 62
     3
100
AcDbLine
 10
1791.807207759402
 20
492.0000000000003
 30
0.0
 11
1801.046003084502
 21
502.0000000000004
 31
0.0
  0
LINE
  5
1CD
330
1F
100
AcDbEntity
  8
Ｓ_１_１
  6
CONTINUOUS
 62
     3
100
AcDbLine
 10
1908.795686578601
 20
502.0000000000004
 30
0.0
 11
1801.046003084502
 21
502.0000000000004
 31
0.0
  0
LINE
  5
1CE
330
1F
100
AcDbEntity
  8
Ｓ_１_１
  6
CONTINUOUS
 62
     3
100
AcDbLine
 10
1892.2
 20
511.9999999999999
 30
0.0
 11
1892.2
 21
502.0000000000004
 31
0.0
  0
LINE
  5
1CF
330
1F
100
AcDbEntity
  8
Ｓ_１_１
  6
CONTINUOUS
 62
     3
100
AcDbLine
 10
1963.427910101301
 20
492.0000000000003
 30
0.0
 11
1967.254744424901
 21
502.0000000000004
 31
0.0
  0
LINE
  5
1D0
330
1F
100
AcDbEntity
  8
Ｓ_１_１
  6
CONTINUOUS
 62
     3
100
AcDbLine
 10
1948.645837581101
 20
492.0000000000003
 30
0.0
 11
1952.472671904701
 21
502.0000000000004
 31
0.0
  0
LINE
  5
1D1
330
1F
100
AcDbEntity
  8
Ｓ_１_１
  6
CONTINUOUS
 62
     3
100
AcDbLine
 10
1952.472671904701
 20
502.0000000000004
 30
0.0
 11
2009.349921985101
 21
502.0000000000004
 31
0.0
  0
ELLIPSE
  5
1D2
330
1F
100
AcDbEntity
  8
Ｓ_１_１
  6
CONTINUOUS
 62
     3
100
AcDbEllipse
 10
1978.735247395901
 20
462.0000000000003
 30
0.0
 11
-3.673940397442059E-15
 21
-20.0
 31
0.0
210
0.0
220
0.0
230
1.0
 40
0.3826834323650019
 41
0.0
 42
6.283185307179586
  0
ELLIPSE
  5
1D3
330
1F
100
AcDbEntity
  8
Ｓ_１_１
  6
CONTINUOUS
 62
     3
100
AcDbEllipse
 10
1834.885323977701
 20
462.0000000000003
 30
0.0
 11
-3.673940397442059E-15
 21
-20.0
 31
0.0
210
0.0
220
0.0
230
1.0
 40
0.92387953251
 41
0.0
 42
6.283185307179586
  0
ELLIPSE
  5
1D4
330
1F
100
AcDbEntity
  8
Ｓ_１_１
  6
CONTINUOUS
 62
     3
100
AcDbEllipse
 10
1828.762389059802
 20
462.0000000000003
 30
0.0
 11
-3.673940397442059E-15
 21
-20.0
 31
0.0
210
0.0
220
0.0
230
1.0
 40
0.92387953251
 41
0.1664530020077898
 42
2.975139651581993
  0
LINE
  5
1D5
330
1F
100
AcDbEntity
  8
Ｓ_１_１
  6
CONTINUOUS
 62
     3
100
AcDbLine
 10
2191.354162418901
 20
492.0000000000003
 30
0.0
 11
2176.572089898701
 21
492.0000000000003
 31
0.0
  0
LINE
  5
1D6
330
1F
100
AcDbEntity
  8
Ｓ_１_１
  6
CONTINUOUS
 62
     3
100
AcDbLine
 10
2348.192792240602
 20
492.0000000000003
 30
0.0
 11
2342.069857322801
 21
492.0000000000003
 31
0.0
  0
LINE
  5
1D7
330
1F
100
AcDbEntity
  8
Ｓ_１_１
  6
CONTINUOUS
 62
     3
100
AcDbLine
 10
2342.069857322801
 20
492.0000000000003
 30
0.0
 11
2332.831061997701
 21
502.0000000000004
 31
0.0
  0
LINE
  5
1D8
330
1F
100
AcDbEntity
  8
Ｓ_１_１
  6
CONTINUOUS
 62
     3
100
AcDbLine
 10
2348.192792240602
 20
492.0000000000003
 30
0.0
 11
2338.953996915502
 21
502.0000000000004
 31
0.0
  0
LINE
  5
1D9
330
1F
100
AcDbEntity
  8
Ｓ_１_１
  6
CONTINUOUS
 62
     3
100
AcDbLine
 10
2231.204313421401
 20
502.0000000000004
 30
0.0
 11
2338.953996915502
 21
502.0000000000004
 31
0.0
  0
LINE
  5
1DA
330
1F
100
AcDbEntity
  8
Ｓ_１_１
  6
CONTINUOUS
 62
     3
100
AcDbLine
 10
2176.572089898701
 20
492.0000000000003
 30
0.0
 11
2172.745255575102
 21
502.0000000000004
 31
0.0
  0
LINE
  5
1DB
330
1F
100
AcDbEntity
  8
Ｓ_１_１
  6
CONTINUOUS
 62
     3
100
AcDbLine
 10
2191.354162418901
 20
492.0000000000003
 30
0.0
 11
2187.527328095302
 21
502.0000000000004
 31
0.0
  0
LINE
  5
1DC
330
1F
100
AcDbEntity
  8
Ｓ_１_１
  6
CONTINUOUS
 62
     3
100
AcDbLine
 10
2187.527328095302
 20
502.0000000000004
 30
0.0
 11
2130.650078014901
 21
502.0000000000004
 31
0.0
  0
ELLIPSE
  5
1DD
330
1F
100
AcDbEntity
  8
Ｓ_１_１
  6
CONTINUOUS
 62
     3
100
AcDbEllipse
 10
2161.264752604101
 20
462.0000000000003
 30
0.0
 11
-3.673940397442059E-15
 21
-20.0
 31
0.0
210
0.0
220
0.0
230
1.0
 40
0.3826834323650019
 41
0.0
 42
6.283185307179586
  0
ELLIPSE
  5
1DE
330
1F
100
AcDbEntity
  8
Ｓ_１_１
  6
CONTINUOUS
 62
     3
100
AcDbEllipse
 10
2305.114676022301
 20
462.0000000000003
 30
0.0
 11
-3.673940397442059E-15
 21
-20.0
 31
0.0
210
0.0
220
0.0
230
1.0
 40
0.92387953251
 41
0.0
 42
6.283185307179586
  0
ELLIPSE
  5
1DF
330
1F
100
AcDbEntity
  8
Ｓ_１_１
  6
CONTINUOUS
 62
     3
100
AcDbEllipse
 10
2311.237610940202
 20
462.0000000000003
 30
0.0
 11
-3.673940397442059E-15
 21
-20.0
 31
0.0
210
0.0
220
0.0
230
1.0
 40
0.92387953251
 41
3.308045655597594
 42
6.116732305171797
  0
LINE
  5
1E0
330
1F
100
AcDbEntity
  8
Ｓ_１_１
  6
CONTINUOUS
 62
     3
100
AcDbLine
 10
2247.8
 20
511.9999999999999
 30
0.0
 11
2247.8
 21
502.0000000000004
 31
0.0
  0
LINE
  5
1E1
330
1F
100
AcDbEntity
  8
Ｓ_１_１
  6
CONTINUOUS
 62
     3
100
AcDbLine
 10
1791.807207759402
 20
492.0000000000003
 30
0.0
 11
1791.807207759402
 21
256.9999999999999
 31
0.0
  0
LINE
  5
1E2
330
1F
100
AcDbEntity
  8
Ｓ_１_１
  6
CONTINUOUS
 62
     3
100
AcDbLine
 10
1797.930142677201
 20
492.0000000000003
 30
0.0
 11
1797.930142677201
 21
256.9999999999999
 31
0.0
  0
LINE
  5
1E3
330
1F
100
AcDbEntity
  8
Ｓ_１_１
  6
CONTINUOUS
 62
     3
100
AcDbLine
 10
1908.795686578601
 20
502.0000000000004
 30
0.0
 11
1908.795686578601
 21
276.9999999999999
 31
0.0
  0
LINE
  5
1E4
330
1F
100
AcDbEntity
  8
Ｓ_１_１
  6
CONTINUOUS
 62
     3
100
AcDbLine
 10
1948.645837581101
 20
492.0000000000003
 30
0.0
 11
1948.645837581101
 21
256.9999999999999
 31
0.0
  0
LINE
  5
1E5
330
1F
100
AcDbEntity
  8
Ｓ_１_１
  6
CONTINUOUS
 62
     3
100
AcDbLine
 10
1963.427910101301
 20
492.0000000000003
 30
0.0
 11
1963.427910101301
 21
256.9999999999999
 31
0.0
  0
LINE
  5
1E6
330
1F
100
AcDbEntity
  8
Ｓ_１_１
  6
CONTINUOUS
 62
     3
100
AcDbLine
 10
2009.349921985101
 20
502.0000000000004
 30
0.0
 11
2009.349921985101
 21
277.0000000000003
 31
0.0
  0
LINE
  5
1E7
330
1F
100
AcDbEntity
  8
Ｓ_１_１
  6
CONTINUOUS
 62
     3
100
AcDbLine
 10
2130.650078014901
 20
502.0000000000004
 30
0.0
 11
2130.650078014901
 21
277.0000000000003
 31
0.0
  0
LINE
  5
1E8
330
1F
100
AcDbEntity
  8
Ｓ_１_１
  6
CONTINUOUS
 62
     3
100
AcDbLine
 10
2176.572089898701
 20
492.0000000000003
 30
0.0
 11
2176.572089898701
 21
256.9999999999999
 31
0.0
  0
LINE
  5
1E9
330
1F
100
AcDbEntity
  8
Ｓ_１_１
  6
CONTINUOUS
 62
     3
100
AcDbLine
 10
2191.354162418901
 20
492.0000000000003
 30
0.0
 11
2191.354162418901
 21
256.9999999999999
 31
0.0
  0
LINE
  5
1EA
330
1F
100
AcDbEntity
  8
Ｓ_１_１
  6
CONTINUOUS
 62
     3
100
AcDbLine
 10
2231.204313421401
 20
502.0000000000004
 30
0.0
 11
2231.204313421401
 21
276.9999999999999
 31
0.0
  0
LINE
  5
1EB
330
1F
100
AcDbEntity
  8
Ｓ_１_１
  6
CONTINUOUS
 62
     3
100
AcDbLine
 10
2342.069857322801
 20
492.0000000000003
 30
0.0
 11
2342.069857322801
 21
256.9999999999999
 31
0.0
  0
LINE
  5
1EC
330
1F
100
AcDbEntity
  8
Ｓ_１_１
  6
CONTINUOUS
 62
     3
100
AcDbLine
 10
2348.192792240602
 20
492.0000000000003
 30
0.0
 11
2348.192792240602
 21
256.9999999999999
 31
0.0
  0
LINE
  5
1ED
330
1F
100
AcDbEntity
  8
Ｓ_１_１
  6
CONTINUOUS
 62
     3
100
AcDbLine
 10
2247.8
 20
259.0369582888023
 30
0.0
 11
2247.8
 21
256.9999999999999
 31
0.0
  0
LINE
  5
1EE
330
1F
100
AcDbEntity
  8
Ｓ_１_１
  6
CONTINUOUS
 62
     3
100
AcDbLine
 10
1892.200000000002
 20
259.0369582888014
 30
0.0
 11
1892.200000000002
 21
256.9999999999999
 31
0.0
  0
LINE
  5
1EF
330
1F
100
AcDbEntity
  8
Ｓ_１_１
  6
CONTINUOUS
 62
     3
100
AcDbLine
 10
1920.500841
 20
676.9999929999993
 30
0.0
 11
1917.500841
 21
673.9999929999993
 31
0.0
  0
LINE
  5
1F0
330
1F
100
AcDbEntity
  8
Ｓ_１_１
  6
CONTINUOUS
 62
     3
100
AcDbLine
 10
1922.500801968529
 20
516.9999928509727
 30
0.0
 11
1922.500801968529
 21
601.9999900197521
 31
0.0
  0
LINE
  5
1F1
330
1F
100
AcDbEntity
  8
Ｓ_１_１
  6
CONTINUOUS
 62
     3
100
AcDbLine
 10
1922.500801968529
 20
601.9999900197521
 30
0.0
 11
1917.500840999998
 21
601.9999900197521
 31
0.0
  0
LINE
  5
1F2
330
1F
100
AcDbEntity
  8
Ｓ_１_１
  6
CONTINUOUS
 62
     3
100
AcDbLine
 10
1917.500841
 20
673.9999929999993
 30
0.0
 11
1917.500841
 21
601.9999900197498
 31
0.0
  0
LINE
  5
1F3
330
1F
100
AcDbEntity
  8
Ｓ_１_１
  6
CONTINUOUS
 62
     3
100
AcDbLine
 10
2219.499159000003
 20
676.9999929999993
 30
0.0
 11
2222.499159000003
 21
673.9999929999993
 31
0.0
  0
LINE
  5
1F4
330
1F
100
AcDbEntity
  8
Ｓ_１_１
  6
CONTINUOUS
 62
     3
100
AcDbLine
 10
2217.499198031473
 20
516.9999928509727
 30
0.0
 11
2217.499198031473
 21
601.9999900197521
 31
0.0
  0
LINE
  5
1F5
330
1F
100
AcDbEntity
  8
Ｓ_１_１
  6
CONTINUOUS
 62
     3
100
AcDbLine
 10
2217.499198031473
 20
601.9999900197521
 30
0.0
 11
2222.499159000005
 21
601.9999900197521
 31
0.0
  0
LINE
  5
1F6
330
1F
100
AcDbEntity
  8
Ｓ_１_１
  6
CONTINUOUS
 62
     3
100
AcDbLine
 10
2222.499159000003
 20
673.9999929999993
 30
0.0
 11
2222.499159000003
 21
601.9999900197498
 31
0.0
  0
LINE
  5
1F7
330
1F
100
AcDbEntity
  8
Ｓ_１_１
  6
CONTINUOUS
 62
     3
100
AcDbLine
 10
1917.500841
 20
673.9999929999998
 30
0.0
 11
2222.499159000003
 21
673.9999929999998
 31
0.0
  0
LINE
  5
1F8
330
1F
100
AcDbEntity
  8
Ｓ_１_１
  6
EXLTYPE2
 62
     1
100
AcDbLine
 10
2305.114676022301
 20
491.0000020000002
 30
0.0
 11
2305.114676022301
 21
431.0000020000001
 31
0.0
  0
LINE
  5
1F9
330
1F
100
AcDbEntity
  8
Ｓ_１_１
  6
EXLTYPE2
 62
     1
100
AcDbLine
 10
2331.400012000003
 20
462.0000000000003
 30
0.0
 11
2278.600012000002
 21
462.0000000000003
 31
0.0
  0
LINE
  5
1FA
330
1F
100
AcDbEntity
  8
Ｓ_１_１
  6
EXLTYPE2
 62
     1
100
AcDbLine
 10
2161.264752604101
 20
487.8000020000002
 30
0.0
 11
2161.264752604101
 21
435.4000020000002
 31
0.0
  0
LINE
  5
1FB
330
1F
100
AcDbEntity
  8
Ｓ_１_１
  6
EXLTYPE2
 62
     1
100
AcDbLine
 10
2173.960012000002
 20
462.0000000000003
 30
0.0
 11
2148.760012000002
 21
462.0000000000003
 31
0.0
  0
LINE
  5
1FC
330
1F
100
AcDbEntity
  8
Ｓ_１_１
  6
EXLTYPE2
 62
     1
100
AcDbLine
 10
1834.885323977701
 20
491.0000020000006
 30
0.0
 11
1834.885323977701
 21
431.0000020000006
 31
0.0
  0
LINE
  5
1FD
330
1F
100
AcDbEntity
  8
Ｓ_１_１
  6
EXLTYPE2
 62
     1
100
AcDbLine
 10
1808.599988000001
 20
462.0000000000003
 30
0.0
 11
1861.399988000003
 21
462.0000000000003
 31
0.0
  0
LINE
  5
1FE
330
1F
100
AcDbEntity
  8
Ｓ_１_１
  6
EXLTYPE2
 62
     1
100
AcDbLine
 10
1978.735247395901
 20
487.8000020000002
 30
0.0
 11
1978.735247395901
 21
435.4000020000002
 31
0.0
  0
LINE
  5
1FF
330
1F
100
AcDbEntity
  8
Ｓ_１_１
  6
EXLTYPE2
 62
     1
100
AcDbLine
 10
1966.039988000002
 20
462.0000000000003
 30
0.0
 11
1991.239988000001
 21
462.0000000000003
 31
0.0
  0
LINE
  5
200
330
1F
100
AcDbEntity
  8
Ｓ_１_１
  6
EXLTYPE2
 62
     1
100
AcDbLine
 10
2022.599988000001
 20
319.999991
 30
0.0
 11
2117.319988000001
 21
319.999991
 31
0.0
  0
LINE
  5
201
330
1F
100
AcDbEntity
  8
Ｓ_１_１
  6
EXLTYPE2
 62
     1
100
AcDbLine
 10
2305.114676022301
 20
331.0000020000001
 30
0.0
 11
2305.114676022301
 21
271.0000020000001
 31
0.0
  0
LINE
  5
202
330
1F
100
AcDbEntity
  8
Ｓ_１_１
  6
EXLTYPE2
 62
     1
100
AcDbLine
 10
2331.400012000001
 20
302.0000000000003
 30
0.0
 11
2278.600012000002
 21
302.0000000000003
 31
0.0
  0
LINE
  5
203
330
1F
100
AcDbEntity
  8
Ｓ_１_１
  6
EXLTYPE2
 62
     1
100
AcDbLine
 10
2161.264752604101
 20
327.8000020000003
 30
0.0
 11
2161.264752604101
 21
275.4000020000002
 31
0.0
  0
LINE
  5
204
330
1F
100
AcDbEntity
  8
Ｓ_１_１
  6
EXLTYPE2
 62
     1
100
AcDbLine
 10
2173.960012000002
 20
302.0000000000003
 30
0.0
 11
2148.760012000002
 21
302.0000000000003
 31
0.0
  0
LINE
  5
205
330
1F
100
AcDbEntity
  8
Ｓ_１_１
  6
EXLTYPE2
 62
     1
100
AcDbLine
 10
1834.885323977701
 20
331.0000020000006
 30
0.0
 11
1834.885323977701
 21
271.0000020000006
 31
0.0
  0
LINE
  5
206
330
1F
100
AcDbEntity
  8
Ｓ_１_１
  6
EXLTYPE2
 62
     1
100
AcDbLine
 10
1808.599988000001
 20
302.0000000000003
 30
0.0
 11
1861.399988000003
 21
302.0000000000003
 31
0.0
  0
LINE
  5
207
330
1F
100
AcDbEntity
  8
Ｓ_１_１
  6
EXLTYPE2
 62
     1
100
AcDbLine
 10
1978.735247395901
 20
327.8000020000003
 30
0.0
 11
1978.735247395901
 21
275.4000020000002
 31
0.0
  0
LINE
  5
208
330
1F
100
AcDbEntity
  8
Ｓ_１_１
  6
EXLTYPE2
 62
     1
100
AcDbLine
 10
1966.039988000002
 20
302.0000000000003
 30
0.0
 11
1991.239988000001
 21
302.0000000000003
 31
0.0
  0
CIRCLE
  5
209
330
1F
100
AcDbEntity
  8
Ｓ_１_１
  6
CONTINUOUS
 62
     3
100
AcDbCircle
 10
2070.000000000005
 20
319.999991
 30
0.0
 40
16.0
  0
CIRCLE
  5
20A
330
1F
100
AcDbEntity
  8
Ｓ_１_１
  6
CONTINUOUS
 62
     3
100
AcDbCircle
 10
2070.000000000005
 20
319.999991
 30
0.0
 40
14.58898671826498
  0
CIRCLE
  5
20B
330
1F
100
AcDbEntity
  8
Ｓ_１_１
  6
CONTINUOUS
 62
     3
100
AcDbCircle
 10
2070.000000000005
 20
319.999991
 30
0.0
 40
10.62462489497569
  0
CIRCLE
  5
20C
330
1F
100
AcDbEntity
  8
Ｓ_１_１
  6
CONTINUOUS
 62
     3
100
AcDbCircle
 10
2070.000000000005
 20
319.999991
 30
0.0
 40
4.98315573269052
  0
POLYLINE
  5
20D
330
1F
100
AcDbEntity
  8
Ｓ_１_１
  6
CONTINUOUS
 62
     3
100
AcDb2dPolyline
 66
     1
 10
0.0
 20
0.0
 30
0.0
 70
   128
  0
VERTEX
  5
20E
330
20D
100
AcDbEntity
  8
Ｓ_１_１
  6
CONTINUOUS
 62
     3
100
AcDbVertex
100
AcDb2dVertex
 10
2069.999999999995
 20
558.1435855394484
 30
0.0
  0
VERTEX
  5
20F
330
20D
100
AcDbEntity
  8
Ｓ_１_１
  6
CONTINUOUS
 62
     3
100
AcDbVertex
100
AcDb2dVertex
 10
2057.999999999995
 20
565.0717887697247
 30
0.0
  0
VERTEX
  5
210
330
20D
100
AcDbEntity
  8
Ｓ_１_１
  6
CONTINUOUS
 62
     3
100
AcDbVertex
100
AcDb2dVertex
 10
2057.999999999995
 20
578.9281952302754
 30
0.0
  0
VERTEX
  5
211
330
20D
100
AcDbEntity
  8
Ｓ_１_１
  6
CONTINUOUS
 62
     3
100
AcDbVertex
100
AcDb2dVertex
 10
2069.999999999995
 20
585.8563984605516
 30
0.0
  0
VERTEX
  5
212
330
20D
100
AcDbEntity
  8
Ｓ_１_１
  6
CONTINUOUS
 62
     3
100
AcDbVertex
100
AcDb2dVertex
 10
2081.999999999995
 20
578.9281952302754
 30
0.0
  0
VERTEX
  5
213
330
20D
100
AcDbEntity
  8
Ｓ_１_１
  6
CONTINUOUS
 62
     3
100
AcDbVertex
100
AcDb2dVertex
 10
2081.999999999995
 20
565.0717887697247
 30
0.0
  0
VERTEX
  5
214
330
20D
100
AcDbEntity
  8
Ｓ_１_１
  6
CONTINUOUS
 62
     3
100
AcDbVertex
100
AcDb2dVertex
 10
2069.999999999995
 20
558.1435855394484
 30
0.0
  0
SEQEND
  5
215
330
20D
100
AcDbEntity
  8
Ｓ_１_１
  6
CONTINUOUS
 62
     3
  0
CIRCLE
  5
216
330
1F
100
AcDbEntity
  8
Ｓ_１_１
  6
CONTINUOUS
 62
     3
100
AcDbCircle
 10
2069.999999999995
 20
571.999992
 30
0.0
 40
12.00000000000102
  0
CIRCLE
  5
217
330
1F
100
AcDbEntity
  8
Ｓ_１_１
  6
CONTINUOUS
 62
     3
100
AcDbCircle
 10
2069.999999999995
 20
571.999992
 30
0.0
 40
10.72532284355114
  0
CIRCLE
  5
218
330
1F
100
AcDbEntity
  8
Ｓ_１_１
  6
CONTINUOUS
 62
     3
100
AcDbCircle
 10
2069.999999999995
 20
571.999992
 30
0.0
 40
6.323600530683808
  0
CIRCLE
  5
219
330
1F
100
AcDbEntity
  8
Ｓ_１_１
  6
CONTINUOUS
 62
     3
100
AcDbCircle
 10
2069.999999999995
 20
571.999992
 30
0.0
 40
4.217842489549019
  0
LINE
  5
21A
330
1F
100
AcDbEntity
  8
Ｓ_１_１
  6
CONTINUOUS
 62
     3
100
AcDbLine
 10
2021.0
 20
567.7499920000008
 30
0.0
 11
2016.0
 21
567.7499920000008
 31
0.0
  0
LINE
  5
21B
330
1F
100
AcDbEntity
  8
Ｓ_１_１
  6
CONTINUOUS
 62
     3
100
AcDbLine
 10
2021.0
 20
576.2499920000008
 30
0.0
 11
2016.0
 21
576.2499920000008
 31
0.0
  0
LINE
  5
21C
330
1F
100
AcDbEntity
  8
Ｓ_１_１
  6
CONTINUOUS
 62
     3
100
AcDbLine
 10
2021.0
 20
576.9999920000008
 30
0.0
 11
2016.75
 21
576.9999920000008
 31
0.0
  0
LINE
  5
21D
330
1F
100
AcDbEntity
  8
Ｓ_１_１
  6
CONTINUOUS
 62
     3
100
AcDbLine
 10
2021.0
 20
566.9999920000008
 30
0.0
 11
2016.75
 21
566.9999920000008
 31
0.0
  0
LINE
  5
21E
330
1F
100
AcDbEntity
  8
Ｓ_１_１
  6
CONTINUOUS
 62
     3
100
AcDbLine
 10
2016.0
 20
576.2499920000008
 30
0.0
 11
2016.0
 21
567.7499920000008
 31
0.0
  0
LINE
  5
21F
330
1F
100
AcDbEntity
  8
Ｓ_１_１
  6
CONTINUOUS
 62
     3
100
AcDbLine
 10
2016.75
 20
576.9999920000008
 30
0.0
 11
2016.75
 21
566.9999920000008
 31
0.0
  0
LINE
  5
220
330
1F
100
AcDbEntity
  8
Ｓ_１_１
  6
CONTINUOUS
 62
     3
100
AcDbLine
 10
2016.749997442299
 20
576.9999908750009
 30
0.0
 11
2015.9999993435
 21
576.249992713001
 31
0.0
  0
LINE
  5
221
330
1F
100
AcDbEntity
  8
Ｓ_１_１
  6
CONTINUOUS
 62
     3
100
AcDbLine
 10
2015.999998353
 20
567.749990074701
 30
0.0
 11
2016.7499985381
 21
566.999989952901
 31
0.0
  0
LINE
  5
222
330
1F
100
AcDbEntity
  8
Ｓ_１_１
  6
CONTINUOUS
 62
     3
100
AcDbLine
 10
2028.0
 20
571.9999920000008
 30
0.0
 11
2028.0
 21
561.9999920000008
 31
0.0
  0
LINE
  5
223
330
1F
100
AcDbEntity
  8
Ｓ_１_１
  6
CONTINUOUS
 62
     3
100
AcDbLine
 10
2028.0
 20
581.9999920000008
 30
0.0
 11
2028.0
 21
571.9999920000008
 31
0.0
  0
LINE
  5
224
330
1F
100
AcDbEntity
  8
Ｓ_１_１
  6
CONTINUOUS
 62
     3
100
AcDbLine
 10
2027.999999448999
 20
561.9999925510009
 30
0.0
 11
2026.99999942
 21
562.9999926643012
 31
0.0
  0
LINE
  5
225
330
1F
100
AcDbEntity
  8
Ｓ_１_１
  6
CONTINUOUS
 62
     3
100
AcDbLine
 10
2026.999999715099
 20
580.9999917994008
 30
0.0
 11
2027.9999995123
 21
581.9999915123011
 31
0.0
  0
LINE
  5
226
330
1F
100
AcDbEntity
  8
Ｓ_１_１
  6
CONTINUOUS
 62
     3
100
AcDbLine
 10
2027.0
 20
580.9999917994008
 30
0.0
 11
2027.0
 21
571.9999920000008
 31
0.0
  0
LINE
  5
227
330
1F
100
AcDbEntity
  8
Ｓ_１_１
  6
CONTINUOUS
 62
     3
100
AcDbLine
 10
2027.0
 20
571.9999920000008
 30
0.0
 11
2027.0
 21
562.9999926643012
 31
0.0
  0
LINE
  5
228
330
1F
100
AcDbEntity
  8
Ｓ_１_１
  6
CONTINUOUS
 62
     3
100
AcDbLine
 10
2057.5
 20
561.9999920000008
 30
0.0
 11
2028.0
 21
561.9999920000008
 31
0.0
  0
LINE
  5
229
330
1F
100
AcDbEntity
  8
Ｓ_１_１
  6
CONTINUOUS
 62
     3
100
AcDbLine
 10
2021.0000018344
 20
564.5075793368009
 30
0.0
 11
2022.0000020276
 21
562.4999927471011
 31
0.0
  0
LINE
  5
22A
330
1F
100
AcDbEntity
  8
Ｓ_１_１
  6
CONTINUOUS
 62
     3
100
AcDbLine
 10
2021.000000485499
 20
579.492405756001
 30
0.0
 11
2022.0000006787
 21
581.4999923457011
 31
0.0
  0
LINE
  5
22B
330
1F
100
AcDbEntity
  8
Ｓ_１_１
  6
CONTINUOUS
 62
     3
100
AcDbLine
 10
2027.000000023399
 20
564.5075786938008
 30
0.0
 11
2025.999999830199
 21
562.4999921041011
 31
0.0
  0
LINE
  5
22C
330
1F
100
AcDbEntity
  8
Ｓ_１_１
  6
CONTINUOUS
 62
     3
100
AcDbLine
 10
2027.0000015141
 20
579.4924061143009
 30
0.0
 11
2026.0000014625
 21
581.4999924195012
 31
0.0
  0
LINE
  5
22D
330
1F
100
AcDbEntity
  8
Ｓ_１_１
  6
CONTINUOUS
 62
     3
100
AcDbLine
 10
2026.0
 20
581.4999920000008
 30
0.0
 11
2022.0
 21
581.4999920000008
 31
0.0
  0
LINE
  5
22E
330
1F
100
AcDbEntity
  8
Ｓ_１_１
  6
CONTINUOUS
 62
     3
100
AcDbLine
 10
2026.0
 20
562.4999920000008
 30
0.0
 11
2022.0
 21
562.4999920000008
 31
0.0
  0
LINE
  5
22F
330
1F
100
AcDbEntity
  8
Ｓ_１_１
  6
CONTINUOUS
 62
     3
100
AcDbLine
 10
2021.0
 20
571.9999920000008
 30
0.0
 11
2021.0
 21
564.5075781613008
 31
0.0
  0
LINE
  5
230
330
1F
100
AcDbEntity
  8
Ｓ_１_１
  6
CONTINUOUS
 62
     3
100
AcDbLine
 10
2021.0
 20
579.4924058387008
 30
0.0
 11
2021.0
 21
571.9999920000008
 31
0.0
  0
ARC
  5
231
330
1F
100
AcDbEntity
  8
Ｓ_１_１
  6
CONTINUOUS
 62
     3
100
AcDbCircle
 10
2011.458333333299
 20
571.9999920000008
 30
0.0
 40
15.5416666667
100
AcDbArc
 50
339.3345163543002
 51
339.3345238904478
  0
ARC
  5
232
330
1F
100
AcDbEntity
  8
Ｓ_１_１
  6
CONTINUOUS
 62
     3
100
AcDbCircle
 10
2036.5416666667
 20
571.9999920000008
 30
0.0
 40
15.5416666667
100
AcDbArc
 50
200.6654761095529
 51
200.6654784093996
  0
ARC
  5
233
330
1F
100
AcDbEntity
  8
Ｓ_１_１
  6
CONTINUOUS
 62
     3
100
AcDbCircle
 10
2011.458333333299
 20
571.9999920000008
 30
0.0
 40
15.5416666667
100
AcDbArc
 50
342.8126324028146
 51
17.18736809517867
  0
ARC
  5
234
330
1F
100
AcDbEntity
  8
Ｓ_１_１
  6
CONTINUOUS
 62
     3
100
AcDbCircle
 10
2011.458333333299
 20
571.9999920000008
 30
0.0
 40
15.5416666667
100
AcDbArc
 50
20.66547865603566
 51
20.66548000330019
  0
ARC
  5
235
330
1F
100
AcDbEntity
  8
Ｓ_１_１
  6
CONTINUOUS
 62
     3
100
AcDbCircle
 10
2036.5416666667
 20
571.9999920000008
 30
0.0
 40
15.5416666667
100
AcDbArc
 50
162.8126319048212
 51
197.1873675971855
  0
LINE
  5
236
330
1F
100
AcDbEntity
  8
Ｓ_１_１
  6
CONTINUOUS
 62
     3
100
AcDbLine
 10
2021.694035882138
 20
567.4074695053208
 30
0.0
 11
2026.305964117861
 21
567.4074695053208
 31
0.0
  0
LINE
  5
237
330
1F
100
AcDbEntity
  8
Ｓ_１_１
  6
CONTINUOUS
 62
     3
100
AcDbLine
 10
2021.694035922053
 20
576.5925146237308
 30
0.0
 11
2026.305964077945
 21
576.5925146237308
 31
0.0
  0
ARC
  5
238
330
1F
100
AcDbEntity
  8
Ｓ_１_１
  6
CONTINUOUS
 62
     3
100
AcDbCircle
 10
2027.0
 20
579.4924091539909
 30
0.0
 40
6.000000000001596
100
AcDbArc
 50
180.0000417559226
 51
208.9021840779137
  0
ARC
  5
239
330
1F
100
AcDbEntity
  8
Ｓ_１_１
  6
CONTINUOUS
 62
     3
100
AcDbCircle
 10
2021.0
 20
579.4924047813209
 30
0.0
 40
6.000000000001596
100
AcDbArc
 50
331.0978636188124
 51
0.0000417558857257
  0
ARC
  5
23A
330
1F
100
AcDbEntity
  8
Ｓ_１_１
  6
CONTINUOUS
 62
     3
100
AcDbCircle
 10
2021.0
 20
564.5075786468209
 30
0.0
 40
6.000000000000006
100
AcDbArc
 50
359.9999920172611
 51
28.90214402666208
  0
ARC
  5
23B
330
1F
100
AcDbEntity
  8
Ｓ_１_１
  6
CONTINUOUS
 62
     3
100
AcDbCircle
 10
2027.0
 20
564.5075786468209
 30
0.0
 40
6.000000000001596
100
AcDbArc
 50
151.0978559733464
 51
180.0
  0
LINE
  5
23C
330
1F
100
AcDbEntity
  8
Ｓ_１_１
  6
CONTINUOUS
 62
     3
100
AcDbLine
 10
2057.5
 20
581.9999920000008
 30
0.0
 11
2028.0
 21
581.9999920000008
 31
0.0
  0
LINE
  5
23D
330
1F
100
AcDbEntity
  8
Ｓ_１_１
  6
CONTINUOUS
 62
     3
100
AcDbLine
 10
2082.5
 20
559.499992
 30
0.0
 11
2082.5
 21
584.4999919999999
 31
0.0
  0
LINE
  5
23E
330
1F
100
AcDbEntity
  8
Ｓ_１_１
  6
CONTINUOUS
 62
     3
100
AcDbLine
 10
2057.5
 20
559.499992
 30
0.0
 11
2057.5
 21
584.499992
 31
0.0
  0
ARC
  5
23F
330
1F
100
AcDbEntity
  8
Ｓ_１_１
  6
CONTINUOUS
 62
     3
100
AcDbCircle
 10
2069.999999999995
 20
571.9999920000001
 30
0.0
 40
15.0
100
AcDbArc
 50
236.4426902380795
 51
303.5573097619207
  0
ARC
  5
240
330
1F
100
AcDbEntity
  8
Ｓ_１_１
  6
CONTINUOUS
 62
     3
100
AcDbCircle
 10
2069.999999999995
 20
571.9999920000001
 30
0.0
 40
15.0
100
AcDbArc
 50
326.4426902381223
 51
33.5573097618778
  0
ARC
  5
241
330
1F
100
AcDbEntity
  8
Ｓ_１_１
  6
CONTINUOUS
 62
     3
100
AcDbCircle
 10
2069.999999999995
 20
571.9999920000001
 30
0.0
 40
15.0
100
AcDbArc
 50
56.44269023807925
 51
123.5573097619207
  0
ARC
  5
242
330
1F
100
AcDbEntity
  8
Ｓ_１_１
  6
CONTINUOUS
 62
     3
100
AcDbCircle
 10
2069.999999999995
 20
571.9999920000001
 30
0.0
 40
15.0
100
AcDbArc
 50
146.442690238036
 51
213.5573097619641
  0
LINE
  5
243
330
1F
100
AcDbEntity
  8
Ｓ_１_１
  6
CONTINUOUS
 62
     3
100
AcDbLine
 10
2082.5
 20
584.499992
 30
0.0
 11
2072.349364905383
 21
584.499992
 31
0.0
  0
LINE
  5
244
330
1F
100
AcDbEntity
  8
Ｓ_１_１
  6
CONTINUOUS
 62
     3
100
AcDbLine
 10
2067.650635094604
 20
584.499992
 30
0.0
 11
2057.5
 21
584.499992
 31
0.0
  0
LINE
  5
245
330
1F
100
AcDbEntity
  8
Ｓ_１_１
  6
CONTINUOUS
 62
     3
100
AcDbLine
 10
2081.5
 20
583.4999920000001
 30
0.0
 11
2074.081415712953
 21
583.4999920000001
 31
0.0
  0
LINE
  5
246
330
1F
100
AcDbEntity
  8
Ｓ_１_１
  6
CONTINUOUS
 62
     3
100
AcDbLine
 10
2065.918584287036
 20
583.4999920000001
 30
0.0
 11
2058.5
 21
583.4999920000001
 31
0.0
  0
LINE
  5
247
330
1F
100
AcDbEntity
  8
Ｓ_１_１
  6
CONTINUOUS
 62
     3
100
AcDbLine
 10
2081.5
 20
579.2168703648666
 30
0.0
 11
2081.5
 21
583.4999920000001
 31
0.0
  0
LINE
  5
248
330
1F
100
AcDbEntity
  8
Ｓ_１_１
  6
CONTINUOUS
 62
     3
100
AcDbLine
 10
2081.5
 20
560.499992
 30
0.0
 11
2081.5
 21
564.7831136351334
 31
0.0
  0
LINE
  5
249
330
1F
100
AcDbEntity
  8
Ｓ_１_１
  6
CONTINUOUS
 62
     3
100
AcDbLine
 10
2058.5
 20
560.499992
 30
0.0
 11
2058.5
 21
564.7831136351264
 31
0.0
  0
LINE
  5
24A
330
1F
100
AcDbEntity
  8
Ｓ_１_１
  6
CONTINUOUS
 62
     3
100
AcDbLine
 10
2058.5
 20
579.2168703648738
 30
0.0
 11
2058.5
 21
583.4999920000001
 31
0.0
  0
LINE
  5
24B
330
1F
100
AcDbEntity
  8
Ｓ_１_１
  6
CONTINUOUS
 62
     3
100
AcDbLine
 10
2081.5
 20
560.499992
 30
0.0
 11
2074.081415712953
 21
560.499992
 31
0.0
  0
LINE
  5
24C
330
1F
100
AcDbEntity
  8
Ｓ_１_１
  6
CONTINUOUS
 62
     3
100
AcDbLine
 10
2082.5
 20
559.499992
 30
0.0
 11
2072.349364905383
 21
559.499992
 31
0.0
  0
LINE
  5
24D
330
1F
100
AcDbEntity
  8
Ｓ_１_１
  6
CONTINUOUS
 62
     3
100
AcDbLine
 10
2067.650635094604
 20
559.499992
 30
0.0
 11
2057.5
 21
559.499992
 31
0.0
  0
LINE
  5
24E
330
1F
100
AcDbEntity
  8
Ｓ_１_１
  6
CONTINUOUS
 62
     3
100
AcDbLine
 10
2065.918584287036
 20
560.499992
 30
0.0
 11
2058.5
 21
560.499992
 31
0.0
  0
LINE
  5
24F
330
1F
100
AcDbEntity
  8
Ｓ_１_１
  6
EXLTYPE8
 62
     1
100
AcDbLine
 10
2089.466893196106
 20
571.9999920000046
 30
0.0
 11
2012.52
 21
571.9999920000046
 31
0.0
  0
LINE
  5
250
330
1F
100
AcDbEntity
  8
Ｓ_１_１
  6
CONTINUOUS
 62
     3
100
AcDbLine
 10
2219.499159000002
 20
676.9999930000002
 30
0.0
 11
1920.500841
 21
676.9999930000002
 31
0.0
  0
LINE
  5
251
330
1F
100
AcDbEntity
  8
Ｓ_１_１
  6
EXLTYPE0
 62
     2
100
AcDbLine
 10
2167.50106199999
 20
686.9998979999996
 30
0.0
 11
2168.078355868892
 21
685.9999929999702
 31
0.0
  0
LINE
  5
252
330
1F
100
AcDbEntity
  8
Ｓ_１_１
  6
EXLTYPE0
 62
     2
100
AcDbLine
 10
1972.49893799999
 20
686.9998979999996
 30
0.0
 11
1971.921644131088
 21
685.9999929999702
 31
0.0
  0
LINE
  5
253
330
1F
100
AcDbEntity
  8
Ｓ_１_１
  6
CONTINUOUS
 62
     3
100
AcDbLine
 10
2170.000001490112
 20
676.9999929999962
 30
0.0
 11
2170.000001490112
 21
682.6698848342552
 31
0.0
  0
LINE
  5
254
330
1F
100
AcDbEntity
  8
Ｓ_１_１
  6
CONTINUOUS
 62
     3
100
AcDbLine
 10
1969.99999850988
 20
682.6698848342552
 30
0.0
 11
1969.99999850988
 21
676.9999929999962
 31
0.0
  0
LINE
  5
255
330
1F
100
AcDbEntity
  8
Ｓ_１_１
  6
CONTINUOUS
 62
     3
100
AcDbLine
 10
2170.000001490112
 20
682.6698848342552
 30
0.0
 11
2167.499996423718
 21
687.0000132655754
 31
0.0
  0
LINE
  5
256
330
1F
100
AcDbEntity
  8
Ｓ_１_１
  6
CONTINUOUS
 62
     3
100
AcDbLine
 10
1972.500003576275
 20
687.0000132655754
 30
0.0
 11
1969.99999850988
 21
682.6698848342552
 31
0.0
  0
LINE
  5
257
330
1F
100
AcDbEntity
  8
Ｓ_１_１
  6
CONTINUOUS
 62
     3
100
AcDbLine
 10
2167.499996423718
 20
690.9999915694847
 30
0.0
 11
2166.50000184774
 21
692.0000084972038
 31
0.0
  0
LINE
  5
258
330
1F
100
AcDbEntity
  8
Ｓ_１_１
  6
CONTINUOUS
 62
     3
100
AcDbLine
 10
1973.499998152253
 20
692.0000084972038
 30
0.0
 11
1972.500003576275
 21
690.9999915694847
 31
0.0
  0
LINE
  5
259
330
1F
100
AcDbEntity
  8
Ｓ_１_１
  6
CONTINUOUS
 62
     3
100
AcDbLine
 10
2167.499996423718
 20
687.0000132655754
 30
0.0
 11
2167.499996423718
 21
690.9999915694847
 31
0.0
  0
LINE
  5
25A
330
1F
100
AcDbEntity
  8
Ｓ_１_１
  6
CONTINUOUS
 62
     3
100
AcDbLine
 10
1972.500003576275
 20
690.9999915694847
 30
0.0
 11
1972.500003576275
 21
687.0000132655754
 31
0.0
  0
LINE
  5
25B
330
1F
100
AcDbEntity
  8
Ｓ_１_１
  6
CONTINUOUS
 62
     3
100
AcDbLine
 10
2170.000001490112
 20
682.6698848342552
 30
0.0
 11
1969.99999850988
 21
682.6698848342552
 31
0.0
  0
LINE
  5
25C
330
1F
100
AcDbEntity
  8
Ｓ_１_１
  6
CONTINUOUS
 62
     3
100
AcDbLine
 10
2167.499996423718
 20
687.0000132655754
 30
0.0
 11
1972.500003576275
 21
687.0000132655754
 31
0.0
  0
LINE
  5
25D
330
1F
100
AcDbEntity
  8
Ｓ_１_１
  6
CONTINUOUS
 62
     3
100
AcDbLine
 10
2167.49999642372
 20
690.9999915694847
 30
0.0
 11
1972.500003576275
 21
690.9999915694847
 31
0.0
  0
LINE
  5
25E
330
1F
100
AcDbEntity
  8
Ｓ_１_１
  6
CONTINUOUS
 62
     3
100
AcDbLine
 10
1973.499998152253
 20
692.0000084972038
 30
0.0
 11
2166.50000184774
 21
692.0000084972038
 31
0.0
  0
LINE
  5
25F
330
1F
100
AcDbEntity
  8
Ｓ_１_１
  6
EXLTYPE10
 62
     1
100
AcDbLine
 10
1994.999976256
 20
746.1600174972001
 30
0.0
 11
1994.999976256
 21
689.3999920012
 31
0.0
  0
LINE
  5
260
330
1F
100
AcDbEntity
  8
Ｓ_１_１
  6
EXLTYPE10
 62
     1
100
AcDbLine
 10
2144.999974256
 20
745.4800174971998
 30
0.0
 11
2144.999974256
 21
689.9999920011999
 31
0.0
  0
LINE
  5
261
330
1F
100
AcDbEntity
  8
Ｓ_１_１
  6
CONTINUOUS
 62
     3
100
AcDbLine
 10
1981.499975256015
 20
743.9999821036523
 30
0.0
 11
1976.500008247991
 21
738.9999656076642
 31
0.0
  0
LINE
  5
262
330
1F
100
AcDbEntity
  8
Ｓ_１_１
  6
CONTINUOUS
 62
     3
100
AcDbLine
 10
1976.500008247991
 20
692.5000084971996
 30
0.0
 11
1976.500008247991
 21
738.9999656076642
 31
0.0
  0
LINE
  5
263
330
1F
100
AcDbEntity
  8
Ｓ_１_１
  6
CONTINUOUS
 62
     3
100
AcDbLine
 10
1977.000008247991
 20
692.0000084971996
 30
0.0
 11
1976.500008247991
 21
692.5000084971996
 31
0.0
  0
LINE
  5
264
330
1F
100
AcDbEntity
  8
Ｓ_１_１
  6
CONTINUOUS
 62
     3
100
AcDbLine
 10
2163.499991752003
 20
738.9999656076642
 30
0.0
 11
2158.499975256015
 21
743.9999821036523
 31
0.0
  0
LINE
  5
265
330
1F
100
AcDbEntity
  8
Ｓ_１_１
  6
CONTINUOUS
 62
     3
100
AcDbLine
 10
2163.499991752003
 20
692.5000084971996
 30
0.0
 11
2163.499991752003
 21
738.9999656076642
 31
0.0
  0
LINE
  5
266
330
1F
100
AcDbEntity
  8
Ｓ_１_１
  6
CONTINUOUS
 62
     3
100
AcDbLine
 10
2162.999991752003
 20
692.0000084971996
 30
0.0
 11
2163.499991752003
 21
692.5000084971996
 31
0.0
  0
LINE
  5
267
330
1F
100
AcDbEntity
  8
Ｓ_１_１
  6
CONTINUOUS
 62
     3
100
AcDbLine
 10
1943.999999999997
 20
791.9999920012452
 30
0.0
 11
1941.999999999997
 21
789.9999920012452
 31
0.0
  0
LINE
  5
268
330
1F
100
AcDbEntity
  8
Ｓ_１_１
  6
CONTINUOUS
 62
     3
100
AcDbLine
 10
1943.997259069506
 20
750.7210766739832
 30
0.0
 11
2014.999973194017
 21
746.99998210365
 31
0.0
  0
LINE
  5
269
330
1F
100
AcDbEntity
  8
Ｓ_１_１
  6
CONTINUOUS
 62
     3
100
AcDbLine
 10
1941.999999999997
 20
752.8257485864691
 30
0.0
 11
1941.999999999997
 21
789.9999920012452
 31
0.0
  0
LINE
  5
26A
330
1F
100
AcDbEntity
  8
Ｓ_１_１
  6
CONTINUOUS
 62
     3
100
AcDbLine
 10
1943.997259069506
 20
750.7210766739832
 30
0.0
 11
1941.999999999997
 21
752.8257485864691
 31
0.0
  0
LINE
  5
26B
330
1F
100
AcDbEntity
  8
Ｓ_１_１
  6
CONTINUOUS
 62
     3
100
AcDbLine
 10
2196.002740930488
 20
750.7210766739832
 30
0.0
 11
2125.000026805977
 21
746.99998210365
 31
0.0
  0
LINE
  5
26C
330
1F
100
AcDbEntity
  8
Ｓ_１_１
  6
CONTINUOUS
 62
     3
100
AcDbLine
 10
2196.002740930488
 20
750.7210766739832
 30
0.0
 11
2197.999999999997
 21
752.8257485864691
 31
0.0
  0
LINE
  5
26D
330
1F
100
AcDbEntity
  8
Ｓ_１_１
  6
CONTINUOUS
 62
     3
100
AcDbLine
 10
2195.999999999997
 20
791.9999920012452
 30
0.0
 11
1943.999999999997
 21
791.9999920012452
 31
0.0
  0
LINE
  5
26E
330
1F
100
AcDbEntity
  8
Ｓ_１_１
  6
CONTINUOUS
 62
     3
100
AcDbLine
 10
2197.999999999997
 20
789.9999920012452
 30
0.0
 11
2197.999999999997
 21
752.8257485864691
 31
0.0
  0
LINE
  5
26F
330
1F
100
AcDbEntity
  8
Ｓ_１_１
  6
CONTINUOUS
 62
     3
100
AcDbLine
 10
2195.999999999997
 20
791.9999920012452
 30
0.0
 11
2197.999999999997
 21
789.9999920012452
 31
0.0
  0
LINE
  5
270
330
1F
100
AcDbEntity
  8
Ｓ_１_１
  6
CONTINUOUS
 62
     3
100
AcDbLine
 10
1942.0
 20
789.99999200125
 30
0.0
 11
2197.999999999997
 21
789.99999200125
 31
0.0
  0
LINE
  5
271
330
1F
100
AcDbEntity
  8
Ｓ_１_１
  6
CONTINUOUS
 62
     3
100
AcDbLine
 10
2198.0
 20
752.82574858647
 30
0.0
 11
1941.999999999997
 21
752.8257485864705
 31
0.0
  0
LINE
  5
272
330
1F
100
AcDbEntity
  8
Ｓ_１_１
  6
CONTINUOUS
 62
     3
100
AcDbLine
 10
2014.99997319402
 20
746.99998210365
 30
0.0
 11
2124.999977318012
 21
746.99998210365
 31
0.0
  0
LINE
  5
273
330
1F
100
AcDbEntity
  8
Ｓ_１_１
  6
CONTINUOUS
 62
     3
100
AcDbLine
 10
2158.499975256015
 20
743.9999821036523
 30
0.0
 11
1981.499975256015
 21
743.9999821036523
 31
0.0
  0
LINE
  5
274
330
1F
100
AcDbEntity
  8
Ｓ_１_１
  6
CONTINUOUS
 62
     3
100
AcDbLine
 10
1976.50000824799
 20
738.99996560766
 30
0.0
 11
2163.499991752003
 21
738.99996560766
 31
0.0
  0
ARC
  5
275
330
1F
100
AcDbEntity
  8
Ｓ_１_１
  6
CONTINUOUS
 62
     3
100
AcDbCircle
 10
2069.999975256015
 20
746.9999920012452
 30
0.0
 40
55.00000206199852
100
AcDbArc
 50
180.0000103107324
 51
183.1267863223427
  0
ARC
  5
276
330
1F
100
AcDbEntity
  8
Ｓ_１_１
  6
CONTINUOUS
 62
     3
100
AcDbCircle
 10
2069.999975256015
 20
746.9999920012452
 30
0.0
 40
55.00000206199852
100
AcDbArc
 50
356.8732136776573
 51
359.9999896892654
  0
LINE
  5
277
330
1F
100
AcDbEntity
  8
Ｓ_１_１
  6
CONTINUOUS
 62
     3
100
AcDbLine
 10
2163.499991752
 20
692.5000084972
 30
0.0
 11
1976.500008247991
 21
692.5000084972
 31
0.0
  0
LINE
  5
278
330
1F
100
AcDbEntity
  8
Ｓ_１_１
  6
CONTINUOUS
 62
     3
100
AcDbLine
 10
1943.99725906951
 20
750.7210766739801
 30
0.0
 11
2196.00274093049
 21
750.7210766739801
 31
0.0
  0
LINE
  5
279
330
1F
100
AcDbEntity
  8
Ｓ_１_１
  6
EXLTYPE8
 62
     1
100
AcDbLine
 10
2119.999991752003
 20
794.2917301505273
 30
0.0
 11
2119.999991752003
 21
789.5047593418282
 31
0.0
  0
LINE
  5
27A
330
1F
100
AcDbEntity
  8
Ｓ_１_１
  6
EXLTYPE8
 62
     1
100
AcDbLine
 10
2140.000008247991
 20
793.7740365536102
 30
0.0
 11
2140.000008247991
 21
789.1872445614227
 31
0.0
  0
LINE
  5
27B
330
1F
100
AcDbEntity
  8
Ｓ_１_１
  6
EXLTYPE8
 62
     1
100
AcDbLine
 10
2020.000008247991
 20
794.2917301505273
 30
0.0
 11
2020.000008247991
 21
789.5047593418282
 31
0.0
  0
LINE
  5
27C
330
1F
100
AcDbEntity
  8
Ｓ_１_１
  6
EXLTYPE8
 62
     1
100
AcDbLine
 10
1999.999991752003
 20
793.7740365536102
 30
0.0
 11
1999.999991752003
 21
789.1872445614227
 31
0.0
  0
LINE
  5
27D
330
1F
100
AcDbEntity
  8
Ｓ_１_１
  6
EXLTYPE8
 62
     1
100
AcDbLine
 10
1979.999975256015
 20
794.2917301505273
 30
0.0
 11
1979.999975256015
 21
789.5047593418282
 31
0.0
  0
LINE
  5
27E
330
1F
100
AcDbEntity
  8
Ｓ_１_１
  6
EXLTYPE8
 62
     1
100
AcDbLine
 10
2160.000024743979
 20
794.2917301505273
 30
0.0
 11
2160.000024743979
 21
789.5047593418282
 31
0.0
  0
LINE
  5
27F
330
1F
100
AcDbEntity
  8
Ｓ_１_１
  6
EXLTYPE2
 62
     1
100
AcDbLine
 10
2070.000000000001
 20
816.6
 30
0.0
 11
2070.000000000001
 21
215.9600020000001
 31
0.0
  0
ARC
  5
280
330
1F
100
AcDbEntity
  8
Ｓ_１_１
  6
EXLTYPE0
 62
     2
100
AcDbCircle
 10
2069.999975256025
 20
746.9999920012452
 30
0.0
 40
55.00000206199852
100
AcDbArc
 50
183.1267863223427
 51
356.8732136776573
  0
DIMENSION
  5
281
330
1F
100
AcDbEntity
  8
Ｓ_１_１
  6
CONTINUOUS
 62
     2
100
AcDbDimension
  2
*D26
 10
2348.1927922406
 20
630.0
 30
0.0
 11
2408.5677922406
 21
649.25
 31
0.0
 70
   160
  1
(<>)
  3
ISO-25
100
AcDbAlignedDimension
 13
1791.8072077594
 23
491.9999999999999
 33
0.0
 14
2348.1927922406
 24
491.9999999999999
 34
0.0
100
AcDbRotatedDimension
1001
ACAD
1000
DSTYLE
1002
{
1070
   270
1070
     2
1070
     6
1000
EX_NORM
1070
     7
1000
EX_NORM
1070
    41
1040
21.0
1070
    42
1040
10.5
1070
    44
1040
7.0
1070
    73
1070
     0
1070
    74
1070
     0
1070
    75
1070
     0
1070
    76
1070
     0
1070
    77
1070
     1
1070
    78
1070
     0
1070
   140
1040
24.24032763153705
1070
   147
1040
0.0
1070
   173
1070
     1
1070
   176
1070
     2
1070
   177
1070
     2
1070
   178
1070
     2
1070
   271
1070
     0
1070
   277
1070
     2
1070
   279
1070
     2
1070
   280
1070
     2
1070
   287
1070
     5
1070
   340
1005
11F
1002
}
  0
LEADER
  5
28E
330
1F
100
AcDbEntity
  8
Ｓ_１_１
  6
CONTINUOUS
 62
     2
100
AcDbLeader
  3
ISO-25
 76
     3
 10
1296.4380719799
 20
1561.1782286607
 30
0.0
 10
1392.6799216596
 20
1657.4200783404
 30
0.0
 10
1532.5
 20
1657.4200783404
 30
0.0
1001
ACAD
1000
DSTYLE
1002
{
1070
     5
1000
EX_NORM
1070
    41
1040
21.0
1070
   341
1005
7E
1002
}
  0
TEXT
  5
28F
330
1F
100
AcDbEntity
  8
Ｓ_１_１
  6
CONTINUOUS
 62
     4
100
AcDbText
 10
1406.5
 20
1665.349765572179
 30
0.0
 40
24.24032763153705
  1
8-26キリ
 41
0.9992308297349457
  7
EXCADTTF1
 72
     5
 11
1532.5
 21
1665.349765572179
 31
0.0
100
AcDbText
  0
LEADER
  5
290
330
1F
100
AcDbEntity
  8
Ｓ_１_１
  6
CONTINUOUS
 62
     2
100
AcDbLeader
  3
ISO-25
 76
     3
 10
1081.2741785893
 20
717.27292802421
 30
0.0
 10
1247.2996332086
 20
621.41808710745
 30
0.0
 10
1475.8
 20
621.41808710745
 30
0.0
1001
ACAD
1000
DSTYLE
1002
{
1070
     5
1000
EX_NORM
1070
    41
1040
21.0
1070
   341
1005
7E
1002
}
  0
TEXT
  5
291
330
1F
100
AcDbEntity
  8
Ｓ_１_１
  6
CONTINUOUS
 62
     4
100
AcDbText
 10
1255.3
 20
629.3477743392291
 30
0.0
 40
24.24032763153705
  1
球面回転ヘッド
 41
0.9992308297349456
  7
EXCADTTF1
 72
     5
 11
1475.8
 21
629.3477743392291
 31
0.0
100
AcDbText
  0
LINE
  5
292
330
1F
100
AcDbEntity
  8
Ｓ_１_１
  6
CONTINUOUS
 62
     3
100
AcDbLine
 10
1335.000000000002
 20
224.9999999999998
 30
0.0
 11
735.0000000000019
 21
224.9999999999998
 31
0.0
  0
LINE
  5
293
330
1F
100
AcDbEntity
  8
Ｓ_１_１
  6
CONTINUOUS
 62
     3
100
AcDbLine
 10
1335.000000000002
 20
257.0000000000003
 30
0.0
 11
1335.000000000002
 21
224.9999999999998
 31
0.0
  0
LINE
  5
294
330
1F
100
AcDbEntity
  8
Ｓ_１_１
  6
CONTINUOUS
 62
     3
100
AcDbLine
 10
735.0000000000019
 20
257.0000000000008
 30
0.0
 11
735.0000000000019
 21
224.9999999999998
 31
0.0
  0
LINE
  5
295
330
1F
100
AcDbEntity
  8
Ｓ_１_１
  6
CONTINUOUS
 62
     3
100
AcDbLine
 10
857.2000000000027
 20
512.0000000000003
 30
0.0
 11
862.2000000000027
 21
517.0000000000003
 31
0.0
  0
LINE
  5
296
330
1F
100
AcDbEntity
  8
Ｓ_１_１
  6
CONTINUOUS
 62
     3
100
AcDbLine
 10
1212.800000000001
 20
511.9999999999999
 30
0.0
 11
1207.800000000001
 21
517.0000000000003
 31
0.0
  0
LINE
  5
297
330
1F
100
AcDbEntity
  8
Ｓ_１_１
  6
CONTINUOUS
 62
     3
100
AcDbLine
 10
1207.800000000001
 20
517.0000000000003
 30
0.0
 11
862.2000000000027
 21
517.0000000000003
 31
0.0
  0
LINE
  5
298
330
1F
100
AcDbEntity
  8
Ｓ_１_１
  6
CONTINUOUS
 62
     3
100
AcDbLine
 10
1335.000000000002
 20
256.9999999999999
 30
0.0
 11
735.0000000000019
 21
256.9999999999999
 31
0.0
  0
LINE
  5
299
330
1F
100
AcDbEntity
  8
Ｓ_１_１
  6
CONTINUOUS
 62
     3
100
AcDbLine
 10
857.2000000000027
 20
512.0000000000003
 30
0.0
 11
1212.800000000001
 21
512.0000000000003
 31
0.0
  0
ELLIPSE
  5
29A
330
1F
100
AcDbEntity
  8
Ｓ_１_１
  6
CONTINUOUS
 62
     3
100
AcDbEllipse
 10
943.735247395902
 20
302.0000000000003
 30
0.0
 11
-3.673940397442059E-15
 21
-20.0
 31
0.0
210
0.0
220
0.0
230
1.0
 40
0.3826834323650019
 41
0.0
 42
6.283185307179586
  0
LINE
  5
29B
330
1F
100
AcDbEntity
  8
Ｓ_１_１
  6
CONTINUOUS
 62
     3
100
AcDbLine
 10
966.696253337801
 20
257.0000000000003
 30
0.0
 11
974.3499219851019
 21
277.0000000000003
 31
0.0
  0
ELLIPSE
  5
29C
330
1F
100
AcDbEntity
  8
Ｓ_１_１
  6
CONTINUOUS
 62
     3
100
AcDbEllipse
 10
1126.264752604102
 20
302.0000000000003
 30
0.0
 11
-3.673940397442059E-15
 21
-20.0
 31
0.0
210
0.0
220
0.0
230
1.0
 40
0.3826834323650019
 41
0.0
 42
6.283185307179586
  0
LINE
  5
29D
330
1F
100
AcDbEntity
  8
Ｓ_１_１
  6
CONTINUOUS
 62
     3
100
AcDbLine
 10
1103.303746662203
 20
257.0000000000003
 30
0.0
 11
1095.650078014902
 21
277.0000000000003
 31
0.0
  0
LINE
  5
29E
330
1F
100
AcDbEntity
  8
Ｓ_１_１
  6
CONTINUOUS
 62
     3
100
AcDbLine
 10
913.6458375811018
 20
492.0000000000003
 30
0.0
 11
928.4279101013018
 21
492.0000000000003
 31
0.0
  0
LINE
  5
29F
330
1F
100
AcDbEntity
  8
Ｓ_１_１
  6
CONTINUOUS
 62
     3
100
AcDbLine
 10
928.4279101013018
 20
492.0000000000003
 30
0.0
 11
932.2547444249013
 21
502.0000000000004
 31
0.0
  0
LINE
  5
2A0
330
1F
100
AcDbEntity
  8
Ｓ_１_１
  6
CONTINUOUS
 62
     3
100
AcDbLine
 10
913.6458375811018
 20
492.0000000000003
 30
0.0
 11
917.4726719047013
 21
502.0000000000004
 31
0.0
  0
LINE
  5
2A1
330
1F
100
AcDbEntity
  8
Ｓ_１_１
  6
CONTINUOUS
 62
     3
100
AcDbLine
 10
917.4726719047013
 20
502.0000000000004
 30
0.0
 11
974.3499219851019
 21
502.0000000000004
 31
0.0
  0
ELLIPSE
  5
2A2
330
1F
100
AcDbEntity
  8
Ｓ_１_１
  6
CONTINUOUS
 62
     3
100
AcDbEllipse
 10
943.735247395902
 20
462.0000000000003
 30
0.0
 11
-3.673940397442059E-15
 21
-20.0
 31
0.0
210
0.0
220
0.0
230
1.0
 40
0.3826834323650019
 41
0.0
 42
6.283185307179586
  0
LINE
  5
2A3
330
1F
100
AcDbEntity
  8
Ｓ_１_１
  6
CONTINUOUS
 62
     3
100
AcDbLine
 10
1156.354162418904
 20
492.0000000000003
 30
0.0
 11
1141.572089898704
 21
492.0000000000003
 31
0.0
  0
LINE
  5
2A4
330
1F
100
AcDbEntity
  8
Ｓ_１_１
  6
CONTINUOUS
 62
     3
100
AcDbLine
 10
1141.572089898702
 20
492.0000000000003
 30
0.0
 11
1137.745255575102
 21
502.0000000000004
 31
0.0
  0
LINE
  5
2A5
330
1F
100
AcDbEntity
  8
Ｓ_１_１
  6
CONTINUOUS
 62
     3
100
AcDbLine
 10
1156.354162418902
 20
492.0000000000003
 30
0.0
 11
1152.527328095302
 21
502.0000000000004
 31
0.0
  0
LINE
  5
2A6
330
1F
100
AcDbEntity
  8
Ｓ_１_１
  6
CONTINUOUS
 62
     3
100
AcDbLine
 10
1152.527328095302
 20
502.0000000000004
 30
0.0
 11
1095.650078014902
 21
502.0000000000004
 31
0.0
  0
ELLIPSE
  5
2A7
330
1F
100
AcDbEntity
  8
Ｓ_１_１
  6
CONTINUOUS
 62
     3
100
AcDbEllipse
 10
1126.264752604102
 20
462.0000000000003
 30
0.0
 11
-3.673940397442059E-15
 21
-20.0
 31
0.0
210
0.0
220
0.0
230
1.0
 40
0.3826834323650019
 41
0.0
 42
6.283185307179586
  0
LINE
  5
2A8
330
1F
100
AcDbEntity
  8
Ｓ_１_１
  6
CONTINUOUS
 62
     3
100
AcDbLine
 10
913.6458375811018
 20
492.0000000000003
 30
0.0
 11
913.6458375811018
 21
256.9999999999999
 31
0.0
  0
LINE
  5
2A9
330
1F
100
AcDbEntity
  8
Ｓ_１_１
  6
CONTINUOUS
 62
     3
100
AcDbLine
 10
928.4279101013018
 20
492.0000000000003
 30
0.0
 11
928.4279101013018
 21
256.9999999999999
 31
0.0
  0
LINE
  5
2AA
330
1F
100
AcDbEntity
  8
Ｓ_１_１
  6
CONTINUOUS
 62
     3
100
AcDbLine
 10
974.3499219851019
 20
502.0000000000004
 30
0.0
 11
974.3499219851019
 21
277.0000000000003
 31
0.0
  0
LINE
  5
2AB
330
1F
100
AcDbEntity
  8
Ｓ_１_１
  6
CONTINUOUS
 62
     3
100
AcDbLine
 10
1095.650078014902
 20
502.0000000000004
 30
0.0
 11
1095.650078014902
 21
277.0000000000003
 31
0.0
  0
LINE
  5
2AC
330
1F
100
AcDbEntity
  8
Ｓ_１_１
  6
CONTINUOUS
 62
     3
100
AcDbLine
 10
1141.572089898704
 20
492.0000000000003
 30
0.0
 11
1141.572089898702
 21
256.9999999999999
 31
0.0
  0
LINE
  5
2AD
330
1F
100
AcDbEntity
  8
Ｓ_１_１
  6
CONTINUOUS
 62
     3
100
AcDbLine
 10
1156.354162418904
 20
492.0000000000003
 30
0.0
 11
1156.354162418902
 21
256.9999999999999
 31
0.0
  0
ELLIPSE
  5
2AE
330
1F
100
AcDbEntity
  8
Ｓ_１_１
  6
CONTINUOUS
 62
     3
100
AcDbEllipse
 10
1270.114676022304
 20
302.0000000000203
 30
0.0
 11
-3.673940397442059E-15
 21
-20.0
 31
0.0
210
0.0
220
0.0
230
1.0
 40
0.92387953251
 41
0.0
 42
6.283185307179586
  0
ELLIPSE
  5
2AF
330
1F
100
AcDbEntity
  8
Ｓ_１_１
  6
CONTINUOUS
 62
     3
100
AcDbEllipse
 10
1276.237610940203
 20
302.0000000000203
 30
0.0
 11
-3.673940397442059E-15
 21
-20.0
 31
0.0
210
0.0
220
0.0
230
1.0
 40
0.92387953251
 41
3.308045655597594
 42
6.116732305171797
  0
LINE
  5
2B0
330
1F
100
AcDbEntity
  8
Ｓ_１_１
  6
CONTINUOUS
 62
     3
100
AcDbLine
 10
1214.681904071602
 20
257.0000000000203
 30
0.0
 11
1196.204313421402
 21
277.0000000000203
 31
0.0
  0
LINE
  5
2B1
330
1F
100
AcDbEntity
  8
Ｓ_１_１
  6
CONTINUOUS
 62
     3
100
AcDbLine
 10
1313.192792240603
 20
492.0000000000203
 30
0.0
 11
1307.069857322802
 21
492.0000000000203
 31
0.0
  0
LINE
  5
2B2
330
1F
100
AcDbEntity
  8
Ｓ_１_１
  6
CONTINUOUS
 62
     3
100
AcDbLine
 10
1307.069857322802
 20
492.0000000000203
 30
0.0
 11
1297.831061997702
 21
502.0000000000203
 31
0.0
  0
LINE
  5
2B3
330
1F
100
AcDbEntity
  8
Ｓ_１_１
  6
CONTINUOUS
 62
     3
100
AcDbLine
 10
1313.192792240603
 20
492.0000000000203
 30
0.0
 11
1303.953996915503
 21
502.0000000000203
 31
0.0
  0
LINE
  5
2B4
330
1F
100
AcDbEntity
  8
Ｓ_１_１
  6
CONTINUOUS
 62
     3
100
AcDbLine
 10
1196.204313421402
 20
502.0000000000203
 30
0.0
 11
1303.953996915503
 21
502.0000000000203
 31
0.0
  0
ELLIPSE
  5
2B5
330
1F
100
AcDbEntity
  8
Ｓ_１_１
  6
CONTINUOUS
 62
     3
100
AcDbEllipse
 10
1270.114676022304
 20
462.0000000000203
 30
0.0
 11
-3.673940397442059E-15
 21
-20.0
 31
0.0
210
0.0
220
0.0
230
1.0
 40
0.92387953251
 41
0.0
 42
6.283185307179586
  0
ELLIPSE
  5
2B6
330
1F
100
AcDbEntity
  8
Ｓ_１_１
  6
CONTINUOUS
 62
     3
100
AcDbEllipse
 10
1276.237610940203
 20
462.0000000000203
 30
0.0
 11
-3.673940397442059E-15
 21
-20.0
 31
0.0
210
0.0
220
0.0
230
1.0
 40
0.92387953251
 41
3.308045655597594
 42
6.116732305171797
  0
LINE
  5
2B7
330
1F
100
AcDbEntity
  8
Ｓ_１_１
  6
CONTINUOUS
 62
     3
100
AcDbLine
 10
1196.204313421402
 20
502.0000000000203
 30
0.0
 11
1196.204313421402
 21
277.0000000000199
 31
0.0
  0
LINE
  5
2B8
330
1F
100
AcDbEntity
  8
Ｓ_１_１
  6
CONTINUOUS
 62
     3
100
AcDbLine
 10
1307.069857322802
 20
492.0000000000203
 30
0.0
 11
1307.069857322802
 21
257.0000000000199
 31
0.0
  0
LINE
  5
2B9
330
1F
100
AcDbEntity
  8
Ｓ_１_１
  6
CONTINUOUS
 62
     3
100
AcDbLine
 10
1313.192792240603
 20
492.0000000000203
 30
0.0
 11
1313.192792240603
 21
257.0000000000199
 31
0.0
  0
LINE
  5
2BA
330
1F
100
AcDbEntity
  8
Ｓ_１_１
  6
CONTINUOUS
 62
     3
100
AcDbLine
 10
1212.800000000001
 20
259.0369582888223
 30
0.0
 11
1212.800000000001
 21
257.0000000000199
 31
0.0
  0
LINE
  5
2BB
330
1F
100
AcDbEntity
  8
Ｓ_１_１
  6
CONTINUOUS
 62
     3
100
AcDbLine
 10
1212.800000000001
 20
511.9999999999999
 30
0.0
 11
1212.800000000001
 21
502.0000000000203
 31
0.0
  0
LINE
  5
2BC
330
1F
100
AcDbEntity
  8
Ｓ_１_１
  6
CONTINUOUS
 62
     3
100
AcDbLine
 10
1315.000000000002
 20
257.0000000000203
 30
0.0
 11
1315.000000000002
 21
225.0000000000203
 31
0.0
  0
LINE
  5
2BD
330
1F
100
AcDbEntity
  8
Ｓ_１_１
  6
CONTINUOUS
 62
     3
100
AcDbLine
 10
755.0000000000019
 20
257.0000000000203
 30
0.0
 11
755.0000000000019
 21
225.0000000000203
 31
0.0
  0
ELLIPSE
  5
2BE
330
1F
100
AcDbEntity
  8
Ｓ_１_１
  6
CONTINUOUS
 62
     3
100
AcDbEllipse
 10
799.8853239777019
 20
302.0000000000203
 30
0.0
 11
-3.673940397442059E-15
 21
-20.0
 31
0.0
210
0.0
220
0.0
230
1.0
 40
0.92387953251
 41
0.0
 42
6.283185307179586
  0
ELLIPSE
  5
2BF
330
1F
100
AcDbEntity
  8
Ｓ_１_１
  6
CONTINUOUS
 62
     3
100
AcDbEllipse
 10
793.7623890598026
 20
302.0000000000203
 30
0.0
 11
-3.673940397442059E-15
 21
-20.0
 31
0.0
210
0.0
220
0.0
230
1.0
 40
0.92387953251
 41
0.1664530020077887
 42
2.975139651581992
  0
LINE
  5
2C0
330
1F
100
AcDbEntity
  8
Ｓ_１_１
  6
CONTINUOUS
 62
     3
100
AcDbLine
 10
855.3180959284019
 20
257.0000000000203
 30
0.0
 11
873.7956865786019
 21
277.0000000000203
 31
0.0
  0
LINE
  5
2C1
330
1F
100
AcDbEntity
  8
Ｓ_１_１
  6
CONTINUOUS
 62
     3
100
AcDbLine
 10
756.8072077594026
 20
492.0000000000203
 30
0.0
 11
762.9301426772018
 21
492.0000000000203
 31
0.0
  0
LINE
  5
2C2
330
1F
100
AcDbEntity
  8
Ｓ_１_１
  6
CONTINUOUS
 62
     3
100
AcDbLine
 10
762.9301426772018
 20
492.0000000000203
 30
0.0
 11
772.1689380023018
 21
502.0000000000203
 31
0.0
  0
LINE
  5
2C3
330
1F
100
AcDbEntity
  8
Ｓ_１_１
  6
CONTINUOUS
 62
     3
100
AcDbLine
 10
756.8072077594026
 20
492.0000000000203
 30
0.0
 11
766.0460030845007
 21
502.0000000000203
 31
0.0
  0
LINE
  5
2C4
330
1F
100
AcDbEntity
  8
Ｓ_１_１
  6
CONTINUOUS
 62
     3
100
AcDbLine
 10
873.7956865786019
 20
502.0000000000203
 30
0.0
 11
766.0460030845007
 21
502.0000000000203
 31
0.0
  0
ELLIPSE
  5
2C5
330
1F
100
AcDbEntity
  8
Ｓ_１_１
  6
CONTINUOUS
 62
     3
100
AcDbEllipse
 10
799.8853239777019
 20
462.0000000000203
 30
0.0
 11
-3.673940397442059E-15
 21
-20.0
 31
0.0
210
0.0
220
0.0
230
1.0
 40
0.92387953251
 41
0.0
 42
6.283185307179586
  0
ELLIPSE
  5
2C6
330
1F
100
AcDbEntity
  8
Ｓ_１_１
  6
CONTINUOUS
 62
     3
100
AcDbEllipse
 10
793.7623890598026
 20
462.0000000000203
 30
0.0
 11
-3.673940397442059E-15
 21
-20.0
 31
0.0
210
0.0
220
0.0
230
1.0
 40
0.92387953251
 41
0.1664530020077898
 42
2.975139651581992
  0
LINE
  5
2C7
330
1F
100
AcDbEntity
  8
Ｓ_１_１
  6
CONTINUOUS
 62
     3
100
AcDbLine
 10
873.7956865786019
 20
502.0000000000203
 30
0.0
 11
873.7956865786019
 21
277.0000000000199
 31
0.0
  0
LINE
  5
2C8
330
1F
100
AcDbEntity
  8
Ｓ_１_１
  6
CONTINUOUS
 62
     3
100
AcDbLine
 10
762.9301426772018
 20
492.0000000000203
 30
0.0
 11
762.9301426772018
 21
257.0000000000199
 31
0.0
  0
LINE
  5
2C9
330
1F
100
AcDbEntity
  8
Ｓ_１_１
  6
CONTINUOUS
 62
     3
100
AcDbLine
 10
756.8072077594026
 20
492.0000000000203
 30
0.0
 11
756.8072077594026
 21
257.0000000000199
 31
0.0
  0
LINE
  5
2CA
330
1F
100
AcDbEntity
  8
Ｓ_１_１
  6
CONTINUOUS
 62
     3
100
AcDbLine
 10
857.2000000000027
 20
259.0369582888223
 30
0.0
 11
857.2000000000027
 21
257.0000000000199
 31
0.0
  0
LINE
  5
2CB
330
1F
100
AcDbEntity
  8
Ｓ_１_１
  6
CONTINUOUS
 62
     3
100
AcDbLine
 10
857.2000000000027
 20
512.0000000000003
 30
0.0
 11
857.2000000000027
 21
502.0000000000203
 31
0.0
  0
LINE
  5
2CC
330
1F
100
AcDbEntity
  8
Ｓ_１_１
  6
CONTINUOUS
 62
     3
100
AcDbLine
 10
885.5000029999993
 20
676.9999929999993
 30
0.0
 11
882.5000029999993
 21
673.9999929999993
 31
0.0
  0
LINE
  5
2CD
330
1F
100
AcDbEntity
  8
Ｓ_１_１
  6
CONTINUOUS
 62
     3
100
AcDbLine
 10
1184.499996999999
 20
676.9999929999993
 30
0.0
 11
1187.499996999999
 21
673.9999929999993
 31
0.0
  0
LINE
  5
2CE
330
1F
100
AcDbEntity
  8
Ｓ_１_１
  6
CONTINUOUS
 62
     3
100
AcDbLine
 10
882.5000029999993
 20
673.9999929999993
 30
0.0
 11
882.5000029999993
 21
516.9999999999999
 31
0.0
  0
LINE
  5
2CF
330
1F
100
AcDbEntity
  8
Ｓ_１_１
  6
CONTINUOUS
 62
     3
100
AcDbLine
 10
1187.499996999999
 20
673.9999929999993
 30
0.0
 11
1187.499996999999
 21
516.9999999999999
 31
0.0
  0
LINE
  5
2D0
330
1F
100
AcDbEntity
  8
Ｓ_１_１
  6
CONTINUOUS
 62
     3
100
AcDbLine
 10
882.5000029999993
 20
673.9999929999993
 30
0.0
 11
1187.499996999999
 21
673.9999929999993
 31
0.0
  0
LINE
  5
2D1
330
1F
100
AcDbEntity
  8
Ｓ_１_１
  6
CONTINUOUS
 62
     3
100
AcDbLine
 10
996.2999999999994
 20
601.9999900198003
 30
0.0
 11
996.2999999999994
 21
516.9999999999999
 31
0.0
  0
LINE
  5
2D2
330
1F
100
AcDbEntity
  8
Ｓ_１_１
  6
CONTINUOUS
 62
     3
100
AcDbLine
 10
1073.699999999999
 20
601.9999900198003
 30
0.0
 11
1073.699999999999
 21
516.9999999999999
 31
0.0
  0
LINE
  5
2D3
330
1F
100
AcDbEntity
  8
Ｓ_１_１
  6
CONTINUOUS
 62
     3
100
AcDbLine
 10
1073.699999999999
 20
601.9999900198003
 30
0.0
 11
996.2999999999994
 21
601.9999900197985
 31
0.0
  0
CIRCLE
  5
2D4
330
1F
100
AcDbEntity
  8
Ｓ_１_１
  6
CONTINUOUS
 62
     3
100
AcDbCircle
 10
1007.4999999999
 20
586.9999924038992
 30
0.0
 40
5.0
  0
CIRCLE
  5
2D5
330
1F
100
AcDbEntity
  8
Ｓ_１_１
  6
CONTINUOUS
 62
     3
100
AcDbCircle
 10
1007.4999999999
 20
586.9999924038992
 30
0.0
 40
4.1382432228132
  0
CIRCLE
  5
2D6
330
1F
100
AcDbEntity
  8
Ｓ_１_１
  6
CONTINUOUS
 62
     3
100
AcDbCircle
 10
1007.4999999999
 20
556.9999956821993
 30
0.0
 40
5.0
  0
CIRCLE
  5
2D7
330
1F
100
AcDbEntity
  8
Ｓ_１_１
  6
CONTINUOUS
 62
     3
100
AcDbCircle
 10
1007.4999999999
 20
556.9999956821993
 30
0.0
 40
4.1382432228132
  0
CIRCLE
  5
2D8
330
1F
100
AcDbEntity
  8
Ｓ_１_１
  6
CONTINUOUS
 62
     3
100
AcDbCircle
 10
1007.4999999999
 20
526.9999989603997
 30
0.0
 40
5.0
  0
CIRCLE
  5
2D9
330
1F
100
AcDbEntity
  8
Ｓ_１_１
  6
CONTINUOUS
 62
     3
100
AcDbCircle
 10
1007.4999999999
 20
526.9999989603997
 30
0.0
 40
4.1382432228132
  0
CIRCLE
  5
2DA
330
1F
100
AcDbEntity
  8
Ｓ_１_１
  6
CONTINUOUS
 62
     3
100
AcDbCircle
 10
1062.5000000001
 20
586.9999924038992
 30
0.0
 40
5.0
  0
CIRCLE
  5
2DB
330
1F
100
AcDbEntity
  8
Ｓ_１_１
  6
CONTINUOUS
 62
     3
100
AcDbCircle
 10
1062.5000000001
 20
586.9999924038992
 30
0.0
 40
4.1382432228132
  0
CIRCLE
  5
2DC
330
1F
100
AcDbEntity
  8
Ｓ_１_１
  6
CONTINUOUS
 62
     3
100
AcDbCircle
 10
1062.5000000001
 20
556.9999956821993
 30
0.0
 40
5.0
  0
CIRCLE
  5
2DD
330
1F
100
AcDbEntity
  8
Ｓ_１_１
  6
CONTINUOUS
 62
     3
100
AcDbCircle
 10
1062.5000000001
 20
556.9999956821993
 30
0.0
 40
4.1382432228132
  0
CIRCLE
  5
2DE
330
1F
100
AcDbEntity
  8
Ｓ_１_１
  6
CONTINUOUS
 62
     3
100
AcDbCircle
 10
1062.5000000001
 20
526.9999989603997
 30
0.0
 40
5.0
  0
CIRCLE
  5
2DF
330
1F
100
AcDbEntity
  8
Ｓ_１_１
  6
CONTINUOUS
 62
     3
100
AcDbCircle
 10
1062.5000000001
 20
526.9999989603997
 30
0.0
 40
4.1382432228132
  0
LINE
  5
2E0
330
1F
100
AcDbEntity
  8
Ｓ_１_１
  6
EXLTYPE0
 62
     2
100
AcDbLine
 10
1132.50106199999
 20
686.9998979999996
 30
0.0
 11
1133.078355868892
 21
685.9999929999702
 31
0.0
  0
LINE
  5
2E1
330
1F
100
AcDbEntity
  8
Ｓ_１_１
  6
EXLTYPE0
 62
     2
100
AcDbLine
 10
937.4989379999904
 20
686.9998979999996
 30
0.0
 11
936.9216441310884
 21
685.9999929999702
 31
0.0
  0
LINE
  5
2E2
330
1F
100
AcDbEntity
  8
Ｓ_１_１
  6
EXLTYPE2
 62
     1
100
AcDbLine
 10
1073.699999999999
 20
556.9999956822197
 30
0.0
 11
1051.25
 21
556.9999956822197
 31
0.0
  0
LINE
  5
2E3
330
1F
100
AcDbEntity
  8
Ｓ_１_１
  6
EXLTYPE2
 62
     1
100
AcDbLine
 10
1062.500000000069
 20
515.7128381915994
 30
0.0
 11
1062.500000000069
 21
597.7128381915994
 31
0.0
  0
LINE
  5
2E4
330
1F
100
AcDbEntity
  8
Ｓ_１_１
  6
EXLTYPE2
 62
     1
100
AcDbLine
 10
1051.283452900068
 20
526.9999989604429
 30
0.0
 11
1074.233452900069
 21
526.9999989604429
 31
0.0
  0
LINE
  5
2E5
330
1F
100
AcDbEntity
  8
Ｓ_１_１
  6
EXLTYPE2
 62
     1
100
AcDbLine
 10
1051.283452900068
 20
586.9999924039392
 30
0.0
 11
1074.233452900069
 21
586.9999924039392
 31
0.0
  0
LINE
  5
2E6
330
1F
100
AcDbEntity
  8
Ｓ_１_１
  6
EXLTYPE2
 62
     1
100
AcDbLine
 10
996.2999999999994
 20
556.9999956822197
 30
0.0
 11
1018.75
 21
556.9999956822197
 31
0.0
  0
LINE
  5
2E7
330
1F
100
AcDbEntity
  8
Ｓ_１_１
  6
EXLTYPE2
 62
     1
100
AcDbLine
 10
1007.499999999931
 20
515.7128381915994
 30
0.0
 11
1007.499999999931
 21
597.7128381915994
 31
0.0
  0
LINE
  5
2E8
330
1F
100
AcDbEntity
  8
Ｓ_１_１
  6
EXLTYPE2
 62
     1
100
AcDbLine
 10
1018.716547099932
 20
526.9999989604429
 30
0.0
 11
995.766547099931
 21
526.9999989604429
 31
0.0
  0
LINE
  5
2E9
330
1F
100
AcDbEntity
  8
Ｓ_１_１
  6
EXLTYPE2
 62
     1
100
AcDbLine
 10
1018.716547099932
 20
586.9999924039392
 30
0.0
 11
995.766547099931
 21
586.9999924039392
 31
0.0
  0
LINE
  5
2EA
330
1F
100
AcDbEntity
  8
Ｓ_１_１
  6
EXLTYPE2
 62
     1
100
AcDbLine
 10
799.8853239777019
 20
491.0000020000205
 30
0.0
 11
799.8853239777019
 21
431.0000020000206
 31
0.0
  0
LINE
  5
2EB
330
1F
100
AcDbEntity
  8
Ｓ_１_１
  6
EXLTYPE2
 62
     1
100
AcDbLine
 10
773.5999880000019
 20
462.0000000000203
 30
0.0
 11
826.399988000003
 21
462.0000000000203
 31
0.0
  0
LINE
  5
2EC
330
1F
100
AcDbEntity
  8
Ｓ_１_１
  6
EXLTYPE2
 62
     1
100
AcDbLine
 10
799.8853239777019
 20
331.0000020000206
 30
0.0
 11
799.8853239777019
 21
271.0000020000206
 31
0.0
  0
LINE
  5
2ED
330
1F
100
AcDbEntity
  8
Ｓ_１_１
  6
EXLTYPE2
 62
     1
100
AcDbLine
 10
773.5999880000019
 20
302.0000000000203
 30
0.0
 11
826.399988000003
 21
302.0000000000203
 31
0.0
  0
LINE
  5
2EE
330
1F
100
AcDbEntity
  8
Ｓ_１_１
  6
EXLTYPE2
 62
     1
100
AcDbLine
 10
1270.114676022304
 20
491.0000020000201
 30
0.0
 11
1270.114676022304
 21
431.0000020000201
 31
0.0
  0
LINE
  5
2EF
330
1F
100
AcDbEntity
  8
Ｓ_１_１
  6
EXLTYPE2
 62
     1
100
AcDbLine
 10
1296.400012000004
 20
462.0000000000203
 30
0.0
 11
1243.600012000003
 21
462.0000000000203
 31
0.0
  0
LINE
  5
2F0
330
1F
100
AcDbEntity
  8
Ｓ_１_１
  6
EXLTYPE2
 62
     1
100
AcDbLine
 10
1270.114676022304
 20
331.0000020000201
 30
0.0
 11
1270.114676022304
 21
271.0000020000201
 31
0.0
  0
LINE
  5
2F1
330
1F
100
AcDbEntity
  8
Ｓ_１_１
  6
EXLTYPE2
 62
     1
100
AcDbLine
 10
1296.400012000004
 20
302.0000000000203
 30
0.0
 11
1243.600012000003
 21
302.0000000000203
 31
0.0
  0
LINE
  5
2F2
330
1F
100
AcDbEntity
  8
Ｓ_１_１
  6
EXLTYPE2
 62
     1
100
AcDbLine
 10
1126.264752604102
 20
487.8000020000002
 30
0.0
 11
1126.264752604102
 21
435.4000020000002
 31
0.0
  0
LINE
  5
2F3
330
1F
100
AcDbEntity
  8
Ｓ_１_１
  6
EXLTYPE2
 62
     1
100
AcDbLine
 10
1138.960012000001
 20
462.0000000000003
 30
0.0
 11
1113.760012000002
 21
462.0000000000003
 31
0.0
  0
LINE
  5
2F4
330
1F
100
AcDbEntity
  8
Ｓ_１_１
  6
EXLTYPE2
 62
     1
100
AcDbLine
 10
943.735247395902
 20
487.8000020000002
 30
0.0
 11
943.735247395902
 21
435.4000020000002
 31
0.0
  0
LINE
  5
2F5
330
1F
100
AcDbEntity
  8
Ｓ_１_１
  6
EXLTYPE2
 62
     1
100
AcDbLine
 10
931.0399880000025
 20
462.0000000000003
 30
0.0
 11
956.239988000003
 21
462.0000000000003
 31
0.0
  0
LINE
  5
2F6
330
1F
100
AcDbEntity
  8
Ｓ_１_１
  6
EXLTYPE2
 62
     1
100
AcDbLine
 10
1126.264752604102
 20
327.8000020000003
 30
0.0
 11
1126.264752604102
 21
275.4000020000002
 31
0.0
  0
LINE
  5
2F7
330
1F
100
AcDbEntity
  8
Ｓ_１_１
  6
EXLTYPE2
 62
     1
100
AcDbLine
 10
1138.960012000001
 20
302.0000000000003
 30
0.0
 11
1113.760012000002
 21
302.0000000000003
 31
0.0
  0
LINE
  5
2F8
330
1F
100
AcDbEntity
  8
Ｓ_１_１
  6
EXLTYPE2
 62
     1
100
AcDbLine
 10
943.735247395902
 20
327.8000020000003
 30
0.0
 11
943.735247395902
 21
275.4000020000002
 31
0.0
  0
LINE
  5
2F9
330
1F
100
AcDbEntity
  8
Ｓ_１_１
  6
EXLTYPE2
 62
     1
100
AcDbLine
 10
931.0399880000025
 20
302.0000000000003
 30
0.0
 11
956.239988000003
 21
302.0000000000003
 31
0.0
  0
LINE
  5
2FA
330
1F
100
AcDbEntity
  8
Ｓ_１_１
  6
CONTINUOUS
 62
     3
100
AcDbLine
 10
1184.499996999999
 20
676.9999929999993
 30
0.0
 11
885.5000029999993
 21
676.9999929999993
 31
0.0
  0
LINE
  5
2FB
330
1F
100
AcDbEntity
  8
Ｓ_１_１
  6
CONTINUOUS
 62
     3
100
AcDbLine
 10
1193.862273000009
 20
583.4999920000002
 30
0.0
 11
1193.862273000009
 21
571.9999920000002
 31
0.0
  0
LINE
  5
2FC
330
1F
100
AcDbEntity
  8
Ｓ_１_１
  6
CONTINUOUS
 62
     3
100
AcDbLine
 10
1193.862273000009
 20
571.9999920000002
 30
0.0
 11
1193.862273000009
 21
560.4999920000002
 31
0.0
  0
LINE
  5
2FD
330
1F
100
AcDbEntity
  8
Ｓ_１_１
  6
CONTINUOUS
 62
     3
100
AcDbLine
 10
1194.862273000009
 20
559.4999920000002
 30
0.0
 11
1210.362273000009
 21
559.4999920000002
 31
0.0
  0
LINE
  5
2FE
330
1F
100
AcDbEntity
  8
Ｓ_１_１
  6
CONTINUOUS
 62
     3
100
AcDbLine
 10
1225.862273000009
 20
559.4999920000002
 30
0.0
 11
1210.362273000009
 21
559.4999920000002
 31
0.0
  0
LINE
  5
2FF
330
1F
100
AcDbEntity
  8
Ｓ_１_１
  6
CONTINUOUS
 62
     3
100
AcDbLine
 10
1226.862273000009
 20
583.4999920000002
 30
0.0
 11
1226.862273000009
 21
571.9999920000002
 31
0.0
  0
LINE
  5
300
330
1F
100
AcDbEntity
  8
Ｓ_１_１
  6
CONTINUOUS
 62
     3
100
AcDbLine
 10
1226.862273000009
 20
571.9999920000002
 30
0.0
 11
1226.862273000009
 21
560.4999920000002
 31
0.0
  0
LINE
  5
301
330
1F
100
AcDbEntity
  8
Ｓ_１_１
  6
CONTINUOUS
 62
     3
100
AcDbLine
 10
1226.862274558709
 20
560.4999906311002
 30
0.0
 11
1225.862274424308
 21
559.4999905811003
 31
0.0
  0
LINE
  5
302
330
1F
100
AcDbEntity
  8
Ｓ_１_１
  6
CONTINUOUS
 62
     3
100
AcDbLine
 10
1194.862271902909
 20
559.4999912133005
 30
0.0
 11
1193.862272190009
 21
560.4999910104004
 31
0.0
  0
LINE
  5
303
330
1F
100
AcDbEntity
  8
Ｓ_１_１
  6
CONTINUOUS
 62
     3
100
AcDbLine
 10
1194.862273075809
 20
584.4999919519003
 30
0.0
 11
1193.862273033009
 21
583.4999918248002
 31
0.0
  0
LINE
  5
304
330
1F
100
AcDbEntity
  8
Ｓ_１_１
  6
CONTINUOUS
 62
     3
100
AcDbLine
 10
1194.862273000009
 20
584.4999920000002
 30
0.0
 11
1210.362273000009
 21
584.4999920000002
 31
0.0
  0
LINE
  5
305
330
1F
100
AcDbEntity
  8
Ｓ_１_１
  6
CONTINUOUS
 62
     3
100
AcDbLine
 10
1226.862273462809
 20
583.4999922884001
 30
0.0
 11
1225.862273665709
 21
584.4999920013004
 31
0.0
  0
LINE
  5
306
330
1F
100
AcDbEntity
  8
Ｓ_１_１
  6
CONTINUOUS
 62
     3
100
AcDbLine
 10
1225.862273000009
 20
584.4999920000002
 30
0.0
 11
1210.362273000009
 21
584.4999920000002
 31
0.0
  0
LINE
  5
307
330
1F
100
AcDbEntity
  8
Ｓ_１_１
  6
CONTINUOUS
 62
     3
100
AcDbLine
 10
1225.862273000009
 20
584.4999920000002
 30
0.0
 11
1225.862273000009
 21
559.4999920000002
 31
0.0
  0
LINE
  5
308
330
1F
100
AcDbEntity
  8
Ｓ_１_１
  6
CONTINUOUS
 62
     3
100
AcDbLine
 10
1194.862273000009
 20
584.4999920000002
 30
0.0
 11
1194.862273000009
 21
559.4999920000002
 31
0.0
  0
LINE
  5
309
330
1F
100
AcDbEntity
  8
Ｓ_１_１
  6
CONTINUOUS
 62
     3
100
AcDbLine
 10
1228.22454500002
 20
563.7351300000003
 30
0.0
 11
1228.22454500002
 21
580.2648470000001
 31
0.0
  0
LINE
  5
30A
330
1F
100
AcDbEntity
  8
Ｓ_１_１
  6
CONTINUOUS
 62
     3
100
AcDbLine
 10
1234.36224600002
 20
579.1798730000003
 30
0.0
 11
1228.22453300002
 21
579.5634809999999
 31
0.0
  0
LINE
  5
30B
330
1F
100
AcDbEntity
  8
Ｓ_１_１
  6
CONTINUOUS
 62
     3
100
AcDbLine
 10
1234.36226400002
 20
579.881243
 30
0.0
 11
1226.86225000002
 21
580.3499939999999
 31
0.0
  0
LINE
  5
30C
330
1F
100
AcDbEntity
  8
Ｓ_１_１
  6
CONTINUOUS
 62
     3
100
AcDbLine
 10
1228.22455300002
 20
579.5634660000001
 30
0.0
 11
1226.86227000002
 21
580.3499810000001
 31
0.0
  0
LINE
  5
30D
330
1F
100
AcDbEntity
  8
Ｓ_１_１
  6
CONTINUOUS
 62
     3
100
AcDbLine
 10
1234.36227600002
 20
564.1187420000003
 30
0.0
 11
1226.86223100002
 21
563.6499890000002
 31
0.0
  0
LINE
  5
30E
330
1F
100
AcDbEntity
  8
Ｓ_１_１
  6
CONTINUOUS
 62
     3
100
AcDbLine
 10
1226.86225400002
 20
563.650003
 30
0.0
 11
1228.22452400002
 21
564.4365090000003
 31
0.0
  0
LINE
  5
30F
330
1F
100
AcDbEntity
  8
Ｓ_１_１
  6
CONTINUOUS
 62
     3
100
AcDbLine
 10
1234.36225800002
 20
564.8201040000001
 30
0.0
 11
1228.22451500002
 21
564.4364950000001
 31
0.0
  0
LINE
  5
310
330
1F
100
AcDbEntity
  8
Ｓ_１_１
  6
CONTINUOUS
 62
     3
100
AcDbLine
 10
1187.499982
 20
564.7490030000001
 30
0.0
 11
1192.499992
 21
564.4365020000002
 31
0.0
  0
LINE
  5
311
330
1F
100
AcDbEntity
  8
Ｓ_１_１
  6
CONTINUOUS
 62
     3
100
AcDbLine
 10
1187.499994
 20
564.0476390000001
 30
0.0
 11
1193.862244999999
 21
563.649999
 31
0.0
  0
LINE
  5
312
330
1F
100
AcDbEntity
  8
Ｓ_１_１
  6
CONTINUOUS
 62
     3
100
AcDbLine
 10
1192.500000999999
 20
563.7351300000003
 30
0.0
 11
1192.500000999999
 21
580.2648470000001
 31
0.0
  0
LINE
  5
313
330
1F
100
AcDbEntity
  8
Ｓ_１_１
  6
CONTINUOUS
 62
     3
100
AcDbLine
 10
1193.862292
 20
563.6499799999999
 30
0.0
 11
1192.500009
 21
564.4364940000003
 31
0.0
  0
LINE
  5
314
330
1F
100
AcDbEntity
  8
Ｓ_１_１
  6
CONTINUOUS
 62
     3
100
AcDbLine
 10
1187.499994
 20
579.2509780000003
 30
0.0
 11
1192.500004
 21
579.5634790000001
 31
0.0
  0
LINE
  5
315
330
1F
100
AcDbEntity
  8
Ｓ_１_１
  6
CONTINUOUS
 62
     3
100
AcDbLine
 10
1187.500007
 20
579.952342
 30
0.0
 11
1193.862257
 21
580.349982
 31
0.0
  0
LINE
  5
316
330
1F
100
AcDbEntity
  8
Ｓ_１_１
  6
CONTINUOUS
 62
     3
100
AcDbLine
 10
1192.499993
 20
579.5634889999999
 30
0.0
 11
1193.862263
 21
580.3499960000001
 31
0.0
  0
ARC
  5
317
330
1F
100
AcDbEntity
  8
Ｓ_１_１
  6
CONTINUOUS
 62
     3
100
AcDbCircle
 10
1235.228439000019
 20
561.6077035000105
 30
0.0
 40
6.133925000000002
100
AcDbArc
 50
325.6154380000003
 51
34.38458300000033
  0
ARC
  5
318
330
1F
100
AcDbEntity
  8
Ｓ_１_１
  6
CONTINUOUS
 62
     3
100
AcDbCircle
 10
1218.434127000019
 20
572.0000075000105
 30
0.0
 40
22.927938
100
AcDbArc
 50
342.411858
 51
17.58816600000023
  0
ARC
  5
319
330
1F
100
AcDbEntity
  8
Ｓ_１_１
  6
CONTINUOUS
 62
     3
100
AcDbCircle
 10
1240.496139000018
 20
582.3923415000102
 30
0.0
 40
6.133925000000002
100
AcDbArc
 50
145.6154019999991
 51
214.3845609999998
  0
ARC
  5
31A
330
1F
100
AcDbEntity
  8
Ｓ_１_１
  6
CONTINUOUS
 62
     3
100
AcDbCircle
 10
1278.362106000019
 20
576.50000750001
 30
0.0
 40
1.0
100
AcDbArc
 50
359.9999779999952
 51
89.99997499999768
  0
ARC
  5
31B
330
1F
100
AcDbEntity
  8
Ｓ_１_１
  6
CONTINUOUS
 62
     3
100
AcDbCircle
 10
1235.228439000019
 20
582.3923415000102
 30
0.0
 40
6.133925000000002
100
AcDbArc
 50
325.6153689999998
 51
34.384513999999
  0
ARC
  5
31C
330
1F
100
AcDbEntity
  8
Ｓ_１_１
  6
CONTINUOUS
 62
     3
100
AcDbCircle
 10
1257.290206000019
 20
572.0000075000105
 30
0.0
 40
22.927942
100
AcDbArc
 50
162.4118210000002
 51
197.5881150000002
  0
ARC
  5
31D
330
1F
100
AcDbEntity
  8
Ｓ_１_１
  6
CONTINUOUS
 62
     3
100
AcDbCircle
 10
1240.496139000018
 20
561.6077035000105
 30
0.0
 40
6.133925000000002
100
AcDbArc
 50
145.615416
 51
214.3845739999998
  0
ARC
  5
31E
330
1F
100
AcDbEntity
  8
Ｓ_１_１
  6
CONTINUOUS
 62
     3
100
AcDbCircle
 10
1278.362106000019
 20
567.5000375000106
 30
0.0
 40
1.0
100
AcDbArc
 50
269.9999970000024
 51
359.9999780000017
  0
LINE
  5
31F
330
1F
100
AcDbEntity
  8
Ｓ_１_１
  6
CONTINUOUS
 62
     3
100
AcDbLine
 10
1281.362228000018
 20
573.4999765000105
 30
0.0
 11
1281.362228000018
 21
570.5000075000105
 31
0.0
  0
LINE
  5
320
330
1F
100
AcDbEntity
  8
Ｓ_１_１
  6
CONTINUOUS
 62
     3
100
AcDbLine
 10
1234.362350000019
 20
584.00000750001
 30
0.0
 11
1234.362350000019
 21
560.0000375000106
 31
0.0
  0
LINE
  5
321
330
1F
100
AcDbEntity
  8
Ｓ_１_１
  6
CONTINUOUS
 62
     3
100
AcDbLine
 10
1278.362106000019
 20
577.5000375000102
 30
0.0
 11
1269.362350000019
 21
577.5000375000102
 31
0.0
  0
LINE
  5
322
330
1F
100
AcDbEntity
  8
Ｓ_１_１
  6
CONTINUOUS
 62
     3
100
AcDbLine
 10
1269.362350000019
 20
577.5000375000102
 30
0.0
 11
1269.362350000019
 21
566.5000075000105
 31
0.0
  0
LINE
  5
323
330
1F
100
AcDbEntity
  8
Ｓ_１_１
  6
CONTINUOUS
 62
     3
100
AcDbLine
 10
1265.862106000019
 20
580.99997650001
 30
0.0
 11
1263.862228000018
 21
580.99997650001
 31
0.0
  0
LINE
  5
324
330
1F
100
AcDbEntity
  8
Ｓ_１_１
  6
CONTINUOUS
 62
     3
100
AcDbLine
 10
1265.862106000019
 20
563.0000075000105
 30
0.0
 11
1263.862228000018
 21
563.0000075000105
 31
0.0
  0
LINE
  5
325
330
1F
100
AcDbEntity
  8
Ｓ_１_１
  6
CONTINUOUS
 62
     3
100
AcDbLine
 10
1250.362228000018
 20
583.25000750001
 30
0.0
 11
1250.362228000018
 21
560.7500075000105
 31
0.0
  0
LINE
  5
326
330
1F
100
AcDbEntity
  8
Ｓ_１_１
  6
CONTINUOUS
 62
     3
100
AcDbLine
 10
1249.862228000018
 20
560.2500075000105
 30
0.0
 11
1241.362228000018
 21
560.2500075000105
 31
0.0
  0
LINE
  5
327
330
1F
100
AcDbEntity
  8
Ｓ_１_１
  6
CONTINUOUS
 62
     3
100
AcDbLine
 10
1249.862228000018
 20
583.7500375000102
 30
0.0
 11
1241.362228000018
 21
583.7500375000102
 31
0.0
  0
LINE
  5
328
330
1F
100
AcDbEntity
  8
Ｓ_１_１
  6
CONTINUOUS
 62
     3
100
AcDbLine
 10
1235.434202000019
 20
585.8563755000102
 30
0.0
 11
1234.362425000018
 21
584.00000350001
 31
0.0
  0
LINE
  5
329
330
1F
100
AcDbEntity
  8
Ｓ_１_１
  6
CONTINUOUS
 62
     3
100
AcDbLine
 10
1241.362419000018
 20
560.0000805000107
 30
0.0
 11
1240.290580000018
 21
558.1436025000105
 31
0.0
  0
LINE
  5
32A
330
1F
100
AcDbEntity
  8
Ｓ_１_１
  6
CONTINUOUS
 62
     3
100
AcDbLine
 10
1234.362383000019
 20
560.0000385000105
 30
0.0
 11
1235.434160000019
 21
558.1436655000105
 31
0.0
  0
LINE
  5
32B
330
1F
100
AcDbEntity
  8
Ｓ_１_１
  6
CONTINUOUS
 62
     3
100
AcDbLine
 10
1240.290720000018
 20
585.8563685000101
 30
0.0
 11
1241.362497000018
 21
583.9999955000101
 31
0.0
  0
LINE
  5
32C
330
1F
100
AcDbEntity
  8
Ｓ_１_１
  6
CONTINUOUS
 62
     3
100
AcDbLine
 10
1240.290450000019
 20
558.1435925000108
 30
0.0
 11
1235.434127000019
 21
558.1435925000108
 31
0.0
  0
LINE
  5
32D
330
1F
100
AcDbEntity
  8
Ｓ_１_１
  6
CONTINUOUS
 62
     3
100
AcDbLine
 10
1240.290450000019
 20
565.0717845000106
 30
0.0
 11
1235.434127000019
 21
565.0717845000106
 31
0.0
  0
LINE
  5
32E
330
1F
100
AcDbEntity
  8
Ｓ_１_１
  6
CONTINUOUS
 62
     3
100
AcDbLine
 10
1240.290450000019
 20
578.9281385000102
 30
0.0
 11
1235.434127000019
 21
578.9281385000102
 31
0.0
  0
LINE
  5
32F
330
1F
100
AcDbEntity
  8
Ｓ_１_１
  6
CONTINUOUS
 62
     3
100
AcDbLine
 10
1240.290450000019
 20
585.8564065000103
 30
0.0
 11
1235.434127000019
 21
585.8564065000103
 31
0.0
  0
LINE
  5
330
330
1F
100
AcDbEntity
  8
Ｓ_１_１
  6
CONTINUOUS
 62
     3
100
AcDbLine
 10
1241.362228000018
 20
584.00000750001
 30
0.0
 11
1241.362228000018
 21
560.0000375000106
 31
0.0
  0
LINE
  5
331
330
1F
100
AcDbEntity
  8
Ｓ_１_１
  6
CONTINUOUS
 62
     3
100
AcDbLine
 10
1279.362350000019
 20
576.50000750001
 30
0.0
 11
1279.362350000019
 21
567.5000375000106
 31
0.0
  0
LINE
  5
332
330
1F
100
AcDbEntity
  8
Ｓ_１_１
  6
CONTINUOUS
 62
     3
100
AcDbLine
 10
1281.362415000019
 20
570.5001485000105
 30
0.0
 11
1279.362370000019
 21
568.5001035000107
 31
0.0
  0
LINE
  5
333
330
1F
100
AcDbEntity
  8
Ｓ_１_１
  6
CONTINUOUS
 62
     3
100
AcDbLine
 10
1279.362413000018
 20
575.5001755000101
 30
0.0
 11
1281.362372000019
 21
573.5002165000108
 31
0.0
  0
LINE
  5
334
330
1F
100
AcDbEntity
  8
Ｓ_１_１
  6
CONTINUOUS
 62
     3
100
AcDbLine
 10
1260.862106000019
 20
579.50000750001
 30
0.0
 11
1260.862106000019
 21
564.5000075000105
 31
0.0
  0
LINE
  5
335
330
1F
100
AcDbEntity
  8
Ｓ_１_１
  6
CONTINUOUS
 62
     3
100
AcDbLine
 10
1262.362228000018
 20
579.50000750001
 30
0.0
 11
1262.362228000018
 21
564.5000075000105
 31
0.0
  0
LINE
  5
336
330
1F
100
AcDbEntity
  8
Ｓ_１_１
  6
CONTINUOUS
 62
     3
100
AcDbLine
 10
1265.862106000019
 20
580.99997650001
 30
0.0
 11
1265.862106000019
 21
563.0000075000105
 31
0.0
  0
LINE
  5
337
330
1F
100
AcDbEntity
  8
Ｓ_１_１
  6
CONTINUOUS
 62
     3
100
AcDbLine
 10
1259.362350000019
 20
563.0000075000105
 30
0.0
 11
1250.362228000018
 21
563.0000075000105
 31
0.0
  0
LINE
  5
338
330
1F
100
AcDbEntity
  8
Ｓ_１_１
  6
CONTINUOUS
 62
     3
100
AcDbLine
 10
1259.362350000019
 20
580.99997650001
 30
0.0
 11
1250.362228000018
 21
580.99997650001
 31
0.0
  0
LINE
  5
339
330
1F
100
AcDbEntity
  8
Ｓ_１_１
  6
CONTINUOUS
 62
     3
100
AcDbLine
 10
1263.862249000019
 20
581.0001195000102
 30
0.0
 11
1262.362236000018
 21
579.5001075000102
 31
0.0
  0
LINE
  5
33A
330
1F
100
AcDbEntity
  8
Ｓ_１_１
  6
CONTINUOUS
 62
     3
100
AcDbLine
 10
1262.362235000019
 20
564.5000415000106
 30
0.0
 11
1263.862118000018
 21
563.0001585000107
 31
0.0
  0
LINE
  5
33B
330
1F
100
AcDbEntity
  8
Ｓ_１_１
  6
CONTINUOUS
 62
     3
100
AcDbLine
 10
1263.862228000018
 20
580.99997650001
 30
0.0
 11
1263.862228000018
 21
563.0000075000105
 31
0.0
  0
LINE
  5
33C
330
1F
100
AcDbEntity
  8
Ｓ_１_１
  6
CONTINUOUS
 62
     3
100
AcDbLine
 10
1259.362383000019
 20
581.0000055000103
 30
0.0
 11
1260.862266000018
 21
579.5001225000103
 31
0.0
  0
LINE
  5
33D
330
1F
100
AcDbEntity
  8
Ｓ_１_１
  6
CONTINUOUS
 62
     3
100
AcDbLine
 10
1260.862224000019
 20
564.5001555000106
 30
0.0
 11
1259.362212000018
 21
563.0001425000107
 31
0.0
  0
LINE
  5
33E
330
1F
100
AcDbEntity
  8
Ｓ_１_１
  6
CONTINUOUS
 62
     3
100
AcDbLine
 10
1249.862228000018
 20
583.7500375000102
 30
0.0
 11
1249.862228000018
 21
560.2500075000105
 31
0.0
  0
LINE
  5
33F
330
1F
100
AcDbEntity
  8
Ｓ_１_１
  6
CONTINUOUS
 62
     3
100
AcDbLine
 10
1259.362350000019
 20
580.99997650001
 30
0.0
 11
1259.362350000019
 21
563.0000075000105
 31
0.0
  0
LINE
  5
340
330
1F
100
AcDbEntity
  8
Ｓ_１_１
  6
CONTINUOUS
 62
     3
100
AcDbLine
 10
1262.362228000018
 20
579.50000750001
 30
0.0
 11
1260.862106000019
 21
579.50000750001
 31
0.0
  0
LINE
  5
341
330
1F
100
AcDbEntity
  8
Ｓ_１_１
  6
CONTINUOUS
 62
     3
100
AcDbLine
 10
1262.362228000018
 20
564.5000075000105
 30
0.0
 11
1260.862106000019
 21
564.5000075000105
 31
0.0
  0
LINE
  5
342
330
1F
100
AcDbEntity
  8
Ｓ_１_１
  6
CONTINUOUS
 62
     3
100
AcDbLine
 10
1250.362317000018
 20
560.7501115000107
 30
0.0
 11
1249.862371000018
 21
560.2501645000104
 31
0.0
  0
LINE
  5
343
330
1F
100
AcDbEntity
  8
Ｓ_１_１
  6
CONTINUOUS
 62
     3
100
AcDbLine
 10
1249.862319000018
 20
583.75008250001
 30
0.0
 11
1250.362228000018
 21
583.2501845000099
 31
0.0
  0
LINE
  5
344
330
1F
100
AcDbEntity
  8
Ｓ_１_１
  6
CONTINUOUS
 62
     3
100
AcDbLine
 10
1265.862337000019
 20
581.0000485000103
 30
0.0
 11
1269.362351000019
 21
577.5000345000101
 31
0.0
  0
LINE
  5
345
330
1F
100
AcDbEntity
  8
Ｓ_１_１
  6
CONTINUOUS
 62
     3
100
AcDbLine
 10
1269.362137000018
 20
566.5001575000103
 30
0.0
 11
1265.862165000019
 21
563.0001865000106
 31
0.0
  0
LINE
  5
346
330
1F
100
AcDbEntity
  8
Ｓ_１_１
  6
CONTINUOUS
 62
     3
100
AcDbLine
 10
1278.362106000019
 20
566.5000075000105
 30
0.0
 11
1269.362350000019
 21
566.5000075000105
 31
0.0
  0
CIRCLE
  5
347
330
1F
100
AcDbEntity
  8
Ｓ_１_１
  6
CONTINUOUS
 62
     3
100
AcDbCircle
 10
1210.36227300001
 20
571.9999920000002
 30
0.0
 40
10.0
  0
POLYLINE
  5
348
330
1F
100
AcDbEntity
  8
Ｓ_１_１
  6
CONTINUOUS
 62
     3
100
AcDb2dPolyline
 66
     1
 10
0.0
 20
0.0
 30
0.0
 70
   128
  0
VERTEX
  5
349
330
348
100
AcDbEntity
  8
Ｓ_１_１
  6
CONTINUOUS
 62
     3
100
AcDbVertex
100
AcDb2dVertex
 10
1219.86227300001
 20
571.9999920000002
 30
0.0
  0
VERTEX
  5
34A
330
348
100
AcDbEntity
  8
Ｓ_１_１
  6
CONTINUOUS
 62
     3
100
AcDbVertex
100
AcDb2dVertex
 10
1215.11227300001
 20
580.2272333359522
 30
0.0
  0
VERTEX
  5
34B
330
348
100
AcDbEntity
  8
Ｓ_１_１
  6
CONTINUOUS
 62
     3
100
AcDbVertex
100
AcDb2dVertex
 10
1205.61227300001
 20
580.2272333359522
 30
0.0
  0
VERTEX
  5
34C
330
348
100
AcDbEntity
  8
Ｓ_１_１
  6
CONTINUOUS
 62
     3
100
AcDbVertex
100
AcDb2dVertex
 10
1200.86227300001
 20
571.9999920000002
 30
0.0
  0
VERTEX
  5
34D
330
348
100
AcDbEntity
  8
Ｓ_１_１
  6
CONTINUOUS
 62
     3
100
AcDbVertex
100
AcDb2dVertex
 10
1205.61227300001
 20
563.7727506640479
 30
0.0
  0
VERTEX
  5
34E
330
348
100
AcDbEntity
  8
Ｓ_１_１
  6
CONTINUOUS
 62
     3
100
AcDbVertex
100
AcDb2dVertex
 10
1215.11227300001
 20
563.7727506640479
 30
0.0
  0
VERTEX
  5
34F
330
348
100
AcDbEntity
  8
Ｓ_１_１
  6
CONTINUOUS
 62
     3
100
AcDbVertex
100
AcDb2dVertex
 10
1219.86227300001
 20
571.9999920000002
 30
0.0
  0
SEQEND
  5
350
330
348
100
AcDbEntity
  8
Ｓ_１_１
  6
CONTINUOUS
 62
     3
  0
CIRCLE
  5
351
330
1F
100
AcDbEntity
  8
Ｓ_１_１
  6
CONTINUOUS
 62
     3
100
AcDbCircle
 10
1210.36227300001
 20
571.9999920000002
 30
0.0
 40
8.227241335951572
  0
ARC
  5
352
330
1F
100
AcDbEntity
  8
Ｓ_１_１
  6
CONTINUOUS
 62
     3
100
AcDbCircle
 10
1210.36227300001
 20
571.9999920000002
 30
0.0
 40
8.999999915700016
100
AcDbArc
 50
6.083597497282934
 51
53.91640250271725
  0
ARC
  5
353
330
1F
100
AcDbEntity
  8
Ｓ_１_１
  6
CONTINUOUS
 62
     3
100
AcDbCircle
 10
1210.36227300001
 20
571.9999920000002
 30
0.0
 40
8.999999915700016
100
AcDbArc
 50
66.08359749728265
 51
113.9164025027174
  0
ARC
  5
354
330
1F
100
AcDbEntity
  8
Ｓ_１_１
  6
CONTINUOUS
 62
     3
100
AcDbCircle
 10
1210.36227300001
 20
571.9999920000002
 30
0.0
 40
8.999999915700016
100
AcDbArc
 50
126.083597497283
 51
173.9164025027171
  0
ARC
  5
355
330
1F
100
AcDbEntity
  8
Ｓ_１_１
  6
CONTINUOUS
 62
     3
100
AcDbCircle
 10
1210.36227300001
 20
571.9999920000002
 30
0.0
 40
8.999999915700016
100
AcDbArc
 50
186.0835974972829
 51
233.9164025027172
  0
ARC
  5
356
330
1F
100
AcDbEntity
  8
Ｓ_１_１
  6
CONTINUOUS
 62
     3
100
AcDbCircle
 10
1210.36227300001
 20
571.9999920000002
 30
0.0
 40
8.999999915700016
100
AcDbArc
 50
246.0835974972827
 51
293.9164025027173
  0
ARC
  5
357
330
1F
100
AcDbEntity
  8
Ｓ_１_１
  6
CONTINUOUS
 62
     3
100
AcDbCircle
 10
1210.36227300001
 20
571.9999920000002
 30
0.0
 40
8.999999915700016
100
AcDbArc
 50
306.0835974972829
 51
353.9164025027171
  0
CIRCLE
  5
358
330
1F
100
AcDbEntity
  8
Ｓ_１_１
  6
CONTINUOUS
 62
     3
100
AcDbCircle
 10
1210.36227300001
 20
571.9999920000002
 30
0.0
 40
5.0
  0
CIRCLE
  5
359
330
1F
100
AcDbEntity
  8
Ｓ_１_１
  6
CONTINUOUS
 62
     3
100
AcDbCircle
 10
1210.36227300001
 20
571.9999920000002
 30
0.0
 40
4.25
  0
LINE
  5
35A
330
1F
100
AcDbEntity
  8
Ｓ_１_１
  6
EXLTYPE2
 62
     1
100
AcDbLine
 10
1210.362273000009
 20
558.9999920000002
 30
0.0
 11
1210.362273000009
 21
584.9999920000002
 31
0.0
  0
LINE
  5
35B
330
1F
100
AcDbEntity
  8
Ｓ_１_１
  6
EXLTYPE8
 62
     1
100
AcDbLine
 10
1286.5201114409
 20
571.9999920000046
 30
0.0
 11
1162.543408254871
 21
571.9999920000046
 31
0.0
  0
POLYLINE
  5
35C
330
1F
100
AcDbEntity
  8
Ｓ_１_１
  6
CONTINUOUS
 62
     3
100
AcDb2dPolyline
 66
     1
 10
0.0
 20
0.0
 30
0.0
 70
   128
  0
VERTEX
  5
35D
330
35C
100
AcDbEntity
  8
Ｓ_１_１
  6
CONTINUOUS
 62
     3
100
AcDbVertex
100
AcDb2dVertex
 10
1207.475521654052
 20
571.999992
 30
0.0
  0
VERTEX
  5
35E
330
35C
100
AcDbEntity
  8
Ｓ_１_１
  6
CONTINUOUS
 62
     3
100
AcDbVertex
100
AcDb2dVertex
 10
1208.918897327026
 20
569.499992
 30
0.0
  0
VERTEX
  5
35F
330
35C
100
AcDbEntity
  8
Ｓ_１_１
  6
CONTINUOUS
 62
     3
100
AcDbVertex
100
AcDb2dVertex
 10
1211.805648672974
 20
569.499992
 30
0.0
  0
VERTEX
  5
360
330
35C
100
AcDbEntity
  8
Ｓ_１_１
  6
CONTINUOUS
 62
     3
100
AcDbVertex
100
AcDb2dVertex
 10
1213.249024345948
 20
571.999992
 30
0.0
  0
VERTEX
  5
361
330
35C
100
AcDbEntity
  8
Ｓ_１_１
  6
CONTINUOUS
 62
     3
100
AcDbVertex
100
AcDb2dVertex
 10
1211.805648672974
 20
574.499992
 30
0.0
  0
VERTEX
  5
362
330
35C
100
AcDbEntity
  8
Ｓ_１_１
  6
CONTINUOUS
 62
     3
100
AcDbVertex
100
AcDb2dVertex
 10
1208.918897327026
 20
574.499992
 30
0.0
  0
VERTEX
  5
363
330
35C
100
AcDbEntity
  8
Ｓ_１_１
  6
CONTINUOUS
 62
     3
100
AcDbVertex
100
AcDb2dVertex
 10
1207.475521654052
 20
571.999992
 30
0.0
  0
SEQEND
  5
364
330
35C
100
AcDbEntity
  8
Ｓ_１_１
  6
CONTINUOUS
 62
     3
  0
LINE
  5
365
330
1F
100
AcDbEntity
  8
Ｓ_１_１
  6
CONTINUOUS
 62
     3
100
AcDbLine
 10
1135.000001490112
 20
676.9999929999962
 30
0.0
 11
1135.000001490112
 21
682.6698848342552
 31
0.0
  0
LINE
  5
366
330
1F
100
AcDbEntity
  8
Ｓ_１_１
  6
CONTINUOUS
 62
     3
100
AcDbLine
 10
934.9999985098804
 20
682.6698848342552
 30
0.0
 11
934.9999985098804
 21
676.9999929999962
 31
0.0
  0
LINE
  5
367
330
1F
100
AcDbEntity
  8
Ｓ_１_１
  6
CONTINUOUS
 62
     3
100
AcDbLine
 10
1135.000001490112
 20
682.6698848342552
 30
0.0
 11
1132.499996423718
 21
687.0000132655754
 31
0.0
  0
LINE
  5
368
330
1F
100
AcDbEntity
  8
Ｓ_１_１
  6
CONTINUOUS
 62
     3
100
AcDbLine
 10
937.5000035762752
 20
687.0000132655754
 30
0.0
 11
934.9999985098804
 21
682.6698848342552
 31
0.0
  0
LINE
  5
369
330
1F
100
AcDbEntity
  8
Ｓ_１_１
  6
CONTINUOUS
 62
     3
100
AcDbLine
 10
1132.499996423718
 20
690.9999915694847
 30
0.0
 11
1131.50000184774
 21
692.0000084972038
 31
0.0
  0
LINE
  5
36A
330
1F
100
AcDbEntity
  8
Ｓ_１_１
  6
CONTINUOUS
 62
     3
100
AcDbLine
 10
938.4999981522525
 20
692.0000084972038
 30
0.0
 11
937.5000035762752
 21
690.9999915694847
 31
0.0
  0
LINE
  5
36B
330
1F
100
AcDbEntity
  8
Ｓ_１_１
  6
CONTINUOUS
 62
     3
100
AcDbLine
 10
1132.499996423718
 20
687.0000132655754
 30
0.0
 11
1132.499996423718
 21
690.9999915694847
 31
0.0
  0
LINE
  5
36C
330
1F
100
AcDbEntity
  8
Ｓ_１_１
  6
CONTINUOUS
 62
     3
100
AcDbLine
 10
937.5000035762752
 20
690.9999915694847
 30
0.0
 11
937.5000035762752
 21
687.0000132655754
 31
0.0
  0
LINE
  5
36D
330
1F
100
AcDbEntity
  8
Ｓ_１_１
  6
CONTINUOUS
 62
     3
100
AcDbLine
 10
1135.000001490112
 20
682.6698848342552
 30
0.0
 11
934.9999985098804
 21
682.6698848342552
 31
0.0
  0
LINE
  5
36E
330
1F
100
AcDbEntity
  8
Ｓ_１_１
  6
CONTINUOUS
 62
     3
100
AcDbLine
 10
1132.499996423718
 20
687.0000132655754
 30
0.0
 11
937.5000035762752
 21
687.0000132655754
 31
0.0
  0
LINE
  5
36F
330
1F
100
AcDbEntity
  8
Ｓ_１_１
  6
CONTINUOUS
 62
     3
100
AcDbLine
 10
1132.49999642372
 20
690.9999915694847
 30
0.0
 11
937.5000035762752
 21
690.9999915694847
 31
0.0
  0
LINE
  5
370
330
1F
100
AcDbEntity
  8
Ｓ_１_１
  6
CONTINUOUS
 62
     3
100
AcDbLine
 10
938.4999981522525
 20
692.0000084972038
 30
0.0
 11
1131.50000184774
 21
692.0000084972038
 31
0.0
  0
LINE
  5
371
330
1F
100
AcDbEntity
  8
Ｓ_１_１
  6
EXLTYPE10
 62
     1
100
AcDbLine
 10
959.9999762560001
 20
746.1600174972001
 30
0.0
 11
959.9999762560001
 21
689.3999920012
 31
0.0
  0
LINE
  5
372
330
1F
100
AcDbEntity
  8
Ｓ_１_１
  6
EXLTYPE10
 62
     1
100
AcDbLine
 10
1109.999974256
 20
745.4800174971998
 30
0.0
 11
1109.999974256
 21
689.9999920011999
 31
0.0
  0
LINE
  5
373
330
1F
100
AcDbEntity
  8
Ｓ_１_１
  6
CONTINUOUS
 62
     3
100
AcDbLine
 10
946.4999752560146
 20
743.9999821036523
 30
0.0
 11
941.5000082479909
 21
738.9999656076642
 31
0.0
  0
LINE
  5
374
330
1F
100
AcDbEntity
  8
Ｓ_１_１
  6
CONTINUOUS
 62
     3
100
AcDbLine
 10
941.5000082479909
 20
692.5000084971996
 30
0.0
 11
941.5000082479909
 21
738.9999656076642
 31
0.0
  0
LINE
  5
375
330
1F
100
AcDbEntity
  8
Ｓ_１_１
  6
CONTINUOUS
 62
     3
100
AcDbLine
 10
942.0000082479908
 20
692.0000084971996
 30
0.0
 11
941.5000082479909
 21
692.5000084971996
 31
0.0
  0
LINE
  5
376
330
1F
100
AcDbEntity
  8
Ｓ_１_１
  6
CONTINUOUS
 62
     3
100
AcDbLine
 10
1128.499991752003
 20
738.9999656076642
 30
0.0
 11
1123.499975256015
 21
743.9999821036523
 31
0.0
  0
LINE
  5
377
330
1F
100
AcDbEntity
  8
Ｓ_１_１
  6
CONTINUOUS
 62
     3
100
AcDbLine
 10
1128.499991752003
 20
692.5000084971996
 30
0.0
 11
1128.499991752003
 21
738.9999656076642
 31
0.0
  0
LINE
  5
378
330
1F
100
AcDbEntity
  8
Ｓ_１_１
  6
CONTINUOUS
 62
     3
100
AcDbLine
 10
1127.999991752003
 20
692.0000084971996
 30
0.0
 11
1128.499991752003
 21
692.5000084971996
 31
0.0
  0
LINE
  5
379
330
1F
100
AcDbEntity
  8
Ｓ_１_１
  6
CONTINUOUS
 62
     3
100
AcDbLine
 10
908.9999999999967
 20
791.9999920012452
 30
0.0
 11
906.9999999999967
 21
789.9999920012452
 31
0.0
  0
LINE
  5
37A
330
1F
100
AcDbEntity
  8
Ｓ_１_１
  6
CONTINUOUS
 62
     3
100
AcDbLine
 10
908.9972590695057
 20
750.7210766739832
 30
0.0
 11
979.9999731940169
 21
746.99998210365
 31
0.0
  0
LINE
  5
37B
330
1F
100
AcDbEntity
  8
Ｓ_１_１
  6
CONTINUOUS
 62
     3
100
AcDbLine
 10
906.9999999999967
 20
752.8257485864691
 30
0.0
 11
906.9999999999967
 21
789.9999920012452
 31
0.0
  0
LINE
  5
37C
330
1F
100
AcDbEntity
  8
Ｓ_１_１
  6
CONTINUOUS
 62
     3
100
AcDbLine
 10
908.9972590695057
 20
750.7210766739832
 30
0.0
 11
906.9999999999967
 21
752.8257485864691
 31
0.0
  0
LINE
  5
37D
330
1F
100
AcDbEntity
  8
Ｓ_１_１
  6
CONTINUOUS
 62
     3
100
AcDbLine
 10
1161.002740930488
 20
750.7210766739832
 30
0.0
 11
1090.000026805977
 21
746.99998210365
 31
0.0
  0
LINE
  5
37E
330
1F
100
AcDbEntity
  8
Ｓ_１_１
  6
CONTINUOUS
 62
     3
100
AcDbLine
 10
1161.002740930488
 20
750.7210766739832
 30
0.0
 11
1162.999999999997
 21
752.8257485864691
 31
0.0
  0
LINE
  5
37F
330
1F
100
AcDbEntity
  8
Ｓ_１_１
  6
CONTINUOUS
 62
     3
100
AcDbLine
 10
1160.999999999997
 20
791.9999920012452
 30
0.0
 11
908.9999999999967
 21
791.9999920012452
 31
0.0
  0
LINE
  5
380
330
1F
100
AcDbEntity
  8
Ｓ_１_１
  6
CONTINUOUS
 62
     3
100
AcDbLine
 10
1162.999999999997
 20
789.9999920012452
 30
0.0
 11
1162.999999999997
 21
752.8257485864691
 31
0.0
  0
LINE
  5
381
330
1F
100
AcDbEntity
  8
Ｓ_１_１
  6
CONTINUOUS
 62
     3
100
AcDbLine
 10
1160.999999999997
 20
791.9999920012452
 30
0.0
 11
1162.999999999997
 21
789.9999920012452
 31
0.0
  0
LINE
  5
382
330
1F
100
AcDbEntity
  8
Ｓ_１_１
  6
CONTINUOUS
 62
     3
100
AcDbLine
 10
906.9999999999999
 20
789.99999200125
 30
0.0
 11
1162.999999999997
 21
789.99999200125
 31
0.0
  0
LINE
  5
383
330
1F
100
AcDbEntity
  8
Ｓ_１_１
  6
CONTINUOUS
 62
     3
100
AcDbLine
 10
1163.0
 20
752.82574858647
 30
0.0
 11
906.9999999999967
 21
752.8257485864705
 31
0.0
  0
LINE
  5
384
330
1F
100
AcDbEntity
  8
Ｓ_１_１
  6
CONTINUOUS
 62
     3
100
AcDbLine
 10
979.9999731940198
 20
746.99998210365
 30
0.0
 11
1089.999977318012
 21
746.99998210365
 31
0.0
  0
LINE
  5
385
330
1F
100
AcDbEntity
  8
Ｓ_１_１
  6
CONTINUOUS
 62
     3
100
AcDbLine
 10
1123.499975256015
 20
743.9999821036523
 30
0.0
 11
946.4999752560144
 21
743.9999821036523
 31
0.0
  0
LINE
  5
386
330
1F
100
AcDbEntity
  8
Ｓ_１_１
  6
CONTINUOUS
 62
     3
100
AcDbLine
 10
941.5000082479899
 20
738.99996560766
 30
0.0
 11
1128.499991752003
 21
738.99996560766
 31
0.0
  0
ARC
  5
387
330
1F
100
AcDbEntity
  8
Ｓ_１_１
  6
CONTINUOUS
 62
     3
100
AcDbCircle
 10
1034.999975256015
 20
746.9999920012452
 30
0.0
 40
55.00000206199852
100
AcDbArc
 50
180.0000103107324
 51
183.1267863223427
  0
ARC
  5
388
330
1F
100
AcDbEntity
  8
Ｓ_１_１
  6
CONTINUOUS
 62
     3
100
AcDbCircle
 10
1034.999975256015
 20
746.9999920012452
 30
0.0
 40
55.00000206199852
100
AcDbArc
 50
356.8732136776573
 51
359.9999896892654
  0
LINE
  5
389
330
1F
100
AcDbEntity
  8
Ｓ_１_１
  6
CONTINUOUS
 62
     3
100
AcDbLine
 10
1128.499991752
 20
692.5000084972
 30
0.0
 11
941.5000082479909
 21
692.5000084972
 31
0.0
  0
LINE
  5
38A
330
1F
100
AcDbEntity
  8
Ｓ_１_１
  6
CONTINUOUS
 62
     3
100
AcDbLine
 10
908.9972590695097
 20
750.7210766739801
 30
0.0
 11
1161.00274093049
 21
750.7210766739801
 31
0.0
  0
LINE
  5
38B
330
1F
100
AcDbEntity
  8
Ｓ_１_１
  6
EXLTYPE8
 62
     1
100
AcDbLine
 10
1084.999991752003
 20
794.2917301505273
 30
0.0
 11
1084.999991752003
 21
789.5047593418282
 31
0.0
  0
LINE
  5
38C
330
1F
100
AcDbEntity
  8
Ｓ_１_１
  6
EXLTYPE8
 62
     1
100
AcDbLine
 10
1105.000008247991
 20
793.7740365536102
 30
0.0
 11
1105.000008247991
 21
789.1872445614227
 31
0.0
  0
LINE
  5
38D
330
1F
100
AcDbEntity
  8
Ｓ_１_１
  6
EXLTYPE8
 62
     1
100
AcDbLine
 10
985.000008247991
 20
794.2917301505273
 30
0.0
 11
985.000008247991
 21
789.5047593418282
 31
0.0
  0
LINE
  5
38E
330
1F
100
AcDbEntity
  8
Ｓ_１_１
  6
EXLTYPE8
 62
     1
100
AcDbLine
 10
964.9999917520024
 20
793.7740365536102
 30
0.0
 11
964.9999917520024
 21
789.1872445614227
 31
0.0
  0
LINE
  5
38F
330
1F
100
AcDbEntity
  8
Ｓ_１_１
  6
EXLTYPE8
 62
     1
100
AcDbLine
 10
944.9999752560142
 20
794.2917301505273
 30
0.0
 11
944.9999752560142
 21
789.5047593418282
 31
0.0
  0
LINE
  5
390
330
1F
100
AcDbEntity
  8
Ｓ_１_１
  6
EXLTYPE8
 62
     1
100
AcDbLine
 10
1125.000024743979
 20
794.2917301505273
 30
0.0
 11
1125.000024743979
 21
789.5047593418282
 31
0.0
  0
LINE
  5
391
330
1F
100
AcDbEntity
  8
Ｓ_１_１
  6
EXLTYPE2
 62
     1
100
AcDbLine
 10
1035.000000000002
 20
816.6
 30
0.0
 11
1035.000000000002
 21
212.2000020000004
 31
0.0
  0
ARC
  5
392
330
1F
100
AcDbEntity
  8
Ｓ_１_１
  6
EXLTYPE0
 62
     2
100
AcDbCircle
 10
1034.999975256025
 20
746.9999920012452
 30
0.0
 40
55.00000206199852
100
AcDbArc
 50
183.1267863223427
 51
356.8732136776573
  0
LINE
  5
393
330
1F
100
AcDbEntity
  8
Ｓ_１_１
  6
CONTINUOUS
 62
     3
100
AcDbLine
 10
928.4279101012906
 20
1583.192792240612
 30
0.0
 11
974.349921985131
 21
1472.327248339268
 31
0.0
  0
LINE
  5
394
330
1F
100
AcDbEntity
  8
Ｓ_１_１
  6
CONTINUOUS
 62
     3
100
AcDbLine
 10
913.6458375811125
 20
1577.069857322767
 30
0.0
 11
928.4279101012906
 21
1583.192792240612
 31
0.0
  0
LINE
  5
395
330
1F
100
AcDbEntity
  8
Ｓ_１_１
  6
CONTINUOUS
 62
     3
100
AcDbLine
 10
1141.572089898713
 20
1583.192792240612
 30
0.0
 11
1095.650078014873
 21
1472.327248339268
 31
0.0
  0
LINE
  5
396
330
1F
100
AcDbEntity
  8
Ｓ_１_１
  6
CONTINUOUS
 62
     3
100
AcDbLine
 10
1156.354162418891
 20
1577.069857322767
 30
0.0
 11
1141.572089898713
 21
1583.192792240612
 31
0.0
  0
LINE
  5
397
330
1F
100
AcDbEntity
  8
Ｓ_１_１
  6
CONTINUOUS
 62
     3
100
AcDbLine
 10
928.4279101012906
 20
1026.80720775939
 30
0.0
 11
974.349921985131
 21
1137.672751660732
 31
0.0
  0
LINE
  5
398
330
1F
100
AcDbEntity
  8
Ｓ_１_１
  6
CONTINUOUS
 62
     3
100
AcDbLine
 10
913.6458375811125
 20
1032.930142677233
 30
0.0
 11
928.4279101012906
 21
1026.807207759388
 31
0.0
  0
LINE
  5
399
330
1F
100
AcDbEntity
  8
Ｓ_１_１
  6
CONTINUOUS
 62
     3
100
AcDbLine
 10
1141.572089898713
 20
1026.80720775939
 30
0.0
 11
1095.650078014873
 21
1137.672751660732
 31
0.0
  0
LINE
  5
39A
330
1F
100
AcDbEntity
  8
Ｓ_１_１
  6
CONTINUOUS
 62
     3
100
AcDbLine
 10
1156.354162418891
 20
1032.930142677233
 30
0.0
 11
1141.572089898713
 21
1026.807207759388
 31
0.0
  0
CIRCLE
  5
39B
330
1F
100
AcDbEntity
  8
Ｓ_１_１
  6
CONTINUOUS
 62
     3
100
AcDbCircle
 10
785.0000000000018
 20
1555.0
 30
0.0
 40
13.0
  0
CIRCLE
  5
39C
330
1F
100
AcDbEntity
  8
Ｓ_１_１
  6
CONTINUOUS
 62
     3
100
AcDbCircle
 10
1035.000000000002
 20
1555.0
 30
0.0
 40
13.0
  0
CIRCLE
  5
39D
330
1F
100
AcDbEntity
  8
Ｓ_１_１
  6
CONTINUOUS
 62
     3
100
AcDbCircle
 10
1285.000000000002
 20
1555.0
 30
0.0
 40
13.0
  0
CIRCLE
  5
39E
330
1F
100
AcDbEntity
  8
Ｓ_１_１
  6
CONTINUOUS
 62
     3
100
AcDbCircle
 10
785.0000000000018
 20
1055.0
 30
0.0
 40
13.0
  0
CIRCLE
  5
39F
330
1F
100
AcDbEntity
  8
Ｓ_１_１
  6
CONTINUOUS
 62
     3
100
AcDbCircle
 10
1285.000000000002
 20
1055.0
 30
0.0
 40
13.0
  0
CIRCLE
  5
3A0
330
1F
100
AcDbEntity
  8
Ｓ_１_１
  6
CONTINUOUS
 62
     3
100
AcDbCircle
 10
1035.000000000002
 20
1055.0
 30
0.0
 40
13.0
  0
LINE
  5
3A1
330
1F
100
AcDbEntity
  8
Ｓ_１_１
  6
CONTINUOUS
 62
     3
100
AcDbLine
 10
735.0000000000018
 20
1585.0
 30
0.0
 11
755.0000000000018
 21
1605.0
 31
0.0
  0
LINE
  5
3A2
330
1F
100
AcDbEntity
  8
Ｓ_１_１
  6
CONTINUOUS
 62
     3
100
AcDbLine
 10
1315.000000000002
 20
1605.0
 30
0.0
 11
755.0000000000018
 21
1605.0
 31
0.0
  0
LINE
  5
3A3
330
1F
100
AcDbEntity
  8
Ｓ_１_１
  6
CONTINUOUS
 62
     3
100
AcDbLine
 10
1315.000000000002
 20
1605.0
 30
0.0
 11
1335.000000000002
 21
1585.0
 31
0.0
  0
LINE
  5
3A4
330
1F
100
AcDbEntity
  8
Ｓ_１_１
  6
CONTINUOUS
 62
     3
100
AcDbLine
 10
1315.000000000002
 20
1005.0
 30
0.0
 11
1335.000000000002
 21
1025.0
 31
0.0
  0
LINE
  5
3A5
330
1F
100
AcDbEntity
  8
Ｓ_１_１
  6
CONTINUOUS
 62
     3
100
AcDbLine
 10
755.0000000000018
 20
1005.0
 30
0.0
 11
1315.000000000002
 21
1005.0
 31
0.0
  0
LINE
  5
3A6
330
1F
100
AcDbEntity
  8
Ｓ_１_１
  6
CONTINUOUS
 62
     3
100
AcDbLine
 10
755.0000000000018
 20
1005.0
 30
0.0
 11
735.0000000000018
 21
1025.0
 31
0.0
  0
LINE
  5
3A7
330
1F
100
AcDbEntity
  8
Ｓ_１_１
  6
CONTINUOUS
 62
     3
100
AcDbLine
 10
1152.527328095239
 20
1567.831061997656
 30
0.0
 11
1137.745255575061
 21
1573.953996915501
 31
0.0
  0
LINE
  5
3A8
330
1F
100
AcDbEntity
  8
Ｓ_１_１
  6
CONTINUOUS
 62
     3
100
AcDbLine
 10
917.4726719047668
 20
1567.831061997656
 30
0.0
 11
932.254744424945
 21
1573.953996915501
 31
0.0
  0
LINE
  5
3A9
330
1F
100
AcDbEntity
  8
Ｓ_１_１
  6
CONTINUOUS
 62
     3
100
AcDbLine
 10
1152.527328095239
 20
1042.168938002345
 30
0.0
 11
1137.745255575061
 21
1036.046003084501
 31
0.0
  0
LINE
  5
3AA
330
1F
100
AcDbEntity
  8
Ｓ_１_１
  6
CONTINUOUS
 62
     3
100
AcDbLine
 10
917.4726719047668
 20
1042.168938002345
 30
0.0
 11
932.254744424945
 21
1036.046003084501
 31
0.0
  0
LINE
  5
3AB
330
1F
100
AcDbEntity
  8
Ｓ_１_１
  6
CONTINUOUS
 62
     3
100
AcDbLine
 10
913.6458375811125
 20
1032.930142677234
 30
0.0
 11
959.0311585115214
 21
1142.5
 31
0.0
  0
LINE
  5
3AC
330
1F
100
AcDbEntity
  8
Ｓ_１_１
  6
CONTINUOUS
 62
     3
100
AcDbLine
 10
962.6959135755334
 20
1142.5
 30
0.0
 11
974.349921985131
 21
1137.67275166073
 31
0.0
  0
LINE
  5
3AD
330
1F
100
AcDbEntity
  8
Ｓ_１_１
  6
CONTINUOUS
 62
     3
100
AcDbLine
 10
1156.354162418891
 20
1032.930142677234
 30
0.0
 11
1110.968841488482
 21
1142.5
 31
0.0
  0
LINE
  5
3AE
330
1F
100
AcDbEntity
  8
Ｓ_１_１
  6
CONTINUOUS
 62
     3
100
AcDbLine
 10
1107.30408642447
 20
1142.5
 30
0.0
 11
1095.650078014873
 21
1137.67275166073
 31
0.0
  0
LINE
  5
3AF
330
1F
100
AcDbEntity
  8
Ｓ_１_１
  6
CONTINUOUS
 62
     3
100
AcDbLine
 10
962.6959135755334
 20
1467.5
 30
0.0
 11
974.349921985131
 21
1472.32724833927
 31
0.0
  0
LINE
  5
3B0
330
1F
100
AcDbEntity
  8
Ｓ_１_１
  6
CONTINUOUS
 62
     3
100
AcDbLine
 10
913.6458375811125
 20
1577.069857322767
 30
0.0
 11
959.0311585115214
 21
1467.5
 31
0.0
  0
LINE
  5
3B1
330
1F
100
AcDbEntity
  8
Ｓ_１_１
  6
CONTINUOUS
 62
     3
100
AcDbLine
 10
1107.30408642447
 20
1467.5
 30
0.0
 11
1095.650078014873
 21
1472.32724833927
 31
0.0
  0
LINE
  5
3B2
330
1F
100
AcDbEntity
  8
Ｓ_１_１
  6
CONTINUOUS
 62
     3
100
AcDbLine
 10
1156.354162418891
 20
1577.069857322767
 30
0.0
 11
1110.968841488482
 21
1467.5
 31
0.0
  0
LINE
  5
3B3
330
1F
100
AcDbEntity
  8
Ｓ_１_１
  6
EXLTYPE0
 62
     2
100
AcDbLine
 10
936.6068435230319
 20
1088.362914627905
 30
0.0
 11
951.3889160432101
 21
1082.239979710061
 31
0.0
  0
LINE
  5
3B4
330
1F
100
AcDbEntity
  8
Ｓ_１_１
  6
EXLTYPE0
 62
     2
100
AcDbLine
 10
921.299506228419
 20
1051.407733327456
 30
0.0
 11
936.0815787485972
 21
1045.284798409612
 31
0.0
  0
LINE
  5
3B5
330
1F
100
AcDbEntity
  8
Ｓ_１_１
  6
EXLTYPE0
 62
     2
100
AcDbLine
 10
1133.393156476972
 20
1088.362914627905
 30
0.0
 11
1118.611083956794
 21
1082.239979710061
 31
0.0
  0
LINE
  5
3B6
330
1F
100
AcDbEntity
  8
Ｓ_１_１
  6
EXLTYPE0
 62
     2
100
AcDbLine
 10
1148.700493771585
 20
1051.407733327456
 30
0.0
 11
1133.918421251406
 21
1045.284798409612
 31
0.0
  0
LINE
  5
3B7
330
1F
100
AcDbEntity
  8
Ｓ_１_１
  6
EXLTYPE0
 62
     2
100
AcDbLine
 10
936.6068435230319
 20
1521.637085372096
 30
0.0
 11
951.3889160432101
 21
1527.760020289941
 31
0.0
  0
LINE
  5
3B8
330
1F
100
AcDbEntity
  8
Ｓ_１_１
  6
EXLTYPE0
 62
     2
100
AcDbLine
 10
921.299506228419
 20
1558.592266672544
 30
0.0
 11
936.0815787485972
 21
1564.715201590388
 31
0.0
  0
LINE
  5
3B9
330
1F
100
AcDbEntity
  8
Ｓ_１_１
  6
EXLTYPE0
 62
     2
100
AcDbLine
 10
1133.393156476972
 20
1521.637085372096
 30
0.0
 11
1118.611083956794
 21
1527.760020289941
 31
0.0
  0
LINE
  5
3BA
330
1F
100
AcDbEntity
  8
Ｓ_１_１
  6
EXLTYPE0
 62
     2
100
AcDbLine
 10
1148.700493771585
 20
1558.592266672544
 30
0.0
 11
1133.918421251406
 21
1564.715201590388
 31
0.0
  0
LINE
  5
3BB
330
1F
100
AcDbEntity
  8
Ｓ_１_１
  6
EXLTYPE2
 62
     1
100
AcDbLine
 10
924.9526892928443
 20
1071.54237936219
 30
0.0
 11
948.100367488023
 21
1061.954297116292
 31
0.0
  0
LINE
  5
3BC
330
1F
100
AcDbEntity
  8
Ｓ_１_１
  6
EXLTYPE2
 62
     1
100
AcDbLine
 10
1145.047310707161
 20
1071.54237936219
 30
0.0
 11
1121.899632511981
 21
1061.954297116292
 31
0.0
  0
LINE
  5
3BD
330
1F
100
AcDbEntity
  8
Ｓ_１_１
  6
EXLTYPE2
 62
     1
100
AcDbLine
 10
924.9526892928443
 20
1538.457620637811
 30
0.0
 11
948.100367488023
 21
1548.045702883708
 31
0.0
  0
LINE
  5
3BE
330
1F
100
AcDbEntity
  8
Ｓ_１_１
  6
EXLTYPE2
 62
     1
100
AcDbLine
 10
1145.047310707161
 20
1538.457620637811
 30
0.0
 11
1121.899632511981
 21
1548.045702883708
 31
0.0
  0
LINE
  5
3BF
330
1F
100
AcDbEntity
  8
Ｓ_１_１
  6
EXLTYPE2
 62
     1
100
AcDbLine
 10
1035.000000000002
 20
985.7999999999992
 30
0.0
 11
1035.000000000002
 21
1624.200000000001
 31
0.0
  0
LINE
  5
3C0
330
1F
100
AcDbEntity
  8
Ｓ_１_１
  6
EXLTYPE2
 62
     1
100
AcDbLine
 10
1010.799988000001
 20
1055.0
 30
0.0
 11
1058.799988000001
 21
1055.0
 31
0.0
  0
LINE
  5
3C1
330
1F
100
AcDbEntity
  8
Ｓ_１_１
  6
EXLTYPE2
 62
     1
100
AcDbLine
 10
1035.000000000002
 20
1079.4
 30
0.0
 11
1035.000000000002
 21
1030.6
 31
0.0
  0
LINE
  5
3C2
330
1F
100
AcDbEntity
  8
Ｓ_１_１
  6
EXLTYPE2
 62
     1
100
AcDbLine
 10
1260.799988000001
 20
1055.0
 30
0.0
 11
1308.799988000001
 21
1055.0
 31
0.0
  0
LINE
  5
3C3
330
1F
100
AcDbEntity
  8
Ｓ_１_１
  6
EXLTYPE2
 62
     1
100
AcDbLine
 10
1285.000000000002
 20
1030.6
 30
0.0
 11
1285.000000000002
 21
1079.4
 31
0.0
  0
LINE
  5
3C4
330
1F
100
AcDbEntity
  8
Ｓ_１_１
  6
EXLTYPE2
 62
     1
100
AcDbLine
 10
760.7999880000007
 20
1055.0
 30
0.0
 11
808.7999880000007
 21
1055.0
 31
0.0
  0
LINE
  5
3C5
330
1F
100
AcDbEntity
  8
Ｓ_１_１
  6
EXLTYPE2
 62
     1
100
AcDbLine
 10
785.0000000000018
 20
1030.6
 30
0.0
 11
785.0000000000018
 21
1079.4
 31
0.0
  0
LINE
  5
3C6
330
1F
100
AcDbEntity
  8
Ｓ_１_１
  6
EXLTYPE2
 62
     1
100
AcDbLine
 10
1260.799988000001
 20
1555.0
 30
0.0
 11
1308.799988000001
 21
1555.0
 31
0.0
  0
LINE
  5
3C7
330
1F
100
AcDbEntity
  8
Ｓ_１_１
  6
EXLTYPE2
 62
     1
100
AcDbLine
 10
1285.000000000002
 20
1530.6
 30
0.0
 11
1285.000000000002
 21
1579.4
 31
0.0
  0
LINE
  5
3C8
330
1F
100
AcDbEntity
  8
Ｓ_１_１
  6
EXLTYPE2
 62
     1
100
AcDbLine
 10
1010.799988000001
 20
1555.0
 30
0.0
 11
1058.799988000001
 21
1555.0
 31
0.0
  0
LINE
  5
3C9
330
1F
100
AcDbEntity
  8
Ｓ_１_１
  6
EXLTYPE2
 62
     1
100
AcDbLine
 10
1035.000000000002
 20
1530.6
 30
0.0
 11
1035.000000000002
 21
1579.4
 31
0.0
  0
LINE
  5
3CA
330
1F
100
AcDbEntity
  8
Ｓ_１_１
  6
EXLTYPE2
 62
     1
100
AcDbLine
 10
1151.078440829448
 20
1585.238146148246
 30
0.0
 11
1097.723101770089
 21
1456.426962966221
 31
0.0
  0
LINE
  5
3CB
330
1F
100
AcDbEntity
  8
Ｓ_１_１
  6
EXLTYPE2
 62
     1
100
AcDbLine
 10
1151.078440829448
 20
1024.761853851754
 30
0.0
 11
1097.723101770089
 21
1153.573037033779
 31
0.0
  0
LINE
  5
3CC
330
1F
100
AcDbEntity
  8
Ｓ_１_１
  6
EXLTYPE2
 62
     1
100
AcDbLine
 10
918.9215591705561
 20
1024.761853851754
 30
0.0
 11
972.2768982299149
 21
1153.573037033779
 31
0.0
  0
LINE
  5
3CD
330
1F
100
AcDbEntity
  8
Ｓ_１_１
  6
EXLTYPE2
 62
     1
100
AcDbLine
 10
918.9215591705561
 20
1585.238146148246
 30
0.0
 11
972.2768982299149
 21
1456.426962966221
 31
0.0
  0
LINE
  5
3CE
330
1F
100
AcDbEntity
  8
Ｓ_１_１
  6
EXLTYPE2
 62
     1
100
AcDbLine
 10
760.7999880000007
 20
1555.0
 30
0.0
 11
808.7999880000007
 21
1555.0
 31
0.0
  0
LINE
  5
3CF
330
1F
100
AcDbEntity
  8
Ｓ_１_１
  6
EXLTYPE2
 62
     1
100
AcDbLine
 10
785.0000000000018
 20
1530.6
 30
0.0
 11
785.0000000000018
 21
1579.4
 31
0.0
  0
LINE
  5
3D0
330
1F
100
AcDbEntity
  8
Ｓ_１_１
  6
CONTINUOUS
 62
     3
100
AcDbLine
 10
735.0000000000018
 20
1025.0
 30
0.0
 11
735.0000000000017
 21
1585.0
 31
0.0
  0
LINE
  5
3D1
330
1F
100
AcDbEntity
  8
Ｓ_１_１
  6
CONTINUOUS
 62
     3
100
AcDbLine
 10
1335.000000000002
 20
1025.0
 30
0.0
 11
1335.000000000002
 21
1585.0
 31
0.0
  0
LINE
  5
3D2
330
1F
100
AcDbEntity
  8
Ｓ_１_１
  6
EXLTYPE2
 62
     1
100
AcDbLine
 10
717.5999880000016
 20
1305.0
 30
0.0
 11
1353.599988000002
 21
1305.000000000002
 31
0.0
  0
CIRCLE
  5
3D3
330
1F
100
AcDbEntity
  8
Ｓ_１_１
  6
CONTINUOUS
 62
     3
100
AcDbCircle
 10
1035.000000000002
 20
1305.0
 30
0.0
 40
172.8
  0
CIRCLE
  5
3D4
330
1F
100
AcDbEntity
  8
Ｓ_１_１
  6
CONTINUOUS
 62
     3
100
AcDbCircle
 10
1035.000000000002
 20
1305.0
 30
0.0
 40
177.8
  0
CIRCLE
  5
3D5
330
1F
100
AcDbEntity
  8
Ｓ_１_１
  6
CONTINUOUS
 62
     3
100
AcDbCircle
 10
1035.0
 20
1305.0
 30
0.0
 40
149.499997
  0
CIRCLE
  5
3D6
330
1F
100
AcDbEntity
  8
Ｓ_１_１
  6
CONTINUOUS
 62
     3
100
AcDbCircle
 10
1035.0
 20
1305.0
 30
0.0
 40
152.4999969999997
  0
CIRCLE
  5
3D7
330
1F
100
AcDbEntity
  8
Ｓ_１_１
  6
CONTINUOUS
 62
     3
100
AcDbCircle
 10
1035.0
 20
1305.0
 30
0.0
 40
154.8
  0
CIRCLE
  5
3D8
330
1F
100
AcDbEntity
  8
Ｓ_１_１
  6
CONTINUOUS
 62
     3
100
AcDbCircle
 10
1035.0
 20
1305.0
 30
0.0
 40
155.8
  0
CIRCLE
  5
3D9
330
1F
100
AcDbEntity
  8
Ｓ_１_１
  6
CONTINUOUS
 62
     3
100
AcDbCircle
 10
1035.0
 20
1305.0
 30
0.0
 40
19.99999175201
  0
CIRCLE
  5
3DA
330
1F
100
AcDbEntity
  8
Ｓ_１_１
  6
CONTINUOUS
 62
     3
100
AcDbCircle
 10
1035.0
 20
1305.0
 30
0.0
 40
21.99999835040001
  0
CIRCLE
  5
3DB
330
1F
100
AcDbEntity
  8
Ｓ_１_１
  6
CONTINUOUS
 62
     3
100
AcDbCircle
 10
1035.0
 20
1305.0
 30
0.0
 40
12.00001484639
  0
CIRCLE
  5
3DC
330
1F
100
AcDbEntity
  8
Ｓ_１_１
  6
CONTINUOUS
 62
     3
100
AcDbCircle
 10
1035.0
 20
1305.0
 30
0.0
 40
15.00002474399
  0
CIRCLE
  5
3DD
330
1F
100
AcDbEntity
  8
Ｓ_１_１
  6
CONTINUOUS
 62
     3
100
AcDbCircle
 10
1035.0
 20
1305.0
 30
0.0
 40
10.48392540886698
  0
POLYLINE
  5
3DE
330
1F
100
AcDbEntity
  8
Ｓ_１_１
  6
CONTINUOUS
 62
     3
100
AcDb2dPolyline
 66
     1
 10
0.0
 20
0.0
 30
0.0
 70
   128
  0
VERTEX
  5
3DF
330
3DE
100
AcDbEntity
  8
Ｓ_１_１
  6
CONTINUOUS
 62
     3
100
AcDbVertex
100
AcDb2dVertex
 10
1035.0
 20
1313.082903768655
 30
0.0
  0
VERTEX
  5
3E0
330
3DE
100
AcDbEntity
  8
Ｓ_１_１
  6
CONTINUOUS
 62
     3
100
AcDbVertex
100
AcDb2dVertex
 10
1028.0
 20
1309.041451884327
 30
0.0
  0
VERTEX
  5
3E1
330
3DE
100
AcDbEntity
  8
Ｓ_１_１
  6
CONTINUOUS
 62
     3
100
AcDbVertex
100
AcDb2dVertex
 10
1028.0
 20
1300.958548115673
 30
0.0
  0
VERTEX
  5
3E2
330
3DE
100
AcDbEntity
  8
Ｓ_１_１
  6
CONTINUOUS
 62
     3
100
AcDbVertex
100
AcDb2dVertex
 10
1035.0
 20
1296.917096231345
 30
0.0
  0
VERTEX
  5
3E3
330
3DE
100
AcDbEntity
  8
Ｓ_１_１
  6
CONTINUOUS
 62
     3
100
AcDbVertex
100
AcDb2dVertex
 10
1042.0
 20
1300.958548115673
 30
0.0
  0
VERTEX
  5
3E4
330
3DE
100
AcDbEntity
  8
Ｓ_１_１
  6
CONTINUOUS
 62
     3
100
AcDbVertex
100
AcDb2dVertex
 10
1042.0
 20
1309.041451884327
 30
0.0
  0
VERTEX
  5
3E5
330
3DE
100
AcDbEntity
  8
Ｓ_１_１
  6
CONTINUOUS
 62
     3
100
AcDbVertex
100
AcDb2dVertex
 10
1035.0
 20
1313.082903768655
 30
0.0
  0
SEQEND
  5
3E6
330
3DE
100
AcDbEntity
  8
Ｓ_１_１
  6
CONTINUOUS
 62
     3
  0
CIRCLE
  5
3E7
330
1F
100
AcDbEntity
  8
Ｓ_１_１
  6
CONTINUOUS
 62
     3
100
AcDbCircle
 10
1035.0
 20
1305.0
 30
0.0
 40
47.99998515361
  0
CIRCLE
  5
3E8
330
1F
100
AcDbEntity
  8
Ｓ_１_１
  6
CONTINUOUS
 62
     3
100
AcDbCircle
 10
1035.0
 20
1305.0
 30
0.0
 40
51.99999835040001
  0
CIRCLE
  5
3E9
330
1F
100
AcDbEntity
  8
Ｓ_１_１
  6
CONTINUOUS
 62
     3
100
AcDbCircle
 10
1035.0
 20
1305.0
 30
0.0
 40
68.00000164960002
  0
CIRCLE
  5
3EA
330
1F
100
AcDbEntity
  8
Ｓ_１_１
  6
CONTINUOUS
 62
     3
100
AcDbCircle
 10
1035.0
 20
1305.0
 30
0.0
 40
72.00001484639
  0
CIRCLE
  5
3EB
330
1F
100
AcDbEntity
  8
Ｓ_１_１
  6
CONTINUOUS
 62
     3
100
AcDbCircle
 10
1035.0
 20
1305.0
 30
0.0
 40
128.0
  0
CIRCLE
  5
3EC
330
1F
100
AcDbEntity
  8
Ｓ_１_１
  6
CONTINUOUS
 62
     3
100
AcDbCircle
 10
1035.0
 20
1305.0
 30
0.0
 40
126.0
  0
CIRCLE
  5
3ED
330
1F
100
AcDbEntity
  8
Ｓ_１_１
  6
EXLTYPE6
 62
     1
100
AcDbCircle
 10
1035.0
 20
1305.0
 30
0.0
 40
110.0
  0
LINE
  5
3EE
330
1F
100
AcDbEntity
  8
Ｓ_１_１
  6
EXLTYPE6
 62
     1
100
AcDbLine
 10
921.4626133531917
 20
1245.896177505907
 30
0.0
 11
954.8648872486316
 21
1263.284300709379
 31
0.0
  0
CIRCLE
  5
3EF
330
1F
100
AcDbEntity
  8
Ｓ_１_１
  6
CONTINUOUS
 62
     3
100
AcDbCircle
 10
937.4288083504
 20
1254.20765254414
 30
0.0
 40
10.0
  0
CIRCLE
  5
3F0
330
1F
100
AcDbEntity
  8
Ｓ_１_１
  6
CONTINUOUS
 62
     3
100
AcDbCircle
 10
937.4288083504
 20
1254.20765254414
 30
0.0
 40
8.684046652739143
  0
LINE
  5
3F1
330
1F
100
AcDbEntity
  8
Ｓ_１_１
  6
EXLTYPE6
 62
     1
100
AcDbLine
 10
921.4626133531917
 20
1364.103822494092
 30
0.0
 11
954.8648872486316
 21
1346.715699290621
 31
0.0
  0
CIRCLE
  5
3F2
330
1F
100
AcDbEntity
  8
Ｓ_１_１
  6
CONTINUOUS
 62
     3
100
AcDbCircle
 10
937.4288083504
 20
1355.79234745586
 30
0.0
 40
10.0
  0
CIRCLE
  5
3F3
330
1F
100
AcDbEntity
  8
Ｓ_１_１
  6
CONTINUOUS
 62
     3
100
AcDbCircle
 10
937.4288083504
 20
1355.79234745586
 30
0.0
 40
8.684046652739143
  0
LINE
  5
3F4
330
1F
100
AcDbEntity
  8
Ｓ_１_１
  6
EXLTYPE6
 62
     1
100
AcDbLine
 10
1148.537386646808
 20
1364.103822494093
 30
0.0
 11
1115.135112751369
 21
1346.715699290621
 31
0.0
  0
CIRCLE
  5
3F5
330
1F
100
AcDbEntity
  8
Ｓ_１_１
  6
CONTINUOUS
 62
     3
100
AcDbCircle
 10
1132.5711916496
 20
1355.79234745586
 30
0.0
 40
10.0
  0
CIRCLE
  5
3F6
330
1F
100
AcDbEntity
  8
Ｓ_１_１
  6
CONTINUOUS
 62
     3
100
AcDbCircle
 10
1132.5711916496
 20
1355.79234745586
 30
0.0
 40
8.684046652739143
  0
LINE
  5
3F7
330
1F
100
AcDbEntity
  8
Ｓ_１_１
  6
EXLTYPE6
 62
     1
100
AcDbLine
 10
1148.537386646808
 20
1245.896177505908
 30
0.0
 11
1115.135112751369
 21
1263.284300709379
 31
0.0
  0
CIRCLE
  5
3F8
330
1F
100
AcDbEntity
  8
Ｓ_１_１
  6
CONTINUOUS
 62
     3
100
AcDbCircle
 10
1132.5711916496
 20
1254.20765254414
 30
0.0
 40
10.0
  0
CIRCLE
  5
3F9
330
1F
100
AcDbEntity
  8
Ｓ_１_１
  6
CONTINUOUS
 62
     3
100
AcDbCircle
 10
1132.5711916496
 20
1254.20765254414
 30
0.0
 40
8.684046652739143
  0
CIRCLE
  5
3FA
330
1F
100
AcDbEntity
  8
Ｓ_１_１
  6
CONTINUOUS
 62
     3
100
AcDbCircle
 10
1035.0
 20
1305.0
 30
0.0
 40
88.0
  0
CIRCLE
  5
3FB
330
1F
100
AcDbEntity
  8
Ｓ_１_１
  6
CONTINUOUS
 62
     3
100
AcDbCircle
 10
1035.0
 20
1305.0
 30
0.0
 40
92.0
  0
LINE
  5
3FC
330
1F
100
AcDbEntity
  8
Ｓ_１_１
  6
CONTINUOUS
 62
     3
100
AcDbLine
 10
762.9301426768444
 20
1183.645837582044
 30
0.0
 11
873.7956865782107
 21
1229.567849465825
 31
0.0
  0
LINE
  5
3FD
330
1F
100
AcDbEntity
  8
Ｓ_１_１
  6
CONTINUOUS
 62
     3
100
AcDbLine
 10
756.8072077590057
 20
1198.427910102224
 30
0.0
 11
762.930142676843
 21
1183.645837582043
 31
0.0
  0
LINE
  5
3FE
330
1F
100
AcDbEntity
  8
Ｓ_１_１
  6
CONTINUOUS
 62
     3
100
AcDbLine
 10
766.0460030841207
 20
1202.254744425872
 30
0.0
 11
772.1689380019582
 21
1187.472671905691
 31
0.0
  0
LINE
  5
3FF
330
1F
100
AcDbEntity
  8
Ｓ_１_１
  6
CONTINUOUS
 62
     3
100
AcDbLine
 10
756.807207759007
 20
1198.427910102225
 30
0.0
 11
866.3770650817969
 21
1243.813231032575
 31
0.0
  0
LINE
  5
400
330
1F
100
AcDbEntity
  8
Ｓ_１_１
  6
EXLTYPE0
 62
     2
100
AcDbLine
 10
812.2399797096896
 20
1221.388916044116
 30
0.0
 11
818.362914627527
 21
1206.606843523935
 31
0.0
  0
LINE
  5
401
330
1F
100
AcDbEntity
  8
Ｓ_１_１
  6
EXLTYPE0
 62
     2
100
AcDbLine
 10
775.2847984092332
 20
1206.081578749521
 30
0.0
 11
781.4077333270707
 21
1191.29950622934
 31
0.0
  0
LINE
  5
402
330
1F
100
AcDbEntity
  8
Ｓ_１_１
  6
EXLTYPE2
 62
     1
100
AcDbLine
 10
792.1053336749555
 20
1217.735732979701
 30
0.0
 11
801.6934159208412
 21
1194.588054784517
 31
0.0
  0
LINE
  5
403
330
1F
100
AcDbEntity
  8
Ｓ_１_１
  6
EXLTYPE2
 62
     1
100
AcDbLine
 10
754.7618538513675
 20
1188.92155917149
 30
0.0
 11
883.5730370334196
 21
1242.276898230782
 31
0.0
  0
LINE
  5
404
330
1F
100
AcDbEntity
  8
Ｓ_１_１
  6
CONTINUOUS
 62
     3
100
AcDbLine
 10
762.9301426768437
 20
1426.354162417957
 30
0.0
 11
873.7956865782103
 21
1380.432150534177
 31
0.0
  0
LINE
  5
405
330
1F
100
AcDbEntity
  8
Ｓ_１_１
  6
CONTINUOUS
 62
     3
100
AcDbLine
 10
756.807207759005
 20
1411.572089897777
 30
0.0
 11
762.9301426768424
 21
1426.354162417959
 31
0.0
  0
LINE
  5
406
330
1F
100
AcDbEntity
  8
Ｓ_１_１
  6
CONTINUOUS
 62
     3
100
AcDbLine
 10
766.0460030841201
 20
1407.745255574129
 30
0.0
 11
772.1689380019575
 21
1422.52732809431
 31
0.0
  0
LINE
  5
407
330
1F
100
AcDbEntity
  8
Ｓ_１_１
  6
CONTINUOUS
 62
     3
100
AcDbLine
 10
756.8072077590064
 20
1411.572089897776
 30
0.0
 11
866.3770650817966
 21
1366.186768967427
 31
0.0
  0
LINE
  5
408
330
1F
100
AcDbEntity
  8
Ｓ_１_１
  6
EXLTYPE0
 62
     2
100
AcDbLine
 10
812.2399797096891
 20
1388.611083955885
 30
0.0
 11
818.3629146275264
 21
1403.393156476067
 31
0.0
  0
LINE
  5
409
330
1F
100
AcDbEntity
  8
Ｓ_１_１
  6
EXLTYPE0
 62
     2
100
AcDbLine
 10
775.2847984092326
 20
1403.918421250481
 30
0.0
 11
781.40773332707
 21
1418.700493770662
 31
0.0
  0
LINE
  5
40A
330
1F
100
AcDbEntity
  8
Ｓ_１_１
  6
EXLTYPE2
 62
     1
100
AcDbLine
 10
792.1053336749551
 20
1392.2642670203
 30
0.0
 11
801.6934159208405
 21
1415.411945215484
 31
0.0
  0
LINE
  5
40B
330
1F
100
AcDbEntity
  8
Ｓ_１_１
  6
EXLTYPE2
 62
     1
100
AcDbLine
 10
754.7618538513668
 20
1421.078440828511
 30
0.0
 11
883.5730370334193
 21
1367.72310176922
 31
0.0
  0
LINE
  5
40C
330
1F
100
AcDbEntity
  8
Ｓ_１_１
  6
CONTINUOUS
 62
     3
100
AcDbLine
 10
1307.069857323161
 20
1426.354162417957
 30
0.0
 11
1196.204313421794
 21
1380.432150534177
 31
0.0
  0
LINE
  5
40D
330
1F
100
AcDbEntity
  8
Ｓ_１_１
  6
CONTINUOUS
 62
     3
100
AcDbLine
 10
1313.192792240999
 20
1411.572089897777
 30
0.0
 11
1307.069857323162
 21
1426.354162417959
 31
0.0
  0
LINE
  5
40E
330
1F
100
AcDbEntity
  8
Ｓ_１_１
  6
CONTINUOUS
 62
     3
100
AcDbLine
 10
1303.953996915884
 20
1407.745255574129
 30
0.0
 11
1297.831061998047
 21
1422.52732809431
 31
0.0
  0
LINE
  5
40F
330
1F
100
AcDbEntity
  8
Ｓ_１_１
  6
CONTINUOUS
 62
     3
100
AcDbLine
 10
1313.192792240998
 20
1411.572089897776
 30
0.0
 11
1203.622934918208
 21
1366.186768967427
 31
0.0
  0
LINE
  5
410
330
1F
100
AcDbEntity
  8
Ｓ_１_１
  6
EXLTYPE0
 62
     2
100
AcDbLine
 10
1257.760020290315
 20
1388.611083955885
 30
0.0
 11
1251.637085372478
 21
1403.393156476067
 31
0.0
  0
LINE
  5
411
330
1F
100
AcDbEntity
  8
Ｓ_１_１
  6
EXLTYPE0
 62
     2
100
AcDbLine
 10
1294.715201590772
 20
1403.918421250481
 30
0.0
 11
1288.592266672934
 21
1418.700493770662
 31
0.0
  0
LINE
  5
412
330
1F
100
AcDbEntity
  8
Ｓ_１_１
  6
EXLTYPE2
 62
     1
100
AcDbLine
 10
1277.894666325049
 20
1392.2642670203
 30
0.0
 11
1268.306584079164
 21
1415.411945215484
 31
0.0
  0
LINE
  5
413
330
1F
100
AcDbEntity
  8
Ｓ_１_１
  6
EXLTYPE2
 62
     1
100
AcDbLine
 10
1315.238146148637
 20
1421.078440828511
 30
0.0
 11
1186.426962966585
 21
1367.72310176922
 31
0.0
  0
LINE
  5
414
330
1F
100
AcDbEntity
  8
Ｓ_１_１
  6
CONTINUOUS
 62
     3
100
AcDbLine
 10
1307.06985732316
 20
1183.645837582044
 30
0.0
 11
1196.204313421793
 21
1229.567849465825
 31
0.0
  0
LINE
  5
415
330
1F
100
AcDbEntity
  8
Ｓ_１_１
  6
CONTINUOUS
 62
     3
100
AcDbLine
 10
1313.192792240999
 20
1198.427910102224
 30
0.0
 11
1307.069857323161
 21
1183.645837582043
 31
0.0
  0
LINE
  5
416
330
1F
100
AcDbEntity
  8
Ｓ_１_１
  6
CONTINUOUS
 62
     3
100
AcDbLine
 10
1303.953996915884
 20
1202.254744425872
 30
0.0
 11
1297.831061998046
 21
1187.472671905691
 31
0.0
  0
LINE
  5
417
330
1F
100
AcDbEntity
  8
Ｓ_１_１
  6
CONTINUOUS
 62
     3
100
AcDbLine
 10
1313.192792240997
 20
1198.427910102225
 30
0.0
 11
1203.622934918207
 21
1243.813231032575
 31
0.0
  0
LINE
  5
418
330
1F
100
AcDbEntity
  8
Ｓ_１_１
  6
EXLTYPE0
 62
     2
100
AcDbLine
 10
1257.760020290315
 20
1221.388916044116
 30
0.0
 11
1251.637085372477
 21
1206.606843523935
 31
0.0
  0
LINE
  5
419
330
1F
100
AcDbEntity
  8
Ｓ_１_１
  6
EXLTYPE0
 62
     2
100
AcDbLine
 10
1294.715201590771
 20
1206.081578749521
 30
0.0
 11
1288.592266672933
 21
1191.29950622934
 31
0.0
  0
LINE
  5
41A
330
1F
100
AcDbEntity
  8
Ｓ_１_１
  6
EXLTYPE2
 62
     1
100
AcDbLine
 10
1277.894666325049
 20
1217.735732979701
 30
0.0
 11
1268.306584079163
 21
1194.588054784517
 31
0.0
  0
LINE
  5
41B
330
1F
100
AcDbEntity
  8
Ｓ_１_１
  6
EXLTYPE2
 62
     1
100
AcDbLine
 10
1315.238146148637
 20
1188.92155917149
 30
0.0
 11
1186.426962966585
 21
1242.276898230782
 31
0.0
  0
CIRCLE
  5
41C
330
1F
100
AcDbEntity
  8
Ｓ_１_１
  6
CONTINUOUS
 62
     3
100
AcDbCircle
 10
785.0000000000017
 20
1305.0
 30
0.0
 40
13.0
  0
LINE
  5
41D
330
1F
100
AcDbEntity
  8
Ｓ_１_１
  6
EXLTYPE2
 62
     1
100
AcDbLine
 10
785.0000000000017
 20
1280.600000000001
 30
0.0
 11
785.0000000000017
 21
1329.4
 31
0.0
  0
CIRCLE
  5
41E
330
1F
100
AcDbEntity
  8
Ｓ_１_１
  6
CONTINUOUS
 62
     3
100
AcDbCircle
 10
1285.000000000002
 20
1305.0
 30
0.0
 40
13.0
  0
LINE
  5
41F
330
1F
100
AcDbEntity
  8
Ｓ_１_１
  6
EXLTYPE2
 62
     1
100
AcDbLine
 10
1285.000000000002
 20
1280.600000000001
 30
0.0
 11
1285.000000000002
 21
1329.4
 31
0.0
  0
ENDSEC
  0
SECTION
  2
OBJECTS
  0
DICTIONARY
  5
C
330
0
100
AcDbDictionary
  3
ACAD_GROUP
350
D
  3
ACAD_LAYOUT
350
1A
  3
ACAD_MATERIAL
350
43
  3
ACAD_MLEADERSTYLE
350
6B
  3
ACAD_MLINESTYLE
350
17
  3
ACAD_PLOTSETTINGS
350
19
  3
ACAD_SCALELIST
350
47
  3
ACAD_VISUALSTYLE
350
2A
  3
ACDBHEADERROUNDTRIPXREC
350
420
  3
ACDBVARIABLEDICTIONARY
350
441
  0
DICTIONARY
  5
44C
330
8
100
AcDbDictionary
280
     1
  3
ACAD_XREC_ROUNDTRIP
360
44D
  0
DICTIONARY
  5
D
102
{ACAD_REACTORS
330
C
102
}
330
C
100
AcDbDictionary
  0
DICTIONARY
  5
1A
102
{ACAD_REACTORS
330
C
102
}
330
C
100
AcDbDictionary
  0
DICTIONARY
  5
43
102
{ACAD_REACTORS
330
C
102
}
330
C
100
AcDbDictionary
  3
BYBLOCK
350
45
  3
BYLAYER
350
44
  3
GLOBAL
350
46
  0
DICTIONARY
  5
6B
102
{ACAD_REACTORS
330
C
102
}
330
C
100
AcDbDictionary
  3
STANDARD
350
6C
  0
DICTIONARY
  5
17
102
{ACAD_REACTORS
330
C
102
}
330
C
100
AcDbDictionary
  3
STANDARD
350
18
  0
DICTIONARY
  5
19
102
{ACAD_REACTORS
330
C
102
}
330
C
100
AcDbDictionary
  0
DICTIONARY
  5
47
102
{ACAD_REACTORS
330
C
102
}
330
C
100
AcDbDictionary
  3
A0
350
48
  3
A1
350
49
  3
A2
350
4A
  3
A3
350
4B
  3
A4
350
4C
  3
A5
350
4D
  3
A6
350
4E
  3
A7
350
4F
  3
A8
350
50
  3
A9
350
51
  3
B0
350
52
  3
B1
350
53
  3
B2
350
54
  3
B3
350
55
  3
B4
350
56
  3
B5
350
57
  3
B6
350
58
  3
B7
350
59
  3
B8
350
5A
  3
B9
350
5B
  3
C0
350
5C
  3
C1
350
5D
  3
C2
350
5E
  3
C3
350
5F
  3
C4
350
60
  3
C5
350
61
  3
C6
350
62
  3
C7
350
63
  3
C8
350
64
  3
C9
350
65
  3
D0
350
66
  3
D1
350
67
  3
D2
350
68
  0
DICTIONARY
  5
2A
102
{ACAD_REACTORS
330
C
102
}
330
C
100
AcDbDictionary
  3
2DWIREFRAME
350
2F
  3
BASIC
350
32
  3
BRIGHTEN
350
36
  3
COLORCHANGE
350
3A
  3
CONCEPTUAL
350
34
  3
DIM
350
35
  3
EDGECOLOROFF
350
3D
  3
FACEPATTERN
350
39
  3
FLAT
350
2B
  3
FLATWITHEDGES
350
2C
  3
GOURAUD
350
2D
  3
GOURAUDWITHEDGES
350
2E
  3
HIDDEN
350
31
  3
JITTEROFF
350
3B
  3
LINEPATTERN
350
38
  3
OVERHANGOFF
350
3C
  3
REALISTIC
350
33
  3
SHADED
350
42
  3
SHADED_WITH_EDGES
350
41
  3
SHADES_OF_GRAY
350
3E
  3
SKETCHY
350
3F
  3
THICKEN
350
37
  3
WIREFRAME
350
30
  3
X-RAY
350
40
  0
DICTIONARY
  5
420
102
{ACAD_REACTORS
330
C
102
}
330
C
100
AcDbDictionary
  3
CEPSNID
350
42A
  3
CEPSNTYPE
350
429
  3
DIMSTYLEDATA
350
440
  3
FINGERPRINTGUID
350
42B
  3
HYPERLINKBASE
350
423
  3
INSUNITS
350
428
  3
LAYOUTDICT
350
425
  3
LWETCUNION
350
427
  3
PLOTSETDICT
350
426
  3
PSVPSCALE
350
42D
  3
PUCSBASE
350
430
  3
PUCSORGBACK
350
436
  3
PUCSORGBOTTOM
350
432
  3
PUCSORGFRONT
350
435
  3
PUCSORGLEFT
350
433
  3
PUCSORGRIGHT
350
434
  3
PUCSORGTOP
350
431
  3
PUCSORTHOREF
350
42E
  3
PUCSORTHOVIEW
350
42F
  3
STYLESHEET
350
424
  3
TSTACKALIGN
350
421
  3
TSTACKSIZE
350
422
  3
UCSBASE
350
439
  3
UCSORGBACK
350
43F
  3
UCSORGBOTTOM
350
43B
  3
UCSORGFRONT
350
43E
  3
UCSORGLEFT
350
43C
  3
UCSORGRIGHT
350
43D
  3
UCSORGTOP
350
43A
  3
UCSORTHOREF
350
437
  3
UCSORTHOVIEW
350
438
  3
VERSIONGUID
350
42C
  0
DICTIONARY
  5
441
102
{ACAD_REACTORS
330
C
102
}
330
C
100
AcDbDictionary
  3
CANNOSCALE
350
44E
  3
CENTEREXE
350
448
  3
CENTERLTYPEFILE
350
449
  3
CMLEADERSTYLE
350
443
  3
CTABLESTYLE
350
442
  3
DIMASSOC
350
44A
  3
HIDETEXT
350
44B
  3
MSLTSCALE
350
44F
  3
PSOLHEIGHT
350
445
  3
PSOLWIDTH
350
444
  0
XRECORD
  5
44D
102
{ACAD_REACTORS
330
44C
102
}
330
44C
100
AcDbXrecord
102
VTR_0.000_0.000_1.000_1.000_VISUALSTYLE
340
2F
102
VTR_0.000_0.000_1.000_1.000_GRIDDISPLAY
 70
     3
102
VTR_0.000_0.000_1.000_1.000_GRIDMAJOR
 70
     5
102
VTR_0.000_0.000_1.000_1.000_DEFAULTLIGHTING
280
     1
102
VTR_0.000_0.000_1.000_1.000_DEFAULTLIGHTINGTYPE
 70
     1
102
VTR_0.000_0.000_1.000_1.000_BRIGHTNESS
141
0.0
102
VTR_0.000_0.000_1.000_1.000_CONTRAST
142
0.0
  0
MATERIAL
  5
45
102
{ACAD_REACTORS
330
43
102
}
102
{ACAD_XDICTIONARY
360
452
102
}
330
43
100
AcDbMaterial
  1
BYBLOCK
  0
MATERIAL
  5
44
102
{ACAD_REACTORS
330
43
102
}
102
{ACAD_XDICTIONARY
360
450
102
}
330
43
100
AcDbMaterial
  1
BYLAYER
  0
MATERIAL
  5
46
102
{ACAD_REACTORS
330
43
102
}
102
{ACAD_XDICTIONARY
360
454
102
}
330
43
100
AcDbMaterial
  1
GLOBAL
  0
ACAD_PROXY_OBJECT
  5
6C
102
{ACAD_REACTORS
330
6B
102
}
330
6B
100
AcDbProxyObject
 90
      499
 91
      505
 93
      610
310
40901902A4063FBFFFFFE0000000000000020400000000000020404214DD185B99185C990000000000000104090141901A00000000000004100000000000000041025764000000000000039000
340
14
340
0
340
11
340
0
 94
        0
1001
ACAD_MLEADERVER
1070
     2
  0
MLINESTYLE
  5
18
102
{ACAD_REACTORS
330
17
102
}
330
17
100
AcDbMlineStyle
  2
Standard
 70
     0
  3

 62
   256
 51
90.0
 52
90.0
 71
     2
 49
0.5
 62
   256
  6
BYLAYER
 49
-0.5
 62
   256
  6
BYLAYER
  0
ACAD_PROXY_OBJECT
  5
48
102
{ACAD_REACTORS
330
47
102
}
330
47
100
AcDbProxyObject
 90
      499
 91
      503
 93
       41
310
903313A31580
  0
ACAD_PROXY_OBJECT
  5
49
102
{ACAD_REACTORS
330
47
102
}
330
47
100
AcDbProxyObject
 90
      499
 91
      503
 93
      105
310
903313A324000000000000004000
  0
ACAD_PROXY_OBJECT
  5
4A
102
{ACAD_REACTORS
330
47
102
}
330
47
100
AcDbProxyObject
 90
      499
 91
      503
 93
      105
310
903313A344000000000000104000
  0
ACAD_PROXY_OBJECT
  5
4B
102
{ACAD_REACTORS
330
47
102
}
330
47
100
AcDbProxyObject
 90
      499
 91
      503
 93
      105
310
903313A354000000000000144000
  0
ACAD_PROXY_OBJECT
  5
4C
102
{ACAD_REACTORS
330
47
102
}
330
47
100
AcDbProxyObject
 90
      499
 91
      503
 93
      105
310
903313A384000000000000204000
  0
ACAD_PROXY_OBJECT
  5
4D
102
{ACAD_REACTORS
330
47
102
}
330
47
100
AcDbProxyObject
 90
      499
 91
      503
 93
      113
310
904313A31304000000000000244000
  0
ACAD_PROXY_OBJECT
  5
4E
102
{ACAD_REACTORS
330
47
102
}
330
47
100
AcDbProxyObject
 90
      499
 91
      503
 93
      113
310
904313A31364000000000000304000
  0
ACAD_PROXY_OBJECT
  5
4F
102
{ACAD_REACTORS
330
47
102
}
330
47
100
AcDbProxyObject
 90
      499
 91
      503
 93
      113
310
904313A32304000000000000344000
  0
ACAD_PROXY_OBJECT
  5
50
102
{ACAD_REACTORS
330
47
102
}
330
47
100
AcDbProxyObject
 90
      499
 91
      503
 93
      113
310
904313A333040000000000003E4000
  0
ACAD_PROXY_OBJECT
  5
51
102
{ACAD_REACTORS
330
47
102
}
330
47
100
AcDbProxyObject
 90
      499
 91
      503
 93
      113
310
904313A34304000000000000444000
  0
ACAD_PROXY_OBJECT
  5
52
102
{ACAD_REACTORS
330
47
102
}
330
47
100
AcDbProxyObject
 90
      499
 91
      503
 93
      113
310
904313A35304000000000000494000
  0
ACAD_PROXY_OBJECT
  5
53
102
{ACAD_REACTORS
330
47
102
}
330
47
100
AcDbProxyObject
 90
      499
 91
      503
 93
      121
310
905313A3130304000000000000594000
  0
ACAD_PROXY_OBJECT
  5
54
102
{ACAD_REACTORS
330
47
102
}
330
47
100
AcDbProxyObject
 90
      499
 91
      503
 93
      105
310
903323A310000000000000010100
  0
ACAD_PROXY_OBJECT
  5
55
102
{ACAD_REACTORS
330
47
102
}
330
47
100
AcDbProxyObject
 90
      499
 91
      503
 93
      105
310
903343A310000000000000410100
  0
ACAD_PROXY_OBJECT
  5
56
102
{ACAD_REACTORS
330
47
102
}
330
47
100
AcDbProxyObject
 90
      499
 91
      503
 93
      105
310
903383A310000000000000810100
  0
ACAD_PROXY_OBJECT
  5
57
102
{ACAD_REACTORS
330
47
102
}
330
47
100
AcDbProxyObject
 90
      499
 91
      503
 93
      113
310
90431303A310000000000000910100
  0
ACAD_PROXY_OBJECT
  5
58
102
{ACAD_REACTORS
330
47
102
}
330
47
100
AcDbProxyObject
 90
      499
 91
      503
 93
      121
310
9053130303A310000000000001650100
  0
ACAD_PROXY_OBJECT
  5
59
102
{ACAD_REACTORS
330
47
102
}
330
47
100
AcDbProxyObject
 90
      499
 91
      503
 93
      257
310
90E312F31323822203D2031272D3022000000000000200FC000000000000284000
  0
ACAD_PROXY_OBJECT
  5
5A
102
{ACAD_REACTORS
330
47
102
}
330
47
100
AcDbProxyObject
 90
      499
 91
      503
 93
      249
310
90D312F363422203D2031272D3022000000000000240FC000000000000284000
  0
ACAD_PROXY_OBJECT
  5
5B
102
{ACAD_REACTORS
330
47
102
}
330
47
100
AcDbProxyObject
 90
      499
 91
      503
 93
      249
310
90D312F333222203D2031272D3022000000000000280FC000000000000284000
  0
ACAD_PROXY_OBJECT
  5
5C
102
{ACAD_REACTORS
330
47
102
}
330
47
100
AcDbProxyObject
 90
      499
 91
      503
 93
      249
310
90D312F313622203D2031272D30220000000000002C0FC000000000000284000
  0
ACAD_PROXY_OBJECT
  5
5D
102
{ACAD_REACTORS
330
47
102
}
330
47
100
AcDbProxyObject
 90
      499
 91
      503
 93
      249
310
90D332F333222203D2031272D30220000000000002E0FC000000000000284000
  0
ACAD_PROXY_OBJECT
  5
5E
102
{ACAD_REACTORS
330
47
102
}
330
47
100
AcDbProxyObject
 90
      499
 91
      503
 93
      241
310
90C312F3822203D2031272D3022000000000000300FC000000000000284000
  0
ACAD_PROXY_OBJECT
  5
5F
102
{ACAD_REACTORS
330
47
102
}
330
47
100
AcDbProxyObject
 90
      499
 91
      503
 93
      249
310
90D332F313622203D2031272D3022000000000000320FC000000000000284000
  0
ACAD_PROXY_OBJECT
  5
60
102
{ACAD_REACTORS
330
47
102
}
330
47
100
AcDbProxyObject
 90
      499
 91
      503
 93
      241
310
90C312F3422203D2031272D3022000000000000340FC000000000000284000
  0
ACAD_PROXY_OBJECT
  5
61
102
{ACAD_REACTORS
330
47
102
}
330
47
100
AcDbProxyObject
 90
      499
 91
      503
 93
      241
310
90C332F3822203D2031272D3022000000000000360FC000000000000284000
  0
ACAD_PROXY_OBJECT
  5
62
102
{ACAD_REACTORS
330
47
102
}
330
47
100
AcDbProxyObject
 90
      499
 91
      503
 93
      241
310
90C312F3222203D2031272D3022000000000000380FC000000000000284000
  0
ACAD_PROXY_OBJECT
  5
63
102
{ACAD_REACTORS
330
47
102
}
330
47
100
AcDbProxyObject
 90
      499
 91
      503
 93
      241
310
90C332F3422203D2031272D30220000000000003A0FC000000000000284000
  0
ACAD_PROXY_OBJECT
  5
64
102
{ACAD_REACTORS
330
47
102
}
330
47
100
AcDbProxyObject
 90
      499
 91
      503
 93
      161
310
90A3122203D2031272D30224000000000000284000
  0
ACAD_PROXY_OBJECT
  5
65
102
{ACAD_REACTORS
330
47
102
}
330
47
100
AcDbProxyObject
 90
      499
 91
      503
 93
      257
310
90E312D312F3222203D2031272D30220000000000003E0FC000000000000284000
  0
ACAD_PROXY_OBJECT
  5
66
102
{ACAD_REACTORS
330
47
102
}
330
47
100
AcDbProxyObject
 90
      499
 91
      503
 93
      225
310
90A3322203D2031272D302200000000000002100000000000000284000
  0
ACAD_PROXY_OBJECT
  5
67
102
{ACAD_REACTORS
330
47
102
}
330
47
100
AcDbProxyObject
 90
      499
 91
      503
 93
      225
310
90A3622203D2031272D302200000000000006100000000000000284000
  0
ACAD_PROXY_OBJECT
  5
68
102
{ACAD_REACTORS
330
47
102
}
330
47
100
AcDbProxyObject
 90
      499
 91
      503
 93
      249
310
90D31272D3022203D2031272D30220000000000000A100000000000000284000
  0
ACAD_PROXY_OBJECT
  5
2F
102
{ACAD_REACTORS
330
2A
102
}
330
2A
100
AcDbProxyObject
 90
      499
 91
      501
 93
      436
310
42CC9915DA5C99599C985B595049028333333333333E33F0000000000000F90107901411070040501600405405064090741402480A0340
1001
ACAD
1000
AcDbSavedByObjectVersion
1070
     0
  0
ACAD_PROXY_OBJECT
  5
32
102
{ACAD_REACTORS
330
2A
102
}
330
2A
100
AcDbProxyObject
 90
      499
 91
      501
 93
      388
310
4150985CDA58D07406404333333333333E33F0000000000000F90107A41107004050150841D405064090741402480A0350
1001
ACAD
1000
AcDbSavedByObjectVersion
1070
     0
  0
ACAD_PROXY_OBJECT
  5
36
102
{ACAD_REACTORS
330
2A
102
}
330
2A
100
AcDbProxyObject
 90
      499
 91
      501
 93
      428
310
42109C9A59DA1D195B90C409028333333333333E33F0000000000000F9010790141107004050150841D405064090741402480A029950
1001
ACAD
1000
AcDbSavedByObjectVersion
1070
     0
  0
ACAD_PROXY_OBJECT
  5
3A
102
{ACAD_REACTORS
330
2A
102
}
330
2A
100
AcDbProxyObject
 90
      499
 91
      501
 93
      452
310
42D0DBDB1BDC90DA185B99D95104090240C333333333333E33F0000000000000F90108901411070040501508421405064090741402480A0350
1001
ACAD
1000
AcDbSavedByObjectVersion
1070
     0
  0
ACAD_PROXY_OBJECT
  5
34
102
{ACAD_REACTORS
330
2A
102
}
330
2A
100
AcDbProxyObject
 90
      499
 91
      501
 93
      500
310
4290DBDB98D95C1D1D585B10940D028333333333333E33F0000000000000F90107902409070040501000000000018199010841D405064090740C02480A0340
1001
ACAD
1000
AcDbSavedByObjectVersion
1070
     0
  0
ACAD_PROXY_OBJECT
  5
35
102
{ACAD_REACTORS
330
2A
102
}
330
2A
100
AcDbProxyObject
 90
      499
 91
      501
 93
      412
310
40D11A5B50B409028333333333333E33F0000000000000F9010790141107004050150841D405064090741402480A02677FFFFFD0
1001
ACAD
1000
AcDbSavedByObjectVersion
1070
     0
  0
ACAD_PROXY_OBJECT
  5
3D
102
{ACAD_REACTORS
330
2A
102
}
330
2A
100
AcDbProxyObject
 90
      499
 91
      501
 93
      452
310
43115919D950DBDB1BDC93D999916409028333333333333E33F0000000000000F9010790141107004050150841D405064090741402480A0350
1001
ACAD
1000
AcDbSavedByObjectVersion
1070
     0
  0
ACAD_PROXY_OBJECT
  5
39
102
{ACAD_REACTORS
330
2A
102
}
330
2A
100
AcDbProxyObject
 90
      499
 91
      501
 93
      444
310
42D19858D95C185D1D195C9B90F409028333333333333E33F0000000000000F9010790141107004050150841D405064090741402480A0350
1001
ACAD
1000
AcDbSavedByObjectVersion
1070
     0
  0
ACAD_PROXY_OBJECT
  5
2B
102
{ACAD_REACTORS
330
2A
102
}
330
2A
100
AcDbProxyObject
 90
      499
 91
      501
 93
      380
310
41119B185D240901404333333333333E33F0000000000000F9010740A907004050150841D405064090741402480A1B50
1001
ACAD
1000
AcDbSavedByObjectVersion
1070
     0
  0
ACAD_PROXY_OBJECT
  5
2C
102
{ACAD_REACTORS
330
2A
102
}
330
2A
100
AcDbProxyObject
 90
      499
 91
      501
 93
      468
310
43519B185D15DA5D1A115919D95CD0140901404333333333333E33F0000000000000F90107409019070040501600405405064090741402480A1B50
1001
ACAD
1000
AcDbSavedByObjectVersion
1070
     0
  0
ACAD_PROXY_OBJECT
  5
2D
102
{ACAD_REACTORS
330
2A
102
}
330
2A
100
AcDbProxyObject
 90
      499
 91
      501
 93
      404
310
41D1DBDD5C985D5910240902404333333333333E33F0000000000000F9010740A9070040501641D405064090741402480A1B50
1001
ACAD
1000
AcDbSavedByObjectVersion
1070
     0
  0
ACAD_PROXY_OBJECT
  5
2E
102
{ACAD_REACTORS
330
2A
102
}
330
2A
100
AcDbProxyObject
 90
      499
 91
      501
 93
      492
310
4411DBDD5C985D5915DA5D1A115919D95CD0340902404333333333333E33F0000000000000F90107409019070040501600405405064090741402480A1B50
1001
ACAD
1000
AcDbSavedByObjectVersion
1070
     0
  0
ACAD_PROXY_OBJECT
  5
31
102
{ACAD_REACTORS
330
2A
102
}
330
2A
100
AcDbProxyObject
 90
      499
 91
      501
 93
      476
310
41921A5919195B90640502408333333333333E33F0000000000000F901079024090700405020000000000001110200405405064090740C02480A0340
1001
ACAD
1000
AcDbSavedByObjectVersion
1070
     0
  0
ACAD_PROXY_OBJECT
  5
3B
102
{ACAD_REACTORS
330
2A
102
}
330
2A
100
AcDbProxyObject
 90
      499
 91
      501
 93
      428
310
42529A5D1D195C93D999914409028333333333333E33F0000000000000F9010790141107004050150A41D405064090741402480A0350
1001
ACAD
1000
AcDbSavedByObjectVersion
1070
     0
  0
ACAD_PROXY_OBJECT
  5
38
102
{ACAD_REACTORS
330
2A
102
}
330
2A
100
AcDbProxyObject
 90
      499
 91
      501
 93
      444
310
42D31A5B995C185D1D195C9B90E409028333333333333E33F0000000000000F9010790141107004050750841D405064090741402483A0350
1001
ACAD
1000
AcDbSavedByObjectVersion
1070
     0
  0
ACAD_PROXY_OBJECT
  5
3C
102
{ACAD_REACTORS
330
2A
102
}
330
2A
100
AcDbProxyObject
 90
      499
 91
      501
 93
      444
310
42D3DD995C9A185B99D3D999915409028333333333333E33F0000000000000F9010790141107004050150941D405064090741402480A0350
1001
ACAD
1000
AcDbSavedByObjectVersion
1070
     0
  0
ACAD_PROXY_OBJECT
  5
33
102
{ACAD_REACTORS
330
2A
102
}
330
2A
100
AcDbProxyObject
 90
      499
 91
      501
 93
      428
310
425499585B1A5CDD1A58D08409038333333333333E33F0000000000000F9010740A907004050150800405405064090740C02480A1B40
1001
ACAD
1000
AcDbSavedByObjectVersion
1070
     0
  0
ACAD_PROXY_OBJECT
  5
42
102
{ACAD_REACTORS
330
2A
102
}
330
2A
100
AcDbProxyObject
 90
      499
 91
      501
 93
      420
310
4194DA1859195911B40902404333333333333E33F0000000000000F9010740A41107004050150800405405064090840C02480A0B40
1001
ACAD
1000
AcDbSavedByObjectVersion
1070
     0
  0
ACAD_PROXY_OBJECT
  5
41
102
{ACAD_REACTORS
330
2A
102
}
330
2A
100
AcDbProxyObject
 90
      499
 91
      501
 93
      516
310
4454DA18591959081DDA5D1A08195919D95CD1A40902404333333333333E33F0000000000000F901074090142907004050250800405405064090740C02480A0B40
1001
ACAD
1000
AcDbSavedByObjectVersion
1070
     0
  0
ACAD_PROXY_OBJECT
  5
3E
102
{ACAD_REACTORS
330
2A
102
}
330
2A
100
AcDbProxyObject
 90
      499
 91
      501
 93
      532
310
4394DA1859195CC81BD98811DC985E5174090240C333333333333E33F0000000000000F901079024090741D01000000000000111010841D405064090740C02480A0340
1001
ACAD
1000
AcDbSavedByObjectVersion
1070
     0
  0
ACAD_PROXY_OBJECT
  5
3F
102
{ACAD_REACTORS
330
2A
102
}
330
2A
100
AcDbProxyObject
 90
      499
 91
      501
 93
      476
310
41D4DAD95D18DA1E51840502408333333333333E33F0000000000000F901079024090741D01000000000000111010B41D405064090741802480A0340
1001
ACAD
1000
AcDbSavedByObjectVersion
1070
     0
  0
ACAD_PROXY_OBJECT
  5
37
102
{ACAD_REACTORS
330
2A
102
}
330
2A
100
AcDbProxyObject
 90
      499
 91
      501
 93
      412
310
41D51A1A58DAD95B90D409028333333333333E33F0000000000000F9010790141107004050150C41D405064090741402480A0350
1001
ACAD
1000
AcDbSavedByObjectVersion
1070
     0
  0
ACAD_PROXY_OBJECT
  5
30
102
{ACAD_REACTORS
330
2A
102
}
330
2A
100
AcDbProxyObject
 90
      499
 91
      501
 93
      420
310
4255DA5C99599C985B595059028333333333333E33F0000000000000F90107901411070040501600405405064090740C02480A0340
1001
ACAD
1000
AcDbSavedByObjectVersion
1070
     0
  0
ACAD_PROXY_OBJECT
  5
40
102
{ACAD_REACTORS
330
2A
102
}
330
2A
100
AcDbProxyObject
 90
      499
 91
      501
 93
      404
310
41560B54985E51940902404000000000000E03F0000000000000F9010740501907004050150841D405064090740C02480A1B40
1001
ACAD
1000
AcDbSavedByObjectVersion
1070
     0
  0
XRECORD
  5
42A
102
{ACAD_REACTORS
330
420
102
}
330
420
100
AcDbXrecord
340
0
  0
XRECORD
  5
429
102
{ACAD_REACTORS
330
420
102
}
330
420
100
AcDbXrecord
 90
        0
  0
XRECORD
  5
440
102
{ACAD_REACTORS
330
420
102
}
330
420
100
AcDbXrecord
1000
DSTYLE
1002
{
1070
   340
340
11
1002
}
  0
XRECORD
  5
42B
102
{ACAD_REACTORS
330
420
102
}
330
420
100
AcDbXrecord
  1
{40f34566-467a-41bb-9e97-caf6523b3fdd}
  0
XRECORD
  5
423
102
{ACAD_REACTORS
330
420
102
}
330
420
100
AcDbXrecord
  1

  0
XRECORD
  5
428
102
{ACAD_REACTORS
330
420
102
}
330
420
100
AcDbXrecord
 90
        4
  0
XRECORD
  5
425
102
{ACAD_REACTORS
330
420
102
}
330
420
100
AcDbXrecord
340
1A
  0
XRECORD
  5
427
102
{ACAD_REACTORS
330
420
102
}
330
420
100
AcDbXrecord
 90
    10781
  0
XRECORD
  5
426
102
{ACAD_REACTORS
330
420
102
}
330
420
100
AcDbXrecord
340
19
  0
XRECORD
  5
42D
102
{ACAD_REACTORS
330
420
102
}
330
420
100
AcDbXrecord
 40
0.0
  0
XRECORD
  5
430
102
{ACAD_REACTORS
330
420
102
}
330
420
100
AcDbXrecord
340
0
  0
XRECORD
  5
436
102
{ACAD_REACTORS
330
420
102
}
330
420
100
AcDbXrecord
 10
0.0
 20
0.0
 30
0.0
  0
XRECORD
  5
432
102
{ACAD_REACTORS
330
420
102
}
330
420
100
AcDbXrecord
 10
0.0
 20
0.0
 30
0.0
  0
XRECORD
  5
435
102
{ACAD_REACTORS
330
420
102
}
330
420
100
AcDbXrecord
 10
0.0
 20
0.0
 30
0.0
  0
XRECORD
  5
433
102
{ACAD_REACTORS
330
420
102
}
330
420
100
AcDbXrecord
 10
0.0
 20
0.0
 30
0.0
  0
XRECORD
  5
434
102
{ACAD_REACTORS
330
420
102
}
330
420
100
AcDbXrecord
 10
0.0
 20
0.0
 30
0.0
  0
XRECORD
  5
431
102
{ACAD_REACTORS
330
420
102
}
330
420
100
AcDbXrecord
 10
0.0
 20
0.0
 30
0.0
  0
XRECORD
  5
42E
102
{ACAD_REACTORS
330
420
102
}
330
420
100
AcDbXrecord
340
0
  0
XRECORD
  5
42F
102
{ACAD_REACTORS
330
420
102
}
330
420
100
AcDbXrecord
 70
     0
  0
XRECORD
  5
424
102
{ACAD_REACTORS
330
420
102
}
330
420
100
AcDbXrecord
  1

  0
XRECORD
  5
421
102
{ACAD_REACTORS
330
420
102
}
330
420
100
AcDbXrecord
 90
        1
  0
XRECORD
  5
422
102
{ACAD_REACTORS
330
420
102
}
330
420
100
AcDbXrecord
 90
       70
  0
XRECORD
  5
439
102
{ACAD_REACTORS
330
420
102
}
330
420
100
AcDbXrecord
340
0
  0
XRECORD
  5
43F
102
{ACAD_REACTORS
330
420
102
}
330
420
100
AcDbXrecord
 10
0.0
 20
0.0
 30
0.0
  0
XRECORD
  5
43B
102
{ACAD_REACTORS
330
420
102
}
330
420
100
AcDbXrecord
 10
0.0
 20
0.0
 30
0.0
  0
XRECORD
  5
43E
102
{ACAD_REACTORS
330
420
102
}
330
420
100
AcDbXrecord
 10
0.0
 20
0.0
 30
0.0
  0
XRECORD
  5
43C
102
{ACAD_REACTORS
330
420
102
}
330
420
100
AcDbXrecord
 10
0.0
 20
0.0
 30
0.0
  0
XRECORD
  5
43D
102
{ACAD_REACTORS
330
420
102
}
330
420
100
AcDbXrecord
 10
0.0
 20
0.0
 30
0.0
  0
XRECORD
  5
43A
102
{ACAD_REACTORS
330
420
102
}
330
420
100
AcDbXrecord
 10
0.0
 20
0.0
 30
0.0
  0
XRECORD
  5
437
102
{ACAD_REACTORS
330
420
102
}
330
420
100
AcDbXrecord
340
0
  0
XRECORD
  5
438
102
{ACAD_REACTORS
330
420
102
}
330
420
100
AcDbXrecord
 70
     0
  0
XRECORD
  5
42C
102
{ACAD_REACTORS
330
420
102
}
330
420
100
AcDbXrecord
  1
{FAEB1C32-E019-11D5-929B-00C0DF256EC4}
  0
DICTIONARYVAR
  5
44E
102
{ACAD_REACTORS
330
441
102
}
330
441
100
DictionaryVariables
280
     0
  1
1:1
  0
DICTIONARYVAR
  5
448
102
{ACAD_REACTORS
330
441
102
}
330
441
100
DictionaryVariables
280
     0
  1
3.500000
  0
DICTIONARYVAR
  5
449
102
{ACAD_REACTORS
330
441
102
}
330
441
100
DictionaryVariables
280
     0
  1
acadiso.lin
  0
DICTIONARYVAR
  5
443
102
{ACAD_REACTORS
330
441
102
}
330
441
100
DictionaryVariables
280
     0
  1
Standard
  0
DICTIONARYVAR
  5
442
102
{ACAD_REACTORS
330
441
102
}
330
441
100
DictionaryVariables
280
     0
  1
Standard
  0
DICTIONARYVAR
  5
44A
102
{ACAD_REACTORS
330
441
102
}
330
441
100
DictionaryVariables
280
     0
  1
2
  0
DICTIONARYVAR
  5
44B
102
{ACAD_REACTORS
330
441
102
}
330
441
100
DictionaryVariables
280
     0
  1
1
  0
DICTIONARYVAR
  5
44F
102
{ACAD_REACTORS
330
441
102
}
330
441
100
DictionaryVariables
280
     0
  1
1
  0
DICTIONARYVAR
  5
445
102
{ACAD_REACTORS
330
441
102
}
330
441
100
DictionaryVariables
280
     0
  1
80.000000
  0
DICTIONARYVAR
  5
444
102
{ACAD_REACTORS
330
441
102
}
330
441
100
DictionaryVariables
280
     0
  1
5.000000
  0
DICTIONARY
  5
452
330
45
100
AcDbDictionary
280
     1
  3
ACAD_XREC_ROUNDTRIP
360
453
  0
DICTIONARY
  5
450
330
44
100
AcDbDictionary
280
     1
  3
ACAD_XREC_ROUNDTRIP
360
451
  0
DICTIONARY
  5
454
330
46
100
AcDbDictionary
280
     1
  3
ACAD_XREC_ROUNDTRIP
360
455
  0
XRECORD
  5
453
102
{ACAD_REACTORS
330
452
102
}
330
452
100
AcDbXrecord
102
MATERIAL
148
0.0
149
0.0
149
0.0
 93
        0
 94
      127
282
     0
 72
     1
 77
     1
171
     1
175
     1
179
     1
273
     0
  0
XRECORD
  5
451
102
{ACAD_REACTORS
330
450
102
}
330
450
100
AcDbXrecord
102
MATERIAL
148
0.0
149
0.0
149
0.0
 93
        0
 94
      127
282
     0
 72
     1
 77
     1
171
     1
175
     1
179
     1
273
     0
  0
XRECORD
  5
455
102
{ACAD_REACTORS
330
454
102
}
330
454
100
AcDbXrecord
102
MATERIAL
148
0.0
149
0.0
149
0.0
 93
        0
 94
      127
282
     0
 72
     1
 77
     1
171
     1
175
     1
179
     1
273
     0
  0
ENDSEC
  0
EOF
