  0
SECTION
  2
HEADER
  9
$ACADVER
  1
AC1014
  9
$ACADMAINTVER
 70
     9
  9
$DWGCODEPAGE
  3
ANSI_932
  9
$INSBASE
 10
0.0
 20
0.0
 30
0.0
  9
$EXTMIN
 10
80.0
 20
80.0
 30
0.0
  9
$EXTMAX
 10
3280.0
 20
2296.0
 30
0.0
  9
$LIMMIN
 10
0.0
 20
0.0
  9
$LIMMAX
 10
420.0
 20
297.0
  9
$ORTHOMODE
 70
     0
  9
$REGENMODE
 70
     1
  9
$FILLMODE
 70
     1
  9
$QTEXTMODE
 70
     0
  9
$MIRRTEXT
 70
     1
  9
$DRAGMODE
 70
     2
  9
$LTSCALE
 40
1.0
  9
$OSMODE
 70
    37
  9
$ATTMODE
 70
     1
  9
$TEXTSIZE
 40
2.5
  9
$TRACEWID
 40
1.0
  9
$TEXTSTYLE
  7
STANDARD
  9
$CLAYER
  8
Ｓ_１_１
  9
$CELTYPE
  6
BYLAYER
  9
$CECOLOR
 62
   256
  9
$CELTSCALE
 40
1.0
  9
$DELOBJ
 70
     1
  9
$DISPSILH
 70
     0
  9
$DIMSCALE
 40
1.0
  9
$DIMASZ
 40
2.5
  9
$DIMEXO
 40
0.625
  9
$DIMDLI
 40
3.75
  9
$DIMRND
 40
0.0
  9
$DIMDLE
 40
0.0
  9
$DIMEXE
 40
1.25
  9
$DIMTP
 40
0.0
  9
$DIMTM
 40
0.0
  9
$DIMTXT
 40
2.5
  9
$DIMCEN
 40
2.5
  9
$DIMTSZ
 40
0.0
  9
$DIMTOL
 70
     0
  9
$DIMLIM
 70
     0
  9
$DIMTIH
 70
     0
  9
$DIMTOH
 70
     0
  9
$DIMSE1
 70
     0
  9
$DIMSE2
 70
     0
  9
$DIMTAD
 70
     1
  9
$DIMZIN
 70
     8
  9
$DIMBLK
  1

  9
$DIMASO
 70
     1
  9
$DIMSHO
 70
     1
  9
$DIMPOST
  1

  9
$DIMAPOST
  1

  9
$DIMALT
 70
     0
  9
$DIMALTD
 70
     3
  9
$DIMALTF
 40
0.03937007874016
  9
$DIMLFAC
 40
1.0
  9
$DIMTOFL
 70
     1
  9
$DIMTVP
 40
0.0
  9
$DIMTIX
 70
     0
  9
$DIMSOXD
 70
     0
  9
$DIMSAH
 70
     0
  9
$DIMBLK1
  1

  9
$DIMBLK2
  1

  9
$DIMSTYLE
  2
ISO-25
  9
$DIMCLRD
 70
     0
  9
$DIMCLRE
 70
     0
  9
$DIMCLRT
 70
     0
  9
$DIMTFAC
 40
1.0
  9
$DIMGAP
 40
0.625
  9
$DIMJUST
 70
     0
  9
$DIMSD1
 70
     0
  9
$DIMSD2
 70
     0
  9
$DIMTOLJ
 70
     0
  9
$DIMTZIN
 70
     8
  9
$DIMALTZ
 70
     0
  9
$DIMALTTZ
 70
     0
  9
$DIMFIT
 70
     3
  9
$DIMUPT
 70
     0
  9
$DIMUNIT
 70
     2
  9
$DIMDEC
 70
     2
  9
$DIMTDEC
 70
     2
  9
$DIMALTU
 70
     2
  9
$DIMALTTD
 70
     3
  9
$DIMTXSTY
  7
STANDARD
  9
$DIMAUNIT
 70
     0
  9
$LUNITS
 70
     2
  9
$LUPREC
 70
     4
  9
$SKETCHINC
 40
1.0
  9
$FILLETRAD
 40
10.0
  9
$AUNITS
 70
     0
  9
$AUPREC
 70
     0
  9
$MENU
  1
.
  9
$ELEVATION
 40
0.0
  9
$PELEVATION
 40
0.0
  9
$THICKNESS
 40
0.0
  9
$LIMCHECK
 70
     0
  9
$CHAMFERA
 40
0.0
  9
$CHAMFERB
 40
0.0
  9
$CHAMFERC
 40
0.0
  9
$CHAMFERD
 40
0.0
  9
$SKPOLY
 70
     0
  9
$TDCREATE
 40
2459586.418473275
  9
$TDUPDATE
 40
2459586.418475938
  9
$TDINDWG
 40
0.0000000116
  9
$TDUSRTIMER
 40
0.0000000116
  9
$USRTIMER
 70
     1
  9
$ANGBASE
 50
0.0
  9
$ANGDIR
 70
     0
  9
$PDMODE
 70
     0
  9
$PDSIZE
 40
0.0
  9
$PLINEWID
 40
0.0
  9
$COORDS
 70
     1
  9
$SPLFRAME
 70
     0
  9
$SPLINETYPE
 70
     6
  9
$SPLINESEGS
 70
     8
  9
$ATTDIA
 70
     0
  9
$ATTREQ
 70
     1
  9
$HANDLING
 70
     1
  9
$HANDSEED
  5
6E2
  9
$SURFTAB1
 70
     6
  9
$SURFTAB2
 70
     6
  9
$SURFTYPE
 70
     6
  9
$SURFU
 70
     6
  9
$SURFV
 70
     6
  9
$UCSNAME
  2

  9
$UCSORG
 10
0.0
 20
0.0
 30
0.0
  9
$UCSXDIR
 10
1.0
 20
0.0
 30
0.0
  9
$UCSYDIR
 10
0.0
 20
1.0
 30
0.0
  9
$PUCSNAME
  2

  9
$PUCSORG
 10
0.0
 20
0.0
 30
0.0
  9
$PUCSXDIR
 10
1.0
 20
0.0
 30
0.0
  9
$PUCSYDIR
 10
0.0
 20
1.0
 30
0.0
  9
$USERI1
 70
     0
  9
$USERI2
 70
     0
  9
$USERI3
 70
     0
  9
$USERI4
 70
     0
  9
$USERI5
 70
     0
  9
$USERR1
 40
0.0
  9
$USERR2
 40
0.0
  9
$USERR3
 40
0.0
  9
$USERR4
 40
0.0
  9
$USERR5
 40
0.0
  9
$WORLDVIEW
 70
     1
  9
$SHADEDGE
 70
     3
  9
$SHADEDIF
 70
    70
  9
$TILEMODE
 70
     1
  9
$MAXACTVP
 70
    64
  9
$PINSBASE
 10
0.0
 20
0.0
 30
0.0
  9
$PLIMCHECK
 70
     0
  9
$PEXTMIN
 10
1.000000000000000E+20
 20
1.000000000000000E+20
 30
1.000000000000000E+20
  9
$PEXTMAX
 10
-1.000000000000000E+20
 20
-1.000000000000000E+20
 30
-1.000000000000000E+20
  9
$PLIMMIN
 10
0.0
 20
0.0
  9
$PLIMMAX
 10
420.0
 20
297.0
  9
$UNITMODE
 70
     0
  9
$VISRETAIN
 70
     1
  9
$PLINEGEN
 70
     0
  9
$PSLTSCALE
 70
     1
  9
$TREEDEPTH
 70
  3020
  9
$PICKSTYLE
 70
     1
  9
$CMLSTYLE
  2
STANDARD
  9
$CMLJUST
 70
     0
  9
$CMLSCALE
 40
20.0
  9
$PROXYGRAPHICS
 70
     1
  9
$MEASUREMENT
 70
     1
  0
ENDSEC
  0
SECTION
  2
CLASSES
  0
CLASS
  1
ACDBDICTIONARYWDFLT
  2
AcDbDictionaryWithDefault
  3
ObjectDBX Classes
 90
        0
280
     0
281
     0
  0
CLASS
  1
VISUALSTYLE
  2
AcDbVisualStyle
  3
ObjectDBX Classes
 90
     4095
280
     0
281
     0
  0
CLASS
  1
MATERIAL
  2
AcDbMaterial
  3
ObjectDBX Classes
 90
     1153
280
     0
281
     0
  0
CLASS
  1
SCALE
  2
AcDbScale
  3
ObjectDBX Classes
 90
     1153
280
     0
281
     0
  0
CLASS
  1
TABLESTYLE
  2
AcDbTableStyle
  3
ObjectDBX Classes
 90
     4095
280
     0
281
     0
  0
CLASS
  1
MLEADERSTYLE
  2
AcDbMLeaderStyle
  3
ACDB_MLEADERSTYLE_CLASS
 90
     4095
280
     0
281
     0
  0
CLASS
  1
SUN
  2
AcDbSun
  3
SCENEOE
 90
     1153
280
     0
281
     0
  0
CLASS
  1
DICTIONARYVAR
  2
AcDbDictionaryVar
  3
ObjectDBX Classes
 90
        0
280
     0
281
     0
  0
CLASS
  1
XRECORD
  2
AcDbXrecord
  3
ObjectDBX Classes
 90
        0
280
     0
281
     0
  0
CLASS
  1
LWPOLYLINE
  2
AcDbPolyline
  3
ObjectDBX Classes
 90
        0
280
     0
281
     1
  0
CLASS
  1
HATCH
  2
AcDbHatch
  3
ObjectDBX Classes
 90
        0
280
     0
281
     1
  0
CLASS
  1
ACDBPLACEHOLDER
  2
AcDbPlaceHolder
  3
ObjectDBX Classes
 90
        0
280
     0
281
     0
  0
CLASS
  1
LAYOUT
  2
AcDbLayout
  3
ObjectDBX Classes
 90
        0
280
     0
281
     0
  0
ENDSEC
  0
SECTION
  2
TABLES
  0
TABLE
  2
VPORT
  5
8
102
{ACAD_XDICTIONARY
360
6D7
102
}
330
0
100
AcDbSymbolTable
 70
     1
  0
VPORT
  5
29
330
8
100
AcDbSymbolTableRecord
100
AcDbViewportTableRecord
  2
*ACTIVE
 70
     0
 10
0.0
 20
0.0
 11
1.0
 21
1.0
 12
1680.0
 22
1188.0
 13
0.0
 23
0.0
 14
10.0
 24
10.0
 15
10.0
 25
10.0
 16
0.0
 26
0.0
 36
1.0
 17
0.0
 27
0.0
 37
0.0
 40
2216.0
 41
1.444043321299639
 42
50.0
 43
0.0
 44
0.0
 50
0.0
 51
0.0
 71
     0
 72
  1000
 73
     1
 74
     3
 75
     0
 76
     0
 77
     0
 78
     0
  0
ENDTAB
  0
TABLE
  2
LTYPE
  5
5
330
0
100
AcDbSymbolTable
 70
    13
  0
LTYPE
  5
14
330
5
100
AcDbSymbolTableRecord
100
AcDbLinetypeTableRecord
  2
BYBLOCK
 70
     0
  3

 72
    65
 73
     0
 40
0.0
  0
LTYPE
  5
15
330
5
100
AcDbSymbolTableRecord
100
AcDbLinetypeTableRecord
  2
BYLAYER
 70
     0
  3

 72
    65
 73
     0
 40
0.0
  0
LTYPE
  5
16
330
5
100
AcDbSymbolTableRecord
100
AcDbLinetypeTableRecord
  2
CONTINUOUS
 70
     0
  3
Solid line
 72
    65
 73
     0
 40
0.0
  0
LTYPE
  5
6E
330
5
100
AcDbSymbolTableRecord
100
AcDbLinetypeTableRecord
  2
EXLTYPE0
 70
     0
  3
破線
 72
    65
 73
     2
 40
4.0
 49
3.0
 74
     0
 49
-1.0
 74
     0
  0
LTYPE
  5
6F
330
5
100
AcDbSymbolTableRecord
100
AcDbLinetypeTableRecord
  2
EXLTYPE1
 70
     0
  3
点線
 72
    65
 73
     2
 40
2.0
 49
1.0
 74
     0
 49
-1.0
 74
     0
  0
LTYPE
  5
70
330
5
100
AcDbSymbolTableRecord
100
AcDbLinetypeTableRecord
  2
EXLTYPE2
 70
     0
  3
一点鎖線
 72
    65
 73
     4
 40
13.0
 49
10.0
 74
     0
 49
-1.0
 74
     0
 49
1.0
 74
     0
 49
-1.0
 74
     0
  0
LTYPE
  5
71
330
5
100
AcDbSymbolTableRecord
100
AcDbLinetypeTableRecord
  2
EXLTYPE3
 70
     0
  3
二点鎖線
 72
    65
 73
     6
 40
15.0
 49
10.0
 74
     0
 49
-1.0
 74
     0
 49
1.0
 74
     0
 49
-1.0
 74
     0
 49
1.0
 74
     0
 49
-1.0
 74
     0
  0
LTYPE
  5
72
330
5
100
AcDbSymbolTableRecord
100
AcDbLinetypeTableRecord
  2
EXLTYPE4
 70
     0
  3
一点鎖線2
 72
    65
 73
     4
 40
3.5
 49
2.0
 74
     0
 49
-0.5
 74
     0
 49
0.5
 74
     0
 49
-0.5
 74
     0
  0
LTYPE
  5
73
330
5
100
AcDbSymbolTableRecord
100
AcDbLinetypeTableRecord
  2
EXLTYPE5
 70
     0
  3
二点鎖線2
 72
    65
 73
     6
 40
4.5
 49
2.0
 74
     0
 49
-0.5
 74
     0
 49
0.5
 74
     0
 49
-0.5
 74
     0
 49
0.5
 74
     0
 49
-0.5
 74
     0
  0
LTYPE
  5
74
330
5
100
AcDbSymbolTableRecord
100
AcDbLinetypeTableRecord
  2
EXLTYPE6
 70
     0
  3
一点鎖線5
 72
    65
 73
     4
 40
13.0
 49
10.0
 74
     0
 49
-1.0
 74
     0
 49
1.0
 74
     0
 49
-1.0
 74
     0
  0
LTYPE
  5
75
330
5
100
AcDbSymbolTableRecord
100
AcDbLinetypeTableRecord
  2
EXLTYPE7
 70
     0
  3
破線7
 72
    65
 73
     2
 40
2.5
 49
1.5
 74
     0
 49
-1.0
 74
     0
  0
LTYPE
  5
76
330
5
100
AcDbSymbolTableRecord
100
AcDbLinetypeTableRecord
  2
EXLTYPE8
 70
     0
  3
一点鎖線4
 72
    65
 73
     4
 40
13.0
 49
10.0
 74
     0
 49
-1.0
 74
     0
 49
1.0
 74
     0
 49
-1.0
 74
     0
  0
LTYPE
  5
77
330
5
100
AcDbSymbolTableRecord
100
AcDbLinetypeTableRecord
  2
EXLTYPE9
 70
     0
  3
破線2
 72
    65
 73
     2
 40
2.5
 49
1.5
 74
     0
 49
-1.0
 74
     0
  0
LTYPE
  5
78
330
5
100
AcDbSymbolTableRecord
100
AcDbLinetypeTableRecord
  2
EXLTYPE10
 70
     0
  3
一点鎖線3
 72
    65
 73
     4
 40
13.0
 49
10.0
 74
     0
 49
-1.0
 74
     0
 49
1.0
 74
     0
 49
-1.0
 74
     0
  0
LTYPE
  5
79
330
5
100
AcDbSymbolTableRecord
100
AcDbLinetypeTableRecord
  2
EXLTYPE11
 70
     0
  3
破線5
 72
    65
 73
     2
 40
2.5
 49
1.5
 74
     0
 49
-1.0
 74
     0
  0
ENDTAB
  0
TABLE
  2
LAYER
  5
2
330
0
100
AcDbSymbolTable
 70
     4
  0
LAYER
  5
10
330
2
100
AcDbSymbolTableRecord
100
AcDbLayerTableRecord
  2
0
 70
     0
 62
     7
  6
CONTINUOUS
  0
LAYER
  5
7C
330
2
100
AcDbSymbolTableRecord
100
AcDbLayerTableRecord
  2
図面枠
 70
     4
 62
     7
  6
CONTINUOUS
  0
LAYER
  5
7D
330
2
100
AcDbSymbolTableRecord
100
AcDbLayerTableRecord
  2
Ｓ_１_１
 70
     0
 62
     7
  6
CONTINUOUS
  0
LAYER
  5
243
330
2
100
AcDbSymbolTableRecord
100
AcDbLayerTableRecord
  2
DEFPOINTS
 70
     0
 62
     7
  6
CONTINUOUS
  0
ENDTAB
  0
TABLE
  2
STYLE
  5
3
330
0
100
AcDbSymbolTable
 70
     5
  0
STYLE
  5
11
330
3
100
AcDbSymbolTableRecord
100
AcDbTextStyleTableRecord
  2
STANDARD
 70
     0
 40
0.0
 41
1.0
 50
0.0
 71
     0
 42
2.5
  3
monotxt
  4
extfont
  0
STYLE
  5
7A
330
3
100
AcDbSymbolTableRecord
100
AcDbTextStyleTableRecord
  2
EXCADSTD
 70
     0
 40
0.0
 41
1.0
 50
0.0
 71
     0
 42
2.5
  3
monotxt
  4
extfont
  0
STYLE
  5
7B
330
3
100
AcDbSymbolTableRecord
100
AcDbTextStyleTableRecord
  2
EXCADVERT
 70
     4
 40
0.0
 41
1.0
 50
0.0
 71
     0
 42
2.5
  3
monotxt
  4
extfont
  0
STYLE
  5
E0
330
3
100
AcDbSymbolTableRecord
100
AcDbTextStyleTableRecord
  2
EXCADTTF1
 70
     0
 40
0.0
 41
1.0
 50
0.0
 71
     0
 42
2.5
  3
msgothic.ttc
  4

1001
ACAD
1000
MS Gothic
1071
    32817
  0
STYLE
  5
241
330
3
100
AcDbSymbolTableRecord
100
AcDbTextStyleTableRecord
  2
EXCADDIM1
 70
     0
 40
0.0
 41
1.0
 50
0.0
 71
     0
 42
2.5
  3
msgothic.ttc
  4

1001
ACAD
1000
MS Gothic
1071
    32817
  0
ENDTAB
  0
TABLE
  2
VIEW
  5
6
330
0
100
AcDbSymbolTable
 70
     0
  0
ENDTAB
  0
TABLE
  2
UCS
  5
7
330
0
100
AcDbSymbolTable
 70
     0
  0
ENDTAB
  0
TABLE
  2
APPID
  5
9
330
0
100
AcDbSymbolTable
 70
     2
  0
APPID
  5
12
330
9
100
AcDbSymbolTableRecord
100
AcDbRegAppTableRecord
  2
ACAD
 70
     0
  0
APPID
  5
6E1
330
9
100
AcDbSymbolTableRecord
100
AcDbRegAppTableRecord
  2
ACAD_MLEADERVER
 70
     0
  0
ENDTAB
  0
TABLE
  2
DIMSTYLE
  5
A
330
0
100
AcDbSymbolTable
 70
     1
  0
DIMSTYLE
105
27
102
{ACAD_REACTORS
330
242
330
252
330
25F
330
26E
330
27B
330
288
330
295
330
2A2
330
2AF
330
2BC
330
2CB
330
2D8
330
2E5
330
2F2
330
301
330
30E
330
31B
330
328
330
335
330
342
330
34F
330
35C
330
369
330
376
330
383
330
390
330
39D
330
4FF
102
}
330
A
100
AcDbSymbolTableRecord
100
AcDbDimStyleTableRecord
  2
ISO-25
 70
     0
  3

  4

  5

  6

  7

 40
1.0
 41
2.5
 42
0.625
 43
3.75
 44
1.25
 45
0.0
 46
0.0
 47
0.0
 48
0.0
140
2.5
141
2.5
142
0.0
143
0.03937007874016
144
1.0
145
0.0
146
1.0
147
0.625
 71
     0
 72
     0
 73
     0
 74
     0
 75
     0
 76
     0
 77
     1
 78
     8
170
     0
171
     3
172
     1
173
     0
174
     0
175
     0
176
     0
177
     0
178
     0
270
     2
271
     2
272
     2
273
     2
274
     3
340
11
275
     0
280
     0
281
     0
282
     0
283
     0
284
     8
285
     0
286
     0
287
     5
288
     0
  0
ENDTAB
  0
TABLE
  2
BLOCK_RECORD
  5
1
330
0
100
AcDbSymbolTable
 70
    42
  0
BLOCK_RECORD
  5
1F
330
1
100
AcDbSymbolTableRecord
100
AcDbBlockTableRecord
  2
*MODEL_SPACE
  0
BLOCK_RECORD
  5
1B
330
1
100
AcDbSymbolTableRecord
100
AcDbBlockTableRecord
  2
*PAPER_SPACE
  0
BLOCK_RECORD
  5
7E
330
1
100
AcDbSymbolTableRecord
100
AcDbBlockTableRecord
  2
EX_NORM
  0
BLOCK_RECORD
  5
81
330
1
100
AcDbSymbolTableRecord
100
AcDbBlockTableRecord
  2
EX_BNORM
  0
BLOCK_RECORD
  5
84
330
1
100
AcDbSymbolTableRecord
100
AcDbBlockTableRecord
  2
EX_BCIR
  0
BLOCK_RECORD
  5
87
330
1
100
AcDbSymbolTableRecord
100
AcDbBlockTableRecord
  2
EX_RCIVIL
  0
BLOCK_RECORD
  5
8A
330
1
100
AcDbSymbolTableRecord
100
AcDbBlockTableRecord
  2
EX_SLANT
  0
BLOCK_RECORD
  5
8D
330
1
100
AcDbSymbolTableRecord
100
AcDbBlockTableRecord
  2
EX_NONE
  0
BLOCK_RECORD
  5
90
330
1
100
AcDbSymbolTableRecord
100
AcDbBlockTableRecord
  2
EX_CIVIL
  0
BLOCK_RECORD
  5
93
330
1
100
AcDbSymbolTableRecord
100
AcDbBlockTableRecord
  2
EX_WCIR
  0
BLOCK_RECORD
  5
96
330
1
100
AcDbSymbolTableRecord
100
AcDbBlockTableRecord
  2
EX_WCIR2
  0
BLOCK_RECORD
  5
99
330
1
100
AcDbSymbolTableRecord
100
AcDbBlockTableRecord
  2
EX_WNORM
  0
BLOCK_RECORD
  5
9C
330
1
100
AcDbSymbolTableRecord
100
AcDbBlockTableRecord
  2
EX_NNORM
  0
BLOCK_RECORD
  5
9F
330
1
100
AcDbSymbolTableRecord
100
AcDbBlockTableRecord
  2
EX_BBOX
  0
BLOCK_RECORD
  5
A2
330
1
100
AcDbSymbolTableRecord
100
AcDbBlockTableRecord
  2
EX_WBOX
  0
BLOCK_RECORD
  5
A5
330
1
100
AcDbSymbolTableRecord
100
AcDbBlockTableRecord
  2
EX_INTEGRAL
  0
BLOCK_RECORD
  5
244
330
1
100
AcDbSymbolTableRecord
100
AcDbBlockTableRecord
  2
*D15
  0
BLOCK_RECORD
  5
253
330
1
100
AcDbSymbolTableRecord
100
AcDbBlockTableRecord
  2
*D16
  0
BLOCK_RECORD
  5
260
330
1
100
AcDbSymbolTableRecord
100
AcDbBlockTableRecord
  2
*D17
  0
BLOCK_RECORD
  5
26F
330
1
100
AcDbSymbolTableRecord
100
AcDbBlockTableRecord
  2
*D18
  0
BLOCK_RECORD
  5
27C
330
1
100
AcDbSymbolTableRecord
100
AcDbBlockTableRecord
  2
*D19
  0
BLOCK_RECORD
  5
289
330
1
100
AcDbSymbolTableRecord
100
AcDbBlockTableRecord
  2
*D20
  0
BLOCK_RECORD
  5
296
330
1
100
AcDbSymbolTableRecord
100
AcDbBlockTableRecord
  2
*D21
  0
BLOCK_RECORD
  5
2A3
330
1
100
AcDbSymbolTableRecord
100
AcDbBlockTableRecord
  2
*D22
  0
BLOCK_RECORD
  5
2B0
330
1
100
AcDbSymbolTableRecord
100
AcDbBlockTableRecord
  2
*D23
  0
BLOCK_RECORD
  5
2BD
330
1
100
AcDbSymbolTableRecord
100
AcDbBlockTableRecord
  2
*D24
  0
BLOCK_RECORD
  5
2CC
330
1
100
AcDbSymbolTableRecord
100
AcDbBlockTableRecord
  2
*D25
  0
BLOCK_RECORD
  5
2D9
330
1
100
AcDbSymbolTableRecord
100
AcDbBlockTableRecord
  2
*D26
  0
BLOCK_RECORD
  5
2E6
330
1
100
AcDbSymbolTableRecord
100
AcDbBlockTableRecord
  2
*D27
  0
BLOCK_RECORD
  5
2F3
330
1
100
AcDbSymbolTableRecord
100
AcDbBlockTableRecord
  2
*D28
  0
BLOCK_RECORD
  5
302
330
1
100
AcDbSymbolTableRecord
100
AcDbBlockTableRecord
  2
*D29
  0
BLOCK_RECORD
  5
30F
330
1
100
AcDbSymbolTableRecord
100
AcDbBlockTableRecord
  2
*D30
  0
BLOCK_RECORD
  5
31C
330
1
100
AcDbSymbolTableRecord
100
AcDbBlockTableRecord
  2
*D31
  0
BLOCK_RECORD
  5
329
330
1
100
AcDbSymbolTableRecord
100
AcDbBlockTableRecord
  2
*D32
  0
BLOCK_RECORD
  5
336
330
1
100
AcDbSymbolTableRecord
100
AcDbBlockTableRecord
  2
*D33
  0
BLOCK_RECORD
  5
343
330
1
100
AcDbSymbolTableRecord
100
AcDbBlockTableRecord
  2
*D34
  0
BLOCK_RECORD
  5
350
330
1
100
AcDbSymbolTableRecord
100
AcDbBlockTableRecord
  2
*D35
  0
BLOCK_RECORD
  5
35D
330
1
100
AcDbSymbolTableRecord
100
AcDbBlockTableRecord
  2
*D36
  0
BLOCK_RECORD
  5
36A
330
1
100
AcDbSymbolTableRecord
100
AcDbBlockTableRecord
  2
*D37
  0
BLOCK_RECORD
  5
377
330
1
100
AcDbSymbolTableRecord
100
AcDbBlockTableRecord
  2
*D38
  0
BLOCK_RECORD
  5
384
330
1
100
AcDbSymbolTableRecord
100
AcDbBlockTableRecord
  2
*D39
  0
BLOCK_RECORD
  5
391
330
1
100
AcDbSymbolTableRecord
100
AcDbBlockTableRecord
  2
*D40
  0
BLOCK_RECORD
  5
39E
330
1
100
AcDbSymbolTableRecord
100
AcDbBlockTableRecord
  2
*D41
  0
BLOCK_RECORD
  5
500
330
1
100
AcDbSymbolTableRecord
100
AcDbBlockTableRecord
  2
*D42
  0
ENDTAB
  0
ENDSEC
  0
SECTION
  2
BLOCKS
  0
BLOCK
  5
20
330
1F
100
AcDbEntity
  8
0
100
AcDbBlockBegin
  2
*MODEL_SPACE
 70
     0
 10
0.0
 20
0.0
 30
0.0
  3
*MODEL_SPACE
  1

  0
ENDBLK
  5
21
330
1F
100
AcDbEntity
  8
0
100
AcDbBlockEnd
  0
BLOCK
  5
1C
330
1B
100
AcDbEntity
 67
     1
  8
0
100
AcDbBlockBegin
  2
*PAPER_SPACE
 70
     0
 10
0.0
 20
0.0
 30
0.0
  3
*PAPER_SPACE
  1

  0
ENDBLK
  5
1D
330
1B
100
AcDbEntity
 67
     1
  8
0
100
AcDbBlockEnd
  0
BLOCK
  5
7F
330
7E
100
AcDbEntity
  8
0
100
AcDbBlockBegin
  2
EX_NORM
 70
     0
 10
0.0
 20
0.0
 30
0.0
  3
EX_NORM
  1

  0
LINE
  5
A8
330
7E
100
AcDbEntity
  8
0
  6
CONTINUOUS
 62
     0
100
AcDbLine
 10
0.0
 20
0.0
 30
0.0
 11
-1.0
 21
0.0
 31
0.0
  0
LINE
  5
A9
330
7E
100
AcDbEntity
  8
0
  6
CONTINUOUS
 62
     0
100
AcDbLine
 10
0.0
 20
0.0
 30
0.0
 11
-1.0
 21
0.166666667
 31
0.0
  0
LINE
  5
AA
330
7E
100
AcDbEntity
  8
0
  6
CONTINUOUS
 62
     0
100
AcDbLine
 10
0.0
 20
0.0
 30
0.0
 11
-1.0
 21
-0.166666667
 31
0.0
  0
ENDBLK
  5
80
330
7E
100
AcDbEntity
  8
0
100
AcDbBlockEnd
  0
BLOCK
  5
82
330
81
100
AcDbEntity
  8
0
100
AcDbBlockBegin
  2
EX_BNORM
 70
     0
 10
0.0
 20
0.0
 30
0.0
  3
EX_BNORM
  1

  0
LINE
  5
AB
330
81
100
AcDbEntity
  8
0
  6
CONTINUOUS
 62
     0
100
AcDbLine
 10
0.0
 20
0.0
 30
0.0
 11
-1.0
 21
0.0
 31
0.0
  0
LINE
  5
AC
330
81
100
AcDbEntity
  8
0
  6
CONTINUOUS
 62
     0
100
AcDbLine
 10
0.0
 20
0.0
 30
0.0
 11
-1.0
 21
0.166666667
 31
0.0
  0
LINE
  5
AD
330
81
100
AcDbEntity
  8
0
  6
CONTINUOUS
 62
     0
100
AcDbLine
 10
0.0
 20
0.0
 30
0.0
 11
-1.0
 21
-0.166666667
 31
0.0
  0
LINE
  5
AE
330
81
100
AcDbEntity
  8
0
  6
CONTINUOUS
 62
     0
100
AcDbLine
 10
0.0
 20
0.0
 30
0.0
 11
-1.0
 21
0.083333333
 31
0.0
  0
LINE
  5
AF
330
81
100
AcDbEntity
  8
0
  6
CONTINUOUS
 62
     0
100
AcDbLine
 10
0.0
 20
0.0
 30
0.0
 11
-1.0
 21
-0.083333333
 31
0.0
  0
LINE
  5
B0
330
81
100
AcDbEntity
  8
0
  6
CONTINUOUS
 62
     0
100
AcDbLine
 10
-1.0
 20
0.166666667
 30
0.0
 11
-1.0
 21
-0.166666667
 31
0.0
  0
ENDBLK
  5
83
330
81
100
AcDbEntity
  8
0
100
AcDbBlockEnd
  0
BLOCK
  5
85
330
84
100
AcDbEntity
  8
0
100
AcDbBlockBegin
  2
EX_BCIR
 70
     0
 10
0.0
 20
0.0
 30
0.0
  3
EX_BCIR
  1

  0
LINE
  5
B1
330
84
100
AcDbEntity
  8
0
  6
CONTINUOUS
 62
     0
100
AcDbLine
 10
0.0
 20
0.0
 30
0.0
 11
-1.0
 21
0.0
 31
0.0
  0
CIRCLE
  5
B2
330
84
100
AcDbEntity
  8
0
  6
CONTINUOUS
 62
     0
100
AcDbCircle
 10
0.0
 20
0.0
 30
0.0
 40
0.5
  0
CIRCLE
  5
B3
330
84
100
AcDbEntity
  8
0
  6
CONTINUOUS
 62
     0
100
AcDbCircle
 10
0.0
 20
0.0
 30
0.0
 40
0.25
  0
ENDBLK
  5
86
330
84
100
AcDbEntity
  8
0
100
AcDbBlockEnd
  0
BLOCK
  5
88
330
87
100
AcDbEntity
  8
0
100
AcDbBlockBegin
  2
EX_RCIVIL
 70
     0
 10
0.0
 20
0.0
 30
0.0
  3
EX_RCIVIL
  1

  0
LINE
  5
B4
330
87
100
AcDbEntity
  8
0
  6
CONTINUOUS
 62
     0
100
AcDbLine
 10
0.0
 20
0.0
 30
0.0
 11
-1.0
 21
0.0
 31
0.0
  0
LINE
  5
B5
330
87
100
AcDbEntity
  8
0
  6
CONTINUOUS
 62
     0
100
AcDbLine
 10
-1.0
 20
-0.25
 30
0.0
 11
0.0
 21
-0.25
 31
0.0
  0
LINE
  5
B6
330
87
100
AcDbEntity
  8
0
  6
CONTINUOUS
 62
     0
100
AcDbLine
 10
-1.0
 20
-0.125
 30
0.0
 11
0.0
 21
-0.125
 31
0.0
  0
ENDBLK
  5
89
330
87
100
AcDbEntity
  8
0
100
AcDbBlockEnd
  0
BLOCK
  5
8B
330
8A
100
AcDbEntity
  8
0
100
AcDbBlockBegin
  2
EX_SLANT
 70
     0
 10
0.0
 20
0.0
 30
0.0
  3
EX_SLANT
  1

  0
LINE
  5
B7
330
8A
100
AcDbEntity
  8
0
  6
CONTINUOUS
 62
     0
100
AcDbLine
 10
0.0
 20
0.0
 30
0.0
 11
-1.0
 21
0.0
 31
0.0
  0
LINE
  5
B8
330
8A
100
AcDbEntity
  8
0
  6
CONTINUOUS
 62
     0
100
AcDbLine
 10
0.707106781
 20
0.707106781
 30
0.0
 11
-0.707106781
 21
-0.707106781
 31
0.0
  0
ENDBLK
  5
8C
330
8A
100
AcDbEntity
  8
0
100
AcDbBlockEnd
  0
BLOCK
  5
8E
330
8D
100
AcDbEntity
  8
0
100
AcDbBlockBegin
  2
EX_NONE
 70
     0
 10
0.0
 20
0.0
 30
0.0
  3
EX_NONE
  1

  0
LINE
  5
B9
330
8D
100
AcDbEntity
  8
0
  6
CONTINUOUS
 62
     0
100
AcDbLine
 10
0.0
 20
0.0
 30
0.0
 11
-1.0
 21
0.0
 31
0.0
  0
ENDBLK
  5
8F
330
8D
100
AcDbEntity
  8
0
100
AcDbBlockEnd
  0
BLOCK
  5
91
330
90
100
AcDbEntity
  8
0
100
AcDbBlockBegin
  2
EX_CIVIL
 70
     0
 10
0.0
 20
0.0
 30
0.0
  3
EX_CIVIL
  1

  0
LINE
  5
BA
330
90
100
AcDbEntity
  8
0
  6
CONTINUOUS
 62
     0
100
AcDbLine
 10
0.0
 20
0.0
 30
0.0
 11
-1.0
 21
0.0
 31
0.0
  0
LINE
  5
BB
330
90
100
AcDbEntity
  8
0
  6
CONTINUOUS
 62
     0
100
AcDbLine
 10
-1.0
 20
0.25
 30
0.0
 11
0.0
 21
0.25
 31
0.0
  0
LINE
  5
BC
330
90
100
AcDbEntity
  8
0
  6
CONTINUOUS
 62
     0
100
AcDbLine
 10
-1.0
 20
0.125
 30
0.0
 11
0.0
 21
0.125
 31
0.0
  0
ENDBLK
  5
92
330
90
100
AcDbEntity
  8
0
100
AcDbBlockEnd
  0
BLOCK
  5
94
330
93
100
AcDbEntity
  8
0
100
AcDbBlockBegin
  2
EX_WCIR
 70
     0
 10
0.0
 20
0.0
 30
0.0
  3
EX_WCIR
  1

  0
LINE
  5
BD
330
93
100
AcDbEntity
  8
0
  6
CONTINUOUS
 62
     0
100
AcDbLine
 10
0.0
 20
0.0
 30
0.0
 11
-1.0
 21
0.0
 31
0.0
  0
CIRCLE
  5
BE
330
93
100
AcDbEntity
  8
0
  6
CONTINUOUS
 62
     0
100
AcDbCircle
 10
0.0
 20
0.0
 30
0.0
 40
0.5
  0
ENDBLK
  5
95
330
93
100
AcDbEntity
  8
0
100
AcDbBlockEnd
  0
BLOCK
  5
97
330
96
100
AcDbEntity
  8
0
100
AcDbBlockBegin
  2
EX_WCIR2
 70
     0
 10
0.0
 20
0.0
 30
0.0
  3
EX_WCIR2
  1

  0
LINE
  5
BF
330
96
100
AcDbEntity
  8
0
  6
CONTINUOUS
 62
     0
100
AcDbLine
 10
-0.5
 20
0.0
 30
0.0
 11
-1.0
 21
0.0
 31
0.0
  0
CIRCLE
  5
C0
330
96
100
AcDbEntity
  8
0
  6
CONTINUOUS
 62
     0
100
AcDbCircle
 10
0.0
 20
0.0
 30
0.0
 40
0.5
  0
ENDBLK
  5
98
330
96
100
AcDbEntity
  8
0
100
AcDbBlockEnd
  0
BLOCK
  5
9A
330
99
100
AcDbEntity
  8
0
100
AcDbBlockBegin
  2
EX_WNORM
 70
     0
 10
0.0
 20
0.0
 30
0.0
  3
EX_WNORM
  1

  0
LINE
  5
C1
330
99
100
AcDbEntity
  8
0
  6
CONTINUOUS
 62
     0
100
AcDbLine
 10
-1.0
 20
0.0
 30
0.0
 11
-1.0
 21
0.0
 31
0.0
  0
LINE
  5
C2
330
99
100
AcDbEntity
  8
0
  6
CONTINUOUS
 62
     0
100
AcDbLine
 10
0.0
 20
0.0
 30
0.0
 11
-1.0
 21
0.166666667
 31
0.0
  0
LINE
  5
C3
330
99
100
AcDbEntity
  8
0
  6
CONTINUOUS
 62
     0
100
AcDbLine
 10
0.0
 20
0.0
 30
0.0
 11
-1.0
 21
-0.166666667
 31
0.0
  0
LINE
  5
C4
330
99
100
AcDbEntity
  8
0
  6
CONTINUOUS
 62
     0
100
AcDbLine
 10
-1.0
 20
0.166666667
 30
0.0
 11
-1.0
 21
-0.166666667
 31
0.0
  0
ENDBLK
  5
9B
330
99
100
AcDbEntity
  8
0
100
AcDbBlockEnd
  0
BLOCK
  5
9D
330
9C
100
AcDbEntity
  8
0
100
AcDbBlockBegin
  2
EX_NNORM
 70
     0
 10
0.0
 20
0.0
 30
0.0
  3
EX_NNORM
  1

  0
LINE
  5
C5
330
9C
100
AcDbEntity
  8
0
  6
CONTINUOUS
 62
     0
100
AcDbLine
 10
0.0
 20
0.0
 30
0.0
 11
-1.0
 21
0.0
 31
0.0
  0
LINE
  5
C6
330
9C
100
AcDbEntity
  8
0
  6
CONTINUOUS
 62
     0
100
AcDbLine
 10
0.0
 20
0.0
 30
0.0
 11
-1.0
 21
0.166666667
 31
0.0
  0
LINE
  5
C7
330
9C
100
AcDbEntity
  8
0
  6
CONTINUOUS
 62
     0
100
AcDbLine
 10
0.0
 20
0.0
 30
0.0
 11
-1.0
 21
-0.166666667
 31
0.0
  0
LINE
  5
C8
330
9C
100
AcDbEntity
  8
0
  6
CONTINUOUS
 62
     0
100
AcDbLine
 10
-1.0
 20
0.166666667
 30
0.0
 11
-1.0
 21
-0.166666667
 31
0.0
  0
ENDBLK
  5
9E
330
9C
100
AcDbEntity
  8
0
100
AcDbBlockEnd
  0
BLOCK
  5
A0
330
9F
100
AcDbEntity
  8
0
100
AcDbBlockBegin
  2
EX_BBOX
 70
     0
 10
0.0
 20
0.0
 30
0.0
  3
EX_BBOX
  1

  0
LINE
  5
C9
330
9F
100
AcDbEntity
  8
0
  6
CONTINUOUS
 62
     0
100
AcDbLine
 10
0.0
 20
0.0
 30
0.0
 11
-1.0
 21
0.0
 31
0.0
  0
LINE
  5
CA
330
9F
100
AcDbEntity
  8
0
  6
CONTINUOUS
 62
     0
100
AcDbLine
 10
-0.5
 20
0.5
 30
0.0
 11
0.5
 21
0.5
 31
0.0
  0
LINE
  5
CB
330
9F
100
AcDbEntity
  8
0
  6
CONTINUOUS
 62
     0
100
AcDbLine
 10
0.5
 20
0.5
 30
0.0
 11
0.5
 21
-0.5
 31
0.0
  0
LINE
  5
CC
330
9F
100
AcDbEntity
  8
0
  6
CONTINUOUS
 62
     0
100
AcDbLine
 10
0.5
 20
-0.5
 30
0.0
 11
-0.5
 21
-0.5
 31
0.0
  0
LINE
  5
CD
330
9F
100
AcDbEntity
  8
0
  6
CONTINUOUS
 62
     0
100
AcDbLine
 10
-0.5
 20
-0.5
 30
0.0
 11
-0.5
 21
0.5
 31
0.0
  0
LINE
  5
CE
330
9F
100
AcDbEntity
  8
0
  6
CONTINUOUS
 62
     0
100
AcDbLine
 10
-0.25
 20
0.25
 30
0.0
 11
0.25
 21
0.25
 31
0.0
  0
LINE
  5
CF
330
9F
100
AcDbEntity
  8
0
  6
CONTINUOUS
 62
     0
100
AcDbLine
 10
0.25
 20
0.25
 30
0.0
 11
0.25
 21
-0.25
 31
0.0
  0
LINE
  5
D0
330
9F
100
AcDbEntity
  8
0
  6
CONTINUOUS
 62
     0
100
AcDbLine
 10
0.25
 20
-0.25
 30
0.0
 11
-0.25
 21
-0.25
 31
0.0
  0
LINE
  5
D1
330
9F
100
AcDbEntity
  8
0
  6
CONTINUOUS
 62
     0
100
AcDbLine
 10
-0.25
 20
-0.25
 30
0.0
 11
-0.25
 21
0.25
 31
0.0
  0
ENDBLK
  5
A1
330
9F
100
AcDbEntity
  8
0
100
AcDbBlockEnd
  0
BLOCK
  5
A3
330
A2
100
AcDbEntity
  8
0
100
AcDbBlockBegin
  2
EX_WBOX
 70
     0
 10
0.0
 20
0.0
 30
0.0
  3
EX_WBOX
  1

  0
LINE
  5
D2
330
A2
100
AcDbEntity
  8
0
  6
CONTINUOUS
 62
     0
100
AcDbLine
 10
-0.5
 20
0.0
 30
0.0
 11
-1.0
 21
0.0
 31
0.0
  0
LINE
  5
D3
330
A2
100
AcDbEntity
  8
0
  6
CONTINUOUS
 62
     0
100
AcDbLine
 10
-0.5
 20
0.5
 30
0.0
 11
0.5
 21
0.5
 31
0.0
  0
LINE
  5
D4
330
A2
100
AcDbEntity
  8
0
  6
CONTINUOUS
 62
     0
100
AcDbLine
 10
0.5
 20
0.5
 30
0.0
 11
0.5
 21
-0.5
 31
0.0
  0
LINE
  5
D5
330
A2
100
AcDbEntity
  8
0
  6
CONTINUOUS
 62
     0
100
AcDbLine
 10
0.5
 20
-0.5
 30
0.0
 11
-0.5
 21
-0.5
 31
0.0
  0
LINE
  5
D6
330
A2
100
AcDbEntity
  8
0
  6
CONTINUOUS
 62
     0
100
AcDbLine
 10
-0.5
 20
-0.5
 30
0.0
 11
-0.5
 21
0.5
 31
0.0
  0
ENDBLK
  5
A4
330
A2
100
AcDbEntity
  8
0
100
AcDbBlockEnd
  0
BLOCK
  5
A6
330
A5
100
AcDbEntity
  8
0
100
AcDbBlockBegin
  2
EX_INTEGRAL
 70
     0
 10
0.0
 20
0.0
 30
0.0
  3
EX_INTEGRAL
  1

  0
LINE
  5
D7
330
A5
100
AcDbEntity
  8
0
  6
CONTINUOUS
 62
     0
100
AcDbLine
 10
0.0
 20
0.0
 30
0.0
 11
-1.0
 21
0.0
 31
0.0
  0
ARC
  5
D8
330
A5
100
AcDbEntity
  8
0
  6
CONTINUOUS
 62
     0
100
AcDbCircle
 10
0.542115
 20
0.164992
 30
0.0
 40
0.56667
100
AcDbArc
 50
73.07249033629006
 51
196.9275130221199
  0
ARC
  5
D9
330
A5
100
AcDbEntity
  8
0
  6
CONTINUOUS
 62
     0
100
AcDbCircle
 10
-0.542115
 20
-0.164992
 30
0.0
 40
0.56667
100
AcDbArc
 50
253.0724869220464
 51
16.9275130559125
  0
ENDBLK
  5
A7
330
A5
100
AcDbEntity
  8
0
100
AcDbBlockEnd
  0
BLOCK
  5
245
330
244
100
AcDbEntity
  8
0
100
AcDbBlockBegin
  2
*D15
 70
     1
 10
0.0
 20
0.0
 30
0.0
  3
*D15
  1

  0
LINE
  5
247
330
244
100
AcDbEntity
  8
Ｓ_１_１
  6
CONTINUOUS
 62
     2
100
AcDbLine
 10
688.0
 20
282.0000000000009
 30
0.0
 11
492.0
 21
282.0000000000009
 31
0.0
  0
LINE
  5
248
330
244
100
AcDbEntity
  8
Ｓ_１_１
  6
CONTINUOUS
 62
     2
100
AcDbLine
 10
688.0
 20
250.0
 30
0.0
 11
492.0
 21
250.0
 31
0.0
  0
LINE
  5
249
330
244
100
AcDbEntity
  8
Ｓ_１_１
  6
CONTINUOUS
 62
     2
100
AcDbLine
 10
500.0
 20
282.0000000000009
 30
0.0
 11
500.0
 21
250.0
 31
0.0
  0
LINE
  5
24A
330
244
100
AcDbEntity
  8
Ｓ_１_１
  6
CONTINUOUS
 62
     2
100
AcDbLine
 10
500.0
 20
306.0000000000009
 30
0.0
 11
500.0
 21
330.0000000000009
 31
0.0
  0
LINE
  5
24B
330
244
100
AcDbEntity
  8
Ｓ_１_１
  6
CONTINUOUS
 62
     2
100
AcDbLine
 10
500.0
 20
226.0
 30
0.0
 11
500.0
 21
202.0
 31
0.0
  0
INSERT
  5
24C
330
244
100
AcDbEntity
  8
Ｓ_１_１
 62
     2
100
AcDbBlockReference
  2
EX_NORM
 10
500.0
 20
282.0000000000009
 30
0.0
 41
24.0
 42
24.0
 43
24.0
 50
270.0
  0
INSERT
  5
24D
330
244
100
AcDbEntity
  8
Ｓ_１_１
 62
     2
100
AcDbBlockReference
  2
EX_NORM
 10
500.0
 20
250.0
 30
0.0
 41
24.0
 42
24.0
 43
24.0
 50
90.0
  0
MTEXT
  5
24E
330
244
100
AcDbEntity
  8
Ｓ_１_１
 62
     2
100
AcDbMText
 10
478.0
 20
207.9999999999998
 30
0.0
 40
27.70323325635104
 41
0.0
 71
     5
 72
     1
  1
32
  7
EXCADDIM1
 11
0.0
 21
1.0
 31
0.0
  0
POINT
  5
24F
330
244
100
AcDbEntity
  8
DEFPOINTS
 62
     0
100
AcDbPoint
 10
700.0
 20
282.0000000000009
 30
0.0
  0
POINT
  5
250
330
244
100
AcDbEntity
  8
DEFPOINTS
 62
     0
100
AcDbPoint
 10
700.0
 20
250.0
 30
0.0
  0
POINT
  5
251
330
244
100
AcDbEntity
  8
DEFPOINTS
 62
     0
100
AcDbPoint
 10
500.0
 20
250.0
 30
0.0
  0
ENDBLK
  5
246
330
244
100
AcDbEntity
  8
0
100
AcDbBlockEnd
  0
BLOCK
  5
254
330
253
100
AcDbEntity
  8
0
100
AcDbBlockBegin
  2
*D16
 70
     1
 10
0.0
 20
0.0
 30
0.0
  3
*D16
  1

  0
LINE
  5
256
330
253
100
AcDbEntity
  8
Ｓ_１_１
  6
CONTINUOUS
 62
     2
100
AcDbLine
 10
688.0
 20
282.0
 30
0.0
 11
492.0000000000002
 21
282.0000000000001
 31
0.0
  0
LINE
  5
257
330
253
100
AcDbEntity
  8
Ｓ_１_１
  6
CONTINUOUS
 62
     2
100
AcDbLine
 10
815.2
 20
542.0
 30
0.0
 11
492.0000000000002
 21
542.0
 31
0.0
  0
LINE
  5
258
330
253
100
AcDbEntity
  8
Ｓ_１_１
  6
CONTINUOUS
 62
     2
100
AcDbLine
 10
500.0000000000002
 20
306.0000000000001
 30
0.0
 11
500.0000000000002
 21
518.0
 31
0.0
  0
INSERT
  5
259
330
253
100
AcDbEntity
  8
Ｓ_１_１
 62
     2
100
AcDbBlockReference
  2
EX_NORM
 10
500.0000000000002
 20
282.0000000000001
 30
0.0
 41
24.0
 42
24.0
 43
24.0
 50
270.0
  0
INSERT
  5
25A
330
253
100
AcDbEntity
  8
Ｓ_１_１
 62
     2
100
AcDbBlockReference
  2
EX_NORM
 10
500.0000000000002
 20
542.0
 30
0.0
 41
24.0
 42
24.0
 43
24.0
 50
90.0
  0
MTEXT
  5
25B
330
253
100
AcDbEntity
  8
Ｓ_１_１
 62
     2
100
AcDbMText
 10
478.0000000000002
 20
412.0
 30
0.0
 40
27.70323325635104
 41
0.0
 71
     5
 72
     1
  1
260
  7
EXCADDIM1
 11
0.0
 21
1.0
 31
0.0
  0
POINT
  5
25C
330
253
100
AcDbEntity
  8
DEFPOINTS
 62
     0
100
AcDbPoint
 10
700.0
 20
282.0
 30
0.0
  0
POINT
  5
25D
330
253
100
AcDbEntity
  8
DEFPOINTS
 62
     0
100
AcDbPoint
 10
827.2
 20
542.0
 30
0.0
  0
POINT
  5
25E
330
253
100
AcDbEntity
  8
DEFPOINTS
 62
     0
100
AcDbPoint
 10
500.0000000000002
 20
542.0
 30
0.0
  0
ENDBLK
  5
255
330
253
100
AcDbEntity
  8
0
100
AcDbBlockEnd
  0
BLOCK
  5
261
330
260
100
AcDbEntity
  8
0
100
AcDbBlockBegin
  2
*D17
 70
     1
 10
0.0
 20
0.0
 30
0.0
  3
*D17
  1

  0
LINE
  5
263
330
260
100
AcDbEntity
  8
Ｓ_１_１
  6
CONTINUOUS
 62
     2
100
AcDbLine
 10
588.0
 20
909.9999930000004
 30
0.0
 11
492.0
 21
909.9999930000004
 31
0.0
  0
LINE
  5
264
330
260
100
AcDbEntity
  8
Ｓ_１_１
  6
CONTINUOUS
 62
     2
100
AcDbLine
 10
588.0
 20
869.9999930000004
 30
0.0
 11
492.0
 21
869.9999930000004
 31
0.0
  0
LINE
  5
265
330
260
100
AcDbEntity
  8
Ｓ_１_１
  6
CONTINUOUS
 62
     2
100
AcDbLine
 10
500.0000000000001
 20
909.9999930000004
 30
0.0
 11
500.0000000000001
 21
869.9999930000004
 31
0.0
  0
LINE
  5
266
330
260
100
AcDbEntity
  8
Ｓ_１_１
  6
CONTINUOUS
 62
     2
100
AcDbLine
 10
500.0000000000001
 20
933.9999930000004
 30
0.0
 11
500.0000000000001
 21
957.9999930000004
 31
0.0
  0
LINE
  5
267
330
260
100
AcDbEntity
  8
Ｓ_１_１
  6
CONTINUOUS
 62
     2
100
AcDbLine
 10
500.0000000000001
 20
845.9999930000004
 30
0.0
 11
500.0000000000001
 21
821.9999930000004
 31
0.0
  0
INSERT
  5
268
330
260
100
AcDbEntity
  8
Ｓ_１_１
 62
     2
100
AcDbBlockReference
  2
EX_NORM
 10
500.0000000000001
 20
909.9999930000004
 30
0.0
 41
24.0
 42
24.0
 43
24.0
 50
270.0
  0
INSERT
  5
269
330
260
100
AcDbEntity
  8
Ｓ_１_１
 62
     2
100
AcDbBlockReference
  2
EX_NORM
 10
500.0000000000001
 20
869.9999930000004
 30
0.0
 41
24.0
 42
24.0
 43
24.0
 50
90.0
  0
MTEXT
  5
26A
330
260
100
AcDbEntity
  8
Ｓ_１_１
 62
     2
100
AcDbMText
 10
478.0000000000004
 20
951.9999930000002
 30
0.0
 40
27.70323325635104
 41
0.0
 71
     5
 72
     1
  1
40
  7
EXCADDIM1
 11
0.0
 21
1.0
 31
0.0
  0
POINT
  5
26B
330
260
100
AcDbEntity
  8
DEFPOINTS
 62
     0
100
AcDbPoint
 10
600.0
 20
909.9999930000004
 30
0.0
  0
POINT
  5
26C
330
260
100
AcDbEntity
  8
DEFPOINTS
 62
     0
100
AcDbPoint
 10
600.0
 20
869.9999930000004
 30
0.0
  0
POINT
  5
26D
330
260
100
AcDbEntity
  8
DEFPOINTS
 62
     0
100
AcDbPoint
 10
500.0000000000001
 20
869.9999930000004
 30
0.0
  0
ENDBLK
  5
262
330
260
100
AcDbEntity
  8
0
100
AcDbBlockEnd
  0
BLOCK
  5
270
330
26F
100
AcDbEntity
  8
0
100
AcDbBlockBegin
  2
*D18
 70
     1
 10
0.0
 20
0.0
 30
0.0
  3
*D18
  1

  0
LINE
  5
272
330
26F
100
AcDbEntity
  8
Ｓ_１_１
  6
CONTINUOUS
 62
     2
100
AcDbLine
 10
688.0
 20
250.0
 30
0.0
 11
442.0
 21
250.0000000000001
 31
0.0
  0
LINE
  5
273
330
26F
100
AcDbEntity
  8
Ｓ_１_１
  6
CONTINUOUS
 62
     2
100
AcDbLine
 10
815.2
 20
542.0
 30
0.0
 11
442.0
 21
542.0
 31
0.0
  0
LINE
  5
274
330
26F
100
AcDbEntity
  8
Ｓ_１_１
  6
CONTINUOUS
 62
     2
100
AcDbLine
 10
450.0
 20
274.0000000000001
 30
0.0
 11
450.0
 21
518.0
 31
0.0
  0
INSERT
  5
275
330
26F
100
AcDbEntity
  8
Ｓ_１_１
 62
     2
100
AcDbBlockReference
  2
EX_NORM
 10
450.0
 20
250.0000000000001
 30
0.0
 41
24.0
 42
24.0
 43
24.0
 50
270.0
  0
INSERT
  5
276
330
26F
100
AcDbEntity
  8
Ｓ_１_１
 62
     2
100
AcDbBlockReference
  2
EX_NORM
 10
450.0
 20
542.0
 30
0.0
 41
24.0
 42
24.0
 43
24.0
 50
90.0
  0
MTEXT
  5
277
330
26F
100
AcDbEntity
  8
Ｓ_１_１
 62
     2
100
AcDbMText
 10
428.0
 20
396.0
 30
0.0
 40
27.70323325635104
 41
0.0
 71
     5
 72
     1
  1
292
  7
EXCADDIM1
 11
0.0
 21
1.0
 31
0.0
  0
POINT
  5
278
330
26F
100
AcDbEntity
  8
DEFPOINTS
 62
     0
100
AcDbPoint
 10
700.0
 20
250.0
 30
0.0
  0
POINT
  5
279
330
26F
100
AcDbEntity
  8
DEFPOINTS
 62
     0
100
AcDbPoint
 10
827.2
 20
542.0
 30
0.0
  0
POINT
  5
27A
330
26F
100
AcDbEntity
  8
DEFPOINTS
 62
     0
100
AcDbPoint
 10
450.0
 20
542.0
 30
0.0
  0
ENDBLK
  5
271
330
26F
100
AcDbEntity
  8
0
100
AcDbBlockEnd
  0
BLOCK
  5
27D
330
27C
100
AcDbEntity
  8
0
100
AcDbBlockBegin
  2
*D19
 70
     1
 10
0.0
 20
0.0
 30
0.0
  3
*D19
  1

  0
LINE
  5
27F
330
27C
100
AcDbEntity
  8
Ｓ_１_１
  6
CONTINUOUS
 62
     2
100
AcDbLine
 10
815.2
 20
542.0
 30
0.0
 11
442.0
 21
542.0
 31
0.0
  0
LINE
  5
280
330
27C
100
AcDbEntity
  8
Ｓ_１_１
  6
CONTINUOUS
 62
     2
100
AcDbLine
 10
897.5
 20
739.999993
 30
0.0
 11
442.0
 21
739.999993
 31
0.0
  0
LINE
  5
281
330
27C
100
AcDbEntity
  8
Ｓ_１_１
  6
CONTINUOUS
 62
     2
100
AcDbLine
 10
450.0
 20
566.0
 30
0.0
 11
450.0
 21
715.999993
 31
0.0
  0
INSERT
  5
282
330
27C
100
AcDbEntity
  8
Ｓ_１_１
 62
     2
100
AcDbBlockReference
  2
EX_NORM
 10
450.0
 20
542.0
 30
0.0
 41
24.0
 42
24.0
 43
24.0
 50
270.0
  0
INSERT
  5
283
330
27C
100
AcDbEntity
  8
Ｓ_１_１
 62
     2
100
AcDbBlockReference
  2
EX_NORM
 10
450.0
 20
739.999993
 30
0.0
 41
24.0
 42
24.0
 43
24.0
 50
90.0
  0
MTEXT
  5
284
330
27C
100
AcDbEntity
  8
Ｓ_１_１
 62
     2
100
AcDbMText
 10
428.0000000000001
 20
640.9999965
 30
0.0
 40
27.70323325635104
 41
0.0
 71
     5
 72
     1
  1
198
  7
EXCADDIM1
 11
0.0
 21
1.0
 31
0.0
  0
POINT
  5
285
330
27C
100
AcDbEntity
  8
DEFPOINTS
 62
     0
100
AcDbPoint
 10
827.2
 20
542.0
 30
0.0
  0
POINT
  5
286
330
27C
100
AcDbEntity
  8
DEFPOINTS
 62
     0
100
AcDbPoint
 10
909.5
 20
739.999993
 30
0.0
  0
POINT
  5
287
330
27C
100
AcDbEntity
  8
DEFPOINTS
 62
     0
100
AcDbPoint
 10
450.0
 20
739.999993
 30
0.0
  0
ENDBLK
  5
27E
330
27C
100
AcDbEntity
  8
0
100
AcDbBlockEnd
  0
BLOCK
  5
28A
330
289
100
AcDbEntity
  8
0
100
AcDbBlockBegin
  2
*D20
 70
     1
 10
0.0
 20
0.0
 30
0.0
  3
*D20
  1

  0
LINE
  5
28C
330
289
100
AcDbEntity
  8
Ｓ_１_１
  6
CONTINUOUS
 62
     2
100
AcDbLine
 10
897.5
 20
739.999993
 30
0.0
 11
442.0
 21
739.999993
 31
0.0
  0
LINE
  5
28D
330
289
100
AcDbEntity
  8
Ｓ_１_１
  6
CONTINUOUS
 62
     2
100
AcDbLine
 10
588.0
 20
909.999993
 30
0.0
 11
442.0
 21
909.999993
 31
0.0
  0
LINE
  5
28E
330
289
100
AcDbEntity
  8
Ｓ_１_１
  6
CONTINUOUS
 62
     2
100
AcDbLine
 10
450.0
 20
763.999993
 30
0.0
 11
450.0
 21
885.999993
 31
0.0
  0
INSERT
  5
28F
330
289
100
AcDbEntity
  8
Ｓ_１_１
 62
     2
100
AcDbBlockReference
  2
EX_NORM
 10
450.0
 20
739.999993
 30
0.0
 41
24.0
 42
24.0
 43
24.0
 50
270.0
  0
INSERT
  5
290
330
289
100
AcDbEntity
  8
Ｓ_１_１
 62
     2
100
AcDbBlockReference
  2
EX_NORM
 10
450.0
 20
909.999993
 30
0.0
 41
24.0
 42
24.0
 43
24.0
 50
90.0
  0
MTEXT
  5
291
330
289
100
AcDbEntity
  8
Ｓ_１_１
 62
     2
100
AcDbMText
 10
428.0000000000001
 20
824.999993
 30
0.0
 40
27.70323325635104
 41
0.0
 71
     5
 72
     1
  1
170
  7
EXCADDIM1
 11
0.0
 21
1.0
 31
0.0
  0
POINT
  5
292
330
289
100
AcDbEntity
  8
DEFPOINTS
 62
     0
100
AcDbPoint
 10
909.5
 20
739.999993
 30
0.0
  0
POINT
  5
293
330
289
100
AcDbEntity
  8
DEFPOINTS
 62
     0
100
AcDbPoint
 10
600.0
 20
909.999993
 30
0.0
  0
POINT
  5
294
330
289
100
AcDbEntity
  8
DEFPOINTS
 62
     0
100
AcDbPoint
 10
450.0
 20
909.999993
 30
0.0
  0
ENDBLK
  5
28B
330
289
100
AcDbEntity
  8
0
100
AcDbBlockEnd
  0
BLOCK
  5
297
330
296
100
AcDbEntity
  8
0
100
AcDbBlockBegin
  2
*D21
 70
     1
 10
0.0
 20
0.0
 30
0.0
  3
*D21
  1

  0
LINE
  5
299
330
296
100
AcDbEntity
  8
Ｓ_１_１
  6
CONTINUOUS
 62
     2
100
AcDbLine
 10
688.0
 20
250.0
 30
0.0
 11
391.9999999999999
 21
250.0000000000001
 31
0.0
  0
LINE
  5
29A
330
296
100
AcDbEntity
  8
Ｓ_１_１
  6
CONTINUOUS
 62
     2
100
AcDbLine
 10
588.0
 20
909.999993
 30
0.0
 11
392.0
 21
909.999993
 31
0.0
  0
LINE
  5
29B
330
296
100
AcDbEntity
  8
Ｓ_１_１
  6
CONTINUOUS
 62
     2
100
AcDbLine
 10
399.9999999999999
 20
274.0000000000001
 30
0.0
 11
400.0
 21
885.999993
 31
0.0
  0
INSERT
  5
29C
330
296
100
AcDbEntity
  8
Ｓ_１_１
 62
     2
100
AcDbBlockReference
  2
EX_NORM
 10
399.9999999999999
 20
250.0000000000001
 30
0.0
 41
24.0
 42
24.0
 43
24.0
 50
270.0
  0
INSERT
  5
29D
330
296
100
AcDbEntity
  8
Ｓ_１_１
 62
     2
100
AcDbBlockReference
  2
EX_NORM
 10
400.0
 20
909.999993
 30
0.0
 41
24.0
 42
24.0
 43
24.0
 50
90.0
  0
MTEXT
  5
29E
330
296
100
AcDbEntity
  8
Ｓ_１_１
 62
     2
100
AcDbMText
 10
378.0000000000001
 20
579.9999965
 30
0.0
 40
27.70323325635104
 41
0.0
 71
     5
 72
     1
  1
660
  7
EXCADDIM1
 11
8.612639312680723E-17
 21
1.0
 31
0.0
  0
POINT
  5
29F
330
296
100
AcDbEntity
  8
DEFPOINTS
 62
     0
100
AcDbPoint
 10
700.0
 20
250.0
 30
0.0
  0
POINT
  5
2A0
330
296
100
AcDbEntity
  8
DEFPOINTS
 62
     0
100
AcDbPoint
 10
600.0
 20
909.999993
 30
0.0
  0
POINT
  5
2A1
330
296
100
AcDbEntity
  8
DEFPOINTS
 62
     0
100
AcDbPoint
 10
400.0
 20
909.999993
 30
0.0
  0
ENDBLK
  5
298
330
296
100
AcDbEntity
  8
0
100
AcDbBlockEnd
  0
BLOCK
  5
2A4
330
2A3
100
AcDbEntity
  8
0
100
AcDbBlockBegin
  2
*D22
 70
     1
 10
0.0
 20
0.0
 30
0.0
  3
*D22
  1

  0
LINE
  5
2A6
330
2A3
100
AcDbEntity
  8
Ｓ_１_１
  6
CONTINUOUS
 62
     2
100
AcDbLine
 10
596.29170665391
 20
1360.0
 30
0.0
 11
492.0
 21
1360.0
 31
0.0
  0
LINE
  5
2A7
330
2A3
100
AcDbEntity
  8
Ｓ_１_１
  6
CONTINUOUS
 62
     2
100
AcDbLine
 10
596.29170665391
 20
1640.0
 30
0.0
 11
492.0
 21
1640.0
 31
0.0
  0
LINE
  5
2A8
330
2A3
100
AcDbEntity
  8
Ｓ_１_１
  6
CONTINUOUS
 62
     2
100
AcDbLine
 10
500.0
 20
1384.0
 30
0.0
 11
500.0
 21
1616.0
 31
0.0
  0
INSERT
  5
2A9
330
2A3
100
AcDbEntity
  8
Ｓ_１_１
 62
     2
100
AcDbBlockReference
  2
EX_NORM
 10
500.0
 20
1360.0
 30
0.0
 41
24.0
 42
24.0
 43
24.0
 50
270.0
  0
INSERT
  5
2AA
330
2A3
100
AcDbEntity
  8
Ｓ_１_１
 62
     2
100
AcDbBlockReference
  2
EX_NORM
 10
500.0
 20
1640.0
 30
0.0
 41
24.0
 42
24.0
 43
24.0
 50
90.0
  0
MTEXT
  5
2AB
330
2A3
100
AcDbEntity
  8
Ｓ_１_１
 62
     2
100
AcDbMText
 10
478.0000000000001
 20
1500.0
 30
0.0
 40
27.70323325635104
 41
0.0
 71
     5
 72
     1
  1
280
  7
EXCADDIM1
 11
0.0
 21
1.0
 31
0.0
  0
POINT
  5
2AC
330
2A3
100
AcDbEntity
  8
DEFPOINTS
 62
     0
100
AcDbPoint
 10
608.29170665391
 20
1360.0
 30
0.0
  0
POINT
  5
2AD
330
2A3
100
AcDbEntity
  8
DEFPOINTS
 62
     0
100
AcDbPoint
 10
608.29170665391
 20
1640.0
 30
0.0
  0
POINT
  5
2AE
330
2A3
100
AcDbEntity
  8
DEFPOINTS
 62
     0
100
AcDbPoint
 10
500.0
 20
1640.0
 30
0.0
  0
ENDBLK
  5
2A5
330
2A3
100
AcDbEntity
  8
0
100
AcDbBlockEnd
  0
BLOCK
  5
2B1
330
2B0
100
AcDbEntity
  8
0
100
AcDbBlockBegin
  2
*D23
 70
     1
 10
0.0
 20
0.0
 30
0.0
  3
*D23
  1

  0
LINE
  5
2B3
330
2B0
100
AcDbEntity
  8
Ｓ_１_１
  6
CONTINUOUS
 62
     2
100
AcDbLine
 10
588.0000000000002
 20
1675.0
 30
0.0
 11
442.0
 21
1675.0
 31
0.0
  0
LINE
  5
2B4
330
2B0
100
AcDbEntity
  8
Ｓ_１_１
  6
CONTINUOUS
 62
     2
100
AcDbLine
 10
588.0000000000002
 20
1325.0
 30
0.0
 11
442.0
 21
1325.0
 31
0.0
  0
LINE
  5
2B5
330
2B0
100
AcDbEntity
  8
Ｓ_１_１
  6
CONTINUOUS
 62
     2
100
AcDbLine
 10
450.0
 20
1651.0
 30
0.0
 11
450.0
 21
1349.0
 31
0.0
  0
INSERT
  5
2B6
330
2B0
100
AcDbEntity
  8
Ｓ_１_１
 62
     2
100
AcDbBlockReference
  2
EX_NORM
 10
450.0
 20
1675.0
 30
0.0
 41
24.0
 42
24.0
 43
24.0
 50
90.0
  0
INSERT
  5
2B7
330
2B0
100
AcDbEntity
  8
Ｓ_１_１
 62
     2
100
AcDbBlockReference
  2
EX_NORM
 10
450.0
 20
1325.0
 30
0.0
 41
24.0
 42
24.0
 43
24.0
 50
270.0
  0
MTEXT
  5
2B8
330
2B0
100
AcDbEntity
  8
Ｓ_１_１
 62
     2
100
AcDbMText
 10
428.0000000000001
 20
1500.0
 30
0.0
 40
27.70323325635104
 41
0.0
 71
     5
 72
     1
  1
350
  7
EXCADDIM1
 11
0.0
 21
1.0
 31
0.0
  0
POINT
  5
2B9
330
2B0
100
AcDbEntity
  8
DEFPOINTS
 62
     0
100
AcDbPoint
 10
600.0000000000002
 20
1675.0
 30
0.0
  0
POINT
  5
2BA
330
2B0
100
AcDbEntity
  8
DEFPOINTS
 62
     0
100
AcDbPoint
 10
600.0000000000002
 20
1325.0
 30
0.0
  0
POINT
  5
2BB
330
2B0
100
AcDbEntity
  8
DEFPOINTS
 62
     0
100
AcDbPoint
 10
450.0
 20
1325.0
 30
0.0
  0
ENDBLK
  5
2B2
330
2B0
100
AcDbEntity
  8
0
100
AcDbBlockEnd
  0
BLOCK
  5
2BE
330
2BD
100
AcDbEntity
  8
0
100
AcDbBlockBegin
  2
*D24
 70
     1
 10
0.0
 20
0.0
 30
0.0
  3
*D24
  1

  0
LINE
  5
2C0
330
2BD
100
AcDbEntity
  8
Ｓ_１_１
  6
CONTINUOUS
 62
     2
100
AcDbLine
 10
600.0
 20
1687.0
 30
0.0
 11
600.0
 21
1908.0
 31
0.0
  0
LINE
  5
2C1
330
2BD
100
AcDbEntity
  8
Ｓ_１_１
  6
CONTINUOUS
 62
     2
100
AcDbLine
 10
630.0
 20
1673.7082933461
 30
0.0
 11
630.0
 21
1908.0
 31
0.0
  0
LINE
  5
2C2
330
2BD
100
AcDbEntity
  8
Ｓ_１_１
  6
CONTINUOUS
 62
     2
100
AcDbLine
 10
600.0
 20
1900.0
 30
0.0
 11
630.0
 21
1900.0
 31
0.0
  0
LINE
  5
2C3
330
2BD
100
AcDbEntity
  8
Ｓ_１_１
  6
CONTINUOUS
 62
     2
100
AcDbLine
 10
576.0
 20
1900.0
 30
0.0
 11
552.0
 21
1900.0
 31
0.0
  0
LINE
  5
2C4
330
2BD
100
AcDbEntity
  8
Ｓ_１_１
  6
CONTINUOUS
 62
     2
100
AcDbLine
 10
654.0
 20
1900.0
 30
0.0
 11
678.0
 21
1900.0
 31
0.0
  0
INSERT
  5
2C5
330
2BD
100
AcDbEntity
  8
Ｓ_１_１
 62
     2
100
AcDbBlockReference
  2
EX_NORM
 10
600.0
 20
1900.0
 30
0.0
 41
24.0
 42
24.0
 43
24.0
  0
INSERT
  5
2C6
330
2BD
100
AcDbEntity
  8
Ｓ_１_１
 62
     2
100
AcDbBlockReference
  2
EX_NORM
 10
630.0
 20
1900.0
 30
0.0
 41
24.0
 42
24.0
 43
24.0
 50
180.0
  0
MTEXT
  5
2C7
330
2BD
100
AcDbEntity
  8
Ｓ_１_１
 62
     2
100
AcDbMText
 10
558.0000000000001
 20
1922.0
 30
0.0
 40
27.70323325635104
 41
0.0
 71
     5
 72
     1
  1
30
  7
EXCADDIM1
  0
POINT
  5
2C8
330
2BD
100
AcDbEntity
  8
DEFPOINTS
 62
     0
100
AcDbPoint
 10
600.0
 20
1675.0
 30
0.0
  0
POINT
  5
2C9
330
2BD
100
AcDbEntity
  8
DEFPOINTS
 62
     0
100
AcDbPoint
 10
630.0
 20
1661.7082933461
 30
0.0
  0
POINT
  5
2CA
330
2BD
100
AcDbEntity
  8
DEFPOINTS
 62
     0
100
AcDbPoint
 10
630.0
 20
1900.0
 30
0.0
  0
ENDBLK
  5
2BF
330
2BD
100
AcDbEntity
  8
0
100
AcDbBlockEnd
  0
BLOCK
  5
2CD
330
2CC
100
AcDbEntity
  8
0
100
AcDbBlockBegin
  2
*D25
 70
     1
 10
0.0
 20
0.0
 30
0.0
  3
*D25
  1

  0
LINE
  5
2CF
330
2CC
100
AcDbEntity
  8
Ｓ_１_１
  6
CONTINUOUS
 62
     2
100
AcDbLine
 10
630.0
 20
1673.7082933461
 30
0.0
 11
630.0
 21
1908.0
 31
0.0
  0
LINE
  5
2D0
330
2CC
100
AcDbEntity
  8
Ｓ_１_１
  6
CONTINUOUS
 62
     2
100
AcDbLine
 10
800.0
 20
1673.7082933461
 30
0.0
 11
800.0
 21
1908.0
 31
0.0
  0
LINE
  5
2D1
330
2CC
100
AcDbEntity
  8
Ｓ_１_１
  6
CONTINUOUS
 62
     2
100
AcDbLine
 10
654.0
 20
1900.0
 30
0.0
 11
776.0
 21
1900.0
 31
0.0
  0
INSERT
  5
2D2
330
2CC
100
AcDbEntity
  8
Ｓ_１_１
 62
     2
100
AcDbBlockReference
  2
EX_NORM
 10
630.0
 20
1900.0
 30
0.0
 41
24.0
 42
24.0
 43
24.0
 50
180.0
  0
INSERT
  5
2D3
330
2CC
100
AcDbEntity
  8
Ｓ_１_１
 62
     2
100
AcDbBlockReference
  2
EX_NORM
 10
800.0
 20
1900.0
 30
0.0
 41
24.0
 42
24.0
 43
24.0
  0
MTEXT
  5
2D4
330
2CC
100
AcDbEntity
  8
Ｓ_１_１
 62
     2
100
AcDbMText
 10
715.0000000000001
 20
1922.0
 30
0.0
 40
27.70323325635104
 41
0.0
 71
     5
 72
     1
  1
170
  7
EXCADDIM1
  0
POINT
  5
2D5
330
2CC
100
AcDbEntity
  8
DEFPOINTS
 62
     0
100
AcDbPoint
 10
630.0
 20
1661.7082933461
 30
0.0
  0
POINT
  5
2D6
330
2CC
100
AcDbEntity
  8
DEFPOINTS
 62
     0
100
AcDbPoint
 10
800.0
 20
1661.7082933461
 30
0.0
  0
POINT
  5
2D7
330
2CC
100
AcDbEntity
  8
DEFPOINTS
 62
     0
100
AcDbPoint
 10
800.0
 20
1900.0
 30
0.0
  0
ENDBLK
  5
2CE
330
2CC
100
AcDbEntity
  8
0
100
AcDbBlockEnd
  0
BLOCK
  5
2DA
330
2D9
100
AcDbEntity
  8
0
100
AcDbBlockBegin
  2
*D26
 70
     1
 10
0.0
 20
0.0
 30
0.0
  3
*D26
  1

  0
LINE
  5
2DC
330
2D9
100
AcDbEntity
  8
Ｓ_１_１
  6
CONTINUOUS
 62
     2
100
AcDbLine
 10
800.0
 20
1673.7082933461
 30
0.0
 11
800.0
 21
1908.0
 31
0.0
  0
LINE
  5
2DD
330
2D9
100
AcDbEntity
  8
Ｓ_１_１
  6
CONTINUOUS
 62
     2
100
AcDbLine
 10
1200.0
 20
1673.7082933461
 30
0.0
 11
1200.0
 21
1908.0
 31
0.0
  0
LINE
  5
2DE
330
2D9
100
AcDbEntity
  8
Ｓ_１_１
  6
CONTINUOUS
 62
     2
100
AcDbLine
 10
824.0
 20
1900.0
 30
0.0
 11
1176.0
 21
1900.0
 31
0.0
  0
INSERT
  5
2DF
330
2D9
100
AcDbEntity
  8
Ｓ_１_１
 62
     2
100
AcDbBlockReference
  2
EX_NORM
 10
800.0
 20
1900.0
 30
0.0
 41
24.0
 42
24.0
 43
24.0
 50
180.0
  0
INSERT
  5
2E0
330
2D9
100
AcDbEntity
  8
Ｓ_１_１
 62
     2
100
AcDbBlockReference
  2
EX_NORM
 10
1200.0
 20
1900.0
 30
0.0
 41
24.0
 42
24.0
 43
24.0
  0
MTEXT
  5
2E1
330
2D9
100
AcDbEntity
  8
Ｓ_１_１
 62
     2
100
AcDbMText
 10
1000.0
 20
1922.0
 30
0.0
 40
27.70323325635104
 41
0.0
 71
     5
 72
     1
  1
400
  7
EXCADDIM1
  0
POINT
  5
2E2
330
2D9
100
AcDbEntity
  8
DEFPOINTS
 62
     0
100
AcDbPoint
 10
800.0
 20
1661.7082933461
 30
0.0
  0
POINT
  5
2E3
330
2D9
100
AcDbEntity
  8
DEFPOINTS
 62
     0
100
AcDbPoint
 10
1200.0
 20
1661.7082933461
 30
0.0
  0
POINT
  5
2E4
330
2D9
100
AcDbEntity
  8
DEFPOINTS
 62
     0
100
AcDbPoint
 10
1200.0
 20
1900.0
 30
0.0
  0
ENDBLK
  5
2DB
330
2D9
100
AcDbEntity
  8
0
100
AcDbBlockEnd
  0
BLOCK
  5
2E7
330
2E6
100
AcDbEntity
  8
0
100
AcDbBlockBegin
  2
*D27
 70
     1
 10
0.0
 20
0.0
 30
0.0
  3
*D27
  1

  0
LINE
  5
2E9
330
2E6
100
AcDbEntity
  8
Ｓ_１_１
  6
CONTINUOUS
 62
     2
100
AcDbLine
 10
1200.0
 20
1673.7082933461
 30
0.0
 11
1200.0
 21
1908.0
 31
0.0
  0
LINE
  5
2EA
330
2E6
100
AcDbEntity
  8
Ｓ_１_１
  6
CONTINUOUS
 62
     2
100
AcDbLine
 10
1370.0
 20
1673.7082933461
 30
0.0
 11
1370.0
 21
1908.0
 31
0.0
  0
LINE
  5
2EB
330
2E6
100
AcDbEntity
  8
Ｓ_１_１
  6
CONTINUOUS
 62
     2
100
AcDbLine
 10
1224.0
 20
1900.0
 30
0.0
 11
1346.0
 21
1900.0
 31
0.0
  0
INSERT
  5
2EC
330
2E6
100
AcDbEntity
  8
Ｓ_１_１
 62
     2
100
AcDbBlockReference
  2
EX_NORM
 10
1200.0
 20
1900.0
 30
0.0
 41
24.0
 42
24.0
 43
24.0
 50
180.0
  0
INSERT
  5
2ED
330
2E6
100
AcDbEntity
  8
Ｓ_１_１
 62
     2
100
AcDbBlockReference
  2
EX_NORM
 10
1370.0
 20
1900.0
 30
0.0
 41
24.0
 42
24.0
 43
24.0
  0
MTEXT
  5
2EE
330
2E6
100
AcDbEntity
  8
Ｓ_１_１
 62
     2
100
AcDbMText
 10
1285.0
 20
1922.0
 30
0.0
 40
27.70323325635104
 41
0.0
 71
     5
 72
     1
  1
170
  7
EXCADDIM1
  0
POINT
  5
2EF
330
2E6
100
AcDbEntity
  8
DEFPOINTS
 62
     0
100
AcDbPoint
 10
1200.0
 20
1661.7082933461
 30
0.0
  0
POINT
  5
2F0
330
2E6
100
AcDbEntity
  8
DEFPOINTS
 62
     0
100
AcDbPoint
 10
1370.0
 20
1661.7082933461
 30
0.0
  0
POINT
  5
2F1
330
2E6
100
AcDbEntity
  8
DEFPOINTS
 62
     0
100
AcDbPoint
 10
1370.0
 20
1900.0
 30
0.0
  0
ENDBLK
  5
2E8
330
2E6
100
AcDbEntity
  8
0
100
AcDbBlockEnd
  0
BLOCK
  5
2F4
330
2F3
100
AcDbEntity
  8
0
100
AcDbBlockBegin
  2
*D28
 70
     1
 10
0.0
 20
0.0
 30
0.0
  3
*D28
  1

  0
LINE
  5
2F6
330
2F3
100
AcDbEntity
  8
Ｓ_１_１
  6
CONTINUOUS
 62
     2
100
AcDbLine
 10
1370.0
 20
1673.7082933461
 30
0.0
 11
1370.0
 21
1908.0
 31
0.0
  0
LINE
  5
2F7
330
2F3
100
AcDbEntity
  8
Ｓ_１_１
  6
CONTINUOUS
 62
     2
100
AcDbLine
 10
1400.0
 20
1687.0
 30
0.0
 11
1400.0
 21
1908.0
 31
0.0
  0
LINE
  5
2F8
330
2F3
100
AcDbEntity
  8
Ｓ_１_１
  6
CONTINUOUS
 62
     2
100
AcDbLine
 10
1370.0
 20
1900.0
 30
0.0
 11
1400.0
 21
1900.0
 31
0.0
  0
LINE
  5
2F9
330
2F3
100
AcDbEntity
  8
Ｓ_１_１
  6
CONTINUOUS
 62
     2
100
AcDbLine
 10
1346.0
 20
1900.0
 30
0.0
 11
1322.0
 21
1900.0
 31
0.0
  0
LINE
  5
2FA
330
2F3
100
AcDbEntity
  8
Ｓ_１_１
  6
CONTINUOUS
 62
     2
100
AcDbLine
 10
1424.0
 20
1900.0
 30
0.0
 11
1448.0
 21
1900.0
 31
0.0
  0
INSERT
  5
2FB
330
2F3
100
AcDbEntity
  8
Ｓ_１_１
 62
     2
100
AcDbBlockReference
  2
EX_NORM
 10
1370.0
 20
1900.0
 30
0.0
 41
24.0
 42
24.0
 43
24.0
  0
INSERT
  5
2FC
330
2F3
100
AcDbEntity
  8
Ｓ_１_１
 62
     2
100
AcDbBlockReference
  2
EX_NORM
 10
1400.0
 20
1900.0
 30
0.0
 41
24.0
 42
24.0
 43
24.0
 50
180.0
  0
MTEXT
  5
2FD
330
2F3
100
AcDbEntity
  8
Ｓ_１_１
 62
     2
100
AcDbMText
 10
1442.0
 20
1922.0
 30
0.0
 40
27.70323325635104
 41
0.0
 71
     5
 72
     1
  1
30
  7
EXCADDIM1
  0
POINT
  5
2FE
330
2F3
100
AcDbEntity
  8
DEFPOINTS
 62
     0
100
AcDbPoint
 10
1370.0
 20
1661.7082933461
 30
0.0
  0
POINT
  5
2FF
330
2F3
100
AcDbEntity
  8
DEFPOINTS
 62
     0
100
AcDbPoint
 10
1400.0
 20
1675.0
 30
0.0
  0
POINT
  5
300
330
2F3
100
AcDbEntity
  8
DEFPOINTS
 62
     0
100
AcDbPoint
 10
1400.0
 20
1900.0
 30
0.0
  0
ENDBLK
  5
2F5
330
2F3
100
AcDbEntity
  8
0
100
AcDbBlockEnd
  0
BLOCK
  5
303
330
302
100
AcDbEntity
  8
0
100
AcDbBlockBegin
  2
*D29
 70
     1
 10
0.0
 20
0.0
 30
0.0
  3
*D29
  1

  0
LINE
  5
305
330
302
100
AcDbEntity
  8
Ｓ_１_１
  6
CONTINUOUS
 62
     2
100
AcDbLine
 10
600.0000000000002
 20
1687.0
 30
0.0
 11
600.0000000000002
 21
1958.0
 31
0.0
  0
LINE
  5
306
330
302
100
AcDbEntity
  8
Ｓ_１_１
  6
CONTINUOUS
 62
     2
100
AcDbLine
 10
1400.0
 20
1687.0
 30
0.0
 11
1400.0
 21
1958.0
 31
0.0
  0
LINE
  5
307
330
302
100
AcDbEntity
  8
Ｓ_１_１
  6
CONTINUOUS
 62
     2
100
AcDbLine
 10
624.0000000000002
 20
1950.0
 30
0.0
 11
1376.0
 21
1950.0
 31
0.0
  0
INSERT
  5
308
330
302
100
AcDbEntity
  8
Ｓ_１_１
 62
     2
100
AcDbBlockReference
  2
EX_NORM
 10
600.0000000000002
 20
1950.0
 30
0.0
 41
24.0
 42
24.0
 43
24.0
 50
180.0
  0
INSERT
  5
309
330
302
100
AcDbEntity
  8
Ｓ_１_１
 62
     2
100
AcDbBlockReference
  2
EX_NORM
 10
1400.0
 20
1950.0
 30
0.0
 41
24.0
 42
24.0
 43
24.0
  0
MTEXT
  5
30A
330
302
100
AcDbEntity
  8
Ｓ_１_１
 62
     2
100
AcDbMText
 10
1000.0
 20
1972.0
 30
0.0
 40
27.70323325635104
 41
0.0
 71
     5
 72
     1
  1
800
  7
EXCADDIM1
  0
POINT
  5
30B
330
302
100
AcDbEntity
  8
DEFPOINTS
 62
     0
100
AcDbPoint
 10
600.0000000000002
 20
1675.0
 30
0.0
  0
POINT
  5
30C
330
302
100
AcDbEntity
  8
DEFPOINTS
 62
     0
100
AcDbPoint
 10
1400.0
 20
1675.0
 30
0.0
  0
POINT
  5
30D
330
302
100
AcDbEntity
  8
DEFPOINTS
 62
     0
100
AcDbPoint
 10
1400.0
 20
1950.0
 30
0.0
  0
ENDBLK
  5
304
330
302
100
AcDbEntity
  8
0
100
AcDbBlockEnd
  0
BLOCK
  5
310
330
30F
100
AcDbEntity
  8
0
100
AcDbBlockBegin
  2
*D30
 70
     1
 10
0.0
 20
0.0
 30
0.0
  3
*D30
  1

  0
LINE
  5
312
330
30F
100
AcDbEntity
  8
Ｓ_１_１
  6
CONTINUOUS
 62
     2
100
AcDbLine
 10
1770.599988
 20
1500.0
 30
0.0
 11
1692.0
 21
1500.0
 31
0.0
  0
LINE
  5
313
330
30F
100
AcDbEntity
  8
Ｓ_１_１
  6
CONTINUOUS
 62
     2
100
AcDbLine
 10
1813.799988
 20
1750.0
 30
0.0
 11
1692.0
 21
1750.0
 31
0.0
  0
LINE
  5
314
330
30F
100
AcDbEntity
  8
Ｓ_１_１
  6
CONTINUOUS
 62
     2
100
AcDbLine
 10
1700.0
 20
1524.0
 30
0.0
 11
1700.0
 21
1726.0
 31
0.0
  0
INSERT
  5
315
330
30F
100
AcDbEntity
  8
Ｓ_１_１
 62
     2
100
AcDbBlockReference
  2
EX_NORM
 10
1700.0
 20
1500.0
 30
0.0
 41
24.0
 42
24.0
 43
24.0
 50
270.0
  0
INSERT
  5
316
330
30F
100
AcDbEntity
  8
Ｓ_１_１
 62
     2
100
AcDbBlockReference
  2
EX_NORM
 10
1700.0
 20
1750.0
 30
0.0
 41
24.0
 42
24.0
 43
24.0
 50
90.0
  0
MTEXT
  5
317
330
30F
100
AcDbEntity
  8
Ｓ_１_１
 62
     2
100
AcDbMText
 10
1678.0
 20
1625.0
 30
0.0
 40
27.70323325635104
 41
0.0
 71
     5
 72
     1
  1
250
  7
EXCADDIM1
 11
0.0
 21
1.0
 31
0.0
  0
POINT
  5
318
330
30F
100
AcDbEntity
  8
DEFPOINTS
 62
     0
100
AcDbPoint
 10
1782.599988
 20
1500.0
 30
0.0
  0
POINT
  5
319
330
30F
100
AcDbEntity
  8
DEFPOINTS
 62
     0
100
AcDbPoint
 10
1825.799988
 20
1750.0
 30
0.0
  0
POINT
  5
31A
330
30F
100
AcDbEntity
  8
DEFPOINTS
 62
     0
100
AcDbPoint
 10
1700.0
 20
1750.0
 30
0.0
  0
ENDBLK
  5
311
330
30F
100
AcDbEntity
  8
0
100
AcDbBlockEnd
  0
BLOCK
  5
31D
330
31C
100
AcDbEntity
  8
0
100
AcDbBlockBegin
  2
*D31
 70
     1
 10
0.0
 20
0.0
 30
0.0
  3
*D31
  1

  0
LINE
  5
31F
330
31C
100
AcDbEntity
  8
Ｓ_１_１
  6
CONTINUOUS
 62
     2
100
AcDbLine
 10
1770.599988
 20
1500.0
 30
0.0
 11
1692.0
 21
1500.0
 31
0.0
  0
LINE
  5
320
330
31C
100
AcDbEntity
  8
Ｓ_１_１
  6
CONTINUOUS
 62
     2
100
AcDbLine
 10
1813.799988
 20
1250.0
 30
0.0
 11
1692.0
 21
1250.0
 31
0.0
  0
LINE
  5
321
330
31C
100
AcDbEntity
  8
Ｓ_１_１
  6
CONTINUOUS
 62
     2
100
AcDbLine
 10
1700.0
 20
1476.0
 30
0.0
 11
1700.0
 21
1274.0
 31
0.0
  0
INSERT
  5
322
330
31C
100
AcDbEntity
  8
Ｓ_１_１
 62
     2
100
AcDbBlockReference
  2
EX_NORM
 10
1700.0
 20
1500.0
 30
0.0
 41
24.0
 42
24.0
 43
24.0
 50
90.0
  0
INSERT
  5
323
330
31C
100
AcDbEntity
  8
Ｓ_１_１
 62
     2
100
AcDbBlockReference
  2
EX_NORM
 10
1700.0
 20
1250.0
 30
0.0
 41
24.0
 42
24.0
 43
24.0
 50
270.0
  0
MTEXT
  5
324
330
31C
100
AcDbEntity
  8
Ｓ_１_１
 62
     2
100
AcDbMText
 10
1678.0
 20
1375.0
 30
0.0
 40
27.70323325635104
 41
0.0
 71
     5
 72
     1
  1
250
  7
EXCADDIM1
 11
0.0
 21
1.0
 31
0.0
  0
POINT
  5
325
330
31C
100
AcDbEntity
  8
DEFPOINTS
 62
     0
100
AcDbPoint
 10
1782.599988
 20
1500.0
 30
0.0
  0
POINT
  5
326
330
31C
100
AcDbEntity
  8
DEFPOINTS
 62
     0
100
AcDbPoint
 10
1825.799988
 20
1250.0
 30
0.0
  0
POINT
  5
327
330
31C
100
AcDbEntity
  8
DEFPOINTS
 62
     0
100
AcDbPoint
 10
1700.0
 20
1250.0
 30
0.0
  0
ENDBLK
  5
31E
330
31C
100
AcDbEntity
  8
0
100
AcDbBlockEnd
  0
BLOCK
  5
32A
330
329
100
AcDbEntity
  8
0
100
AcDbBlockBegin
  2
*D32
 70
     1
 10
0.0
 20
0.0
 30
0.0
  3
*D32
  1

  0
LINE
  5
32C
330
329
100
AcDbEntity
  8
Ｓ_１_１
  6
CONTINUOUS
 62
     2
100
AcDbLine
 10
1813.799988
 20
1250.0
 30
0.0
 11
1692.0
 21
1250.0
 31
0.0
  0
LINE
  5
32D
330
329
100
AcDbEntity
  8
Ｓ_１_１
  6
CONTINUOUS
 62
     2
100
AcDbLine
 10
1808.0
 20
1200.0
 30
0.0
 11
1692.0
 21
1200.0
 31
0.0
  0
LINE
  5
32E
330
329
100
AcDbEntity
  8
Ｓ_１_１
  6
CONTINUOUS
 62
     2
100
AcDbLine
 10
1700.0
 20
1226.0
 30
0.0
 11
1700.0
 21
1224.0
 31
0.0
  0
INSERT
  5
32F
330
329
100
AcDbEntity
  8
Ｓ_１_１
 62
     2
100
AcDbBlockReference
  2
EX_NORM
 10
1700.0
 20
1250.0
 30
0.0
 41
24.0
 42
24.0
 43
24.0
 50
90.0
  0
INSERT
  5
330
330
329
100
AcDbEntity
  8
Ｓ_１_１
 62
     2
100
AcDbBlockReference
  2
EX_NORM
 10
1700.0
 20
1200.0
 30
0.0
 41
24.0
 42
24.0
 43
24.0
 50
270.0
  0
MTEXT
  5
331
330
329
100
AcDbEntity
  8
Ｓ_１_１
 62
     2
100
AcDbMText
 10
1678.0
 20
1158.0
 30
0.0
 40
27.70323325635104
 41
0.0
 71
     5
 72
     1
  1
50
  7
EXCADDIM1
 11
0.0
 21
1.0
 31
0.0
  0
POINT
  5
332
330
329
100
AcDbEntity
  8
DEFPOINTS
 62
     0
100
AcDbPoint
 10
1825.799988
 20
1250.0
 30
0.0
  0
POINT
  5
333
330
329
100
AcDbEntity
  8
DEFPOINTS
 62
     0
100
AcDbPoint
 10
1820.0
 20
1200.0
 30
0.0
  0
POINT
  5
334
330
329
100
AcDbEntity
  8
DEFPOINTS
 62
     0
100
AcDbPoint
 10
1700.0
 20
1200.0
 30
0.0
  0
ENDBLK
  5
32B
330
329
100
AcDbEntity
  8
0
100
AcDbBlockEnd
  0
BLOCK
  5
337
330
336
100
AcDbEntity
  8
0
100
AcDbBlockBegin
  2
*D33
 70
     1
 10
0.0
 20
0.0
 30
0.0
  3
*D33
  1

  0
LINE
  5
339
330
336
100
AcDbEntity
  8
Ｓ_１_１
  6
CONTINUOUS
 62
     2
100
AcDbLine
 10
1813.799988
 20
1750.0
 30
0.0
 11
1692.0
 21
1750.0
 31
0.0
  0
LINE
  5
33A
330
336
100
AcDbEntity
  8
Ｓ_１_１
  6
CONTINUOUS
 62
     2
100
AcDbLine
 10
1808.0
 20
1800.0
 30
0.0
 11
1692.0
 21
1800.0
 31
0.0
  0
LINE
  5
33B
330
336
100
AcDbEntity
  8
Ｓ_１_１
  6
CONTINUOUS
 62
     2
100
AcDbLine
 10
1700.0
 20
1774.0
 30
0.0
 11
1700.0
 21
1776.0
 31
0.0
  0
INSERT
  5
33C
330
336
100
AcDbEntity
  8
Ｓ_１_１
 62
     2
100
AcDbBlockReference
  2
EX_NORM
 10
1700.0
 20
1750.0
 30
0.0
 41
24.0
 42
24.0
 43
24.0
 50
270.0
  0
INSERT
  5
33D
330
336
100
AcDbEntity
  8
Ｓ_１_１
 62
     2
100
AcDbBlockReference
  2
EX_NORM
 10
1700.0
 20
1800.0
 30
0.0
 41
24.0
 42
24.0
 43
24.0
 50
90.0
  0
MTEXT
  5
33E
330
336
100
AcDbEntity
  8
Ｓ_１_１
 62
     2
100
AcDbMText
 10
1678.0
 20
1842.0
 30
0.0
 40
27.70323325635104
 41
0.0
 71
     5
 72
     1
  1
50
  7
EXCADDIM1
 11
0.0
 21
1.0
 31
0.0
  0
POINT
  5
33F
330
336
100
AcDbEntity
  8
DEFPOINTS
 62
     0
100
AcDbPoint
 10
1825.799988
 20
1750.0
 30
0.0
  0
POINT
  5
340
330
336
100
AcDbEntity
  8
DEFPOINTS
 62
     0
100
AcDbPoint
 10
1820.0
 20
1800.0
 30
0.0
  0
POINT
  5
341
330
336
100
AcDbEntity
  8
DEFPOINTS
 62
     0
100
AcDbPoint
 10
1700.0
 20
1800.0
 30
0.0
  0
ENDBLK
  5
338
330
336
100
AcDbEntity
  8
0
100
AcDbBlockEnd
  0
BLOCK
  5
344
330
343
100
AcDbEntity
  8
0
100
AcDbBlockBegin
  2
*D34
 70
     1
 10
0.0
 20
0.0
 30
0.0
  3
*D34
  1

  0
LINE
  5
346
330
343
100
AcDbEntity
  8
Ｓ_１_１
  6
CONTINUOUS
 62
     2
100
AcDbLine
 10
1808.0
 20
1800.0
 30
0.0
 11
1642.0
 21
1800.0
 31
0.0
  0
LINE
  5
347
330
343
100
AcDbEntity
  8
Ｓ_１_１
  6
CONTINUOUS
 62
     2
100
AcDbLine
 10
1808.0
 20
1200.0
 30
0.0
 11
1642.0
 21
1200.0
 31
0.0
  0
LINE
  5
348
330
343
100
AcDbEntity
  8
Ｓ_１_１
  6
CONTINUOUS
 62
     2
100
AcDbLine
 10
1650.0
 20
1776.0
 30
0.0
 11
1650.0
 21
1224.0
 31
0.0
  0
INSERT
  5
349
330
343
100
AcDbEntity
  8
Ｓ_１_１
 62
     2
100
AcDbBlockReference
  2
EX_NORM
 10
1650.0
 20
1800.0
 30
0.0
 41
24.0
 42
24.0
 43
24.0
 50
90.0
  0
INSERT
  5
34A
330
343
100
AcDbEntity
  8
Ｓ_１_１
 62
     2
100
AcDbBlockReference
  2
EX_NORM
 10
1650.0
 20
1200.0
 30
0.0
 41
24.0
 42
24.0
 43
24.0
 50
270.0
  0
MTEXT
  5
34B
330
343
100
AcDbEntity
  8
Ｓ_１_１
 62
     2
100
AcDbMText
 10
1628.0
 20
1500.0
 30
0.0
 40
27.70323325635104
 41
0.0
 71
     5
 72
     1
  1
600
  7
EXCADDIM1
 11
0.0
 21
1.0
 31
0.0
  0
POINT
  5
34C
330
343
100
AcDbEntity
  8
DEFPOINTS
 62
     0
100
AcDbPoint
 10
1820.0
 20
1800.0
 30
0.0
  0
POINT
  5
34D
330
343
100
AcDbEntity
  8
DEFPOINTS
 62
     0
100
AcDbPoint
 10
1820.0
 20
1200.0
 30
0.0
  0
POINT
  5
34E
330
343
100
AcDbEntity
  8
DEFPOINTS
 62
     0
100
AcDbPoint
 10
1650.0
 20
1200.0
 30
0.0
  0
ENDBLK
  5
345
330
343
100
AcDbEntity
  8
0
100
AcDbBlockEnd
  0
BLOCK
  5
351
330
350
100
AcDbEntity
  8
0
100
AcDbBlockBegin
  2
*D35
 70
     1
 10
0.0
 20
0.0
 30
0.0
  3
*D35
  1

  0
LINE
  5
353
330
350
100
AcDbEntity
  8
Ｓ_１_１
  6
CONTINUOUS
 62
     2
100
AcDbLine
 10
1850.0
 20
1786.4
 30
0.0
 11
1850.0
 21
1908.0
 31
0.0
  0
LINE
  5
354
330
350
100
AcDbEntity
  8
Ｓ_１_１
  6
CONTINUOUS
 62
     2
100
AcDbLine
 10
2100.0
 20
1827.2
 30
0.0
 11
2100.0
 21
1908.0
 31
0.0
  0
LINE
  5
355
330
350
100
AcDbEntity
  8
Ｓ_１_１
  6
CONTINUOUS
 62
     2
100
AcDbLine
 10
1874.0
 20
1900.0
 30
0.0
 11
2076.0
 21
1900.0
 31
0.0
  0
INSERT
  5
356
330
350
100
AcDbEntity
  8
Ｓ_１_１
 62
     2
100
AcDbBlockReference
  2
EX_NORM
 10
1850.0
 20
1900.0
 30
0.0
 41
24.0
 42
24.0
 43
24.0
 50
180.0
  0
INSERT
  5
357
330
350
100
AcDbEntity
  8
Ｓ_１_１
 62
     2
100
AcDbBlockReference
  2
EX_NORM
 10
2100.0
 20
1900.0
 30
0.0
 41
24.0
 42
24.0
 43
24.0
  0
MTEXT
  5
358
330
350
100
AcDbEntity
  8
Ｓ_１_１
 62
     2
100
AcDbMText
 10
1975.0
 20
1922.0
 30
0.0
 40
27.70323325635104
 41
0.0
 71
     5
 72
     1
  1
250
  7
EXCADDIM1
  0
POINT
  5
359
330
350
100
AcDbEntity
  8
DEFPOINTS
 62
     0
100
AcDbPoint
 10
1850.0
 20
1774.4
 30
0.0
  0
POINT
  5
35A
330
350
100
AcDbEntity
  8
DEFPOINTS
 62
     0
100
AcDbPoint
 10
2100.0
 20
1815.2
 30
0.0
  0
POINT
  5
35B
330
350
100
AcDbEntity
  8
DEFPOINTS
 62
     0
100
AcDbPoint
 10
2100.0
 20
1900.0
 30
0.0
  0
ENDBLK
  5
352
330
350
100
AcDbEntity
  8
0
100
AcDbBlockEnd
  0
BLOCK
  5
35E
330
35D
100
AcDbEntity
  8
0
100
AcDbBlockBegin
  2
*D36
 70
     1
 10
0.0
 20
0.0
 30
0.0
  3
*D36
  1

  0
LINE
  5
360
330
35D
100
AcDbEntity
  8
Ｓ_１_１
  6
CONTINUOUS
 62
     2
100
AcDbLine
 10
2100.0
 20
1827.2
 30
0.0
 11
2100.0
 21
1908.0
 31
0.0
  0
LINE
  5
361
330
35D
100
AcDbEntity
  8
Ｓ_１_１
  6
CONTINUOUS
 62
     2
100
AcDbLine
 10
2350.0
 20
1786.4
 30
0.0
 11
2350.0
 21
1908.0
 31
0.0
  0
LINE
  5
362
330
35D
100
AcDbEntity
  8
Ｓ_１_１
  6
CONTINUOUS
 62
     2
100
AcDbLine
 10
2124.0
 20
1900.0
 30
0.0
 11
2326.0
 21
1900.0
 31
0.0
  0
INSERT
  5
363
330
35D
100
AcDbEntity
  8
Ｓ_１_１
 62
     2
100
AcDbBlockReference
  2
EX_NORM
 10
2100.0
 20
1900.0
 30
0.0
 41
24.0
 42
24.0
 43
24.0
 50
180.0
  0
INSERT
  5
364
330
35D
100
AcDbEntity
  8
Ｓ_１_１
 62
     2
100
AcDbBlockReference
  2
EX_NORM
 10
2350.0
 20
1900.0
 30
0.0
 41
24.0
 42
24.0
 43
24.0
  0
MTEXT
  5
365
330
35D
100
AcDbEntity
  8
Ｓ_１_１
 62
     2
100
AcDbMText
 10
2225.0
 20
1922.0
 30
0.0
 40
27.70323325635104
 41
0.0
 71
     5
 72
     1
  1
250
  7
EXCADDIM1
  0
POINT
  5
366
330
35D
100
AcDbEntity
  8
DEFPOINTS
 62
     0
100
AcDbPoint
 10
2100.0
 20
1815.2
 30
0.0
  0
POINT
  5
367
330
35D
100
AcDbEntity
  8
DEFPOINTS
 62
     0
100
AcDbPoint
 10
2350.0
 20
1774.4
 30
0.0
  0
POINT
  5
368
330
35D
100
AcDbEntity
  8
DEFPOINTS
 62
     0
100
AcDbPoint
 10
2350.0
 20
1900.0
 30
0.0
  0
ENDBLK
  5
35F
330
35D
100
AcDbEntity
  8
0
100
AcDbBlockEnd
  0
BLOCK
  5
36B
330
36A
100
AcDbEntity
  8
0
100
AcDbBlockBegin
  2
*D37
 70
     1
 10
0.0
 20
0.0
 30
0.0
  3
*D37
  1

  0
LINE
  5
36D
330
36A
100
AcDbEntity
  8
Ｓ_１_１
  6
CONTINUOUS
 62
     2
100
AcDbLine
 10
1850.0
 20
1786.4
 30
0.0
 11
1850.0
 21
1908.0
 31
0.0
  0
LINE
  5
36E
330
36A
100
AcDbEntity
  8
Ｓ_１_１
  6
CONTINUOUS
 62
     2
100
AcDbLine
 10
1800.0
 20
1792.0
 30
0.0
 11
1800.0
 21
1908.0
 31
0.0
  0
LINE
  5
36F
330
36A
100
AcDbEntity
  8
Ｓ_１_１
  6
CONTINUOUS
 62
     2
100
AcDbLine
 10
1826.0
 20
1900.0
 30
0.0
 11
1824.0
 21
1900.0
 31
0.0
  0
INSERT
  5
370
330
36A
100
AcDbEntity
  8
Ｓ_１_１
 62
     2
100
AcDbBlockReference
  2
EX_NORM
 10
1850.0
 20
1900.0
 30
0.0
 41
24.0
 42
24.0
 43
24.0
  0
INSERT
  5
371
330
36A
100
AcDbEntity
  8
Ｓ_１_１
 62
     2
100
AcDbBlockReference
  2
EX_NORM
 10
1800.0
 20
1900.0
 30
0.0
 41
24.0
 42
24.0
 43
24.0
 50
180.0
  0
MTEXT
  5
372
330
36A
100
AcDbEntity
  8
Ｓ_１_１
 62
     2
100
AcDbMText
 10
1758.000000000001
 20
1922.0
 30
0.0
 40
27.70323325635104
 41
0.0
 71
     5
 72
     1
  1
50
  7
EXCADDIM1
  0
POINT
  5
373
330
36A
100
AcDbEntity
  8
DEFPOINTS
 62
     0
100
AcDbPoint
 10
1850.0
 20
1774.4
 30
0.0
  0
POINT
  5
374
330
36A
100
AcDbEntity
  8
DEFPOINTS
 62
     0
100
AcDbPoint
 10
1800.0
 20
1780.0
 30
0.0
  0
POINT
  5
375
330
36A
100
AcDbEntity
  8
DEFPOINTS
 62
     0
100
AcDbPoint
 10
1800.0
 20
1900.0
 30
0.0
  0
ENDBLK
  5
36C
330
36A
100
AcDbEntity
  8
0
100
AcDbBlockEnd
  0
BLOCK
  5
378
330
377
100
AcDbEntity
  8
0
100
AcDbBlockBegin
  2
*D38
 70
     1
 10
0.0
 20
0.0
 30
0.0
  3
*D38
  1

  0
LINE
  5
37A
330
377
100
AcDbEntity
  8
Ｓ_１_１
  6
CONTINUOUS
 62
     2
100
AcDbLine
 10
2350.0
 20
1786.4
 30
0.0
 11
2350.0
 21
1908.0
 31
0.0
  0
LINE
  5
37B
330
377
100
AcDbEntity
  8
Ｓ_１_１
  6
CONTINUOUS
 62
     2
100
AcDbLine
 10
2400.0
 20
1792.0
 30
0.0
 11
2400.0
 21
1908.0
 31
0.0
  0
LINE
  5
37C
330
377
100
AcDbEntity
  8
Ｓ_１_１
  6
CONTINUOUS
 62
     2
100
AcDbLine
 10
2374.0
 20
1900.0
 30
0.0
 11
2376.0
 21
1900.0
 31
0.0
  0
INSERT
  5
37D
330
377
100
AcDbEntity
  8
Ｓ_１_１
 62
     2
100
AcDbBlockReference
  2
EX_NORM
 10
2350.0
 20
1900.0
 30
0.0
 41
24.0
 42
24.0
 43
24.0
 50
180.0
  0
INSERT
  5
37E
330
377
100
AcDbEntity
  8
Ｓ_１_１
 62
     2
100
AcDbBlockReference
  2
EX_NORM
 10
2400.0
 20
1900.0
 30
0.0
 41
24.0
 42
24.0
 43
24.0
  0
MTEXT
  5
37F
330
377
100
AcDbEntity
  8
Ｓ_１_１
 62
     2
100
AcDbMText
 10
2442.0
 20
1922.0
 30
0.0
 40
27.70323325635104
 41
0.0
 71
     5
 72
     1
  1
50
  7
EXCADDIM1
  0
POINT
  5
380
330
377
100
AcDbEntity
  8
DEFPOINTS
 62
     0
100
AcDbPoint
 10
2350.0
 20
1774.4
 30
0.0
  0
POINT
  5
381
330
377
100
AcDbEntity
  8
DEFPOINTS
 62
     0
100
AcDbPoint
 10
2400.0
 20
1780.0
 30
0.0
  0
POINT
  5
382
330
377
100
AcDbEntity
  8
DEFPOINTS
 62
     0
100
AcDbPoint
 10
2400.0
 20
1900.0
 30
0.0
  0
ENDBLK
  5
379
330
377
100
AcDbEntity
  8
0
100
AcDbBlockEnd
  0
BLOCK
  5
385
330
384
100
AcDbEntity
  8
0
100
AcDbBlockBegin
  2
*D39
 70
     1
 10
0.0
 20
0.0
 30
0.0
  3
*D39
  1

  0
LINE
  5
387
330
384
100
AcDbEntity
  8
Ｓ_１_１
  6
CONTINUOUS
 62
     2
100
AcDbLine
 10
1800.0
 20
1792.0
 30
0.0
 11
1800.0
 21
1958.0
 31
0.0
  0
LINE
  5
388
330
384
100
AcDbEntity
  8
Ｓ_１_１
  6
CONTINUOUS
 62
     2
100
AcDbLine
 10
2400.0
 20
1792.0
 30
0.0
 11
2400.0
 21
1958.0
 31
0.0
  0
LINE
  5
389
330
384
100
AcDbEntity
  8
Ｓ_１_１
  6
CONTINUOUS
 62
     2
100
AcDbLine
 10
1824.0
 20
1950.0
 30
0.0
 11
2376.0
 21
1950.0
 31
0.0
  0
INSERT
  5
38A
330
384
100
AcDbEntity
  8
Ｓ_１_１
 62
     2
100
AcDbBlockReference
  2
EX_NORM
 10
1800.0
 20
1950.0
 30
0.0
 41
24.0
 42
24.0
 43
24.0
 50
180.0
  0
INSERT
  5
38B
330
384
100
AcDbEntity
  8
Ｓ_１_１
 62
     2
100
AcDbBlockReference
  2
EX_NORM
 10
2400.0
 20
1950.0
 30
0.0
 41
24.0
 42
24.0
 43
24.0
  0
MTEXT
  5
38C
330
384
100
AcDbEntity
  8
Ｓ_１_１
 62
     2
100
AcDbMText
 10
2100.0
 20
1972.0
 30
0.0
 40
27.70323325635104
 41
0.0
 71
     5
 72
     1
  1
600
  7
EXCADDIM1
  0
POINT
  5
38D
330
384
100
AcDbEntity
  8
DEFPOINTS
 62
     0
100
AcDbPoint
 10
1800.0
 20
1780.0
 30
0.0
  0
POINT
  5
38E
330
384
100
AcDbEntity
  8
DEFPOINTS
 62
     0
100
AcDbPoint
 10
2400.0
 20
1780.0
 30
0.0
  0
POINT
  5
38F
330
384
100
AcDbEntity
  8
DEFPOINTS
 62
     0
100
AcDbPoint
 10
2400.0
 20
1950.0
 30
0.0
  0
ENDBLK
  5
386
330
384
100
AcDbEntity
  8
0
100
AcDbBlockEnd
  0
BLOCK
  5
392
330
391
100
AcDbEntity
  8
0
100
AcDbBlockBegin
  2
*D40
 70
     1
 10
0.0
 20
0.0
 30
0.0
  3
*D40
  1

  0
LINE
  5
394
330
391
100
AcDbEntity
  8
Ｓ_１_１
  6
CONTINUOUS
 62
     2
100
AcDbLine
 10
1905.0
 20
872.0000670001
 30
0.0
 11
1905.0
 21
1008.0
 31
0.0
  0
LINE
  5
395
330
391
100
AcDbEntity
  8
Ｓ_１_１
  6
CONTINUOUS
 62
     2
100
AcDbLine
 10
2295.0
 20
872.0000670001
 30
0.0
 11
2295.0
 21
1008.0
 31
0.0
  0
LINE
  5
396
330
391
100
AcDbEntity
  8
Ｓ_１_１
  6
CONTINUOUS
 62
     2
100
AcDbLine
 10
1929.0
 20
1000.0
 30
0.0
 11
2271.0
 21
1000.0
 31
0.0
  0
INSERT
  5
397
330
391
100
AcDbEntity
  8
Ｓ_１_１
 62
     2
100
AcDbBlockReference
  2
EX_NORM
 10
1905.0
 20
1000.0
 30
0.0
 41
24.0
 42
24.0
 43
24.0
 50
180.0
  0
INSERT
  5
398
330
391
100
AcDbEntity
  8
Ｓ_１_１
 62
     2
100
AcDbBlockReference
  2
EX_NORM
 10
2295.0
 20
1000.0
 30
0.0
 41
24.0
 42
24.0
 43
24.0
  0
MTEXT
  5
399
330
391
100
AcDbEntity
  8
Ｓ_１_１
 62
     2
100
AcDbMText
 10
2100.0
 20
1022.0
 30
0.0
 40
27.70323325635104
 41
0.0
 71
     5
 72
     1
  1
390
  7
EXCADDIM1
  0
POINT
  5
39A
330
391
100
AcDbEntity
  8
DEFPOINTS
 62
     0
100
AcDbPoint
 10
1905.0
 20
860.0000670001
 30
0.0
  0
POINT
  5
39B
330
391
100
AcDbEntity
  8
DEFPOINTS
 62
     0
100
AcDbPoint
 10
2295.0
 20
860.0000670001
 30
0.0
  0
POINT
  5
39C
330
391
100
AcDbEntity
  8
DEFPOINTS
 62
     0
100
AcDbPoint
 10
2295.0
 20
1000.0
 30
0.0
  0
ENDBLK
  5
393
330
391
100
AcDbEntity
  8
0
100
AcDbBlockEnd
  0
BLOCK
  5
39F
330
39E
100
AcDbEntity
  8
0
100
AcDbBlockBegin
  2
*D41
 70
     1
 10
0.0
 20
0.0
 30
0.0
  3
*D41
  1

  0
LINE
  5
3A1
330
39E
100
AcDbEntity
  8
Ｓ_１_１
  6
CONTINUOUS
 62
     2
100
AcDbLine
 10
1870.0
 20
867.0000670001
 30
0.0
 11
1870.0
 21
1058.0
 31
0.0
  0
LINE
  5
3A2
330
39E
100
AcDbEntity
  8
Ｓ_１_１
  6
CONTINUOUS
 62
     2
100
AcDbLine
 10
2330.0
 20
867.0000670001
 30
0.0
 11
2330.0
 21
1058.0
 31
0.0
  0
LINE
  5
3A3
330
39E
100
AcDbEntity
  8
Ｓ_１_１
  6
CONTINUOUS
 62
     2
100
AcDbLine
 10
1894.0
 20
1050.0
 30
0.0
 11
2306.0
 21
1050.0
 31
0.0
  0
INSERT
  5
3A4
330
39E
100
AcDbEntity
  8
Ｓ_１_１
 62
     2
100
AcDbBlockReference
  2
EX_NORM
 10
1870.0
 20
1050.0
 30
0.0
 41
24.0
 42
24.0
 43
24.0
 50
180.0
  0
INSERT
  5
3A5
330
39E
100
AcDbEntity
  8
Ｓ_１_１
 62
     2
100
AcDbBlockReference
  2
EX_NORM
 10
2330.0
 20
1050.0
 30
0.0
 41
24.0
 42
24.0
 43
24.0
  0
MTEXT
  5
3A6
330
39E
100
AcDbEntity
  8
Ｓ_１_１
 62
     2
100
AcDbMText
 10
2100.0
 20
1072.0
 30
0.0
 40
27.70323325635104
 41
0.0
 71
     5
 72
     1
  1
460
  7
EXCADDIM1
  0
POINT
  5
3A7
330
39E
100
AcDbEntity
  8
DEFPOINTS
 62
     0
100
AcDbPoint
 10
1870.0
 20
855.0000670001
 30
0.0
  0
POINT
  5
3A8
330
39E
100
AcDbEntity
  8
DEFPOINTS
 62
     0
100
AcDbPoint
 10
2330.0
 20
855.0000670001
 30
0.0
  0
POINT
  5
3A9
330
39E
100
AcDbEntity
  8
DEFPOINTS
 62
     0
100
AcDbPoint
 10
2330.0
 20
1050.0
 30
0.0
  0
ENDBLK
  5
3A0
330
39E
100
AcDbEntity
  8
0
100
AcDbBlockEnd
  0
BLOCK
  5
501
330
500
100
AcDbEntity
  8
0
100
AcDbBlockBegin
  2
*D42
 70
     1
 10
0.0
 20
0.0
 30
0.0
  3
*D42
  1

  0
LINE
  5
503
330
500
100
AcDbEntity
  8
Ｓ_１_１
  6
CONTINUOUS
 62
     2
100
AcDbLine
 10
2330.940054257057
 20
816.7500670001026
 30
0.0
 11
2351.724663947884
 21
804.7500670001041
 31
0.0
  0
LINE
  5
504
330
500
100
AcDbEntity
  8
Ｓ_１_１
  6
CONTINUOUS
 62
     2
100
AcDbLine
 10
2259.059945742945
 20
858.2500670000974
 30
0.0
 11
2238.275336052118
 21
870.2500670000959
 31
0.0
  0
MTEXT
  5
505
330
500
100
AcDbEntity
  8
Ｓ_１_１
 62
     2
100
AcDbMText
 10
2373.116968793296
 20
817.8026258833627
 30
0.0
 40
27.70323325635104
 41
0.0
 71
     5
 72
     1
  1
%%c35
  7
EXCADDIM1
 11
0.8660254037844742
 21
-0.4999999999999384
 31
0.0
  0
LINE
  5
506
330
500
100
AcDbEntity
  8
Ｓ_１_１
  6
CONTINUOUS
 62
     2
100
AcDbLine
 10
2279.844555433773
 20
846.2500670000989
 30
0.0
 11
2310.155444566229
 21
828.7500670001011
 31
0.0
  0
INSERT
  5
507
330
500
100
AcDbEntity
  8
Ｓ_１_１
 62
     2
100
AcDbBlockReference
  2
EX_NORM
 10
2279.844555433773
 20
846.2500670000989
 30
0.0
 41
24.0
 42
24.0
 43
24.0
 50
330.000000000004
  0
INSERT
  5
508
330
500
100
AcDbEntity
  8
Ｓ_１_１
 62
     2
100
AcDbBlockReference
  2
EX_NORM
 10
2310.155444566229
 20
828.7500670001011
 30
0.0
 41
24.0
 42
24.0
 43
24.0
 50
150.0000000000041
  0
POINT
  5
509
330
500
100
AcDbEntity
  8
DEFPOINTS
 62
     0
100
AcDbPoint
 10
2310.155444566229
 20
828.7500670001011
 30
0.0
  0
POINT
  5
50A
330
500
100
AcDbEntity
  8
DEFPOINTS
 62
     0
100
AcDbPoint
 10
2279.844555433773
 20
846.2500670000989
 30
0.0
  0
ENDBLK
  5
502
330
500
100
AcDbEntity
  8
0
100
AcDbBlockEnd
  0
ENDSEC
  0
SECTION
  2
ENTITIES
  0
LINE
  5
DA
330
1F
100
AcDbEntity
  8
図面枠
  6
CONTINUOUS
 62
     5
100
AcDbLine
 10
80.0
 20
80.0
 30
0.0
 11
3280.0
 21
80.0
 31
0.0
  0
LINE
  5
DB
330
1F
100
AcDbEntity
  8
図面枠
  6
CONTINUOUS
 62
     5
100
AcDbLine
 10
3280.0
 20
80.0
 30
0.0
 11
3280.0
 21
2296.0
 31
0.0
  0
LINE
  5
DC
330
1F
100
AcDbEntity
  8
図面枠
  6
CONTINUOUS
 62
     5
100
AcDbLine
 10
3280.0
 20
2296.0
 30
0.0
 11
80.00000000000041
 21
2296.0
 31
0.0
  0
LINE
  5
DD
330
1F
100
AcDbEntity
  8
図面枠
  6
CONTINUOUS
 62
     5
100
AcDbLine
 10
80.00000000000041
 20
2296.0
 30
0.0
 11
80.0
 21
80.0
 31
0.0
  0
LINE
  5
DE
330
1F
100
AcDbEntity
  8
図面枠
  6
CONTINUOUS
 62
     3
100
AcDbLine
 10
3240.0
 20
192.0
 30
0.0
 11
3240.0
 21
120.0
 31
0.0
  0
LINE
  5
DF
330
1F
100
AcDbEntity
  8
図面枠
  6
CONTINUOUS
 62
     3
100
AcDbLine
 10
120.0000000000001
 20
2256.0
 30
0.0
 11
120.0000000000001
 21
2184.0
 31
0.0
  0
TEXT
  5
E1
330
1F
100
AcDbEntity
  8
図面枠
  6
CONTINUOUS
 62
     4
100
AcDbText
 10
3096.0
 20
2171.0625
 30
0.0
 40
27.70323325635104
  1
kN
 41
0.9992307692307693
  7
EXCADTTF1
 72
     5
 11
3132.0
 21
2171.0625
 31
0.0
100
AcDbText
  0
TEXT
  5
E2
330
1F
100
AcDbEntity
  8
図面枠
  6
CONTINUOUS
 62
     4
100
AcDbText
 10
2616.0
 20
2171.0625
 30
0.0
 40
27.70323325635104
  1
能力
 41
0.9992307692307693
  7
EXCADTTF1
 72
     5
 11
2688.0
 21
2171.0625
 31
0.0
100
AcDbText
  0
TEXT
  5
E3
330
1F
100
AcDbEntity
  8
図面枠
  6
CONTINUOUS
 62
     4
100
AcDbText
 10
2830.0
 20
2219.0625
 30
0.0
 40
27.70323325635104
  1
仕　　　様
 41
0.9992307692307693
  7
EXCADTTF1
 72
     5
 11
3010.0
 21
2219.0625
 31
0.0
100
AcDbText
  0
LINE
  5
E4
330
1F
100
AcDbEntity
  8
図面枠
  6
CONTINUOUS
 62
     3
100
AcDbLine
 10
2600.0
 20
2256.0
 30
0.0
 11
3240.0
 21
2256.0
 31
0.0
  0
LINE
  5
E5
330
1F
100
AcDbEntity
  8
図面枠
  6
CONTINUOUS
 62
     3
100
AcDbLine
 10
2600.0
 20
2208.0
 30
0.0
 11
3240.0
 21
2208.0
 31
0.0
  0
TEXT
  5
E6
330
1F
100
AcDbEntity
  8
図面枠
  6
CONTINUOUS
 62
     4
100
AcDbText
 10
3096.0
 20
2123.0625
 30
0.0
 40
27.70323325635104
  1
mm
 41
0.9992307692307693
  7
EXCADTTF1
 72
     5
 11
3132.0
 21
2123.0625
 31
0.0
100
AcDbText
  0
TEXT
  5
E7
330
1F
100
AcDbEntity
  8
図面枠
  6
CONTINUOUS
 62
     4
100
AcDbText
 10
3096.0
 20
2075.0625
 30
0.0
 40
27.70323325635104
  1
mm
 41
0.9992307692307693
  7
EXCADTTF1
 72
     5
 11
3132.0
 21
2075.0625
 31
0.0
100
AcDbText
  0
TEXT
  5
E8
330
1F
100
AcDbEntity
  8
図面枠
  6
CONTINUOUS
 62
     4
100
AcDbText
 10
3096.0
 20
2027.0625
 30
0.0
 40
27.70323325635104
  1
mm
 41
0.9992307692307693
  7
EXCADTTF1
 72
     5
 11
3132.0
 21
2027.0625
 31
0.0
100
AcDbText
  0
TEXT
  5
E9
330
1F
100
AcDbEntity
  8
図面枠
  6
CONTINUOUS
 62
     4
100
AcDbText
 10
2616.0
 20
2123.0625
 30
0.0
 40
27.70323325635104
  1
ストローク
 41
0.9992307692307693
  7
EXCADTTF1
 72
     5
 11
2796.0
 21
2123.0625
 31
0.0
100
AcDbText
  0
TEXT
  5
EA
330
1F
100
AcDbEntity
  8
図面枠
  6
CONTINUOUS
 62
     4
100
AcDbText
 10
2616.0
 20
2075.0625
 30
0.0
 40
27.70323325635104
  1
最低機械高
 41
0.9992307692307693
  7
EXCADTTF1
 72
     5
 11
2796.0
 21
2075.0625
 31
0.0
100
AcDbText
  0
TEXT
  5
EB
330
1F
100
AcDbEntity
  8
図面枠
  6
CONTINUOUS
 62
     4
100
AcDbText
 10
2616.0
 20
2027.0625
 30
0.0
 40
27.70323325635104
  1
シリンダー外径
 41
0.9992307692307691
  7
EXCADTTF1
 72
     5
 11
2868.0
 21
2027.0625
 31
0.0
100
AcDbText
  0
LINE
  5
EC
330
1F
100
AcDbEntity
  8
図面枠
  6
CONTINUOUS
 62
     2
100
AcDbLine
 10
2600.0
 20
2160.0
 30
0.0
 11
3240.0
 21
2160.0
 31
0.0
  0
LINE
  5
ED
330
1F
100
AcDbEntity
  8
図面枠
  6
CONTINUOUS
 62
     2
100
AcDbLine
 10
2600.0
 20
2112.0
 30
0.0
 11
3240.0
 21
2112.0
 31
0.0
  0
LINE
  5
EE
330
1F
100
AcDbEntity
  8
図面枠
  6
CONTINUOUS
 62
     2
100
AcDbLine
 10
2600.0
 20
2064.0
 30
0.0
 11
3240.0
 21
2064.0
 31
0.0
  0
LINE
  5
EF
330
1F
100
AcDbEntity
  8
図面枠
  6
CONTINUOUS
 62
     2
100
AcDbLine
 10
2600.0
 20
2016.0
 30
0.0
 11
3240.0
 21
2016.0
 31
0.0
  0
TEXT
  5
F0
330
1F
100
AcDbEntity
  8
図面枠
  6
CONTINUOUS
 62
     4
100
AcDbText
 10
3096.0
 20
1979.0625
 30
0.0
 40
27.70323325635104
  1
cm
 41
0.9992307692307693
  7
EXCADTTF1
 72
     5
 11
3132.0
 21
1979.0625
 31
0.0
100
AcDbText
  0
TEXT
  5
F1
330
1F
100
AcDbEntity
  8
図面枠
  6
CONTINUOUS
 62
     4
100
AcDbText
 10
3121.2
 20
1996.078125268221
 30
0.0
 40
12.4664540846959
  1
2
 41
0.9992308398189645
  7
EXCADTTF1
 72
     5
 11
3129.3
 21
1996.078125268221
 31
0.0
100
AcDbText
  0
LINE
  5
F2
330
1F
100
AcDbEntity
  8
図面枠
  6
CONTINUOUS
 62
     3
100
AcDbLine
 10
1552.0
 20
2256.0
 30
0.0
 11
1552.0
 21
2184.0
 31
0.0
  0
LINE
  5
F3
330
1F
100
AcDbEntity
  8
図面枠
  6
CONTINUOUS
 62
     3
100
AcDbLine
 10
120.0000000000001
 20
2256.0
 30
0.0
 11
1552.0
 21
2256.0
 31
0.0
  0
LINE
  5
F4
330
1F
100
AcDbEntity
  8
図面枠
  6
CONTINUOUS
 62
     3
100
AcDbLine
 10
120.0000000000001
 20
2184.0
 30
0.0
 11
1552.0
 21
2184.0
 31
0.0
  0
TEXT
  5
F5
330
1F
100
AcDbEntity
  8
図面枠
  6
CONTINUOUS
 62
     4
100
AcDbText
 10
3010.0
 20
2027.0625
 30
0.0
 40
27.70323325635104
  1
305
 41
0.9992307692307694
  7
EXCADTTF1
 72
     5
 11
3064.0
 21
2027.0625
 31
0.0
100
AcDbText
  0
TEXT
  5
F6
330
1F
100
AcDbEntity
  8
図面枠
  6
CONTINUOUS
 62
     4
100
AcDbText
 10
2992.0
 20
2171.0625
 30
0.0
 40
27.70323325635104
  1
2500
 41
0.9992307692307693
  7
EXCADTTF1
 72
     5
 11
3064.0
 21
2171.0625
 31
0.0
100
AcDbText
  0
TEXT
  5
F7
330
1F
100
AcDbEntity
  8
図面枠
  6
CONTINUOUS
 62
     4
100
AcDbText
 10
3010.0
 20
2123.0625
 30
0.0
 40
27.70323325635104
  1
200
 41
0.9992307692307694
  7
EXCADTTF1
 72
     5
 11
3064.0
 21
2123.0625
 31
0.0
100
AcDbText
  0
TEXT
  5
F8
330
1F
100
AcDbEntity
  8
図面枠
  6
CONTINUOUS
 62
     4
100
AcDbText
 10
3096.0
 20
1931.0625
 30
0.0
 40
27.70323325635104
  1
MPa
 41
0.9992307692307694
  7
EXCADTTF1
 72
     5
 11
3150.0
 21
1931.0625
 31
0.0
100
AcDbText
  0
TEXT
  5
F9
330
1F
100
AcDbEntity
  8
図面枠
  6
CONTINUOUS
 62
     4
100
AcDbText
 10
2616.0
 20
1979.0625
 30
0.0
 40
27.70323325635104
  1
受圧面積
 41
0.9992307692307693
  7
EXCADTTF1
 72
     5
 11
2760.0
 21
1979.0625
 31
0.0
100
AcDbText
  0
TEXT
  5
FA
330
1F
100
AcDbEntity
  8
図面枠
  6
CONTINUOUS
 62
     4
100
AcDbText
 10
2616.0
 20
1931.0625
 30
0.0
 40
27.70323325635104
  1
最高使用圧力
 41
0.9992307692307693
  7
EXCADTTF1
 72
     5
 11
2832.0
 21
1931.0625
 31
0.0
100
AcDbText
  0
LINE
  5
FB
330
1F
100
AcDbEntity
  8
図面枠
  6
CONTINUOUS
 62
     2
100
AcDbLine
 10
2600.0
 20
1968.0
 30
0.0
 11
3240.0
 21
1968.0
 31
0.0
  0
TEXT
  5
FC
330
1F
100
AcDbEntity
  8
図面枠
  6
CONTINUOUS
 62
     4
100
AcDbText
 10
3096.0
 20
1835.0625
 30
0.0
 40
27.70323325635104
  1
kg
 41
0.9992307692307693
  7
EXCADTTF1
 72
     5
 11
3132.0
 21
1835.0625
 31
0.0
100
AcDbText
  0
TEXT
  5
FD
330
1F
100
AcDbEntity
  8
図面枠
  6
CONTINUOUS
 62
     4
100
AcDbText
 10
2616.0
 20
1883.0625
 30
0.0
 40
27.70323325635104
  1
所要油量
 41
0.9992307692307693
  7
EXCADTTF1
 72
     5
 11
2760.0
 21
1883.0625
 31
0.0
100
AcDbText
  0
LINE
  5
FE
330
1F
100
AcDbEntity
  8
図面枠
  6
CONTINUOUS
 62
     2
100
AcDbLine
 10
2600.0
 20
1920.0
 30
0.0
 11
3240.0
 21
1920.0
 31
0.0
  0
LINE
  5
FF
330
1F
100
AcDbEntity
  8
図面枠
  6
CONTINUOUS
 62
     2
100
AcDbLine
 10
2600.0
 20
1872.0
 30
0.0
 11
3240.0
 21
1872.0
 31
0.0
  0
TEXT
  5
100
330
1F
100
AcDbEntity
  8
図面枠
  6
CONTINUOUS
 62
     4
100
AcDbText
 10
2616.0
 20
1835.0625
 30
0.0
 40
27.70323325635104
  1
重量
 41
0.9992307692307693
  7
EXCADTTF1
 72
     5
 11
2688.0
 21
1835.0625
 31
0.0
100
AcDbText
  0
TEXT
  5
101
330
1F
100
AcDbEntity
  8
図面枠
  6
CONTINUOUS
 62
     4
100
AcDbText
 10
2616.0
 20
1787.0625
 30
0.0
 40
27.70323325635104
  1
ユニバーサル
 41
0.9992307692307693
  7
EXCADTTF1
 72
     5
 11
2832.0
 21
1787.0625
 31
0.0
100
AcDbText
  0
TEXT
  5
102
330
1F
100
AcDbEntity
  8
図面枠
  6
CONTINUOUS
 62
     4
100
AcDbText
 10
2616.0
 20
1751.0625
 30
0.0
 40
27.70323325635104
  1
振り角
 41
0.9992307692307694
  7
EXCADTTF1
 72
     5
 11
2724.0
 21
1751.0625
 31
0.0
100
AcDbText
  0
TEXT
  5
103
330
1F
100
AcDbEntity
  8
図面枠
  6
CONTINUOUS
 62
     4
100
AcDbText
 10
3010.0
 20
1787.0625
 30
0.0
 40
27.70323325635104
  1
±3
 41
0.9992307692307694
  7
EXCADTTF1
 72
     5
 11
3064.0
 21
1787.0625
 31
0.0
100
AcDbText
  0
TEXT
  5
104
330
1F
100
AcDbEntity
  8
図面枠
  6
CONTINUOUS
 62
     4
100
AcDbText
 10
3096.0
 20
1787.0625
 30
0.0
 40
27.70323325635104
  1
°
 41
0.9992307692307693
  7
EXCADTTF1
 72
     5
 11
3132.0
 21
1787.0625
 31
0.0
100
AcDbText
  0
TEXT
  5
105
330
1F
100
AcDbEntity
  8
図面枠
  6
CONTINUOUS
 62
     4
100
AcDbText
 10
3096.0
 20
1739.0625
 30
0.0
 40
27.70323325635104
  1
%%%
 41
0.9992307692307693
  7
EXCADTTF1
 72
     5
 11
3114.0
 21
1739.0625
 31
0.0
100
AcDbText
  0
TEXT
  5
106
330
1F
100
AcDbEntity
  8
図面枠
  6
CONTINUOUS
 62
     4
100
AcDbText
 10
3010.0
 20
1739.0625
 30
0.0
 40
27.70323325635104
  1
±5
 41
0.9992307692307694
  7
EXCADTTF1
 72
     5
 11
3064.0
 21
1739.0625
 31
0.0
100
AcDbText
  0
LINE
  5
107
330
1F
100
AcDbEntity
  8
図面枠
  6
CONTINUOUS
 62
     2
100
AcDbLine
 10
2920.0
 20
1776.0
 30
0.0
 11
3240.0
 21
1776.0
 31
0.0
  0
LINE
  5
108
330
1F
100
AcDbEntity
  8
図面枠
  6
CONTINUOUS
 62
     3
100
AcDbLine
 10
2600.0
 20
1728.0
 30
0.0
 11
3240.0
 21
1728.0
 31
0.0
  0
LINE
  5
109
330
1F
100
AcDbEntity
  8
図面枠
  6
CONTINUOUS
 62
     2
100
AcDbLine
 10
2600.0
 20
1824.0
 30
0.0
 11
3240.0
 21
1824.0
 31
0.0
  0
TEXT
  5
10A
330
1F
100
AcDbEntity
  8
図面枠
  6
CONTINUOUS
 62
     4
100
AcDbText
 10
3096.0
 20
1883.0625
 30
0.0
 40
27.70323325635104
  1
L
 41
0.9992307692307693
  7
EXCADTTF1
 72
     5
 11
3114.0
 21
1883.0625
 31
0.0
100
AcDbText
  0
LINE
  5
10B
330
1F
100
AcDbEntity
  8
図面枠
  6
CONTINUOUS
 62
     3
100
AcDbLine
 10
2600.0
 20
2256.0
 30
0.0
 11
2600.0
 21
1728.0
 31
0.0
  0
LINE
  5
10C
330
1F
100
AcDbEntity
  8
図面枠
  6
CONTINUOUS
 62
     2
100
AcDbLine
 10
2920.0
 20
2208.0
 30
0.0
 11
2920.0
 21
1728.0
 31
0.0
  0
LINE
  5
10D
330
1F
100
AcDbEntity
  8
図面枠
  6
CONTINUOUS
 62
     2
100
AcDbLine
 10
3080.0
 20
2208.0
 30
0.0
 11
3080.0
 21
1728.0
 31
0.0
  0
LINE
  5
10E
330
1F
100
AcDbEntity
  8
図面枠
  6
CONTINUOUS
 62
     3
100
AcDbLine
 10
3240.0
 20
2256.0
 30
0.0
 11
3240.0
 21
1728.0
 31
0.0
  0
TEXT
  5
10F
330
1F
100
AcDbEntity
  8
図面枠
  6
CONTINUOUS
 62
     4
100
AcDbText
 10
3010.0
 20
1979.0625
 30
0.0
 40
27.70323325635104
  1
378
 41
0.9992307692307694
  7
EXCADTTF1
 72
     5
 11
3064.0
 21
1979.0625
 31
0.0
100
AcDbText
  0
TEXT
  5
110
330
1F
100
AcDbEntity
  8
図面枠
  6
CONTINUOUS
 62
     4
100
AcDbText
 10
3010.0
 20
1883.0625
 30
0.0
 40
27.70323325635104
  1
7.6
 41
0.9992307692307694
  7
EXCADTTF1
 72
     5
 11
3064.0
 21
1883.0625
 31
0.0
100
AcDbText
  0
TEXT
  5
111
330
1F
100
AcDbEntity
  8
図面枠
  6
CONTINUOUS
 62
     4
100
AcDbText
 10
152.0
 20
2202.75
 30
0.0
 40
36.93764434180139
  1
2500kN200ストローク仮受け用油圧ジャッキ　前後回転ヘッド型
 41
0.9992307692307691
  7
EXCADTTF1
 72
     5
 11
1520.0
 21
2202.75
 31
0.0
100
AcDbText
  0
TEXT
  5
112
330
1F
100
AcDbEntity
  8
図面枠
  6
CONTINUOUS
 62
     4
100
AcDbText
 10
2974.0
 20
1835.0625
 30
0.0
 40
27.70323325635104
  1
約565
 41
0.9992307692307693
  7
EXCADTTF1
 72
     5
 11
3064.0
 21
1835.0625
 31
0.0
100
AcDbText
  0
TEXT
  5
113
330
1F
100
AcDbEntity
  8
図面枠
  6
CONTINUOUS
 62
     4
100
AcDbText
 10
3010.0
 20
2075.0625
 30
0.0
 40
27.70323325635104
  1
660
 41
0.9992307692307694
  7
EXCADTTF1
 72
     5
 11
3064.0
 21
2075.0625
 31
0.0
100
AcDbText
  0
TEXT
  5
114
330
1F
100
AcDbEntity
  8
図面枠
  6
CONTINUOUS
 62
     4
100
AcDbText
 10
2553.599999999999
 20
1636.262499999995
 30
0.0
 40
27.70323325635104
  1
※）前後回転ヘッドの為、無負荷ジャッキ
 41
0.9992307692307695
  7
EXCADTTF1
 72
     5
 11
3237.599999999999
 21
1636.262499999995
 31
0.0
100
AcDbText
  0
TEXT
  5
115
330
1F
100
AcDbEntity
  8
図面枠
  6
CONTINUOUS
 62
     4
100
AcDbText
 10
2553.599999999999
 20
1600.262499999995
 30
0.0
 40
27.70323325635104
  1
　　作動時にヘッドが急に傾く場合があり
 41
0.9992307692307695
  7
EXCADTTF1
 72
     5
 11
3237.599999999999
 21
1600.262499999995
 31
0.0
100
AcDbText
  0
TEXT
  5
116
330
1F
100
AcDbEntity
  8
図面枠
  6
CONTINUOUS
 62
     4
100
AcDbText
 10
2553.599999999999
 20
1564.262499999995
 30
0.0
 40
27.70323325635104
  1
　　ます。必要に応じて搭載物の転倒防止
 41
0.9992307692307695
  7
EXCADTTF1
 72
     5
 11
3237.599999999999
 21
1564.262499999995
 31
0.0
100
AcDbText
  0
TEXT
  5
117
330
1F
100
AcDbEntity
  8
図面枠
  6
CONTINUOUS
 62
     4
100
AcDbText
 10
2553.599999999999
 20
1528.262499999995
 30
0.0
 40
27.70323325635104
  1
　　を行ってください。
 41
0.9992307692307693
  7
EXCADTTF1
 72
     5
 11
2949.599999999999
 21
1528.262499999995
 31
0.0
100
AcDbText
  0
TEXT
  5
118
330
1F
100
AcDbEntity
  8
図面枠
  6
CONTINUOUS
 62
     4
100
AcDbText
 10
2992.0
 20
1931.0625
 30
0.0
 40
27.70323325635104
  1
66.2
 41
0.9992307692307693
  7
EXCADTTF1
 72
     5
 11
3064.0
 21
1931.0625
 31
0.0
100
AcDbText
  0
LINE
  5
119
330
1F
100
AcDbEntity
  8
図面枠
  6
CONTINUOUS
 62
     3
100
AcDbLine
 10
2952.0
 20
192.0
 30
0.0
 11
2952.0
 21
120.0
 31
0.0
  0
TEXT
  5
11A
330
1F
100
AcDbEntity
  8
図面枠
  6
CONTINUOUS
 62
     4
100
AcDbText
 10
2976.0
 20
138.75
 30
0.0
 40
36.93764434180139
  1
RJ-25020-B
 41
0.9992307692307694
  7
EXCADTTF1
 72
     5
 11
3216.0
 21
138.75
 31
0.0
100
AcDbText
  0
LINE
  5
11B
330
1F
100
AcDbEntity
  8
図面枠
  6
CONTINUOUS
 62
     3
100
AcDbLine
 10
2952.0
 20
192.0
 30
0.0
 11
3240.0
 21
192.0
 31
0.0
  0
LINE
  5
11C
330
1F
100
AcDbEntity
  8
図面枠
  6
CONTINUOUS
 62
     3
100
AcDbLine
 10
2952.0
 20
120.0
 30
0.0
 11
3240.0
 21
120.0
 31
0.0
  0
LINE
  5
11D
330
1F
100
AcDbEntity
  8
Ｓ_１_１
  6
CONTINUOUS
 62
     3
100
AcDbLine
 10
1300.0
 20
250.0
 30
0.0
 11
700.0
 21
250.0000000000005
 31
0.0
  0
LINE
  5
11E
330
1F
100
AcDbEntity
  8
Ｓ_１_１
  6
CONTINUOUS
 62
     3
100
AcDbLine
 10
1300.0
 20
282.0000000000009
 30
0.0
 11
1300.0
 21
250.0
 31
0.0
  0
LINE
  5
11F
330
1F
100
AcDbEntity
  8
Ｓ_１_１
  6
CONTINUOUS
 62
     3
100
AcDbLine
 10
700.0
 20
282.0000000000009
 30
0.0
 11
700.0
 21
250.0
 31
0.0
  0
LINE
  5
120
330
1F
100
AcDbEntity
  8
Ｓ_１_１
  6
CONTINUOUS
 62
     3
100
AcDbLine
 10
850.500003000001
 20
701.9999929999999
 30
0.0
 11
847.500003000001
 21
698.9999929999999
 31
0.0
  0
LINE
  5
121
330
1F
100
AcDbEntity
  8
Ｓ_１_１
  6
CONTINUOUS
 62
     3
100
AcDbLine
 10
903.0000020000007
 20
716.9999929999999
 30
0.0
 11
902.5000020000007
 21
716.4999929999999
 31
0.0
  0
LINE
  5
122
330
1F
100
AcDbEntity
  8
Ｓ_１_１
  6
CONTINUOUS
 62
     3
100
AcDbLine
 10
1149.499996999999
 20
701.9999929999999
 30
0.0
 11
1152.499996999999
 21
698.9999929999999
 31
0.0
  0
LINE
  5
123
330
1F
100
AcDbEntity
  8
Ｓ_１_１
  6
CONTINUOUS
 62
     3
100
AcDbLine
 10
1096.999997999999
 20
716.9999929999999
 30
0.0
 11
1097.499997999999
 21
716.4999929999999
 31
0.0
  0
LINE
  5
124
330
1F
100
AcDbEntity
  8
Ｓ_１_１
  6
CONTINUOUS
 62
     3
100
AcDbLine
 10
822.2000000000007
 20
537.0000000000005
 30
0.0
 11
827.2000000000007
 21
542.0000000000005
 31
0.0
  0
LINE
  5
125
330
1F
100
AcDbEntity
  8
Ｓ_１_１
  6
CONTINUOUS
 62
     3
100
AcDbLine
 10
1177.799999999999
 20
537.0000000000005
 30
0.0
 11
1172.799999999999
 21
542.0000000000005
 31
0.0
  0
LINE
  5
126
330
1F
100
AcDbEntity
  8
Ｓ_１_１
  6
CONTINUOUS
 62
     3
100
AcDbLine
 10
1087.113248654052
 20
739.9999930000008
 30
0.0
 11
912.8867513459463
 21
739.9999930000008
 31
0.0
  0
ARC
  5
127
330
1F
100
AcDbEntity
  8
Ｓ_１_１
  6
CONTINUOUS
 62
     3
100
AcDbCircle
 10
914.0
 20
740.9999930000008
 30
0.0
 40
1.0
100
AcDbArc
 50
270.0
 51
0.0
  0
ARC
  5
128
330
1F
100
AcDbEntity
  8
Ｓ_１_１
  6
CONTINUOUS
 62
     3
100
AcDbCircle
 10
1086.0
 20
740.9999930000008
 30
0.0
 40
1.0
100
AcDbArc
 50
180.0
 51
270.0
  0
LINE
  5
129
330
1F
100
AcDbEntity
  8
Ｓ_１_１
  6
CONTINUOUS
 62
     3
100
AcDbLine
 10
915.0003059999999
 20
744.8335752652251
 30
0.0
 11
915.0003059999999
 21
744.833443
 31
0.0
  0
LINE
  5
12A
330
1F
100
AcDbEntity
  8
Ｓ_１_１
  6
CONTINUOUS
 62
     3
100
AcDbLine
 10
1085.0
 20
755.0000690000002
 30
0.0
 11
1085.0
 21
740.9999930000008
 31
0.0
  0
LINE
  5
12B
330
1F
100
AcDbEntity
  8
Ｓ_１_１
  6
CONTINUOUS
 62
     3
100
AcDbLine
 10
915.0
 20
755.0000690000202
 30
0.0
 11
915.0
 21
740.9999930000008
 31
0.0
  0
LINE
  5
12C
330
1F
100
AcDbEntity
  8
Ｓ_１_１
  6
CONTINUOUS
 62
     3
100
AcDbLine
 10
1092.0
 20
716.9999930000008
 30
0.0
 11
1092.5
 21
717.4999930000008
 31
0.0
  0
LINE
  5
12D
330
1F
100
AcDbEntity
  8
Ｓ_１_１
  6
CONTINUOUS
 62
     3
100
AcDbLine
 10
1090.5
 20
739.9999930000017
 30
0.0
 11
1092.5
 21
737.9999930000017
 31
0.0
  0
LINE
  5
12E
330
1F
100
AcDbEntity
  8
Ｓ_１_１
  6
CONTINUOUS
 62
     3
100
AcDbLine
 10
1092.5
 20
717.4999930000008
 30
0.0
 11
1092.5
 21
737.9999930000008
 31
0.0
  0
LINE
  5
12F
330
1F
100
AcDbEntity
  8
Ｓ_１_１
  6
CONTINUOUS
 62
     3
100
AcDbLine
 10
908.0
 20
716.999993000004
 30
0.0
 11
907.5
 21
717.499993000004
 31
0.0
  0
LINE
  5
130
330
1F
100
AcDbEntity
  8
Ｓ_１_１
  6
CONTINUOUS
 62
     3
100
AcDbLine
 10
909.5
 20
739.9999930000017
 30
0.0
 11
907.5
 21
737.9999930000017
 31
0.0
  0
LINE
  5
131
330
1F
100
AcDbEntity
  8
Ｓ_１_１
  6
CONTINUOUS
 62
     3
100
AcDbLine
 10
907.5
 20
717.499993000004
 30
0.0
 11
907.5
 21
737.9999930000008
 31
0.0
  0
LINE
  5
132
330
1F
100
AcDbEntity
  8
Ｓ_１_１
  6
CONTINUOUS
 62
     3
100
AcDbLine
 10
1090.5
 20
739.9999930000017
 30
0.0
 11
909.5
 21
739.9999930000017
 31
0.0
  0
LINE
  5
133
330
1F
100
AcDbEntity
  8
Ｓ_１_１
  6
CONTINUOUS
 62
     3
100
AcDbLine
 10
600.0
 20
909.9999930000004
 30
0.0
 11
600.0
 21
869.9999930000004
 31
0.0
  0
LINE
  5
134
330
1F
100
AcDbEntity
  8
Ｓ_１_１
  6
CONTINUOUS
 62
     3
100
AcDbLine
 10
600.0
 20
869.9999930000004
 30
0.0
 11
1400.0
 21
869.9999930000004
 31
0.0
  0
LINE
  5
135
330
1F
100
AcDbEntity
  8
Ｓ_１_１
  6
CONTINUOUS
 62
     3
100
AcDbLine
 10
1400.0
 20
909.9999930000004
 30
0.0
 11
1400.0
 21
869.9999930000004
 31
0.0
  0
LINE
  5
136
330
1F
100
AcDbEntity
  8
Ｓ_１_１
  6
CONTINUOUS
 62
     3
100
AcDbLine
 10
1000.0
 20
740.4999930000008
 30
0.0
 11
1125.0
 21
746.9999930000008
 31
0.0
  0
LINE
  5
137
330
1F
100
AcDbEntity
  8
Ｓ_１_１
  6
CONTINUOUS
 62
     3
100
AcDbLine
 10
1000.0
 20
740.4999930000008
 30
0.0
 11
875.0
 21
746.9999930000008
 31
0.0
  0
LINE
  5
138
330
1F
100
AcDbEntity
  8
Ｓ_１_１
  6
CONTINUOUS
 62
     3
100
AcDbLine
 10
1385.0
 20
869.9999930000004
 30
0.0
 11
1385.0
 21
816.9999930000004
 31
0.0
  0
LINE
  5
139
330
1F
100
AcDbEntity
  8
Ｓ_１_１
  6
CONTINUOUS
 62
     3
100
AcDbLine
 10
615.0
 20
869.9999930000004
 30
0.0
 11
615.0
 21
816.9999930000004
 31
0.0
  0
LINE
  5
13A
330
1F
100
AcDbEntity
  8
Ｓ_１_１
  6
CONTINUOUS
 62
     3
100
AcDbLine
 10
647.5
 20
907.9999930000004
 30
0.0
 11
652.5
 21
907.9999930000004
 31
0.0
  0
LINE
  5
13B
330
1F
100
AcDbEntity
  8
Ｓ_１_１
  6
CONTINUOUS
 62
     3
100
AcDbLine
 10
647.5
 20
909.9999930000004
 30
0.0
 11
647.5
 21
907.9999930000004
 31
0.0
  0
LINE
  5
13C
330
1F
100
AcDbEntity
  8
Ｓ_１_１
  6
CONTINUOUS
 62
     3
100
AcDbLine
 10
652.5
 20
909.9999930000004
 30
0.0
 11
652.5
 21
907.9999930000004
 31
0.0
  0
LINE
  5
13D
330
1F
100
AcDbEntity
  8
Ｓ_１_１
  6
CONTINUOUS
 62
     3
100
AcDbLine
 10
600.0
 20
909.9999930000004
 30
0.0
 11
647.5
 21
909.9999930000004
 31
0.0
  0
LINE
  5
13E
330
1F
100
AcDbEntity
  8
Ｓ_１_１
  6
CONTINUOUS
 62
     3
100
AcDbLine
 10
747.5
 20
907.9999930000004
 30
0.0
 11
752.5
 21
907.9999930000004
 31
0.0
  0
LINE
  5
13F
330
1F
100
AcDbEntity
  8
Ｓ_１_１
  6
CONTINUOUS
 62
     3
100
AcDbLine
 10
747.5
 20
909.9999930000004
 30
0.0
 11
747.5
 21
907.9999930000004
 31
0.0
  0
LINE
  5
140
330
1F
100
AcDbEntity
  8
Ｓ_１_１
  6
CONTINUOUS
 62
     3
100
AcDbLine
 10
752.5
 20
909.9999930000004
 30
0.0
 11
752.5
 21
907.9999930000004
 31
0.0
  0
LINE
  5
141
330
1F
100
AcDbEntity
  8
Ｓ_１_１
  6
CONTINUOUS
 62
     3
100
AcDbLine
 10
847.5
 20
907.9999930000004
 30
0.0
 11
852.5
 21
907.9999930000004
 31
0.0
  0
LINE
  5
142
330
1F
100
AcDbEntity
  8
Ｓ_１_１
  6
CONTINUOUS
 62
     3
100
AcDbLine
 10
847.5
 20
909.9999930000004
 30
0.0
 11
847.5
 21
907.9999930000004
 31
0.0
  0
LINE
  5
143
330
1F
100
AcDbEntity
  8
Ｓ_１_１
  6
CONTINUOUS
 62
     3
100
AcDbLine
 10
852.5
 20
909.9999930000004
 30
0.0
 11
852.5
 21
907.9999930000004
 31
0.0
  0
LINE
  5
144
330
1F
100
AcDbEntity
  8
Ｓ_１_１
  6
CONTINUOUS
 62
     3
100
AcDbLine
 10
947.5
 20
907.9999930000004
 30
0.0
 11
952.5
 21
907.9999930000004
 31
0.0
  0
LINE
  5
145
330
1F
100
AcDbEntity
  8
Ｓ_１_１
  6
CONTINUOUS
 62
     3
100
AcDbLine
 10
947.5
 20
909.9999930000004
 30
0.0
 11
947.5
 21
907.9999930000004
 31
0.0
  0
LINE
  5
146
330
1F
100
AcDbEntity
  8
Ｓ_１_１
  6
CONTINUOUS
 62
     3
100
AcDbLine
 10
952.5
 20
909.9999930000004
 30
0.0
 11
952.5
 21
907.9999930000004
 31
0.0
  0
LINE
  5
147
330
1F
100
AcDbEntity
  8
Ｓ_１_１
  6
CONTINUOUS
 62
     3
100
AcDbLine
 10
1352.5
 20
907.9999930000004
 30
0.0
 11
1347.5
 21
907.9999930000004
 31
0.0
  0
LINE
  5
148
330
1F
100
AcDbEntity
  8
Ｓ_１_１
  6
CONTINUOUS
 62
     3
100
AcDbLine
 10
1352.5
 20
909.9999930000004
 30
0.0
 11
1352.5
 21
907.9999930000004
 31
0.0
  0
LINE
  5
149
330
1F
100
AcDbEntity
  8
Ｓ_１_１
  6
CONTINUOUS
 62
     3
100
AcDbLine
 10
1347.5
 20
909.9999930000004
 30
0.0
 11
1347.5
 21
907.9999930000004
 31
0.0
  0
LINE
  5
14A
330
1F
100
AcDbEntity
  8
Ｓ_１_１
  6
CONTINUOUS
 62
     3
100
AcDbLine
 10
1252.5
 20
907.9999930000004
 30
0.0
 11
1247.5
 21
907.9999930000004
 31
0.0
  0
LINE
  5
14B
330
1F
100
AcDbEntity
  8
Ｓ_１_１
  6
CONTINUOUS
 62
     3
100
AcDbLine
 10
1252.5
 20
909.9999930000004
 30
0.0
 11
1252.5
 21
907.9999930000004
 31
0.0
  0
LINE
  5
14C
330
1F
100
AcDbEntity
  8
Ｓ_１_１
  6
CONTINUOUS
 62
     3
100
AcDbLine
 10
1247.5
 20
909.9999930000004
 30
0.0
 11
1247.5
 21
907.9999930000004
 31
0.0
  0
LINE
  5
14D
330
1F
100
AcDbEntity
  8
Ｓ_１_１
  6
CONTINUOUS
 62
     3
100
AcDbLine
 10
1152.5
 20
907.9999930000004
 30
0.0
 11
1147.5
 21
907.9999930000004
 31
0.0
  0
LINE
  5
14E
330
1F
100
AcDbEntity
  8
Ｓ_１_１
  6
CONTINUOUS
 62
     3
100
AcDbLine
 10
1152.5
 20
909.9999930000004
 30
0.0
 11
1152.5
 21
907.9999930000004
 31
0.0
  0
LINE
  5
14F
330
1F
100
AcDbEntity
  8
Ｓ_１_１
  6
CONTINUOUS
 62
     3
100
AcDbLine
 10
1147.5
 20
909.9999930000004
 30
0.0
 11
1147.5
 21
907.9999930000004
 31
0.0
  0
LINE
  5
150
330
1F
100
AcDbEntity
  8
Ｓ_１_１
  6
CONTINUOUS
 62
     3
100
AcDbLine
 10
1052.5
 20
907.9999930000004
 30
0.0
 11
1047.5
 21
907.9999930000004
 31
0.0
  0
LINE
  5
151
330
1F
100
AcDbEntity
  8
Ｓ_１_１
  6
CONTINUOUS
 62
     3
100
AcDbLine
 10
1052.5
 20
909.9999930000004
 30
0.0
 11
1052.5
 21
907.9999930000004
 31
0.0
  0
LINE
  5
152
330
1F
100
AcDbEntity
  8
Ｓ_１_１
  6
CONTINUOUS
 62
     3
100
AcDbLine
 10
1047.5
 20
909.9999930000004
 30
0.0
 11
1047.5
 21
907.9999930000004
 31
0.0
  0
LINE
  5
153
330
1F
100
AcDbEntity
  8
Ｓ_１_１
  6
CONTINUOUS
 62
     3
100
AcDbLine
 10
652.5
 20
909.9999930000004
 30
0.0
 11
747.5
 21
909.9999930000004
 31
0.0
  0
LINE
  5
154
330
1F
100
AcDbEntity
  8
Ｓ_１_１
  6
CONTINUOUS
 62
     3
100
AcDbLine
 10
752.5
 20
909.9999930000004
 30
0.0
 11
847.5
 21
909.9999930000004
 31
0.0
  0
LINE
  5
155
330
1F
100
AcDbEntity
  8
Ｓ_１_１
  6
CONTINUOUS
 62
     3
100
AcDbLine
 10
852.5
 20
909.9999930000004
 30
0.0
 11
947.5
 21
909.9999930000004
 31
0.0
  0
LINE
  5
156
330
1F
100
AcDbEntity
  8
Ｓ_１_１
  6
CONTINUOUS
 62
     3
100
AcDbLine
 10
952.5
 20
909.9999930000004
 30
0.0
 11
1047.5
 21
909.9999930000004
 31
0.0
  0
LINE
  5
157
330
1F
100
AcDbEntity
  8
Ｓ_１_１
  6
CONTINUOUS
 62
     3
100
AcDbLine
 10
1052.5
 20
909.9999930000004
 30
0.0
 11
1147.5
 21
909.9999930000004
 31
0.0
  0
LINE
  5
158
330
1F
100
AcDbEntity
  8
Ｓ_１_１
  6
CONTINUOUS
 62
     3
100
AcDbLine
 10
1152.5
 20
909.9999930000004
 30
0.0
 11
1247.5
 21
909.9999930000004
 31
0.0
  0
LINE
  5
159
330
1F
100
AcDbEntity
  8
Ｓ_１_１
  6
CONTINUOUS
 62
     3
100
AcDbLine
 10
1352.5
 20
909.9999930000004
 30
0.0
 11
1400.0
 21
909.9999930000004
 31
0.0
  0
LINE
  5
15A
330
1F
100
AcDbEntity
  8
Ｓ_１_１
  6
CONTINUOUS
 62
     3
100
AcDbLine
 10
1252.5
 20
909.9999930000004
 30
0.0
 11
1347.5
 21
909.9999930000004
 31
0.0
  0
LINE
  5
15B
330
1F
100
AcDbEntity
  8
Ｓ_１_１
  6
CONTINUOUS
 62
     3
100
AcDbLine
 10
1125.0
 20
746.9999930000008
 30
0.0
 11
1385.0
 21
816.9999930000004
 31
0.0
  0
LINE
  5
15C
330
1F
100
AcDbEntity
  8
Ｓ_１_１
  6
CONTINUOUS
 62
     3
100
AcDbLine
 10
875.0
 20
746.9999930000008
 30
0.0
 11
615.0
 21
816.9999930000004
 31
0.0
  0
LINE
  5
15D
330
1F
100
AcDbEntity
  8
Ｓ_１_１
  6
CONTINUOUS
 62
     3
100
AcDbLine
 10
1172.799999999999
 20
542.0000000000005
 30
0.0
 11
827.2000000000007
 21
542.0000000000005
 31
0.0
  0
LINE
  5
15E
330
1F
100
AcDbEntity
  8
Ｓ_１_１
  6
CONTINUOUS
 62
     3
100
AcDbLine
 10
1097.0
 20
716.9999930000008
 30
0.0
 11
903.0000019999989
 21
716.999992999999
 31
0.0
  0
LINE
  5
15F
330
1F
100
AcDbEntity
  8
Ｓ_１_１
  6
CONTINUOUS
 62
     3
100
AcDbLine
 10
847.500003000001
 20
698.9999929999999
 30
0.0
 11
847.500003000001
 21
542.0000000000005
 31
0.0
  0
LINE
  5
160
330
1F
100
AcDbEntity
  8
Ｓ_１_１
  6
CONTINUOUS
 62
     3
100
AcDbLine
 10
1152.499996999999
 20
698.9999929999999
 30
0.0
 11
1152.499996999999
 21
542.0000000000005
 31
0.0
  0
LINE
  5
161
330
1F
100
AcDbEntity
  8
Ｓ_１_１
  6
CONTINUOUS
 62
     3
100
AcDbLine
 10
1300.0
 20
282.0
 30
0.0
 11
700.0
 21
282.0
 31
0.0
  0
ELLIPSE
  5
162
330
1F
100
AcDbEntity
  8
Ｓ_１_１
  6
CONTINUOUS
 62
     3
100
AcDbEllipse
 10
908.7352473958999
 20
327.0000000000005
 30
0.0
 11
-3.673940397442059E-15
 21
-20.0
 31
0.0
210
0.0
220
0.0
230
1.0
 40
0.3826834323650019
 41
0.0
 42
6.283185307179586
  0
ELLIPSE
  5
163
330
1F
100
AcDbEntity
  8
Ｓ_１_１
  6
CONTINUOUS
 62
     3
100
AcDbEllipse
 10
764.8853239776981
 20
327.0000000000005
 30
0.0
 11
-3.673940397442059E-15
 21
-20.0
 31
0.0
210
0.0
220
0.0
230
1.0
 40
0.92387953251
 41
0.0
 42
6.283185307179586
  0
ELLIPSE
  5
164
330
1F
100
AcDbEntity
  8
Ｓ_１_１
  6
CONTINUOUS
 62
     3
100
AcDbEllipse
 10
758.7623890598006
 20
327.0000000000005
 30
0.0
 11
-3.673940397442059E-15
 21
-20.0
 31
0.0
210
0.0
220
0.0
230
1.0
 40
0.92387953251
 41
0.1664530020077898
 42
2.975139651581993
  0
LINE
  5
165
330
1F
100
AcDbEntity
  8
Ｓ_１_１
  6
CONTINUOUS
 62
     3
100
AcDbLine
 10
820.3180959284
 20
282.0000000000005
 30
0.0
 11
838.7956865786
 21
302.0000000000005
 31
0.0
  0
LINE
  5
166
330
1F
100
AcDbEntity
  8
Ｓ_１_１
  6
CONTINUOUS
 62
     3
100
AcDbLine
 10
931.6962533377991
 20
282.0000000000005
 30
0.0
 11
939.3499219851001
 21
302.0000000000005
 31
0.0
  0
ELLIPSE
  5
167
330
1F
100
AcDbEntity
  8
Ｓ_１_１
  6
CONTINUOUS
 62
     3
100
AcDbEllipse
 10
1091.2647526041
 20
327.0000000000005
 30
0.0
 11
-3.673940397442059E-15
 21
-20.0
 31
0.0
210
0.0
220
0.0
230
1.0
 40
0.3826834323650019
 41
0.0
 42
6.283185307179586
  0
ELLIPSE
  5
168
330
1F
100
AcDbEntity
  8
Ｓ_１_１
  6
CONTINUOUS
 62
     3
100
AcDbEllipse
 10
1235.1146760223
 20
327.0000000000005
 30
0.0
 11
-3.673940397442059E-15
 21
-20.0
 31
0.0
210
0.0
220
0.0
230
1.0
 40
0.92387953251
 41
0.0
 42
6.283185307179586
  0
ELLIPSE
  5
169
330
1F
100
AcDbEntity
  8
Ｓ_１_１
  6
CONTINUOUS
 62
     3
100
AcDbEllipse
 10
1241.237610940199
 20
327.0000000000005
 30
0.0
 11
-3.673940397442059E-15
 21
-20.0
 31
0.0
210
0.0
220
0.0
230
1.0
 40
0.92387953251
 41
3.308045655597594
 42
6.116732305171797
  0
LINE
  5
16A
330
1F
100
AcDbEntity
  8
Ｓ_１_１
  6
CONTINUOUS
 62
     3
100
AcDbLine
 10
1179.6819040716
 20
282.0000000000005
 30
0.0
 11
1161.2043134214
 21
302.0000000000005
 31
0.0
  0
LINE
  5
16B
330
1F
100
AcDbEntity
  8
Ｓ_１_１
  6
CONTINUOUS
 62
     3
100
AcDbLine
 10
1068.303746662201
 20
282.0000000000005
 30
0.0
 11
1060.6500780149
 21
302.0000000000005
 31
0.0
  0
LINE
  5
16C
330
1F
100
AcDbEntity
  8
Ｓ_１_１
  6
CONTINUOUS
 62
     3
100
AcDbLine
 10
878.645837581098
 20
517.0000000000005
 30
0.0
 11
893.427910101298
 21
517.0000000000005
 31
0.0
  0
LINE
  5
16D
330
1F
100
AcDbEntity
  8
Ｓ_１_１
  6
CONTINUOUS
 62
     3
100
AcDbLine
 10
721.8072077594006
 20
517.0000000000005
 30
0.0
 11
727.9301426771999
 21
517.0000000000005
 31
0.0
  0
LINE
  5
16E
330
1F
100
AcDbEntity
  8
Ｓ_１_１
  6
CONTINUOUS
 62
     3
100
AcDbLine
 10
727.9301426771999
 20
517.0000000000005
 30
0.0
 11
737.1689380022999
 21
527.0000000000005
 31
0.0
  0
LINE
  5
16F
330
1F
100
AcDbEntity
  8
Ｓ_１_１
  6
CONTINUOUS
 62
     3
100
AcDbLine
 10
721.8072077594006
 20
517.0000000000005
 30
0.0
 11
731.0460030844988
 21
527.0000000000005
 31
0.0
  0
LINE
  5
170
330
1F
100
AcDbEntity
  8
Ｓ_１_１
  6
CONTINUOUS
 62
     3
100
AcDbLine
 10
838.7956865786
 20
527.0000000000005
 30
0.0
 11
731.0460030844988
 21
527.0000000000005
 31
0.0
  0
LINE
  5
171
330
1F
100
AcDbEntity
  8
Ｓ_１_１
  6
CONTINUOUS
 62
     3
100
AcDbLine
 10
893.4279101012999
 20
517.0000000000005
 30
0.0
 11
897.2547444248994
 21
527.0000000000005
 31
0.0
  0
LINE
  5
172
330
1F
100
AcDbEntity
  8
Ｓ_１_１
  6
CONTINUOUS
 62
     3
100
AcDbLine
 10
878.6458375810998
 20
517.0000000000005
 30
0.0
 11
882.4726719046994
 21
527.0000000000005
 31
0.0
  0
LINE
  5
173
330
1F
100
AcDbEntity
  8
Ｓ_１_１
  6
CONTINUOUS
 62
     3
100
AcDbLine
 10
882.4726719046994
 20
527.0000000000005
 30
0.0
 11
939.3499219851001
 21
527.0000000000005
 31
0.0
  0
ELLIPSE
  5
174
330
1F
100
AcDbEntity
  8
Ｓ_１_１
  6
CONTINUOUS
 62
     3
100
AcDbEllipse
 10
908.7352473958999
 20
487.0000000000005
 30
0.0
 11
-3.673940397442059E-15
 21
-20.0
 31
0.0
210
0.0
220
0.0
230
1.0
 40
0.3826834323650019
 41
0.0
 42
6.283185307179586
  0
ELLIPSE
  5
175
330
1F
100
AcDbEntity
  8
Ｓ_１_１
  6
CONTINUOUS
 62
     3
100
AcDbEllipse
 10
764.8853239776981
 20
487.0000000000005
 30
0.0
 11
-3.673940397442059E-15
 21
-20.0
 31
0.0
210
0.0
220
0.0
230
1.0
 40
0.92387953251
 41
0.0
 42
6.283185307179586
  0
ELLIPSE
  5
176
330
1F
100
AcDbEntity
  8
Ｓ_１_１
  6
CONTINUOUS
 62
     3
100
AcDbEllipse
 10
758.7623890598006
 20
487.0000000000005
 30
0.0
 11
-3.673940397442059E-15
 21
-20.0
 31
0.0
210
0.0
220
0.0
230
1.0
 40
0.92387953251
 41
0.1664530020077898
 42
2.975139651581993
  0
LINE
  5
177
330
1F
100
AcDbEntity
  8
Ｓ_１_１
  6
CONTINUOUS
 62
     3
100
AcDbLine
 10
1121.3541624189
 20
517.0000000000005
 30
0.0
 11
1106.5720898987
 21
517.0000000000005
 31
0.0
  0
LINE
  5
178
330
1F
100
AcDbEntity
  8
Ｓ_１_１
  6
CONTINUOUS
 62
     3
100
AcDbLine
 10
1278.192792240599
 20
517.0000000000005
 30
0.0
 11
1272.0698573228
 21
517.0000000000005
 31
0.0
  0
LINE
  5
179
330
1F
100
AcDbEntity
  8
Ｓ_１_１
  6
CONTINUOUS
 62
     3
100
AcDbLine
 10
1272.0698573228
 20
517.0000000000005
 30
0.0
 11
1262.8310619977
 21
527.0000000000005
 31
0.0
  0
LINE
  5
17A
330
1F
100
AcDbEntity
  8
Ｓ_１_１
  6
CONTINUOUS
 62
     3
100
AcDbLine
 10
1278.192792240599
 20
517.0000000000005
 30
0.0
 11
1268.953996915501
 21
527.0000000000005
 31
0.0
  0
LINE
  5
17B
330
1F
100
AcDbEntity
  8
Ｓ_１_１
  6
CONTINUOUS
 62
     3
100
AcDbLine
 10
1161.2043134214
 20
527.0000000000005
 30
0.0
 11
1268.953996915501
 21
527.0000000000005
 31
0.0
  0
LINE
  5
17C
330
1F
100
AcDbEntity
  8
Ｓ_１_１
  6
CONTINUOUS
 62
     3
100
AcDbLine
 10
1106.5720898987
 20
517.0000000000005
 30
0.0
 11
1102.745255575101
 21
527.0000000000005
 31
0.0
  0
LINE
  5
17D
330
1F
100
AcDbEntity
  8
Ｓ_１_１
  6
CONTINUOUS
 62
     3
100
AcDbLine
 10
1121.3541624189
 20
517.0000000000005
 30
0.0
 11
1117.527328095301
 21
527.0000000000005
 31
0.0
  0
LINE
  5
17E
330
1F
100
AcDbEntity
  8
Ｓ_１_１
  6
CONTINUOUS
 62
     3
100
AcDbLine
 10
1117.527328095301
 20
527.0000000000005
 30
0.0
 11
1060.6500780149
 21
527.0000000000005
 31
0.0
  0
ELLIPSE
  5
17F
330
1F
100
AcDbEntity
  8
Ｓ_１_１
  6
CONTINUOUS
 62
     3
100
AcDbEllipse
 10
1091.2647526041
 20
487.0000000000005
 30
0.0
 11
-3.673940397442059E-15
 21
-20.0
 31
0.0
210
0.0
220
0.0
230
1.0
 40
0.3826834323650019
 41
0.0
 42
6.283185307179586
  0
ELLIPSE
  5
180
330
1F
100
AcDbEntity
  8
Ｓ_１_１
  6
CONTINUOUS
 62
     3
100
AcDbEllipse
 10
1235.1146760223
 20
487.0000000000005
 30
0.0
 11
-3.673940397442059E-15
 21
-20.0
 31
0.0
210
0.0
220
0.0
230
1.0
 40
0.92387953251
 41
0.0
 42
6.283185307179586
  0
ELLIPSE
  5
181
330
1F
100
AcDbEntity
  8
Ｓ_１_１
  6
CONTINUOUS
 62
     3
100
AcDbEllipse
 10
1241.237610940199
 20
487.0000000000005
 30
0.0
 11
-3.673940397442059E-15
 21
-20.0
 31
0.0
210
0.0
220
0.0
230
1.0
 40
0.92387953251
 41
3.308045655597594
 42
6.116732305171797
  0
LINE
  5
182
330
1F
100
AcDbEntity
  8
Ｓ_１_１
  6
CONTINUOUS
 62
     3
100
AcDbLine
 10
721.8072077594006
 20
517.0000000000005
 30
0.0
 11
721.8072077594006
 21
282.0
 31
0.0
  0
LINE
  5
183
330
1F
100
AcDbEntity
  8
Ｓ_１_１
  6
CONTINUOUS
 62
     3
100
AcDbLine
 10
727.9301426771999
 20
517.0000000000005
 30
0.0
 11
727.9301426771999
 21
282.0
 31
0.0
  0
LINE
  5
184
330
1F
100
AcDbEntity
  8
Ｓ_１_１
  6
CONTINUOUS
 62
     3
100
AcDbLine
 10
838.7956865786
 20
527.0000000000005
 30
0.0
 11
838.7956865786
 21
302.0
 31
0.0
  0
LINE
  5
185
330
1F
100
AcDbEntity
  8
Ｓ_１_１
  6
CONTINUOUS
 62
     3
100
AcDbLine
 10
878.645837581098
 20
517.0000000000005
 30
0.0
 11
878.6458375810998
 21
282.0
 31
0.0
  0
LINE
  5
186
330
1F
100
AcDbEntity
  8
Ｓ_１_１
  6
CONTINUOUS
 62
     3
100
AcDbLine
 10
893.427910101298
 20
517.0000000000005
 30
0.0
 11
893.4279101012999
 21
282.0
 31
0.0
  0
LINE
  5
187
330
1F
100
AcDbEntity
  8
Ｓ_１_１
  6
CONTINUOUS
 62
     3
100
AcDbLine
 10
939.3499219851001
 20
527.0000000000005
 30
0.0
 11
939.3499219851001
 21
302.0000000000005
 31
0.0
  0
LINE
  5
188
330
1F
100
AcDbEntity
  8
Ｓ_１_１
  6
CONTINUOUS
 62
     3
100
AcDbLine
 10
1060.6500780149
 20
527.0000000000005
 30
0.0
 11
1060.6500780149
 21
302.0000000000005
 31
0.0
  0
LINE
  5
189
330
1F
100
AcDbEntity
  8
Ｓ_１_１
  6
CONTINUOUS
 62
     3
100
AcDbLine
 10
1106.5720898987
 20
517.0000000000005
 30
0.0
 11
1106.5720898987
 21
282.0
 31
0.0
  0
LINE
  5
18A
330
1F
100
AcDbEntity
  8
Ｓ_１_１
  6
CONTINUOUS
 62
     3
100
AcDbLine
 10
1121.3541624189
 20
517.0000000000005
 30
0.0
 11
1121.3541624189
 21
282.0
 31
0.0
  0
LINE
  5
18B
330
1F
100
AcDbEntity
  8
Ｓ_１_１
  6
CONTINUOUS
 62
     3
100
AcDbLine
 10
1161.2043134214
 20
527.0000000000005
 30
0.0
 11
1161.2043134214
 21
302.0
 31
0.0
  0
LINE
  5
18C
330
1F
100
AcDbEntity
  8
Ｓ_１_１
  6
CONTINUOUS
 62
     3
100
AcDbLine
 10
1272.0698573228
 20
517.0000000000005
 30
0.0
 11
1272.0698573228
 21
282.0
 31
0.0
  0
LINE
  5
18D
330
1F
100
AcDbEntity
  8
Ｓ_１_１
  6
CONTINUOUS
 62
     3
100
AcDbLine
 10
1278.192792240599
 20
517.0000000000005
 30
0.0
 11
1278.192792240599
 21
282.0
 31
0.0
  0
LINE
  5
18E
330
1F
100
AcDbEntity
  8
Ｓ_１_１
  6
CONTINUOUS
 62
     3
100
AcDbLine
 10
1177.799999999999
 20
284.0369582888025
 30
0.0
 11
1177.799999999999
 21
282.0
 31
0.0
  0
LINE
  5
18F
330
1F
100
AcDbEntity
  8
Ｓ_１_１
  6
CONTINUOUS
 62
     3
100
AcDbLine
 10
822.2000000000007
 20
284.0369582888015
 30
0.0
 11
822.2000000000007
 21
282.0
 31
0.0
  0
LINE
  5
190
330
1F
100
AcDbEntity
  8
Ｓ_１_１
  6
CONTINUOUS
 62
     3
100
AcDbLine
 10
720.0
 20
282.0
 30
0.0
 11
720.0
 21
250.0
 31
0.0
  0
LINE
  5
191
330
1F
100
AcDbEntity
  8
Ｓ_１_１
  6
CONTINUOUS
 62
     3
100
AcDbLine
 10
1280.0
 20
282.0
 30
0.0
 11
1280.0
 21
250.0
 31
0.0
  0
LINE
  5
192
330
1F
100
AcDbEntity
  8
Ｓ_１_１
  6
CONTINUOUS
 62
     3
100
AcDbLine
 10
847.500003000001
 20
698.9999929999999
 30
0.0
 11
1152.499996999999
 21
698.9999929999999
 31
0.0
  0
LINE
  5
193
330
1F
100
AcDbEntity
  8
Ｓ_１_１
  6
CONTINUOUS
 62
     3
100
AcDbLine
 10
900.0000020000007
 20
707.6716022466999
 30
0.0
 11
1099.999997999999
 21
707.6716022466999
 31
0.0
  0
LINE
  5
194
330
1F
100
AcDbEntity
  8
Ｓ_１_１
  6
CONTINUOUS
 62
     3
100
AcDbLine
 10
1097.499997999999
 20
712.0017409070001
 30
0.0
 11
902.5000020000007
 21
712.0017409070001
 31
0.0
  0
LINE
  5
195
330
1F
100
AcDbEntity
  8
Ｓ_１_１
  6
CONTINUOUS
 62
     3
100
AcDbLine
 10
902.5000020000007
 20
716.4999929999999
 30
0.0
 11
1097.499997999999
 21
716.4999929999999
 31
0.0
  0
LINE
  5
196
330
1F
100
AcDbEntity
  8
Ｓ_１_１
  6
CONTINUOUS
 62
     3
100
AcDbLine
 10
1092.5
 20
737.9999929999999
 30
0.0
 11
907.5
 21
737.9999929999999
 31
0.0
  0
LINE
  5
197
330
1F
100
AcDbEntity
  8
Ｓ_１_１
  6
CONTINUOUS
 62
     3
100
AcDbLine
 10
961.2999999999993
 20
626.9999900198009
 30
0.0
 11
961.2999999999993
 21
542.0000000000005
 31
0.0
  0
LINE
  5
198
330
1F
100
AcDbEntity
  8
Ｓ_１_１
  6
CONTINUOUS
 62
     3
100
AcDbLine
 10
1038.700000000001
 20
626.9999900198009
 30
0.0
 11
1038.700000000001
 21
542.0000000000005
 31
0.0
  0
LINE
  5
199
330
1F
100
AcDbEntity
  8
Ｓ_１_１
  6
CONTINUOUS
 62
     3
100
AcDbLine
 10
1038.700000000001
 20
626.9999900198009
 30
0.0
 11
961.2999999999993
 21
626.999990019799
 31
0.0
  0
CIRCLE
  5
19A
330
1F
100
AcDbEntity
  8
Ｓ_１_１
  6
CONTINUOUS
 62
     3
100
AcDbCircle
 10
972.4999999999
 20
611.9999924038998
 30
0.0
 40
5.0
  0
CIRCLE
  5
19B
330
1F
100
AcDbEntity
  8
Ｓ_１_１
  6
CONTINUOUS
 62
     3
100
AcDbCircle
 10
972.4999999999
 20
611.9999924038998
 30
0.0
 40
4.1382432228132
  0
CIRCLE
  5
19C
330
1F
100
AcDbEntity
  8
Ｓ_１_１
  6
CONTINUOUS
 62
     3
100
AcDbCircle
 10
972.4999999999
 20
581.9999956821998
 30
0.0
 40
5.0
  0
CIRCLE
  5
19D
330
1F
100
AcDbEntity
  8
Ｓ_１_１
  6
CONTINUOUS
 62
     3
100
AcDbCircle
 10
972.4999999999
 20
581.9999956821998
 30
0.0
 40
4.1382432228132
  0
CIRCLE
  5
19E
330
1F
100
AcDbEntity
  8
Ｓ_１_１
  6
CONTINUOUS
 62
     3
100
AcDbCircle
 10
972.4999999999
 20
551.9999989604003
 30
0.0
 40
5.0
  0
CIRCLE
  5
19F
330
1F
100
AcDbEntity
  8
Ｓ_１_１
  6
CONTINUOUS
 62
     3
100
AcDbCircle
 10
972.4999999999
 20
551.9999989604003
 30
0.0
 40
4.1382432228132
  0
CIRCLE
  5
1A0
330
1F
100
AcDbEntity
  8
Ｓ_１_１
  6
CONTINUOUS
 62
     3
100
AcDbCircle
 10
1027.5000000001
 20
611.9999924038998
 30
0.0
 40
5.0
  0
CIRCLE
  5
1A1
330
1F
100
AcDbEntity
  8
Ｓ_１_１
  6
CONTINUOUS
 62
     3
100
AcDbCircle
 10
1027.5000000001
 20
611.9999924038998
 30
0.0
 40
4.1382432228132
  0
CIRCLE
  5
1A2
330
1F
100
AcDbEntity
  8
Ｓ_１_１
  6
CONTINUOUS
 62
     3
100
AcDbCircle
 10
1027.5000000001
 20
581.9999956821998
 30
0.0
 40
5.0
  0
CIRCLE
  5
1A3
330
1F
100
AcDbEntity
  8
Ｓ_１_１
  6
CONTINUOUS
 62
     3
100
AcDbCircle
 10
1027.5000000001
 20
581.9999956821998
 30
0.0
 40
4.1382432228132
  0
CIRCLE
  5
1A4
330
1F
100
AcDbEntity
  8
Ｓ_１_１
  6
CONTINUOUS
 62
     3
100
AcDbCircle
 10
1027.5000000001
 20
551.9999989604003
 30
0.0
 40
5.0
  0
CIRCLE
  5
1A5
330
1F
100
AcDbEntity
  8
Ｓ_１_１
  6
CONTINUOUS
 62
     3
100
AcDbCircle
 10
1027.5000000001
 20
551.9999989604003
 30
0.0
 40
4.1382432228132
  0
LINE
  5
1A6
330
1F
100
AcDbEntity
  8
Ｓ_１_１
  6
CONTINUOUS
 62
     3
100
AcDbLine
 10
822.2000000000007
 20
537.0
 30
0.0
 11
1177.799999999999
 21
537.0
 31
0.0
  0
LINE
  5
1A7
330
1F
100
AcDbEntity
  8
Ｓ_１_１
  6
CONTINUOUS
 62
     3
100
AcDbLine
 10
822.2000000000007
 20
537.0000000000005
 30
0.0
 11
822.2000000000007
 21
527.0000000000009
 31
0.0
  0
LINE
  5
1A8
330
1F
100
AcDbEntity
  8
Ｓ_１_１
  6
CONTINUOUS
 62
     3
100
AcDbLine
 10
1177.799999999999
 20
537.0000000000005
 30
0.0
 11
1177.799999999999
 21
527.0000000000009
 31
0.0
  0
LINE
  5
1A9
330
1F
100
AcDbEntity
  8
Ｓ_１_１
  6
CONTINUOUS
 62
     3
100
AcDbLine
 10
1799.999999999999
 20
282.0
 30
0.0
 11
1799.999999999999
 21
250.0
 31
0.0
  0
LINE
  5
1AA
330
1F
100
AcDbEntity
  8
Ｓ_１_１
  6
CONTINUOUS
 62
     3
100
AcDbLine
 10
2400.000000000001
 20
282.0
 30
0.0
 11
2399.999999999999
 21
250.0
 31
0.0
  0
LINE
  5
1AB
330
1F
100
AcDbEntity
  8
Ｓ_１_１
  6
CONTINUOUS
 62
     3
100
AcDbLine
 10
1799.999999999999
 20
250.0
 30
0.0
 11
2400.000000000001
 21
250.0
 31
0.0
  0
LINE
  5
1AC
330
1F
100
AcDbEntity
  8
Ｓ_１_１
  6
CONTINUOUS
 62
     3
100
AcDbLine
 10
1819.999999999999
 20
282.0
 30
0.0
 11
1819.999999999999
 21
250.0
 31
0.0
  0
LINE
  5
1AD
330
1F
100
AcDbEntity
  8
Ｓ_１_１
  6
CONTINUOUS
 62
     3
100
AcDbLine
 10
2380.000000000001
 20
282.0000000000005
 30
0.0
 11
2379.999999999999
 21
250.0000000000005
 31
0.0
  0
ELLIPSE
  5
1AE
330
1F
100
AcDbEntity
  8
Ｓ_１_１
  6
CONTINUOUS
 62
     3
100
AcDbEllipse
 10
2008.735247395899
 20
327.0000000000005
 30
0.0
 11
-3.673940397442059E-15
 21
-20.0
 31
0.0
210
0.0
220
0.0
230
1.0
 40
0.3826834323650019
 41
0.0
 42
6.283185307179586
  0
ELLIPSE
  5
1AF
330
1F
100
AcDbEntity
  8
Ｓ_１_１
  6
CONTINUOUS
 62
     3
100
AcDbEllipse
 10
1864.885323977701
 20
327.0000000000005
 30
0.0
 11
-3.673940397442059E-15
 21
-20.0
 31
0.0
210
0.0
220
0.0
230
1.0
 40
0.92387953251
 41
0.0
 42
6.283185307179586
  0
ELLIPSE
  5
1B0
330
1F
100
AcDbEntity
  8
Ｓ_１_１
  6
CONTINUOUS
 62
     3
100
AcDbEllipse
 10
1858.762389059799
 20
327.0000000000005
 30
0.0
 11
-3.673940397442059E-15
 21
-20.0
 31
0.0
210
0.0
220
0.0
230
1.0
 40
0.92387953251
 41
0.1664530020077898
 42
2.975139651581993
  0
LINE
  5
1B1
330
1F
100
AcDbEntity
  8
Ｓ_１_１
  6
CONTINUOUS
 62
     3
100
AcDbLine
 10
1799.999999999999
 20
282.0
 30
0.0
 11
2400.000000000001
 21
282.0
 31
0.0
  0
LINE
  5
1B2
330
1F
100
AcDbEntity
  8
Ｓ_１_１
  6
CONTINUOUS
 62
     3
100
AcDbLine
 10
1920.318095928399
 20
282.0000000000005
 30
0.0
 11
1938.795686578599
 21
302.0000000000005
 31
0.0
  0
LINE
  5
1B3
330
1F
100
AcDbEntity
  8
Ｓ_１_１
  6
CONTINUOUS
 62
     3
100
AcDbLine
 10
2031.6962533378
 20
282.0000000000005
 30
0.0
 11
2039.349921985099
 21
302.0000000000005
 31
0.0
  0
ELLIPSE
  5
1B4
330
1F
100
AcDbEntity
  8
Ｓ_１_１
  6
CONTINUOUS
 62
     3
100
AcDbEllipse
 10
2191.264752604101
 20
327.0000000000005
 30
0.0
 11
-3.673940397442059E-15
 21
-20.0
 31
0.0
210
0.0
220
0.0
230
1.0
 40
0.3826834323650019
 41
0.0
 42
6.283185307179586
  0
ELLIPSE
  5
1B5
330
1F
100
AcDbEntity
  8
Ｓ_１_１
  6
CONTINUOUS
 62
     3
100
AcDbEllipse
 10
2335.114676022301
 20
327.0000000000005
 30
0.0
 11
-3.673940397442059E-15
 21
-20.0
 31
0.0
210
0.0
220
0.0
230
1.0
 40
0.92387953251
 41
0.0
 42
6.283185307179586
  0
ELLIPSE
  5
1B6
330
1F
100
AcDbEntity
  8
Ｓ_１_１
  6
CONTINUOUS
 62
     3
100
AcDbEllipse
 10
2341.237610940202
 20
327.0000000000005
 30
0.0
 11
-3.673940397442059E-15
 21
-20.0
 31
0.0
210
0.0
220
0.0
230
1.0
 40
0.92387953251
 41
3.308045655597594
 42
6.116732305171797
  0
LINE
  5
1B7
330
1F
100
AcDbEntity
  8
Ｓ_１_１
  6
CONTINUOUS
 62
     3
100
AcDbLine
 10
2279.681904071601
 20
282.0000000000005
 30
0.0
 11
2261.204313421401
 21
302.0000000000005
 31
0.0
  0
LINE
  5
1B8
330
1F
100
AcDbEntity
  8
Ｓ_１_１
  6
CONTINUOUS
 62
     3
100
AcDbLine
 10
2168.3037466622
 20
282.0000000000005
 30
0.0
 11
2160.650078014901
 21
302.0000000000005
 31
0.0
  0
ARC
  5
1B9
330
1F
100
AcDbEntity
  8
Ｓ_１_１
  6
CONTINUOUS
 62
     3
100
AcDbCircle
 10
2099.999999999999
 20
344.9999910000006
 30
0.0
 40
40.0
100
AcDbArc
 50
0.0
 51
180.0000000000004
  0
LINE
  5
1BA
330
1F
100
AcDbEntity
  8
Ｓ_１_１
  6
CONTINUOUS
 62
     3
100
AcDbLine
 10
2139.999999999999
 20
344.9999910000006
 30
0.0
 11
2139.999999999999
 21
282.0
 31
0.0
  0
LINE
  5
1BB
330
1F
100
AcDbEntity
  8
Ｓ_１_１
  6
CONTINUOUS
 62
     3
100
AcDbLine
 10
2059.999999999999
 20
344.9999910000006
 30
0.0
 11
2059.999999999999
 21
282.0
 31
0.0
  0
LINE
  5
1BC
330
1F
100
AcDbEntity
  8
Ｓ_１_１
  6
CONTINUOUS
 62
     3
100
AcDbLine
 10
1927.2
 20
542.0
 30
0.0
 11
1922.2
 21
537.0
 31
0.0
  0
LINE
  5
1BD
330
1F
100
AcDbEntity
  8
Ｓ_１_１
  6
CONTINUOUS
 62
     3
100
AcDbLine
 10
2272.8
 20
542.0
 30
0.0
 11
1927.2
 21
542.0
 31
0.0
  0
LINE
  5
1BE
330
1F
100
AcDbEntity
  8
Ｓ_１_１
  6
CONTINUOUS
 62
     3
100
AcDbLine
 10
2272.8
 20
542.0
 30
0.0
 11
2277.8
 21
537.0
 31
0.0
  0
LINE
  5
1BF
330
1F
100
AcDbEntity
  8
Ｓ_１_１
  6
CONTINUOUS
 62
     3
100
AcDbLine
 10
1922.2
 20
537.0000000000005
 30
0.0
 11
2277.8
 21
537.0000000000005
 31
0.0
  0
LINE
  5
1C0
330
1F
100
AcDbEntity
  8
Ｓ_１_１
  6
CONTINUOUS
 62
     3
100
AcDbLine
 10
1978.645837581101
 20
517.0000000000005
 30
0.0
 11
1993.427910101301
 21
517.0000000000005
 31
0.0
  0
LINE
  5
1C1
330
1F
100
AcDbEntity
  8
Ｓ_１_１
  6
CONTINUOUS
 62
     3
100
AcDbLine
 10
1821.807207759399
 20
517.0000000000005
 30
0.0
 11
1827.930142677199
 21
517.0000000000005
 31
0.0
  0
LINE
  5
1C2
330
1F
100
AcDbEntity
  8
Ｓ_１_１
  6
CONTINUOUS
 62
     3
100
AcDbLine
 10
1827.930142677199
 20
517.0000000000005
 30
0.0
 11
1837.168938002301
 21
527.0000000000005
 31
0.0
  0
LINE
  5
1C3
330
1F
100
AcDbEntity
  8
Ｓ_１_１
  6
CONTINUOUS
 62
     3
100
AcDbLine
 10
1821.807207759399
 20
517.0000000000005
 30
0.0
 11
1831.046003084499
 21
527.0000000000005
 31
0.0
  0
LINE
  5
1C4
330
1F
100
AcDbEntity
  8
Ｓ_１_１
  6
CONTINUOUS
 62
     3
100
AcDbLine
 10
1938.795686578599
 20
527.0000000000005
 30
0.0
 11
1831.046003084499
 21
527.0000000000005
 31
0.0
  0
LINE
  5
1C5
330
1F
100
AcDbEntity
  8
Ｓ_１_１
  6
CONTINUOUS
 62
     3
100
AcDbLine
 10
1922.2
 20
537.0
 30
0.0
 11
1922.2
 21
527.0000000000005
 31
0.0
  0
LINE
  5
1C6
330
1F
100
AcDbEntity
  8
Ｓ_１_１
  6
CONTINUOUS
 62
     3
100
AcDbLine
 10
1993.427910101301
 20
517.0000000000005
 30
0.0
 11
1997.2547444249
 21
527.0000000000005
 31
0.0
  0
LINE
  5
1C7
330
1F
100
AcDbEntity
  8
Ｓ_１_１
  6
CONTINUOUS
 62
     3
100
AcDbLine
 10
1978.645837581101
 20
517.0000000000005
 30
0.0
 11
1982.4726719047
 21
527.0000000000005
 31
0.0
  0
LINE
  5
1C8
330
1F
100
AcDbEntity
  8
Ｓ_１_１
  6
CONTINUOUS
 62
     3
100
AcDbLine
 10
1982.4726719047
 20
527.0000000000005
 30
0.0
 11
2039.349921985099
 21
527.0000000000005
 31
0.0
  0
ELLIPSE
  5
1C9
330
1F
100
AcDbEntity
  8
Ｓ_１_１
  6
CONTINUOUS
 62
     3
100
AcDbEllipse
 10
2008.735247395899
 20
487.0000000000005
 30
0.0
 11
-3.673940397442059E-15
 21
-20.0
 31
0.0
210
0.0
220
0.0
230
1.0
 40
0.3826834323650019
 41
0.0
 42
6.283185307179586
  0
ELLIPSE
  5
1CA
330
1F
100
AcDbEntity
  8
Ｓ_１_１
  6
CONTINUOUS
 62
     3
100
AcDbEllipse
 10
1864.885323977701
 20
487.0000000000005
 30
0.0
 11
-3.673940397442059E-15
 21
-20.0
 31
0.0
210
0.0
220
0.0
230
1.0
 40
0.92387953251
 41
0.0
 42
6.283185307179586
  0
ELLIPSE
  5
1CB
330
1F
100
AcDbEntity
  8
Ｓ_１_１
  6
CONTINUOUS
 62
     3
100
AcDbEllipse
 10
1858.762389059799
 20
487.0000000000005
 30
0.0
 11
-3.673940397442059E-15
 21
-20.0
 31
0.0
210
0.0
220
0.0
230
1.0
 40
0.92387953251
 41
0.1664530020077898
 42
2.975139651581993
  0
LINE
  5
1CC
330
1F
100
AcDbEntity
  8
Ｓ_１_１
  6
CONTINUOUS
 62
     3
100
AcDbLine
 10
2221.354162418901
 20
517.0000000000005
 30
0.0
 11
2206.572089898701
 21
517.0000000000005
 31
0.0
  0
LINE
  5
1CD
330
1F
100
AcDbEntity
  8
Ｓ_１_１
  6
CONTINUOUS
 62
     3
100
AcDbLine
 10
2378.192792240602
 20
517.0000000000005
 30
0.0
 11
2372.069857322801
 21
517.0000000000005
 31
0.0
  0
LINE
  5
1CE
330
1F
100
AcDbEntity
  8
Ｓ_１_１
  6
CONTINUOUS
 62
     3
100
AcDbLine
 10
2372.069857322801
 20
517.0000000000005
 30
0.0
 11
2362.831061997701
 21
527.0000000000005
 31
0.0
  0
LINE
  5
1CF
330
1F
100
AcDbEntity
  8
Ｓ_１_１
  6
CONTINUOUS
 62
     3
100
AcDbLine
 10
2378.192792240602
 20
517.0000000000005
 30
0.0
 11
2368.9539969155
 21
527.0000000000005
 31
0.0
  0
LINE
  5
1D0
330
1F
100
AcDbEntity
  8
Ｓ_１_１
  6
CONTINUOUS
 62
     3
100
AcDbLine
 10
2261.204313421401
 20
527.0000000000005
 30
0.0
 11
2368.9539969155
 21
527.0000000000005
 31
0.0
  0
LINE
  5
1D1
330
1F
100
AcDbEntity
  8
Ｓ_１_１
  6
CONTINUOUS
 62
     3
100
AcDbLine
 10
2206.572089898701
 20
517.0000000000005
 30
0.0
 11
2202.7452555751
 21
527.0000000000005
 31
0.0
  0
LINE
  5
1D2
330
1F
100
AcDbEntity
  8
Ｓ_１_１
  6
CONTINUOUS
 62
     3
100
AcDbLine
 10
2221.354162418901
 20
517.0000000000005
 30
0.0
 11
2217.5273280953
 21
527.0000000000005
 31
0.0
  0
LINE
  5
1D3
330
1F
100
AcDbEntity
  8
Ｓ_１_１
  6
CONTINUOUS
 62
     3
100
AcDbLine
 10
2217.5273280953
 20
527.0000000000005
 30
0.0
 11
2160.650078014901
 21
527.0000000000005
 31
0.0
  0
ELLIPSE
  5
1D4
330
1F
100
AcDbEntity
  8
Ｓ_１_１
  6
CONTINUOUS
 62
     3
100
AcDbEllipse
 10
2191.264752604101
 20
487.0000000000005
 30
0.0
 11
-3.673940397442059E-15
 21
-20.0
 31
0.0
210
0.0
220
0.0
230
1.0
 40
0.3826834323650019
 41
0.0
 42
6.283185307179586
  0
ELLIPSE
  5
1D5
330
1F
100
AcDbEntity
  8
Ｓ_１_１
  6
CONTINUOUS
 62
     3
100
AcDbEllipse
 10
2335.114676022301
 20
487.0000000000005
 30
0.0
 11
-3.673940397442059E-15
 21
-20.0
 31
0.0
210
0.0
220
0.0
230
1.0
 40
0.92387953251
 41
0.0
 42
6.283185307179586
  0
ELLIPSE
  5
1D6
330
1F
100
AcDbEntity
  8
Ｓ_１_１
  6
CONTINUOUS
 62
     3
100
AcDbEllipse
 10
2341.237610940202
 20
487.0000000000005
 30
0.0
 11
-3.673940397442059E-15
 21
-20.0
 31
0.0
210
0.0
220
0.0
230
1.0
 40
0.92387953251
 41
3.308045655597594
 42
6.116732305171797
  0
LINE
  5
1D7
330
1F
100
AcDbEntity
  8
Ｓ_１_１
  6
CONTINUOUS
 62
     3
100
AcDbLine
 10
2277.8
 20
537.0
 30
0.0
 11
2277.8
 21
527.0000000000005
 31
0.0
  0
LINE
  5
1D8
330
1F
100
AcDbEntity
  8
Ｓ_１_１
  6
CONTINUOUS
 62
     3
100
AcDbLine
 10
1821.807207759399
 20
517.0000000000005
 30
0.0
 11
1821.807207759399
 21
282.0
 31
0.0
  0
LINE
  5
1D9
330
1F
100
AcDbEntity
  8
Ｓ_１_１
  6
CONTINUOUS
 62
     3
100
AcDbLine
 10
1827.930142677199
 20
517.0000000000005
 30
0.0
 11
1827.930142677199
 21
282.0
 31
0.0
  0
LINE
  5
1DA
330
1F
100
AcDbEntity
  8
Ｓ_１_１
  6
CONTINUOUS
 62
     3
100
AcDbLine
 10
1938.795686578599
 20
527.0000000000005
 30
0.0
 11
1938.795686578599
 21
302.0
 31
0.0
  0
LINE
  5
1DB
330
1F
100
AcDbEntity
  8
Ｓ_１_１
  6
CONTINUOUS
 62
     3
100
AcDbLine
 10
1978.645837581101
 20
517.0000000000005
 30
0.0
 11
1978.645837581101
 21
282.0
 31
0.0
  0
LINE
  5
1DC
330
1F
100
AcDbEntity
  8
Ｓ_１_１
  6
CONTINUOUS
 62
     3
100
AcDbLine
 10
1993.427910101301
 20
517.0000000000005
 30
0.0
 11
1993.427910101301
 21
282.0
 31
0.0
  0
LINE
  5
1DD
330
1F
100
AcDbEntity
  8
Ｓ_１_１
  6
CONTINUOUS
 62
     3
100
AcDbLine
 10
2039.349921985099
 20
527.0000000000005
 30
0.0
 11
2039.349921985099
 21
302.0000000000005
 31
0.0
  0
LINE
  5
1DE
330
1F
100
AcDbEntity
  8
Ｓ_１_１
  6
CONTINUOUS
 62
     3
100
AcDbLine
 10
2160.650078014901
 20
527.0000000000005
 30
0.0
 11
2160.650078014901
 21
302.0000000000005
 31
0.0
  0
LINE
  5
1DF
330
1F
100
AcDbEntity
  8
Ｓ_１_１
  6
CONTINUOUS
 62
     3
100
AcDbLine
 10
2206.572089898701
 20
517.0000000000005
 30
0.0
 11
2206.572089898701
 21
282.0
 31
0.0
  0
LINE
  5
1E0
330
1F
100
AcDbEntity
  8
Ｓ_１_１
  6
CONTINUOUS
 62
     3
100
AcDbLine
 10
2221.354162418901
 20
517.0000000000005
 30
0.0
 11
2221.354162418901
 21
282.0
 31
0.0
  0
LINE
  5
1E1
330
1F
100
AcDbEntity
  8
Ｓ_１_１
  6
CONTINUOUS
 62
     3
100
AcDbLine
 10
2261.204313421401
 20
527.0000000000005
 30
0.0
 11
2261.204313421401
 21
302.0
 31
0.0
  0
LINE
  5
1E2
330
1F
100
AcDbEntity
  8
Ｓ_１_１
  6
CONTINUOUS
 62
     3
100
AcDbLine
 10
2372.069857322801
 20
517.0000000000005
 30
0.0
 11
2372.069857322801
 21
282.0
 31
0.0
  0
LINE
  5
1E3
330
1F
100
AcDbEntity
  8
Ｓ_１_１
  6
CONTINUOUS
 62
     3
100
AcDbLine
 10
2378.192792240602
 20
517.0000000000005
 30
0.0
 11
2378.192792240602
 21
282.0
 31
0.0
  0
LINE
  5
1E4
330
1F
100
AcDbEntity
  8
Ｓ_１_１
  6
CONTINUOUS
 62
     3
100
AcDbLine
 10
1950.500040000001
 20
701.9999929999999
 30
0.0
 11
1947.500040000001
 21
698.9999929999999
 31
0.0
  0
LINE
  5
1E5
330
1F
100
AcDbEntity
  8
Ｓ_１_１
  6
CONTINUOUS
 62
     3
100
AcDbLine
 10
2249.499960000002
 20
701.9999929999999
 30
0.0
 11
2252.499960000002
 21
698.9999929999999
 31
0.0
  0
LINE
  5
1E6
330
1F
100
AcDbEntity
  8
Ｓ_１_１
  6
CONTINUOUS
 62
     3
100
AcDbLine
 10
2277.8
 20
284.0369582888025
 30
0.0
 11
2277.8
 21
282.0
 31
0.0
  0
LINE
  5
1E7
330
1F
100
AcDbEntity
  8
Ｓ_１_１
  6
CONTINUOUS
 62
     3
100
AcDbLine
 10
1922.2
 20
284.0369582888015
 30
0.0
 11
1922.2
 21
282.0
 31
0.0
  0
LINE
  5
1E8
330
1F
100
AcDbEntity
  8
Ｓ_１_１
  6
CONTINUOUS
 62
     3
100
AcDbLine
 10
2247.499999031471
 20
541.9999928509733
 30
0.0
 11
2259.499993547844
 21
541.9999928509733
 31
0.0
  0
LINE
  5
1E9
330
1F
100
AcDbEntity
  8
Ｓ_１_１
  6
CONTINUOUS
 62
     3
100
AcDbLine
 10
2259.499993547844
 20
536.9999938940546
 30
0.0
 11
2248.996641859459
 21
536.9999938940546
 31
0.0
  0
LINE
  5
1EA
330
1F
100
AcDbEntity
  8
Ｓ_１_１
  6
CONTINUOUS
 62
     3
100
AcDbLine
 10
2248.996641859459
 20
536.9999938940546
 30
0.0
 11
2247.499999031471
 21
536.9999938940546
 31
0.0
  0
LINE
  5
1EB
330
1F
100
AcDbEntity
  8
Ｓ_１_１
  6
CONTINUOUS
 62
     3
100
AcDbLine
 10
2252.499960000002
 20
698.9999929999999
 30
0.0
 11
2252.499960000002
 21
626.9999900197527
 31
0.0
  0
LINE
  5
1EC
330
1F
100
AcDbEntity
  8
Ｓ_１_１
  6
CONTINUOUS
 62
     3
100
AcDbLine
 10
2247.499999031471
 20
626.9999900197527
 30
0.0
 11
2252.499960000002
 21
626.9999900197527
 31
0.0
  0
LINE
  5
1ED
330
1F
100
AcDbEntity
  8
Ｓ_１_１
  6
CONTINUOUS
 62
     3
100
AcDbLine
 10
2247.499999031471
 20
541.9999928509733
 30
0.0
 11
2247.499999031471
 21
626.9999900197527
 31
0.0
  0
LINE
  5
1EE
330
1F
100
AcDbEntity
  8
Ｓ_１_１
  6
CONTINUOUS
 62
     3
100
AcDbLine
 10
1952.500000968531
 20
541.9999928509733
 30
0.0
 11
1952.500000968531
 21
626.9999900197527
 31
0.0
  0
LINE
  5
1EF
330
1F
100
AcDbEntity
  8
Ｓ_１_１
  6
CONTINUOUS
 62
     3
100
AcDbLine
 10
1952.500000968531
 20
626.9999900197527
 30
0.0
 11
1947.500039999998
 21
626.9999900197527
 31
0.0
  0
LINE
  5
1F0
330
1F
100
AcDbEntity
  8
Ｓ_１_１
  6
CONTINUOUS
 62
     3
100
AcDbLine
 10
1947.500040000001
 20
698.9999929999999
 30
0.0
 11
1947.500040000001
 21
626.9999900197504
 31
0.0
  0
LINE
  5
1F1
330
1F
100
AcDbEntity
  8
Ｓ_１_１
  6
CONTINUOUS
 62
     3
100
AcDbLine
 10
2196.999998
 20
716.999992
 30
0.0
 11
2197.499998
 21
716.499992
 31
0.0
  0
LINE
  5
1F2
330
1F
100
AcDbEntity
  8
Ｓ_１_１
  6
CONTINUOUS
 62
     3
100
AcDbLine
 10
2200.001057
 20
707.6697670000003
 30
0.0
 11
2200.001057
 21
701.9999929999999
 31
0.0
  0
LINE
  5
1F3
330
1F
100
AcDbEntity
  8
Ｓ_１_１
  6
CONTINUOUS
 62
     3
100
AcDbLine
 10
1999.998943000001
 20
707.6697670000003
 30
0.0
 11
1999.998943000001
 21
701.9999929999999
 31
0.0
  0
LINE
  5
1F4
330
1F
100
AcDbEntity
  8
Ｓ_１_１
  6
CONTINUOUS
 62
     3
100
AcDbLine
 10
2003.000002
 20
716.9999920000005
 30
0.0
 11
2196.999998
 21
716.9999920000005
 31
0.0
  0
LINE
  5
1F5
330
1F
100
AcDbEntity
  8
Ｓ_１_１
  6
CONTINUOUS
 62
     3
100
AcDbLine
 10
2002.500002
 20
716.4999920000005
 30
0.0
 11
2197.499998
 21
716.4999920000005
 31
0.0
  0
LINE
  5
1F6
330
1F
100
AcDbEntity
  8
Ｓ_１_１
  6
CONTINUOUS
 62
     3
100
AcDbLine
 10
2197.499998
 20
711.9999160000002
 30
0.0
 11
2002.500002
 21
711.9999160000002
 31
0.0
  0
LINE
  5
1F7
330
1F
100
AcDbEntity
  8
Ｓ_１_１
  6
CONTINUOUS
 62
     3
100
AcDbLine
 10
1999.998943000001
 20
707.6697670000003
 30
0.0
 11
2200.001057
 21
707.6697670000003
 31
0.0
  0
LINE
  5
1F8
330
1F
100
AcDbEntity
  8
Ｓ_１_１
  6
CONTINUOUS
 62
     3
100
AcDbLine
 10
2196.999997999969
 20
716.9999920000314
 30
0.0
 11
2099.999999999999
 21
716.9999920000314
 31
0.0
  0
LINE
  5
1F9
330
1F
100
AcDbEntity
  8
Ｓ_１_１
  6
CONTINUOUS
 62
     3
100
AcDbLine
 10
2099.999999999999
 20
716.9999920000314
 30
0.0
 11
2003.00000199997
 21
716.9999920000314
 31
0.0
  0
LINE
  5
1FA
330
1F
100
AcDbEntity
  8
Ｓ_１_１
  6
CONTINUOUS
 62
     3
100
AcDbLine
 10
2008.000002
 20
716.9999920000005
 30
0.0
 11
2007.500002
 21
717.4999920000005
 31
0.0
  0
LINE
  5
1FB
330
1F
100
AcDbEntity
  8
Ｓ_１_１
  6
CONTINUOUS
 62
     3
100
AcDbLine
 10
2003.000002
 20
716.999992
 30
0.0
 11
2002.500002
 21
716.499992
 31
0.0
  0
LINE
  5
1FC
330
1F
100
AcDbEntity
  8
Ｓ_１_１
  6
CONTINUOUS
 62
     3
100
AcDbLine
 10
2191.999998
 20
716.9999920000623
 30
0.0
 11
2192.499998
 21
717.4999920000623
 31
0.0
  0
LINE
  5
1FD
330
1F
100
AcDbEntity
  8
Ｓ_１_１
  6
CONTINUOUS
 62
     3
100
AcDbLine
 10
2007.499999999999
 20
717.4999940000002
 30
0.0
 11
2192.499999999999
 21
717.4999940000002
 31
0.0
  0
LINE
  5
1FE
330
1F
100
AcDbEntity
  8
Ｓ_１_１
  6
CONTINUOUS
 62
     3
100
AcDbLine
 10
2009.499999999999
 20
740.0001460001317
 30
0.0
 11
2007.499999999999
 21
738.0001460001317
 31
0.0
  0
LINE
  5
1FF
330
1F
100
AcDbEntity
  8
Ｓ_１_１
  6
CONTINUOUS
 62
     3
100
AcDbLine
 10
2190.499999999999
 20
740.0001460001317
 30
0.0
 11
2192.499999999999
 21
738.0001460001317
 31
0.0
  0
LINE
  5
200
330
1F
100
AcDbEntity
  8
Ｓ_１_１
  6
CONTINUOUS
 62
     3
100
AcDbLine
 10
2190.499999999999
 20
740.0001460001317
 30
0.0
 11
2009.499999999999
 21
740.0001460001317
 31
0.0
  0
LINE
  5
201
330
1F
100
AcDbEntity
  8
Ｓ_１_１
  6
CONTINUOUS
 62
     3
100
AcDbLine
 10
2007.499999999999
 20
738.0001460001308
 30
0.0
 11
2192.499999999999
 21
738.0001460001308
 31
0.0
  0
LINE
  5
202
330
1F
100
AcDbEntity
  8
Ｓ_１_１
  6
CONTINUOUS
 62
     3
100
AcDbLine
 10
2007.499999999999
 20
738.0001460001308
 30
0.0
 11
2007.499999999999
 21
717.499994000003
 31
0.0
  0
LINE
  5
203
330
1F
100
AcDbEntity
  8
Ｓ_１_１
  6
CONTINUOUS
 62
     3
100
AcDbLine
 10
2192.499999999999
 20
738.0001460001308
 30
0.0
 11
2192.499999999999
 21
717.4999940000612
 31
0.0
  0
LINE
  5
204
330
1F
100
AcDbEntity
  8
Ｓ_１_１
  6
CONTINUOUS
 62
     3
100
AcDbLine
 10
1924.999999999999
 20
910.0000670001
 30
0.0
 11
1924.999999999999
 21
870.0000670001
 31
0.0
  0
LINE
  5
205
330
1F
100
AcDbEntity
  8
Ｓ_１_１
  6
CONTINUOUS
 62
     3
100
AcDbLine
 10
2274.999999999999
 20
910.0000670001
 30
0.0
 11
2274.999999999999
 21
870.0000670001
 31
0.0
  0
LINE
  5
206
330
1F
100
AcDbEntity
  8
Ｓ_１_１
  6
CONTINUOUS
 62
     3
100
AcDbLine
 10
2079.999999999999
 20
870.0000670001
 30
0.0
 11
2079.999999999999
 21
755.0000670001
 31
0.0
  0
LINE
  5
207
330
1F
100
AcDbEntity
  8
Ｓ_１_１
  6
CONTINUOUS
 62
     3
100
AcDbLine
 10
2119.999999999999
 20
870.0000670001
 30
0.0
 11
2119.999999999999
 21
755.0000670001
 31
0.0
  0
LINE
  5
208
330
1F
100
AcDbEntity
  8
Ｓ_１_１
  6
CONTINUOUS
 62
     3
100
AcDbLine
 10
2079.999999999999
 20
755.0000670001
 30
0.0
 11
2119.999999999999
 21
755.0000670001
 31
0.0
  0
LINE
  5
209
330
1F
100
AcDbEntity
  8
Ｓ_１_１
  6
CONTINUOUS
 62
     3
100
AcDbLine
 10
2079.999999999999
 20
817.0000670001
 30
0.0
 11
2119.999999999999
 21
817.0000670001
 31
0.0
  0
LINE
  5
20A
330
1F
100
AcDbEntity
  8
Ｓ_１_１
  6
CONTINUOUS
 62
     3
100
AcDbLine
 10
2004.999999999999
 20
870.0000670001
 30
0.0
 11
2004.999999999999
 21
740.5000670001
 31
0.0
  0
LINE
  5
20B
330
1F
100
AcDbEntity
  8
Ｓ_１_１
  6
CONTINUOUS
 62
     3
100
AcDbLine
 10
2004.999999999999
 20
740.5000670001
 30
0.0
 11
2044.999999999999
 21
740.5000670001
 31
0.0
  0
LINE
  5
20C
330
1F
100
AcDbEntity
  8
Ｓ_１_１
  6
CONTINUOUS
 62
     3
100
AcDbLine
 10
2004.999999999999
 20
817.0000670001
 30
0.0
 11
2044.999999999999
 21
817.0000670001
 31
0.0
  0
LINE
  5
20D
330
1F
100
AcDbEntity
  8
Ｓ_１_１
  6
CONTINUOUS
 62
     3
100
AcDbLine
 10
2194.999999999999
 20
870.0000670001
 30
0.0
 11
2194.999999999999
 21
740.5000670001
 31
0.0
  0
LINE
  5
20E
330
1F
100
AcDbEntity
  8
Ｓ_１_１
  6
CONTINUOUS
 62
     3
100
AcDbLine
 10
2194.999999999999
 20
740.5000670001
 30
0.0
 11
2154.999999999999
 21
740.5000670001
 31
0.0
  0
LINE
  5
20F
330
1F
100
AcDbEntity
  8
Ｓ_１_１
  6
CONTINUOUS
 62
     3
100
AcDbLine
 10
2154.999999999999
 20
817.0000670001
 30
0.0
 11
2194.999999999999
 21
817.0000670001
 31
0.0
  0
LINE
  5
210
330
1F
100
AcDbEntity
  8
Ｓ_１_１
  6
CONTINUOUS
 62
     3
100
AcDbLine
 10
2044.999999999999
 20
747.0000670001
 30
0.0
 11
2154.999999999999
 21
747.0000670001
 31
0.0
  0
CIRCLE
  5
211
330
1F
100
AcDbEntity
  8
Ｓ_１_１
  6
CONTINUOUS
 62
     3
100
AcDbCircle
 10
2295.000000000001
 20
837.5000670001
 30
0.0
 40
17.5
  0
LINE
  5
212
330
1F
100
AcDbEntity
  8
Ｓ_１_１
  6
CONTINUOUS
 62
     3
100
AcDbLine
 10
2229.999999999999
 20
820.0000670001004
 30
0.0
 11
2229.999999999999
 21
870.0000670001
 31
0.0
  0
LINE
  5
213
330
1F
100
AcDbEntity
  8
Ｓ_１_１
  6
CONTINUOUS
 62
     3
100
AcDbLine
 10
2244.999999999999
 20
805.0000670001004
 30
0.0
 11
2229.999999999999
 21
820.0000670001004
 31
0.0
  0
LINE
  5
214
330
1F
100
AcDbEntity
  8
Ｓ_１_１
  6
CONTINUOUS
 62
     3
100
AcDbLine
 10
2314.999999999999
 20
870.0000670001
 30
0.0
 11
2329.999999999999
 21
855.0000670001
 31
0.0
  0
LINE
  5
215
330
1F
100
AcDbEntity
  8
Ｓ_１_１
  6
CONTINUOUS
 62
     3
100
AcDbLine
 10
2314.999999999999
 20
805.0000670001004
 30
0.0
 11
2244.999999999999
 21
805.0000670001004
 31
0.0
  0
LINE
  5
216
330
1F
100
AcDbEntity
  8
Ｓ_１_１
  6
CONTINUOUS
 62
     3
100
AcDbLine
 10
2329.999999999999
 20
820.0000670001004
 30
0.0
 11
2329.999999999999
 21
855.0000670001
 31
0.0
  0
LINE
  5
217
330
1F
100
AcDbEntity
  8
Ｓ_１_１
  6
CONTINUOUS
 62
     3
100
AcDbLine
 10
2314.999999999999
 20
805.0000670001004
 30
0.0
 11
2329.999999999999
 21
820.0000670001004
 31
0.0
  0
CIRCLE
  5
218
330
1F
100
AcDbEntity
  8
Ｓ_１_１
  6
CONTINUOUS
 62
     3
100
AcDbCircle
 10
1904.999999999999
 20
837.5000670001
 30
0.0
 40
17.5
  0
LINE
  5
219
330
1F
100
AcDbEntity
  8
Ｓ_１_１
  6
CONTINUOUS
 62
     3
100
AcDbLine
 10
1969.999999999999
 20
820.0000670001004
 30
0.0
 11
1969.999999999999
 21
870.0000670001
 31
0.0
  0
LINE
  5
21A
330
1F
100
AcDbEntity
  8
Ｓ_１_１
  6
CONTINUOUS
 62
     3
100
AcDbLine
 10
1954.999999999999
 20
805.0000670001004
 30
0.0
 11
1969.999999999999
 21
820.0000670001004
 31
0.0
  0
LINE
  5
21B
330
1F
100
AcDbEntity
  8
Ｓ_１_１
  6
CONTINUOUS
 62
     3
100
AcDbLine
 10
1884.999999999999
 20
870.0000670001
 30
0.0
 11
1869.999999999999
 21
855.0000670001
 31
0.0
  0
LINE
  5
21C
330
1F
100
AcDbEntity
  8
Ｓ_１_１
  6
CONTINUOUS
 62
     3
100
AcDbLine
 10
1884.999999999999
 20
805.0000670001004
 30
0.0
 11
1954.999999999999
 21
805.0000670001004
 31
0.0
  0
LINE
  5
21D
330
1F
100
AcDbEntity
  8
Ｓ_１_１
  6
CONTINUOUS
 62
     3
100
AcDbLine
 10
1869.999999999999
 20
820.0000670001004
 30
0.0
 11
1869.999999999999
 21
855.0000670001
 31
0.0
  0
LINE
  5
21E
330
1F
100
AcDbEntity
  8
Ｓ_１_１
  6
CONTINUOUS
 62
     3
100
AcDbLine
 10
1884.999999999999
 20
805.0000670001004
 30
0.0
 11
1869.999999999999
 21
820.0000670001004
 31
0.0
  0
LINE
  5
21F
330
1F
100
AcDbEntity
  8
Ｓ_１_１
  6
CONTINUOUS
 62
     3
100
AcDbLine
 10
2314.999999999999
 20
870.0000670001
 30
0.0
 11
1884.999999999999
 21
870.0000670001
 31
0.0
  0
LINE
  5
220
330
1F
100
AcDbEntity
  8
Ｓ_１_１
  6
CONTINUOUS
 62
     3
100
AcDbLine
 10
2132.499999999999
 20
908.0000670001
 30
0.0
 11
2127.499999999999
 21
908.0000670001
 31
0.0
  0
LINE
  5
221
330
1F
100
AcDbEntity
  8
Ｓ_１_１
  6
CONTINUOUS
 62
     3
100
AcDbLine
 10
2132.499999999999
 20
910.0000670001
 30
0.0
 11
2132.499999999999
 21
908.0000670001
 31
0.0
  0
LINE
  5
222
330
1F
100
AcDbEntity
  8
Ｓ_１_１
  6
CONTINUOUS
 62
     3
100
AcDbLine
 10
2127.499999999999
 20
910.0000670001
 30
0.0
 11
2127.499999999999
 21
908.0000670001
 31
0.0
  0
LINE
  5
223
330
1F
100
AcDbEntity
  8
Ｓ_１_１
  6
CONTINUOUS
 62
     3
100
AcDbLine
 10
2067.499999999999
 20
908.0000670001
 30
0.0
 11
2072.499999999999
 21
908.0000670001
 31
0.0
  0
LINE
  5
224
330
1F
100
AcDbEntity
  8
Ｓ_１_１
  6
CONTINUOUS
 62
     3
100
AcDbLine
 10
2067.499999999999
 20
910.0000670001
 30
0.0
 11
2067.499999999999
 21
908.0000670001
 31
0.0
  0
LINE
  5
225
330
1F
100
AcDbEntity
  8
Ｓ_１_１
  6
CONTINUOUS
 62
     3
100
AcDbLine
 10
2072.499999999999
 20
910.0000670001
 30
0.0
 11
2072.499999999999
 21
908.0000670001
 31
0.0
  0
LINE
  5
226
330
1F
100
AcDbEntity
  8
Ｓ_１_１
  6
CONTINUOUS
 62
     3
100
AcDbLine
 10
2007.499999999999
 20
908.0000670001
 30
0.0
 11
2012.499999999999
 21
908.0000670001
 31
0.0
  0
LINE
  5
227
330
1F
100
AcDbEntity
  8
Ｓ_１_１
  6
CONTINUOUS
 62
     3
100
AcDbLine
 10
2007.499999999999
 20
910.0000670001
 30
0.0
 11
2007.499999999999
 21
908.0000670001
 31
0.0
  0
LINE
  5
228
330
1F
100
AcDbEntity
  8
Ｓ_１_１
  6
CONTINUOUS
 62
     3
100
AcDbLine
 10
2012.499999999999
 20
910.0000670001
 30
0.0
 11
2012.499999999999
 21
908.0000670001
 31
0.0
  0
LINE
  5
229
330
1F
100
AcDbEntity
  8
Ｓ_１_１
  6
CONTINUOUS
 62
     3
100
AcDbLine
 10
1947.499999999999
 20
908.0000670001
 30
0.0
 11
1952.499999999999
 21
908.0000670001
 31
0.0
  0
LINE
  5
22A
330
1F
100
AcDbEntity
  8
Ｓ_１_１
  6
CONTINUOUS
 62
     3
100
AcDbLine
 10
1947.499999999999
 20
910.0000670001
 30
0.0
 11
1947.499999999999
 21
908.0000670001
 31
0.0
  0
LINE
  5
22B
330
1F
100
AcDbEntity
  8
Ｓ_１_１
  6
CONTINUOUS
 62
     3
100
AcDbLine
 10
1952.499999999999
 20
910.0000670001
 30
0.0
 11
1952.499999999999
 21
908.0000670001
 31
0.0
  0
LINE
  5
22C
330
1F
100
AcDbEntity
  8
Ｓ_１_１
  6
CONTINUOUS
 62
     3
100
AcDbLine
 10
2192.499999999999
 20
908.0000670001
 30
0.0
 11
2187.499999999999
 21
908.0000670001
 31
0.0
  0
LINE
  5
22D
330
1F
100
AcDbEntity
  8
Ｓ_１_１
  6
CONTINUOUS
 62
     3
100
AcDbLine
 10
2192.499999999999
 20
910.0000670001
 30
0.0
 11
2192.499999999999
 21
908.0000670001
 31
0.0
  0
LINE
  5
22E
330
1F
100
AcDbEntity
  8
Ｓ_１_１
  6
CONTINUOUS
 62
     3
100
AcDbLine
 10
2187.499999999999
 20
910.0000670001
 30
0.0
 11
2187.499999999999
 21
908.0000670001
 31
0.0
  0
LINE
  5
22F
330
1F
100
AcDbEntity
  8
Ｓ_１_１
  6
CONTINUOUS
 62
     3
100
AcDbLine
 10
2252.499999999999
 20
908.0000670001
 30
0.0
 11
2247.499999999999
 21
908.0000670001
 31
0.0
  0
LINE
  5
230
330
1F
100
AcDbEntity
  8
Ｓ_１_１
  6
CONTINUOUS
 62
     3
100
AcDbLine
 10
2252.499999999999
 20
910.0000670001
 30
0.0
 11
2252.499999999999
 21
908.0000670001
 31
0.0
  0
LINE
  5
231
330
1F
100
AcDbEntity
  8
Ｓ_１_１
  6
CONTINUOUS
 62
     3
100
AcDbLine
 10
2247.499999999999
 20
910.0000670001
 30
0.0
 11
2247.499999999999
 21
908.0000670001
 31
0.0
  0
LINE
  5
232
330
1F
100
AcDbEntity
  8
Ｓ_１_１
  6
CONTINUOUS
 62
     3
100
AcDbLine
 10
2252.499999999999
 20
910.0000670001
 30
0.0
 11
2274.999999999999
 21
910.0000670001
 31
0.0
  0
LINE
  5
233
330
1F
100
AcDbEntity
  8
Ｓ_１_１
  6
CONTINUOUS
 62
     3
100
AcDbLine
 10
2192.499999999999
 20
910.0000670001
 30
0.0
 11
2247.499999999999
 21
910.0000670001
 31
0.0
  0
LINE
  5
234
330
1F
100
AcDbEntity
  8
Ｓ_１_１
  6
CONTINUOUS
 62
     3
100
AcDbLine
 10
2132.499999999999
 20
910.0000670001
 30
0.0
 11
2187.499999999999
 21
910.0000670001
 31
0.0
  0
LINE
  5
235
330
1F
100
AcDbEntity
  8
Ｓ_１_１
  6
CONTINUOUS
 62
     3
100
AcDbLine
 10
2072.499999999999
 20
910.0000670001
 30
0.0
 11
2127.499999999999
 21
910.0000670001
 31
0.0
  0
LINE
  5
236
330
1F
100
AcDbEntity
  8
Ｓ_１_１
  6
CONTINUOUS
 62
     3
100
AcDbLine
 10
2012.499999999999
 20
910.0000670001
 30
0.0
 11
2067.499999999999
 21
910.0000670001
 31
0.0
  0
LINE
  5
237
330
1F
100
AcDbEntity
  8
Ｓ_１_１
  6
CONTINUOUS
 62
     3
100
AcDbLine
 10
1952.499999999999
 20
910.0000670001
 30
0.0
 11
2007.499999999999
 21
910.0000670001
 31
0.0
  0
LINE
  5
238
330
1F
100
AcDbEntity
  8
Ｓ_１_１
  6
CONTINUOUS
 62
     3
100
AcDbLine
 10
1924.999999999999
 20
910.0000670001
 30
0.0
 11
1947.499999999999
 21
910.0000670001
 31
0.0
  0
LINE
  5
239
330
1F
100
AcDbEntity
  8
Ｓ_１_１
  6
CONTINUOUS
 62
     3
100
AcDbLine
 10
2214.999999999999
 20
755.0000670001
 30
0.0
 11
2194.999999999999
 21
755.0000670001
 31
0.0
  0
LINE
  5
23A
330
1F
100
AcDbEntity
  8
Ｓ_１_１
  6
CONTINUOUS
 62
     3
100
AcDbLine
 10
2214.999999999999
 20
755.0000670001
 30
0.0
 11
2242.586206896552
 21
807.4138601035484
 31
0.0
  0
LINE
  5
23B
330
1F
100
AcDbEntity
  8
Ｓ_１_１
  6
CONTINUOUS
 62
     3
100
AcDbLine
 10
1984.999999999999
 20
755.0000670001
 30
0.0
 11
2004.999999999999
 21
755.0000670001
 31
0.0
  0
LINE
  5
23C
330
1F
100
AcDbEntity
  8
Ｓ_１_１
  6
CONTINUOUS
 62
     3
100
AcDbLine
 10
1984.999999999999
 20
755.0000670001
 30
0.0
 11
1957.413793103448
 21
807.4138601035484
 31
0.0
  0
LINE
  5
23D
330
1F
100
AcDbEntity
  8
Ｓ_１_１
  6
CONTINUOUS
 62
     3
100
AcDbLine
 10
2194.999999999999
 20
850.0000670001
 30
0.0
 11
2214.999999999999
 21
870.0000670001
 31
0.0
  0
LINE
  5
23E
330
1F
100
AcDbEntity
  8
Ｓ_１_１
  6
CONTINUOUS
 62
     3
100
AcDbLine
 10
2004.999999999999
 20
850.0000670001
 30
0.0
 11
1984.999999999999
 21
870.0000670001
 31
0.0
  0
LINE
  5
23F
330
1F
100
AcDbEntity
  8
Ｓ_１_１
  6
CONTINUOUS
 62
     3
100
AcDbLine
 10
2044.999999999999
 20
870.0000670001
 30
0.0
 11
2044.999999999999
 21
740.0001460001317
 31
0.0
  0
LINE
  5
240
330
1F
100
AcDbEntity
  8
Ｓ_１_１
  6
CONTINUOUS
 62
     3
100
AcDbLine
 10
2154.999999999999
 20
870.0000670001
 30
0.0
 11
2154.999999999999
 21
740.0001460001317
 31
0.0
  0
DIMENSION
  5
242
330
1F
100
AcDbEntity
  8
Ｓ_１_１
  6
CONTINUOUS
 62
     2
100
AcDbDimension
  2
*D15
 10
500.0
 20
250.0
 30
0.0
 11
478.0
 21
207.9999999999998
 31
0.0
 70
   160
  3
ISO-25
100
AcDbAlignedDimension
 13
700.0
 23
282.0000000000009
 33
0.0
 14
700.0
 24
250.0
 34
0.0
 50
90.0
100
AcDbRotatedDimension
1001
ACAD
1000
DSTYLE
1002
{
1070
   270
1070
     2
1070
     6
1000
EX_NORM
1070
     7
1000
EX_NORM
1070
    41
1040
24.0
1070
    42
1040
12.0
1070
    44
1040
8.0
1070
    73
1070
     0
1070
    74
1070
     0
1070
    75
1070
     0
1070
    76
1070
     0
1070
    77
1070
     1
1070
    78
1070
     8
1070
   140
1040
27.70323325635104
1070
   147
1040
0.0
1070
   173
1070
     1
1070
   176
1070
     2
1070
   177
1070
     2
1070
   178
1070
     2
1070
   271
1070
     2
1070
   277
1070
     2
1070
   279
1070
     2
1070
   280
1070
     2
1070
   287
1070
     5
1070
   340
1005
241
1002
}
  0
DIMENSION
  5
252
330
1F
100
AcDbEntity
  8
Ｓ_１_１
  6
CONTINUOUS
 62
     2
100
AcDbDimension
  2
*D16
 10
500.0000000000002
 20
542.0
 30
0.0
 11
478.0000000000002
 21
412.0
 31
0.0
 70
   160
  3
ISO-25
100
AcDbAlignedDimension
 13
700.0
 23
282.0
 33
0.0
 14
827.2
 24
542.0
 34
0.0
 50
90.0
100
AcDbRotatedDimension
1001
ACAD
1000
DSTYLE
1002
{
1070
   270
1070
     2
1070
     6
1000
EX_NORM
1070
     7
1000
EX_NORM
1070
    41
1040
24.0
1070
    42
1040
12.0
1070
    44
1040
8.0
1070
    73
1070
     0
1070
    74
1070
     0
1070
    75
1070
     0
1070
    76
1070
     0
1070
    77
1070
     1
1070
    78
1070
     8
1070
   140
1040
27.70323325635104
1070
   147
1040
0.0
1070
   173
1070
     1
1070
   176
1070
     2
1070
   177
1070
     2
1070
   178
1070
     2
1070
   271
1070
     2
1070
   277
1070
     2
1070
   279
1070
     2
1070
   280
1070
     0
1070
   287
1070
     5
1070
   340
1005
241
1002
}
  0
DIMENSION
  5
25F
330
1F
100
AcDbEntity
  8
Ｓ_１_１
  6
CONTINUOUS
 62
     2
100
AcDbDimension
  2
*D17
 10
500.0000000000001
 20
869.9999930000004
 30
0.0
 11
478.0000000000004
 21
951.9999930000002
 31
0.0
 70
   160
  1
40
  3
ISO-25
100
AcDbAlignedDimension
 13
600.0
 23
909.9999930000004
 33
0.0
 14
600.0
 24
869.9999930000004
 34
0.0
 50
90.0
100
AcDbRotatedDimension
1001
ACAD
1000
DSTYLE
1002
{
1070
   270
1070
     2
1070
     6
1000
EX_NORM
1070
     7
1000
EX_NORM
1070
    41
1040
24.0
1070
    42
1040
12.0
1070
    44
1040
8.000000000000114
1070
    73
1070
     0
1070
    74
1070
     0
1070
    75
1070
     0
1070
    76
1070
     0
1070
    77
1070
     1
1070
    78
1070
     8
1070
   140
1040
27.70323325635104
1070
   147
1040
0.0
1070
   173
1070
     1
1070
   176
1070
     2
1070
   177
1070
     2
1070
   178
1070
     2
1070
   271
1070
     2
1070
   277
1070
     2
1070
   279
1070
     2
1070
   280
1070
     1
1070
   287
1070
     5
1070
   340
1005
241
1002
}
  0
DIMENSION
  5
26E
330
1F
100
AcDbEntity
  8
Ｓ_１_１
  6
CONTINUOUS
 62
     2
100
AcDbDimension
  2
*D18
 10
450.0
 20
542.0
 30
0.0
 11
428.0
 21
396.0
 31
0.0
 70
   160
  3
ISO-25
100
AcDbAlignedDimension
 13
700.0
 23
250.0
 33
0.0
 14
827.2
 24
542.0
 34
0.0
 50
90.0
100
AcDbRotatedDimension
1001
ACAD
1000
DSTYLE
1002
{
1070
   270
1070
     2
1070
     6
1000
EX_NORM
1070
     7
1000
EX_NORM
1070
    41
1040
24.0
1070
    42
1040
12.0
1070
    44
1040
8.0
1070
    73
1070
     0
1070
    74
1070
     0
1070
    75
1070
     0
1070
    76
1070
     0
1070
    77
1070
     1
1070
    78
1070
     8
1070
   140
1040
27.70323325635104
1070
   147
1040
0.0
1070
   173
1070
     1
1070
   176
1070
     2
1070
   177
1070
     2
1070
   178
1070
     2
1070
   271
1070
     2
1070
   277
1070
     2
1070
   279
1070
     2
1070
   280
1070
     0
1070
   287
1070
     5
1070
   340
1005
241
1002
}
  0
DIMENSION
  5
27B
330
1F
100
AcDbEntity
  8
Ｓ_１_１
  6
CONTINUOUS
 62
     2
100
AcDbDimension
  2
*D19
 10
450.0
 20
739.999993
 30
0.0
 11
428.0000000000001
 21
640.9999965
 31
0.0
 70
   160
  3
ISO-25
100
AcDbAlignedDimension
 13
827.2
 23
542.0
 33
0.0
 14
909.5
 24
739.999993
 34
0.0
 50
90.0
100
AcDbRotatedDimension
1001
ACAD
1000
DSTYLE
1002
{
1070
   270
1070
     2
1070
     6
1000
EX_NORM
1070
     7
1000
EX_NORM
1070
    41
1040
24.0
1070
    42
1040
12.0
1070
    44
1040
8.0
1070
    73
1070
     0
1070
    74
1070
     0
1070
    75
1070
     0
1070
    76
1070
     0
1070
    77
1070
     1
1070
    78
1070
     8
1070
   140
1040
27.70323325635104
1070
   147
1040
0.0
1070
   173
1070
     1
1070
   176
1070
     2
1070
   177
1070
     2
1070
   178
1070
     2
1070
   271
1070
     2
1070
   277
1070
     2
1070
   279
1070
     2
1070
   280
1070
     0
1070
   287
1070
     5
1070
   340
1005
241
1002
}
  0
DIMENSION
  5
288
330
1F
100
AcDbEntity
  8
Ｓ_１_１
  6
CONTINUOUS
 62
     2
100
AcDbDimension
  2
*D20
 10
450.0
 20
909.999993
 30
0.0
 11
428.0000000000001
 21
824.999993
 31
0.0
 70
   160
  3
ISO-25
100
AcDbAlignedDimension
 13
909.5
 23
739.999993
 33
0.0
 14
600.0
 24
909.999993
 34
0.0
 50
90.0
100
AcDbRotatedDimension
1001
ACAD
1000
DSTYLE
1002
{
1070
   270
1070
     2
1070
     6
1000
EX_NORM
1070
     7
1000
EX_NORM
1070
    41
1040
24.0
1070
    42
1040
12.0
1070
    44
1040
8.0
1070
    73
1070
     0
1070
    74
1070
     0
1070
    75
1070
     0
1070
    76
1070
     0
1070
    77
1070
     1
1070
    78
1070
     8
1070
   140
1040
27.70323325635104
1070
   147
1040
0.0
1070
   173
1070
     1
1070
   176
1070
     2
1070
   177
1070
     2
1070
   178
1070
     2
1070
   271
1070
     2
1070
   277
1070
     2
1070
   279
1070
     2
1070
   280
1070
     0
1070
   287
1070
     5
1070
   340
1005
241
1002
}
  0
DIMENSION
  5
295
330
1F
100
AcDbEntity
  8
Ｓ_１_１
  6
CONTINUOUS
 62
     2
100
AcDbDimension
  2
*D21
 10
400.0
 20
909.999993
 30
0.0
 11
378.0000000000001
 21
579.9999965
 31
0.0
 70
   160
  3
ISO-25
100
AcDbAlignedDimension
 13
700.0
 23
250.0
 33
0.0
 14
600.0
 24
909.999993
 34
0.0
 50
90.0
100
AcDbRotatedDimension
1001
ACAD
1000
DSTYLE
1002
{
1070
   270
1070
     2
1070
     6
1000
EX_NORM
1070
     7
1000
EX_NORM
1070
    41
1040
24.0
1070
    42
1040
12.0
1070
    44
1040
8.0
1070
    73
1070
     0
1070
    74
1070
     0
1070
    75
1070
     0
1070
    76
1070
     0
1070
    77
1070
     1
1070
    78
1070
     8
1070
   140
1040
27.70323325635104
1070
   147
1040
0.0
1070
   173
1070
     1
1070
   176
1070
     2
1070
   177
1070
     2
1070
   178
1070
     2
1070
   271
1070
     2
1070
   277
1070
     2
1070
   279
1070
     2
1070
   280
1070
     0
1070
   287
1070
     5
1070
   340
1005
241
1002
}
  0
DIMENSION
  5
2A2
330
1F
100
AcDbEntity
  8
Ｓ_１_１
  6
CONTINUOUS
 62
     2
100
AcDbDimension
  2
*D22
 10
500.0
 20
1640.0
 30
0.0
 11
478.0000000000001
 21
1500.0
 31
0.0
 70
   160
  3
ISO-25
100
AcDbAlignedDimension
 13
608.29170665391
 23
1360.0
 33
0.0
 14
608.29170665391
 24
1640.0
 34
0.0
 50
90.0
100
AcDbRotatedDimension
1001
ACAD
1000
DSTYLE
1002
{
1070
   270
1070
     2
1070
     6
1000
EX_NORM
1070
     7
1000
EX_NORM
1070
    41
1040
24.0
1070
    42
1040
12.0
1070
    44
1040
8.0
1070
    73
1070
     0
1070
    74
1070
     0
1070
    75
1070
     0
1070
    76
1070
     0
1070
    77
1070
     1
1070
    78
1070
     8
1070
   140
1040
27.70323325635104
1070
   147
1040
0.0
1070
   173
1070
     1
1070
   176
1070
     2
1070
   177
1070
     2
1070
   178
1070
     2
1070
   271
1070
     2
1070
   277
1070
     2
1070
   279
1070
     2
1070
   280
1070
     0
1070
   287
1070
     5
1070
   340
1005
241
1002
}
  0
DIMENSION
  5
2AF
330
1F
100
AcDbEntity
  8
Ｓ_１_１
  6
CONTINUOUS
 62
     2
100
AcDbDimension
  2
*D23
 10
450.0
 20
1325.0
 30
0.0
 11
428.0000000000001
 21
1500.0
 31
0.0
 70
   160
  3
ISO-25
100
AcDbAlignedDimension
 13
600.0000000000002
 23
1675.0
 33
0.0
 14
600.0000000000002
 24
1325.0
 34
0.0
 50
90.0
100
AcDbRotatedDimension
1001
ACAD
1000
DSTYLE
1002
{
1070
   270
1070
     2
1070
     6
1000
EX_NORM
1070
     7
1000
EX_NORM
1070
    41
1040
24.0
1070
    42
1040
12.0
1070
    44
1040
8.0
1070
    73
1070
     0
1070
    74
1070
     0
1070
    75
1070
     0
1070
    76
1070
     0
1070
    77
1070
     1
1070
    78
1070
     8
1070
   140
1040
27.70323325635104
1070
   147
1040
0.0
1070
   173
1070
     1
1070
   176
1070
     2
1070
   177
1070
     2
1070
   178
1070
     2
1070
   271
1070
     2
1070
   277
1070
     2
1070
   279
1070
     2
1070
   280
1070
     0
1070
   287
1070
     5
1070
   340
1005
241
1002
}
  0
DIMENSION
  5
2BC
330
1F
100
AcDbEntity
  8
Ｓ_１_１
  6
CONTINUOUS
 62
     2
100
AcDbDimension
  2
*D24
 10
630.0
 20
1900.0
 30
0.0
 11
558.0000000000001
 21
1922.0
 31
0.0
 70
   160
  3
ISO-25
100
AcDbAlignedDimension
 13
600.0
 23
1675.0
 33
0.0
 14
630.0
 24
1661.7082933461
 34
0.0
100
AcDbRotatedDimension
1001
ACAD
1000
DSTYLE
1002
{
1070
   270
1070
     2
1070
     6
1000
EX_NORM
1070
     7
1000
EX_NORM
1070
    41
1040
24.0
1070
    42
1040
12.0
1070
    44
1040
8.0
1070
    73
1070
     0
1070
    74
1070
     0
1070
    75
1070
     0
1070
    76
1070
     0
1070
    77
1070
     1
1070
    78
1070
     8
1070
   140
1040
27.70323325635104
1070
   147
1040
0.0
1070
   173
1070
     1
1070
   176
1070
     2
1070
   177
1070
     2
1070
   178
1070
     2
1070
   271
1070
     2
1070
   277
1070
     2
1070
   279
1070
     2
1070
   280
1070
     1
1070
   287
1070
     5
1070
   340
1005
241
1002
}
  0
DIMENSION
  5
2CB
330
1F
100
AcDbEntity
  8
Ｓ_１_１
  6
CONTINUOUS
 62
     2
100
AcDbDimension
  2
*D25
 10
800.0
 20
1900.0
 30
0.0
 11
715.0000000000001
 21
1922.0
 31
0.0
 70
   160
  3
ISO-25
100
AcDbAlignedDimension
 13
630.0
 23
1661.7082933461
 33
0.0
 14
800.0
 24
1661.7082933461
 34
0.0
100
AcDbRotatedDimension
1001
ACAD
1000
DSTYLE
1002
{
1070
   270
1070
     2
1070
     6
1000
EX_NORM
1070
     7
1000
EX_NORM
1070
    41
1040
24.0
1070
    42
1040
12.0
1070
    44
1040
8.0
1070
    73
1070
     0
1070
    74
1070
     0
1070
    75
1070
     0
1070
    76
1070
     0
1070
    77
1070
     1
1070
    78
1070
     8
1070
   140
1040
27.70323325635104
1070
   147
1040
0.0
1070
   173
1070
     1
1070
   176
1070
     2
1070
   177
1070
     2
1070
   178
1070
     2
1070
   271
1070
     2
1070
   277
1070
     2
1070
   279
1070
     2
1070
   280
1070
     0
1070
   287
1070
     5
1070
   340
1005
241
1002
}
  0
DIMENSION
  5
2D8
330
1F
100
AcDbEntity
  8
Ｓ_１_１
  6
CONTINUOUS
 62
     2
100
AcDbDimension
  2
*D26
 10
1200.0
 20
1900.0
 30
0.0
 11
1000.0
 21
1922.0
 31
0.0
 70
   160
  3
ISO-25
100
AcDbAlignedDimension
 13
800.0
 23
1661.7082933461
 33
0.0
 14
1200.0
 24
1661.7082933461
 34
0.0
100
AcDbRotatedDimension
1001
ACAD
1000
DSTYLE
1002
{
1070
   270
1070
     2
1070
     6
1000
EX_NORM
1070
     7
1000
EX_NORM
1070
    41
1040
24.0
1070
    42
1040
12.0
1070
    44
1040
8.0
1070
    73
1070
     0
1070
    74
1070
     0
1070
    75
1070
     0
1070
    76
1070
     0
1070
    77
1070
     1
1070
    78
1070
     8
1070
   140
1040
27.70323325635104
1070
   147
1040
0.0
1070
   173
1070
     1
1070
   176
1070
     2
1070
   177
1070
     2
1070
   178
1070
     2
1070
   271
1070
     2
1070
   277
1070
     2
1070
   279
1070
     2
1070
   280
1070
     0
1070
   287
1070
     5
1070
   340
1005
241
1002
}
  0
DIMENSION
  5
2E5
330
1F
100
AcDbEntity
  8
Ｓ_１_１
  6
CONTINUOUS
 62
     2
100
AcDbDimension
  2
*D27
 10
1370.0
 20
1900.0
 30
0.0
 11
1285.0
 21
1922.0
 31
0.0
 70
   160
  3
ISO-25
100
AcDbAlignedDimension
 13
1200.0
 23
1661.7082933461
 33
0.0
 14
1370.0
 24
1661.7082933461
 34
0.0
100
AcDbRotatedDimension
1001
ACAD
1000
DSTYLE
1002
{
1070
   270
1070
     2
1070
     6
1000
EX_NORM
1070
     7
1000
EX_NORM
1070
    41
1040
24.0
1070
    42
1040
12.0
1070
    44
1040
8.0
1070
    73
1070
     0
1070
    74
1070
     0
1070
    75
1070
     0
1070
    76
1070
     0
1070
    77
1070
     1
1070
    78
1070
     8
1070
   140
1040
27.70323325635104
1070
   147
1040
0.0
1070
   173
1070
     1
1070
   176
1070
     2
1070
   177
1070
     2
1070
   178
1070
     2
1070
   271
1070
     2
1070
   277
1070
     2
1070
   279
1070
     2
1070
   280
1070
     0
1070
   287
1070
     5
1070
   340
1005
241
1002
}
  0
DIMENSION
  5
2F2
330
1F
100
AcDbEntity
  8
Ｓ_１_１
  6
CONTINUOUS
 62
     2
100
AcDbDimension
  2
*D28
 10
1400.0
 20
1900.0
 30
0.0
 11
1442.0
 21
1922.0
 31
0.0
 70
   160
  3
ISO-25
100
AcDbAlignedDimension
 13
1370.0
 23
1661.7082933461
 33
0.0
 14
1400.0
 24
1675.0
 34
0.0
100
AcDbRotatedDimension
1001
ACAD
1000
DSTYLE
1002
{
1070
   270
1070
     2
1070
     6
1000
EX_NORM
1070
     7
1000
EX_NORM
1070
    41
1040
24.0
1070
    42
1040
12.0
1070
    44
1040
8.0
1070
    73
1070
     0
1070
    74
1070
     0
1070
    75
1070
     0
1070
    76
1070
     0
1070
    77
1070
     1
1070
    78
1070
     8
1070
   140
1040
27.70323325635104
1070
   147
1040
0.0
1070
   173
1070
     1
1070
   176
1070
     2
1070
   177
1070
     2
1070
   178
1070
     2
1070
   271
1070
     2
1070
   277
1070
     2
1070
   279
1070
     2
1070
   280
1070
     2
1070
   287
1070
     5
1070
   340
1005
241
1002
}
  0
DIMENSION
  5
301
330
1F
100
AcDbEntity
  8
Ｓ_１_１
  6
CONTINUOUS
 62
     2
100
AcDbDimension
  2
*D29
 10
1400.0
 20
1950.0
 30
0.0
 11
1000.0
 21
1972.0
 31
0.0
 70
   160
  3
ISO-25
100
AcDbAlignedDimension
 13
600.0000000000002
 23
1675.0
 33
0.0
 14
1400.0
 24
1675.0
 34
0.0
100
AcDbRotatedDimension
1001
ACAD
1000
DSTYLE
1002
{
1070
   270
1070
     2
1070
     6
1000
EX_NORM
1070
     7
1000
EX_NORM
1070
    41
1040
24.0
1070
    42
1040
12.0
1070
    44
1040
8.0
1070
    73
1070
     0
1070
    74
1070
     0
1070
    75
1070
     0
1070
    76
1070
     0
1070
    77
1070
     1
1070
    78
1070
     8
1070
   140
1040
27.70323325635104
1070
   147
1040
0.0
1070
   173
1070
     1
1070
   176
1070
     2
1070
   177
1070
     2
1070
   178
1070
     2
1070
   271
1070
     2
1070
   277
1070
     2
1070
   279
1070
     2
1070
   280
1070
     0
1070
   287
1070
     5
1070
   340
1005
241
1002
}
  0
DIMENSION
  5
30E
330
1F
100
AcDbEntity
  8
Ｓ_１_１
  6
CONTINUOUS
 62
     2
100
AcDbDimension
  2
*D30
 10
1700.0
 20
1750.0
 30
0.0
 11
1678.0
 21
1625.0
 31
0.0
 70
   160
  3
ISO-25
100
AcDbAlignedDimension
 13
1782.599988
 23
1500.0
 33
0.0
 14
1825.799988
 24
1750.0
 34
0.0
 50
90.0
100
AcDbRotatedDimension
1001
ACAD
1000
DSTYLE
1002
{
1070
   270
1070
     2
1070
     6
1000
EX_NORM
1070
     7
1000
EX_NORM
1070
    41
1040
24.0
1070
    42
1040
12.0
1070
    44
1040
8.0
1070
    73
1070
     0
1070
    74
1070
     0
1070
    75
1070
     0
1070
    76
1070
     0
1070
    77
1070
     1
1070
    78
1070
     8
1070
   140
1040
27.70323325635104
1070
   147
1040
0.0
1070
   173
1070
     1
1070
   176
1070
     2
1070
   177
1070
     2
1070
   178
1070
     2
1070
   271
1070
     2
1070
   277
1070
     2
1070
   279
1070
     2
1070
   280
1070
     0
1070
   287
1070
     5
1070
   340
1005
241
1002
}
  0
DIMENSION
  5
31B
330
1F
100
AcDbEntity
  8
Ｓ_１_１
  6
CONTINUOUS
 62
     2
100
AcDbDimension
  2
*D31
 10
1700.0
 20
1250.0
 30
0.0
 11
1678.0
 21
1375.0
 31
0.0
 70
   160
  3
ISO-25
100
AcDbAlignedDimension
 13
1782.599988
 23
1500.0
 33
0.0
 14
1825.799988
 24
1250.0
 34
0.0
 50
90.0
100
AcDbRotatedDimension
1001
ACAD
1000
DSTYLE
1002
{
1070
   270
1070
     2
1070
     6
1000
EX_NORM
1070
     7
1000
EX_NORM
1070
    41
1040
24.0
1070
    42
1040
12.0
1070
    44
1040
8.0
1070
    73
1070
     0
1070
    74
1070
     0
1070
    75
1070
     0
1070
    76
1070
     0
1070
    77
1070
     1
1070
    78
1070
     8
1070
   140
1040
27.70323325635104
1070
   147
1040
0.0
1070
   173
1070
     1
1070
   176
1070
     2
1070
   177
1070
     2
1070
   178
1070
     2
1070
   271
1070
     2
1070
   277
1070
     2
1070
   279
1070
     2
1070
   280
1070
     0
1070
   287
1070
     5
1070
   340
1005
241
1002
}
  0
DIMENSION
  5
328
330
1F
100
AcDbEntity
  8
Ｓ_１_１
  6
CONTINUOUS
 62
     2
100
AcDbDimension
  2
*D32
 10
1700.0
 20
1200.0
 30
0.0
 11
1678.0
 21
1158.0
 31
0.0
 70
   160
  3
ISO-25
100
AcDbAlignedDimension
 13
1825.799988
 23
1250.0
 33
0.0
 14
1820.0
 24
1200.0
 34
0.0
 50
90.0
100
AcDbRotatedDimension
1001
ACAD
1000
DSTYLE
1002
{
1070
   270
1070
     2
1070
     6
1000
EX_NORM
1070
     7
1000
EX_NORM
1070
    41
1040
24.0
1070
    42
1040
12.0
1070
    44
1040
8.0
1070
    73
1070
     0
1070
    74
1070
     0
1070
    75
1070
     0
1070
    76
1070
     0
1070
    77
1070
     1
1070
    78
1070
     8
1070
   140
1040
27.70323325635104
1070
   147
1040
0.0
1070
   173
1070
     1
1070
   176
1070
     2
1070
   177
1070
     2
1070
   178
1070
     2
1070
   271
1070
     2
1070
   277
1070
     2
1070
   279
1070
     2
1070
   280
1070
     2
1070
   287
1070
     5
1070
   340
1005
241
1002
}
  0
DIMENSION
  5
335
330
1F
100
AcDbEntity
  8
Ｓ_１_１
  6
CONTINUOUS
 62
     2
100
AcDbDimension
  2
*D33
 10
1700.0
 20
1800.0
 30
0.0
 11
1678.0
 21
1842.0
 31
0.0
 70
   160
  3
ISO-25
100
AcDbAlignedDimension
 13
1825.799988
 23
1750.0
 33
0.0
 14
1820.0
 24
1800.0
 34
0.0
 50
90.0
100
AcDbRotatedDimension
1001
ACAD
1000
DSTYLE
1002
{
1070
   270
1070
     2
1070
     6
1000
EX_NORM
1070
     7
1000
EX_NORM
1070
    41
1040
24.0
1070
    42
1040
12.0
1070
    44
1040
8.0
1070
    73
1070
     0
1070
    74
1070
     0
1070
    75
1070
     0
1070
    76
1070
     0
1070
    77
1070
     1
1070
    78
1070
     8
1070
   140
1040
27.70323325635104
1070
   147
1040
0.0
1070
   173
1070
     1
1070
   176
1070
     2
1070
   177
1070
     2
1070
   178
1070
     2
1070
   271
1070
     2
1070
   277
1070
     2
1070
   279
1070
     2
1070
   280
1070
     2
1070
   287
1070
     5
1070
   340
1005
241
1002
}
  0
DIMENSION
  5
342
330
1F
100
AcDbEntity
  8
Ｓ_１_１
  6
CONTINUOUS
 62
     2
100
AcDbDimension
  2
*D34
 10
1650.0
 20
1200.0
 30
0.0
 11
1628.0
 21
1500.0
 31
0.0
 70
   160
  3
ISO-25
100
AcDbAlignedDimension
 13
1820.0
 23
1800.0
 33
0.0
 14
1820.0
 24
1200.0
 34
0.0
 50
90.0
100
AcDbRotatedDimension
1001
ACAD
1000
DSTYLE
1002
{
1070
   270
1070
     2
1070
     6
1000
EX_NORM
1070
     7
1000
EX_NORM
1070
    41
1040
24.0
1070
    42
1040
12.0
1070
    44
1040
8.0
1070
    73
1070
     0
1070
    74
1070
     0
1070
    75
1070
     0
1070
    76
1070
     0
1070
    77
1070
     1
1070
    78
1070
     8
1070
   140
1040
27.70323325635104
1070
   147
1040
0.0
1070
   173
1070
     1
1070
   176
1070
     2
1070
   177
1070
     2
1070
   178
1070
     2
1070
   271
1070
     2
1070
   277
1070
     2
1070
   279
1070
     2
1070
   280
1070
     0
1070
   287
1070
     5
1070
   340
1005
241
1002
}
  0
DIMENSION
  5
34F
330
1F
100
AcDbEntity
  8
Ｓ_１_１
  6
CONTINUOUS
 62
     2
100
AcDbDimension
  2
*D35
 10
2100.0
 20
1900.0
 30
0.0
 11
1975.0
 21
1922.0
 31
0.0
 70
   160
  3
ISO-25
100
AcDbAlignedDimension
 13
1850.0
 23
1774.4
 33
0.0
 14
2100.0
 24
1815.2
 34
0.0
100
AcDbRotatedDimension
1001
ACAD
1000
DSTYLE
1002
{
1070
   270
1070
     2
1070
     6
1000
EX_NORM
1070
     7
1000
EX_NORM
1070
    41
1040
24.0
1070
    42
1040
12.0
1070
    44
1040
8.0
1070
    73
1070
     0
1070
    74
1070
     0
1070
    75
1070
     0
1070
    76
1070
     0
1070
    77
1070
     1
1070
    78
1070
     8
1070
   140
1040
27.70323325635104
1070
   147
1040
0.0
1070
   173
1070
     1
1070
   176
1070
     2
1070
   177
1070
     2
1070
   178
1070
     2
1070
   271
1070
     2
1070
   277
1070
     2
1070
   279
1070
     2
1070
   280
1070
     0
1070
   287
1070
     5
1070
   340
1005
241
1002
}
  0
DIMENSION
  5
35C
330
1F
100
AcDbEntity
  8
Ｓ_１_１
  6
CONTINUOUS
 62
     2
100
AcDbDimension
  2
*D36
 10
2350.0
 20
1900.0
 30
0.0
 11
2225.0
 21
1922.0
 31
0.0
 70
   160
  3
ISO-25
100
AcDbAlignedDimension
 13
2100.0
 23
1815.2
 33
0.0
 14
2350.0
 24
1774.4
 34
0.0
100
AcDbRotatedDimension
1001
ACAD
1000
DSTYLE
1002
{
1070
   270
1070
     2
1070
     6
1000
EX_NORM
1070
     7
1000
EX_NORM
1070
    41
1040
24.0
1070
    42
1040
12.0
1070
    44
1040
8.0
1070
    73
1070
     0
1070
    74
1070
     0
1070
    75
1070
     0
1070
    76
1070
     0
1070
    77
1070
     1
1070
    78
1070
     8
1070
   140
1040
27.70323325635104
1070
   147
1040
0.0
1070
   173
1070
     1
1070
   176
1070
     2
1070
   177
1070
     2
1070
   178
1070
     2
1070
   271
1070
     2
1070
   277
1070
     2
1070
   279
1070
     2
1070
   280
1070
     0
1070
   287
1070
     5
1070
   340
1005
241
1002
}
  0
DIMENSION
  5
369
330
1F
100
AcDbEntity
  8
Ｓ_１_１
  6
CONTINUOUS
 62
     2
100
AcDbDimension
  2
*D37
 10
1800.0
 20
1900.0
 30
0.0
 11
1758.000000000001
 21
1922.0
 31
0.0
 70
   160
  3
ISO-25
100
AcDbAlignedDimension
 13
1850.0
 23
1774.4
 33
0.0
 14
1800.0
 24
1780.0
 34
0.0
100
AcDbRotatedDimension
1001
ACAD
1000
DSTYLE
1002
{
1070
   270
1070
     2
1070
     6
1000
EX_NORM
1070
     7
1000
EX_NORM
1070
    41
1040
24.0
1070
    42
1040
12.0
1070
    44
1040
8.0
1070
    73
1070
     0
1070
    74
1070
     0
1070
    75
1070
     0
1070
    76
1070
     0
1070
    77
1070
     1
1070
    78
1070
     8
1070
   140
1040
27.70323325635104
1070
   147
1040
0.0
1070
   173
1070
     1
1070
   176
1070
     2
1070
   177
1070
     2
1070
   178
1070
     2
1070
   271
1070
     2
1070
   277
1070
     2
1070
   279
1070
     2
1070
   280
1070
     2
1070
   287
1070
     5
1070
   340
1005
241
1002
}
  0
DIMENSION
  5
376
330
1F
100
AcDbEntity
  8
Ｓ_１_１
  6
CONTINUOUS
 62
     2
100
AcDbDimension
  2
*D38
 10
2400.0
 20
1900.0
 30
0.0
 11
2442.0
 21
1922.0
 31
0.0
 70
   160
  3
ISO-25
100
AcDbAlignedDimension
 13
2350.0
 23
1774.4
 33
0.0
 14
2400.0
 24
1780.0
 34
0.0
100
AcDbRotatedDimension
1001
ACAD
1000
DSTYLE
1002
{
1070
   270
1070
     2
1070
     6
1000
EX_NORM
1070
     7
1000
EX_NORM
1070
    41
1040
24.0
1070
    42
1040
12.0
1070
    44
1040
8.0
1070
    73
1070
     0
1070
    74
1070
     0
1070
    75
1070
     0
1070
    76
1070
     0
1070
    77
1070
     1
1070
    78
1070
     8
1070
   140
1040
27.70323325635104
1070
   147
1040
0.0
1070
   173
1070
     1
1070
   176
1070
     2
1070
   177
1070
     2
1070
   178
1070
     2
1070
   271
1070
     2
1070
   277
1070
     2
1070
   279
1070
     2
1070
   280
1070
     2
1070
   287
1070
     5
1070
   340
1005
241
1002
}
  0
DIMENSION
  5
383
330
1F
100
AcDbEntity
  8
Ｓ_１_１
  6
CONTINUOUS
 62
     2
100
AcDbDimension
  2
*D39
 10
2400.0
 20
1950.0
 30
0.0
 11
2100.0
 21
1972.0
 31
0.0
 70
   160
  3
ISO-25
100
AcDbAlignedDimension
 13
1800.0
 23
1780.0
 33
0.0
 14
2400.0
 24
1780.0
 34
0.0
100
AcDbRotatedDimension
1001
ACAD
1000
DSTYLE
1002
{
1070
   270
1070
     2
1070
     6
1000
EX_NORM
1070
     7
1000
EX_NORM
1070
    41
1040
24.0
1070
    42
1040
12.0
1070
    44
1040
8.0
1070
    73
1070
     0
1070
    74
1070
     0
1070
    75
1070
     0
1070
    76
1070
     0
1070
    77
1070
     1
1070
    78
1070
     8
1070
   140
1040
27.70323325635104
1070
   147
1040
0.0
1070
   173
1070
     1
1070
   176
1070
     2
1070
   177
1070
     2
1070
   178
1070
     2
1070
   271
1070
     2
1070
   277
1070
     2
1070
   279
1070
     2
1070
   280
1070
     0
1070
   287
1070
     5
1070
   340
1005
241
1002
}
  0
DIMENSION
  5
390
330
1F
100
AcDbEntity
  8
Ｓ_１_１
  6
CONTINUOUS
 62
     2
100
AcDbDimension
  2
*D40
 10
2295.0
 20
1000.0
 30
0.0
 11
2100.0
 21
1022.0
 31
0.0
 70
   160
  3
ISO-25
100
AcDbAlignedDimension
 13
1905.0
 23
860.0000670001
 33
0.0
 14
2295.0
 24
860.0000670001
 34
0.0
100
AcDbRotatedDimension
1001
ACAD
1000
DSTYLE
1002
{
1070
   270
1070
     2
1070
     6
1000
EX_NORM
1070
     7
1000
EX_NORM
1070
    41
1040
24.0
1070
    42
1040
12.0
1070
    44
1040
8.0
1070
    73
1070
     0
1070
    74
1070
     0
1070
    75
1070
     0
1070
    76
1070
     0
1070
    77
1070
     1
1070
    78
1070
     8
1070
   140
1040
27.70323325635104
1070
   147
1040
0.0
1070
   173
1070
     1
1070
   176
1070
     2
1070
   177
1070
     2
1070
   178
1070
     2
1070
   271
1070
     2
1070
   277
1070
     2
1070
   279
1070
     2
1070
   280
1070
     0
1070
   287
1070
     5
1070
   340
1005
241
1002
}
  0
DIMENSION
  5
39D
330
1F
100
AcDbEntity
  8
Ｓ_１_１
  6
CONTINUOUS
 62
     2
100
AcDbDimension
  2
*D41
 10
2330.0
 20
1050.0
 30
0.0
 11
2100.0
 21
1072.0
 31
0.0
 70
   160
  3
ISO-25
100
AcDbAlignedDimension
 13
1870.0
 23
855.0000670001
 33
0.0
 14
2330.0
 24
855.0000670001
 34
0.0
100
AcDbRotatedDimension
1001
ACAD
1000
DSTYLE
1002
{
1070
   270
1070
     2
1070
     6
1000
EX_NORM
1070
     7
1000
EX_NORM
1070
    41
1040
24.0
1070
    42
1040
12.0
1070
    44
1040
8.0
1070
    73
1070
     0
1070
    74
1070
     0
1070
    75
1070
     0
1070
    76
1070
     0
1070
    77
1070
     1
1070
    78
1070
     8
1070
   140
1040
27.70323325635104
1070
   147
1040
0.0
1070
   173
1070
     1
1070
   176
1070
     2
1070
   177
1070
     2
1070
   178
1070
     2
1070
   271
1070
     2
1070
   277
1070
     2
1070
   279
1070
     2
1070
   280
1070
     0
1070
   287
1070
     5
1070
   340
1005
241
1002
}
  0
LINE
  5
3AA
330
1F
100
AcDbEntity
  8
Ｓ_１_１
  6
CONTINUOUS
 62
     3
100
AcDbLine
 10
882.472671904765
 20
1237.168938002345
 30
0.0
 11
897.2547444249432
 21
1231.0460030845
 31
0.0
  0
LINE
  5
3AB
330
1F
100
AcDbEntity
  8
Ｓ_１_１
  6
CONTINUOUS
 62
     3
100
AcDbLine
 10
1117.527328095235
 20
1237.168938002345
 30
0.0
 11
1102.745255575057
 21
1231.0460030845
 31
0.0
  0
LINE
  5
3AC
330
1F
100
AcDbEntity
  8
Ｓ_１_１
  6
CONTINUOUS
 62
     3
100
AcDbLine
 10
882.4726719047632
 20
1762.831061997656
 30
0.0
 11
897.2547444249414
 21
1768.953996915501
 31
0.0
  0
LINE
  5
3AD
330
1F
100
AcDbEntity
  8
Ｓ_１_１
  6
CONTINUOUS
 62
     3
100
AcDbLine
 10
1117.527328095235
 20
1762.831061997656
 30
0.0
 11
1102.745255575057
 21
1768.953996915501
 31
0.0
  0
LINE
  5
3AE
330
1F
100
AcDbEntity
  8
Ｓ_１_１
  6
CONTINUOUS
 62
     3
100
AcDbLine
 10
720.0000000000001
 20
1200.0
 30
0.0
 11
700.0000000000001
 21
1220.0
 31
0.0
  0
LINE
  5
3AF
330
1F
100
AcDbEntity
  8
Ｓ_１_１
  6
CONTINUOUS
 62
     3
100
AcDbLine
 10
720.0000000000001
 20
1200.0
 30
0.0
 11
1280.0
 21
1200.0
 31
0.0
  0
LINE
  5
3B0
330
1F
100
AcDbEntity
  8
Ｓ_１_１
  6
CONTINUOUS
 62
     3
100
AcDbLine
 10
1280.0
 20
1200.0
 30
0.0
 11
1300.0
 21
1220.0
 31
0.0
  0
LINE
  5
3B1
330
1F
100
AcDbEntity
  8
Ｓ_１_１
  6
CONTINUOUS
 62
     3
100
AcDbLine
 10
1280.0
 20
1800.0
 30
0.0
 11
1300.0
 21
1780.0
 31
0.0
  0
LINE
  5
3B2
330
1F
100
AcDbEntity
  8
Ｓ_１_１
  6
CONTINUOUS
 62
     3
100
AcDbLine
 10
1280.0
 20
1800.0
 30
0.0
 11
720.0000000000001
 21
1800.0
 31
0.0
  0
LINE
  5
3B3
330
1F
100
AcDbEntity
  8
Ｓ_１_１
  6
CONTINUOUS
 62
     3
100
AcDbLine
 10
700.0000000000001
 20
1780.0
 30
0.0
 11
720.0000000000001
 21
1800.0
 31
0.0
  0
CIRCLE
  5
3B4
330
1F
100
AcDbEntity
  8
Ｓ_１_１
  6
CONTINUOUS
 62
     3
100
AcDbCircle
 10
1000.0
 20
1250.0
 30
0.0
 40
13.0
  0
CIRCLE
  5
3B5
330
1F
100
AcDbEntity
  8
Ｓ_１_１
  6
CONTINUOUS
 62
     3
100
AcDbCircle
 10
1250.0
 20
1250.0
 30
0.0
 40
13.0
  0
CIRCLE
  5
3B6
330
1F
100
AcDbEntity
  8
Ｓ_１_１
  6
CONTINUOUS
 62
     3
100
AcDbCircle
 10
750.0000000000001
 20
1250.0
 30
0.0
 40
13.0
  0
CIRCLE
  5
3B7
330
1F
100
AcDbEntity
  8
Ｓ_１_１
  6
CONTINUOUS
 62
     3
100
AcDbCircle
 10
1250.0
 20
1750.0
 30
0.0
 40
13.0
  0
CIRCLE
  5
3B8
330
1F
100
AcDbEntity
  8
Ｓ_１_１
  6
CONTINUOUS
 62
     3
100
AcDbCircle
 10
1000.0
 20
1750.0
 30
0.0
 40
13.0
  0
CIRCLE
  5
3B9
330
1F
100
AcDbEntity
  8
Ｓ_１_１
  6
CONTINUOUS
 62
     3
100
AcDbCircle
 10
750.0000000000001
 20
1750.0
 30
0.0
 40
13.0
  0
LINE
  5
3BA
330
1F
100
AcDbEntity
  8
Ｓ_１_１
  6
CONTINUOUS
 62
     3
100
AcDbLine
 10
1121.354162418889
 20
1227.930142677233
 30
0.0
 11
1106.572089898711
 21
1221.807207759388
 31
0.0
  0
LINE
  5
3BB
330
1F
100
AcDbEntity
  8
Ｓ_１_１
  6
CONTINUOUS
 62
     3
100
AcDbLine
 10
878.645837581109
 20
1227.930142677233
 30
0.0
 11
893.4279101012872
 21
1221.807207759388
 31
0.0
  0
LINE
  5
3BC
330
1F
100
AcDbEntity
  8
Ｓ_１_１
  6
CONTINUOUS
 62
     3
100
AcDbLine
 10
1121.354162418887
 20
1772.069857322767
 30
0.0
 11
1106.572089898709
 21
1778.192792240612
 31
0.0
  0
LINE
  5
3BD
330
1F
100
AcDbEntity
  8
Ｓ_１_１
  6
CONTINUOUS
 62
     3
100
AcDbLine
 10
878.645837581109
 20
1772.069857322767
 30
0.0
 11
893.4279101012872
 21
1778.192792240612
 31
0.0
  0
LINE
  5
3BE
330
1F
100
AcDbEntity
  8
Ｓ_１_１
  6
CONTINUOUS
 62
     3
100
AcDbLine
 10
878.645837581109
 20
1227.930142677234
 30
0.0
 11
918.8534889818694
 21
1325.00000000004
 31
0.0
  0
LINE
  5
3BF
330
1F
100
AcDbEntity
  8
Ｓ_１_１
  6
CONTINUOUS
 62
     3
100
AcDbLine
 10
893.4279101012872
 20
1221.807207759389
 30
0.0
 11
936.1717641865472
 21
1325.00000000004
 31
0.0
  0
LINE
  5
3C0
330
1F
100
AcDbEntity
  8
Ｓ_１_１
  6
CONTINUOUS
 62
     3
100
AcDbLine
 10
1106.572089898711
 20
1221.807207759389
 30
0.0
 11
1063.828235813451
 21
1325.00000000004
 31
0.0
  0
LINE
  5
3C1
330
1F
100
AcDbEntity
  8
Ｓ_１_１
  6
CONTINUOUS
 62
     3
100
AcDbLine
 10
1121.354162418889
 20
1227.930142677234
 30
0.0
 11
1081.146511018131
 21
1325.00000000004
 31
0.0
  0
LINE
  5
3C2
330
1F
100
AcDbEntity
  8
Ｓ_１_１
  6
CONTINUOUS
 62
     3
100
AcDbLine
 10
878.645837581109
 20
1772.069857322767
 30
0.0
 11
918.8534889818367
 21
1675.000000000041
 31
0.0
  0
LINE
  5
3C3
330
1F
100
AcDbEntity
  8
Ｓ_１_１
  6
CONTINUOUS
 62
     3
100
AcDbLine
 10
893.4279101012872
 20
1778.192792240612
 30
0.0
 11
936.1717641865145
 21
1675.000000000041
 31
0.0
  0
LINE
  5
3C4
330
1F
100
AcDbEntity
  8
Ｓ_１_１
  6
CONTINUOUS
 62
     3
100
AcDbLine
 10
1106.572089898709
 20
1778.192792240612
 30
0.0
 11
1063.828235813486
 21
1675.000000000041
 31
0.0
  0
LINE
  5
3C5
330
1F
100
AcDbEntity
  8
Ｓ_１_１
  6
CONTINUOUS
 62
     3
100
AcDbLine
 10
1121.354162418887
 20
1772.069857322767
 30
0.0
 11
1081.146511018163
 21
1675.000000000041
 31
0.0
  0
LINE
  5
3C6
330
1F
100
AcDbEntity
  8
Ｓ_１_１
  6
CONTINUOUS
 62
     3
100
AcDbLine
 10
700.0000000000001
 20
1780.0
 30
0.0
 11
700.0000000000001
 21
1675.000000000041
 31
0.0
  0
LINE
  5
3C7
330
1F
100
AcDbEntity
  8
Ｓ_１_１
  6
CONTINUOUS
 62
     3
100
AcDbLine
 10
1300.0
 20
1780.0
 30
0.0
 11
1300.0
 21
1675.000000000041
 31
0.0
  0
LINE
  5
3C8
330
1F
100
AcDbEntity
  8
Ｓ_１_１
  6
CONTINUOUS
 62
     3
100
AcDbLine
 10
700.0000000000001
 20
1220.0
 30
0.0
 11
700.0000000000001
 21
1325.00000000004
 31
0.0
  0
LINE
  5
3C9
330
1F
100
AcDbEntity
  8
Ｓ_１_１
  6
CONTINUOUS
 62
     3
100
AcDbLine
 10
1300.0
 20
1220.0
 30
0.0
 11
1300.0
 21
1325.00000000004
 31
0.0
  0
LINE
  5
3CA
330
1F
100
AcDbEntity
  8
Ｓ_１_１
  6
CONTINUOUS
 62
     3
100
AcDbLine
 10
600.0000000000001
 20
1325.0
 30
0.0
 11
1400.0
 21
1325.000000000001
 31
0.0
  0
LINE
  5
3CB
330
1F
100
AcDbEntity
  8
Ｓ_１_１
  6
CONTINUOUS
 62
     3
100
AcDbLine
 10
1400.0
 20
1675.0
 30
0.0
 11
1400.0
 21
1325.0
 31
0.0
  0
LINE
  5
3CC
330
1F
100
AcDbEntity
  8
Ｓ_１_１
  6
CONTINUOUS
 62
     3
100
AcDbLine
 10
600.0000000000001
 20
1675.0
 30
0.0
 11
1400.0
 21
1675.0
 31
0.0
  0
LINE
  5
3CD
330
1F
100
AcDbEntity
  8
Ｓ_１_１
  6
CONTINUOUS
 62
     3
100
AcDbLine
 10
600.0000000000001
 20
1675.0
 30
0.0
 11
600.0000000000001
 21
1325.0
 31
0.0
  0
CIRCLE
  5
3CE
330
1F
100
AcDbEntity
  8
Ｓ_１_１
  6
CONTINUOUS
 62
     3
100
AcDbCircle
 10
1200.0
 20
1640.0
 30
0.0
 40
12.5
  0
CIRCLE
  5
3CF
330
1F
100
AcDbEntity
  8
Ｓ_１_１
  6
CONTINUOUS
 62
     3
100
AcDbCircle
 10
1370.0
 20
1640.0
 30
0.0
 40
12.5
  0
CIRCLE
  5
3D0
330
1F
100
AcDbEntity
  8
Ｓ_１_１
  6
CONTINUOUS
 62
     3
100
AcDbCircle
 10
1200.0
 20
1360.000000000001
 30
0.0
 40
12.5
  0
CIRCLE
  5
3D1
330
1F
100
AcDbEntity
  8
Ｓ_１_１
  6
CONTINUOUS
 62
     3
100
AcDbCircle
 10
1370.0
 20
1360.000000000001
 30
0.0
 40
12.5
  0
CIRCLE
  5
3D2
330
1F
100
AcDbEntity
  8
Ｓ_１_１
  6
CONTINUOUS
 62
     3
100
AcDbCircle
 10
800.0000000000001
 20
1640.000000000001
 30
0.0
 40
12.5
  0
CIRCLE
  5
3D3
330
1F
100
AcDbEntity
  8
Ｓ_１_１
  6
CONTINUOUS
 62
     3
100
AcDbCircle
 10
630.0000000000001
 20
1640.000000000001
 30
0.0
 40
12.5
  0
CIRCLE
  5
3D4
330
1F
100
AcDbEntity
  8
Ｓ_１_１
  6
CONTINUOUS
 62
     3
100
AcDbCircle
 10
800.0000000000001
 20
1360.000000000001
 30
0.0
 40
12.5
  0
CIRCLE
  5
3D5
330
1F
100
AcDbEntity
  8
Ｓ_１_１
  6
CONTINUOUS
 62
     3
100
AcDbCircle
 10
630.0000000000001
 20
1360.000000000001
 30
0.0
 40
12.5
  0
LINE
  5
3D6
330
1F
100
AcDbEntity
  8
Ｓ_１_１
  6
CONTINUOUS
 62
     3
100
AcDbLine
 10
652.5000000000001
 20
1675.0
 30
0.0
 11
652.5000000000001
 21
1652.5
 31
0.0
  0
LINE
  5
3D7
330
1F
100
AcDbEntity
  8
Ｓ_１_１
  6
CONTINUOUS
 62
     3
100
AcDbLine
 10
600.0000000000001
 20
1652.5
 30
0.0
 11
647.5000000000001
 21
1652.5
 31
0.0
  0
LINE
  5
3D8
330
1F
100
AcDbEntity
  8
Ｓ_１_１
  6
CONTINUOUS
 62
     3
100
AcDbLine
 10
647.5000000000001
 20
1675.0
 30
0.0
 11
647.5000000000001
 21
1652.5
 31
0.0
  0
LINE
  5
3D9
330
1F
100
AcDbEntity
  8
Ｓ_１_１
  6
CONTINUOUS
 62
     3
100
AcDbLine
 10
640.0000000000001
 20
1647.5
 30
0.0
 11
647.5000000000001
 21
1647.500000000001
 31
0.0
  0
LINE
  5
3DA
330
1F
100
AcDbEntity
  8
Ｓ_１_１
  6
CONTINUOUS
 62
     3
100
AcDbLine
 10
600.0000000000001
 20
1647.5
 30
0.0
 11
620.0000000000001
 21
1647.5
 31
0.0
  0
LINE
  5
3DB
330
1F
100
AcDbEntity
  8
Ｓ_１_１
  6
CONTINUOUS
 62
     3
100
AcDbLine
 10
652.5000000000001
 20
1647.500000000001
 30
0.0
 11
747.5000000000001
 21
1647.500000000001
 31
0.0
  0
LINE
  5
3DC
330
1F
100
AcDbEntity
  8
Ｓ_１_１
  6
CONTINUOUS
 62
     3
100
AcDbLine
 10
747.5000000000001
 20
1675.0
 30
0.0
 11
747.5000000000001
 21
1652.5
 31
0.0
  0
LINE
  5
3DD
330
1F
100
AcDbEntity
  8
Ｓ_１_１
  6
CONTINUOUS
 62
     3
100
AcDbLine
 10
652.5000000000001
 20
1652.5
 30
0.0
 11
747.5000000000001
 21
1652.5
 31
0.0
  0
LINE
  5
3DE
330
1F
100
AcDbEntity
  8
Ｓ_１_１
  6
CONTINUOUS
 62
     3
100
AcDbLine
 10
752.5000000000001
 20
1675.0
 30
0.0
 11
752.5000000000001
 21
1652.5
 31
0.0
  0
LINE
  5
3DF
330
1F
100
AcDbEntity
  8
Ｓ_１_１
  6
CONTINUOUS
 62
     3
100
AcDbLine
 10
752.5000000000001
 20
1647.500000000001
 30
0.0
 11
790.0000000000001
 21
1647.500000000001
 31
0.0
  0
LINE
  5
3E0
330
1F
100
AcDbEntity
  8
Ｓ_１_１
  6
CONTINUOUS
 62
     3
100
AcDbLine
 10
810.0000000000001
 20
1647.500000000001
 30
0.0
 11
847.5000000000001
 21
1647.500000000001
 31
0.0
  0
LINE
  5
3E1
330
1F
100
AcDbEntity
  8
Ｓ_１_１
  6
CONTINUOUS
 62
     3
100
AcDbLine
 10
847.5000000000001
 20
1675.0
 30
0.0
 11
847.5000000000001
 21
1652.5
 31
0.0
  0
LINE
  5
3E2
330
1F
100
AcDbEntity
  8
Ｓ_１_１
  6
CONTINUOUS
 62
     3
100
AcDbLine
 10
752.5000000000001
 20
1652.5
 30
0.0
 11
847.5000000000001
 21
1652.5
 31
0.0
  0
LINE
  5
3E3
330
1F
100
AcDbEntity
  8
Ｓ_１_１
  6
CONTINUOUS
 62
     3
100
AcDbLine
 10
852.5000000000001
 20
1675.0
 30
0.0
 11
852.5000000000001
 21
1652.5
 31
0.0
  0
LINE
  5
3E4
330
1F
100
AcDbEntity
  8
Ｓ_１_１
  6
CONTINUOUS
 62
     3
100
AcDbLine
 10
852.5000000000001
 20
1647.500000000001
 30
0.0
 11
947.5000000000001
 21
1647.500000000001
 31
0.0
  0
LINE
  5
3E5
330
1F
100
AcDbEntity
  8
Ｓ_１_１
  6
CONTINUOUS
 62
     3
100
AcDbLine
 10
947.5000000000001
 20
1675.0
 30
0.0
 11
947.5000000000001
 21
1652.5
 31
0.0
  0
LINE
  5
3E6
330
1F
100
AcDbEntity
  8
Ｓ_１_１
  6
CONTINUOUS
 62
     3
100
AcDbLine
 10
852.5000000000001
 20
1652.5
 30
0.0
 11
947.5000000000001
 21
1652.5
 31
0.0
  0
LINE
  5
3E7
330
1F
100
AcDbEntity
  8
Ｓ_１_１
  6
CONTINUOUS
 62
     3
100
AcDbLine
 10
952.5000000000001
 20
1675.0
 30
0.0
 11
952.5000000000001
 21
1652.5
 31
0.0
  0
LINE
  5
3E8
330
1F
100
AcDbEntity
  8
Ｓ_１_１
  6
CONTINUOUS
 62
     3
100
AcDbLine
 10
952.5000000000001
 20
1647.500000000001
 30
0.0
 11
1047.5
 21
1647.500000000001
 31
0.0
  0
LINE
  5
3E9
330
1F
100
AcDbEntity
  8
Ｓ_１_１
  6
CONTINUOUS
 62
     3
100
AcDbLine
 10
1047.5
 20
1675.0
 30
0.0
 11
1047.5
 21
1652.5
 31
0.0
  0
LINE
  5
3EA
330
1F
100
AcDbEntity
  8
Ｓ_１_１
  6
CONTINUOUS
 62
     3
100
AcDbLine
 10
952.5000000000001
 20
1652.5
 30
0.0
 11
1047.5
 21
1652.5
 31
0.0
  0
LINE
  5
3EB
330
1F
100
AcDbEntity
  8
Ｓ_１_１
  6
CONTINUOUS
 62
     3
100
AcDbLine
 10
1052.5
 20
1675.0
 30
0.0
 11
1052.5
 21
1652.5
 31
0.0
  0
LINE
  5
3EC
330
1F
100
AcDbEntity
  8
Ｓ_１_１
  6
CONTINUOUS
 62
     3
100
AcDbLine
 10
1052.5
 20
1647.500000000001
 30
0.0
 11
1147.5
 21
1647.500000000001
 31
0.0
  0
LINE
  5
3ED
330
1F
100
AcDbEntity
  8
Ｓ_１_１
  6
CONTINUOUS
 62
     3
100
AcDbLine
 10
1147.5
 20
1675.0
 30
0.0
 11
1147.5
 21
1652.5
 31
0.0
  0
LINE
  5
3EE
330
1F
100
AcDbEntity
  8
Ｓ_１_１
  6
CONTINUOUS
 62
     3
100
AcDbLine
 10
1052.5
 20
1652.5
 30
0.0
 11
1147.5
 21
1652.5
 31
0.0
  0
LINE
  5
3EF
330
1F
100
AcDbEntity
  8
Ｓ_１_１
  6
CONTINUOUS
 62
     3
100
AcDbLine
 10
1152.5
 20
1675.0
 30
0.0
 11
1152.5
 21
1652.5
 31
0.0
  0
LINE
  5
3F0
330
1F
100
AcDbEntity
  8
Ｓ_１_１
  6
CONTINUOUS
 62
     3
100
AcDbLine
 10
1247.5
 20
1675.0
 30
0.0
 11
1247.5
 21
1652.5
 31
0.0
  0
LINE
  5
3F1
330
1F
100
AcDbEntity
  8
Ｓ_１_１
  6
CONTINUOUS
 62
     3
100
AcDbLine
 10
1152.5
 20
1652.5
 30
0.0
 11
1247.5
 21
1652.5
 31
0.0
  0
LINE
  5
3F2
330
1F
100
AcDbEntity
  8
Ｓ_１_１
  6
CONTINUOUS
 62
     3
100
AcDbLine
 10
1252.5
 20
1675.0
 30
0.0
 11
1252.5
 21
1652.5
 31
0.0
  0
LINE
  5
3F3
330
1F
100
AcDbEntity
  8
Ｓ_１_１
  6
CONTINUOUS
 62
     3
100
AcDbLine
 10
1252.5
 20
1647.500000000001
 30
0.0
 11
1347.5
 21
1647.500000000001
 31
0.0
  0
LINE
  5
3F4
330
1F
100
AcDbEntity
  8
Ｓ_１_１
  6
CONTINUOUS
 62
     3
100
AcDbLine
 10
1347.5
 20
1675.0
 30
0.0
 11
1347.5
 21
1652.5
 31
0.0
  0
LINE
  5
3F5
330
1F
100
AcDbEntity
  8
Ｓ_１_１
  6
CONTINUOUS
 62
     3
100
AcDbLine
 10
1252.5
 20
1652.5
 30
0.0
 11
1347.5
 21
1652.5
 31
0.0
  0
LINE
  5
3F6
330
1F
100
AcDbEntity
  8
Ｓ_１_１
  6
CONTINUOUS
 62
     3
100
AcDbLine
 10
1352.5
 20
1652.5
 30
0.0
 11
1400.0
 21
1652.5
 31
0.0
  0
LINE
  5
3F7
330
1F
100
AcDbEntity
  8
Ｓ_１_１
  6
CONTINUOUS
 62
     3
100
AcDbLine
 10
1352.5
 20
1675.0
 30
0.0
 11
1352.5
 21
1652.5
 31
0.0
  0
LINE
  5
3F8
330
1F
100
AcDbEntity
  8
Ｓ_１_１
  6
CONTINUOUS
 62
     3
100
AcDbLine
 10
1352.5
 20
1647.500000000001
 30
0.0
 11
1360.0
 21
1647.500000000001
 31
0.0
  0
LINE
  5
3F9
330
1F
100
AcDbEntity
  8
Ｓ_１_１
  6
CONTINUOUS
 62
     3
100
AcDbLine
 10
1379.999999999998
 20
1647.500000000001
 30
0.0
 11
1400.0
 21
1647.500000000001
 31
0.0
  0
LINE
  5
3FA
330
1F
100
AcDbEntity
  8
Ｓ_１_１
  6
CONTINUOUS
 62
     3
100
AcDbLine
 10
600.0000000000001
 20
1587.5
 30
0.0
 11
647.5000000000001
 21
1587.500000000001
 31
0.0
  0
LINE
  5
3FB
330
1F
100
AcDbEntity
  8
Ｓ_１_１
  6
CONTINUOUS
 62
     3
100
AcDbLine
 10
647.5000000000001
 20
1647.5
 30
0.0
 11
647.5000000000001
 21
1592.5
 31
0.0
  0
LINE
  5
3FC
330
1F
100
AcDbEntity
  8
Ｓ_１_１
  6
CONTINUOUS
 62
     3
100
AcDbLine
 10
600.0000000000001
 20
1592.5
 30
0.0
 11
647.5000000000001
 21
1592.5
 31
0.0
  0
LINE
  5
3FD
330
1F
100
AcDbEntity
  8
Ｓ_１_１
  6
CONTINUOUS
 62
     3
100
AcDbLine
 10
652.5000000000001
 20
1647.500000000001
 30
0.0
 11
652.5000000000001
 21
1592.5
 31
0.0
  0
LINE
  5
3FE
330
1F
100
AcDbEntity
  8
Ｓ_１_１
  6
CONTINUOUS
 62
     3
100
AcDbLine
 10
652.5000000000001
 20
1587.500000000001
 30
0.0
 11
747.5000000000001
 21
1587.500000000001
 31
0.0
  0
LINE
  5
3FF
330
1F
100
AcDbEntity
  8
Ｓ_１_１
  6
CONTINUOUS
 62
     3
100
AcDbLine
 10
747.5000000000001
 20
1647.500000000001
 30
0.0
 11
747.5000000000001
 21
1592.5
 31
0.0
  0
LINE
  5
400
330
1F
100
AcDbEntity
  8
Ｓ_１_１
  6
CONTINUOUS
 62
     3
100
AcDbLine
 10
652.5000000000001
 20
1592.5
 30
0.0
 11
747.5000000000001
 21
1592.5
 31
0.0
  0
LINE
  5
401
330
1F
100
AcDbEntity
  8
Ｓ_１_１
  6
CONTINUOUS
 62
     3
100
AcDbLine
 10
752.5000000000001
 20
1647.500000000001
 30
0.0
 11
752.5000000000001
 21
1592.5
 31
0.0
  0
LINE
  5
402
330
1F
100
AcDbEntity
  8
Ｓ_１_１
  6
CONTINUOUS
 62
     3
100
AcDbLine
 10
752.5000000000001
 20
1587.500000000001
 30
0.0
 11
847.5000000000001
 21
1587.500000000001
 31
0.0
  0
LINE
  5
403
330
1F
100
AcDbEntity
  8
Ｓ_１_１
  6
CONTINUOUS
 62
     3
100
AcDbLine
 10
847.5000000000001
 20
1647.500000000001
 30
0.0
 11
847.5000000000001
 21
1592.5
 31
0.0
  0
LINE
  5
404
330
1F
100
AcDbEntity
  8
Ｓ_１_１
  6
CONTINUOUS
 62
     3
100
AcDbLine
 10
752.5000000000001
 20
1592.5
 30
0.0
 11
847.5000000000001
 21
1592.5
 31
0.0
  0
LINE
  5
405
330
1F
100
AcDbEntity
  8
Ｓ_１_１
  6
CONTINUOUS
 62
     3
100
AcDbLine
 10
852.5000000000001
 20
1647.500000000001
 30
0.0
 11
852.5000000000001
 21
1592.5
 31
0.0
  0
LINE
  5
406
330
1F
100
AcDbEntity
  8
Ｓ_１_１
  6
CONTINUOUS
 62
     3
100
AcDbLine
 10
852.5000000000001
 20
1587.500000000001
 30
0.0
 11
947.5000000000001
 21
1587.500000000001
 31
0.0
  0
LINE
  5
407
330
1F
100
AcDbEntity
  8
Ｓ_１_１
  6
CONTINUOUS
 62
     3
100
AcDbLine
 10
947.5000000000001
 20
1647.500000000001
 30
0.0
 11
947.5000000000001
 21
1592.5
 31
0.0
  0
LINE
  5
408
330
1F
100
AcDbEntity
  8
Ｓ_１_１
  6
CONTINUOUS
 62
     3
100
AcDbLine
 10
852.5000000000001
 20
1592.5
 30
0.0
 11
947.5000000000001
 21
1592.5
 31
0.0
  0
LINE
  5
409
330
1F
100
AcDbEntity
  8
Ｓ_１_１
  6
CONTINUOUS
 62
     3
100
AcDbLine
 10
952.5000000000001
 20
1647.500000000001
 30
0.0
 11
952.5000000000001
 21
1592.5
 31
0.0
  0
LINE
  5
40A
330
1F
100
AcDbEntity
  8
Ｓ_１_１
  6
CONTINUOUS
 62
     3
100
AcDbLine
 10
952.5000000000001
 20
1587.500000000001
 30
0.0
 11
1047.5
 21
1587.500000000001
 31
0.0
  0
LINE
  5
40B
330
1F
100
AcDbEntity
  8
Ｓ_１_１
  6
CONTINUOUS
 62
     3
100
AcDbLine
 10
1047.5
 20
1647.500000000001
 30
0.0
 11
1047.5
 21
1592.5
 31
0.0
  0
LINE
  5
40C
330
1F
100
AcDbEntity
  8
Ｓ_１_１
  6
CONTINUOUS
 62
     3
100
AcDbLine
 10
952.5000000000001
 20
1592.5
 30
0.0
 11
1047.5
 21
1592.5
 31
0.0
  0
LINE
  5
40D
330
1F
100
AcDbEntity
  8
Ｓ_１_１
  6
CONTINUOUS
 62
     3
100
AcDbLine
 10
1052.5
 20
1647.500000000001
 30
0.0
 11
1052.5
 21
1592.5
 31
0.0
  0
LINE
  5
40E
330
1F
100
AcDbEntity
  8
Ｓ_１_１
  6
CONTINUOUS
 62
     3
100
AcDbLine
 10
1052.5
 20
1587.500000000001
 30
0.0
 11
1147.5
 21
1587.500000000001
 31
0.0
  0
LINE
  5
40F
330
1F
100
AcDbEntity
  8
Ｓ_１_１
  6
CONTINUOUS
 62
     3
100
AcDbLine
 10
1147.5
 20
1647.500000000001
 30
0.0
 11
1147.5
 21
1592.5
 31
0.0
  0
LINE
  5
410
330
1F
100
AcDbEntity
  8
Ｓ_１_１
  6
CONTINUOUS
 62
     3
100
AcDbLine
 10
1052.5
 20
1592.5
 30
0.0
 11
1147.5
 21
1592.5
 31
0.0
  0
LINE
  5
411
330
1F
100
AcDbEntity
  8
Ｓ_１_１
  6
CONTINUOUS
 62
     3
100
AcDbLine
 10
1152.5
 20
1647.500000000001
 30
0.0
 11
1152.5
 21
1592.5
 31
0.0
  0
LINE
  5
412
330
1F
100
AcDbEntity
  8
Ｓ_１_１
  6
CONTINUOUS
 62
     3
100
AcDbLine
 10
1152.5
 20
1587.500000000001
 30
0.0
 11
1247.5
 21
1587.500000000001
 31
0.0
  0
LINE
  5
413
330
1F
100
AcDbEntity
  8
Ｓ_１_１
  6
CONTINUOUS
 62
     3
100
AcDbLine
 10
1152.5
 20
1592.5
 30
0.0
 11
1247.5
 21
1592.5
 31
0.0
  0
LINE
  5
414
330
1F
100
AcDbEntity
  8
Ｓ_１_１
  6
CONTINUOUS
 62
     3
100
AcDbLine
 10
1247.5
 20
1647.500000000001
 30
0.0
 11
1247.5
 21
1592.5
 31
0.0
  0
LINE
  5
415
330
1F
100
AcDbEntity
  8
Ｓ_１_１
  6
CONTINUOUS
 62
     3
100
AcDbLine
 10
1252.5
 20
1647.500000000001
 30
0.0
 11
1252.5
 21
1592.5
 31
0.0
  0
LINE
  5
416
330
1F
100
AcDbEntity
  8
Ｓ_１_１
  6
CONTINUOUS
 62
     3
100
AcDbLine
 10
1352.5
 20
1587.500000000001
 30
0.0
 11
1400.0
 21
1587.500000000001
 31
0.0
  0
LINE
  5
417
330
1F
100
AcDbEntity
  8
Ｓ_１_１
  6
CONTINUOUS
 62
     3
100
AcDbLine
 10
1252.5
 20
1587.500000000001
 30
0.0
 11
1347.5
 21
1587.500000000001
 31
0.0
  0
LINE
  5
418
330
1F
100
AcDbEntity
  8
Ｓ_１_１
  6
CONTINUOUS
 62
     3
100
AcDbLine
 10
1347.5
 20
1647.500000000001
 30
0.0
 11
1347.5
 21
1592.5
 31
0.0
  0
LINE
  5
419
330
1F
100
AcDbEntity
  8
Ｓ_１_１
  6
CONTINUOUS
 62
     3
100
AcDbLine
 10
1252.5
 20
1592.5
 30
0.0
 11
1347.5
 21
1592.5
 31
0.0
  0
LINE
  5
41A
330
1F
100
AcDbEntity
  8
Ｓ_１_１
  6
CONTINUOUS
 62
     3
100
AcDbLine
 10
1352.5
 20
1592.5
 30
0.0
 11
1400.0
 21
1592.5
 31
0.0
  0
LINE
  5
41B
330
1F
100
AcDbEntity
  8
Ｓ_１_１
  6
CONTINUOUS
 62
     3
100
AcDbLine
 10
1352.5
 20
1647.500000000001
 30
0.0
 11
1352.5
 21
1592.5
 31
0.0
  0
LINE
  5
41C
330
1F
100
AcDbEntity
  8
Ｓ_１_１
  6
CONTINUOUS
 62
     3
100
AcDbLine
 10
600.0000000000001
 20
1527.5
 30
0.0
 11
647.5000000000001
 21
1527.500000000001
 31
0.0
  0
LINE
  5
41D
330
1F
100
AcDbEntity
  8
Ｓ_１_１
  6
CONTINUOUS
 62
     3
100
AcDbLine
 10
647.5000000000001
 20
1587.5
 30
0.0
 11
647.5000000000001
 21
1532.5
 31
0.0
  0
LINE
  5
41E
330
1F
100
AcDbEntity
  8
Ｓ_１_１
  6
CONTINUOUS
 62
     3
100
AcDbLine
 10
600.0000000000001
 20
1532.5
 30
0.0
 11
647.5000000000001
 21
1532.5
 31
0.0
  0
LINE
  5
41F
330
1F
100
AcDbEntity
  8
Ｓ_１_１
  6
CONTINUOUS
 62
     3
100
AcDbLine
 10
652.5000000000001
 20
1587.500000000001
 30
0.0
 11
652.5000000000001
 21
1532.5
 31
0.0
  0
LINE
  5
420
330
1F
100
AcDbEntity
  8
Ｓ_１_１
  6
CONTINUOUS
 62
     3
100
AcDbLine
 10
652.5000000000001
 20
1527.500000000001
 30
0.0
 11
747.5000000000001
 21
1527.500000000001
 31
0.0
  0
LINE
  5
421
330
1F
100
AcDbEntity
  8
Ｓ_１_１
  6
CONTINUOUS
 62
     3
100
AcDbLine
 10
747.5000000000001
 20
1587.500000000001
 30
0.0
 11
747.5000000000001
 21
1532.5
 31
0.0
  0
LINE
  5
422
330
1F
100
AcDbEntity
  8
Ｓ_１_１
  6
CONTINUOUS
 62
     3
100
AcDbLine
 10
652.5000000000001
 20
1532.5
 30
0.0
 11
747.5000000000001
 21
1532.5
 31
0.0
  0
LINE
  5
423
330
1F
100
AcDbEntity
  8
Ｓ_１_１
  6
CONTINUOUS
 62
     3
100
AcDbLine
 10
752.5000000000001
 20
1587.500000000001
 30
0.0
 11
752.5000000000001
 21
1532.5
 31
0.0
  0
LINE
  5
424
330
1F
100
AcDbEntity
  8
Ｓ_１_１
  6
CONTINUOUS
 62
     3
100
AcDbLine
 10
752.5000000000001
 20
1527.500000000001
 30
0.0
 11
847.5000000000001
 21
1527.500000000001
 31
0.0
  0
LINE
  5
425
330
1F
100
AcDbEntity
  8
Ｓ_１_１
  6
CONTINUOUS
 62
     3
100
AcDbLine
 10
847.5000000000001
 20
1587.500000000001
 30
0.0
 11
847.5000000000001
 21
1532.5
 31
0.0
  0
LINE
  5
426
330
1F
100
AcDbEntity
  8
Ｓ_１_１
  6
CONTINUOUS
 62
     3
100
AcDbLine
 10
752.5000000000001
 20
1532.5
 30
0.0
 11
847.5000000000001
 21
1532.5
 31
0.0
  0
LINE
  5
427
330
1F
100
AcDbEntity
  8
Ｓ_１_１
  6
CONTINUOUS
 62
     3
100
AcDbLine
 10
852.5000000000001
 20
1587.500000000001
 30
0.0
 11
852.5000000000001
 21
1532.5
 31
0.0
  0
LINE
  5
428
330
1F
100
AcDbEntity
  8
Ｓ_１_１
  6
CONTINUOUS
 62
     3
100
AcDbLine
 10
852.5000000000001
 20
1527.500000000001
 30
0.0
 11
947.5000000000001
 21
1527.500000000001
 31
0.0
  0
LINE
  5
429
330
1F
100
AcDbEntity
  8
Ｓ_１_１
  6
CONTINUOUS
 62
     3
100
AcDbLine
 10
947.5000000000001
 20
1587.500000000001
 30
0.0
 11
947.5000000000001
 21
1532.5
 31
0.0
  0
LINE
  5
42A
330
1F
100
AcDbEntity
  8
Ｓ_１_１
  6
CONTINUOUS
 62
     3
100
AcDbLine
 10
852.5000000000001
 20
1532.5
 30
0.0
 11
947.5000000000001
 21
1532.5
 31
0.0
  0
LINE
  5
42B
330
1F
100
AcDbEntity
  8
Ｓ_１_１
  6
CONTINUOUS
 62
     3
100
AcDbLine
 10
952.5000000000001
 20
1587.500000000001
 30
0.0
 11
952.5000000000001
 21
1532.5
 31
0.0
  0
LINE
  5
42C
330
1F
100
AcDbEntity
  8
Ｓ_１_１
  6
CONTINUOUS
 62
     3
100
AcDbLine
 10
952.5000000000001
 20
1527.500000000001
 30
0.0
 11
1047.5
 21
1527.500000000001
 31
0.0
  0
LINE
  5
42D
330
1F
100
AcDbEntity
  8
Ｓ_１_１
  6
CONTINUOUS
 62
     3
100
AcDbLine
 10
1047.5
 20
1587.500000000001
 30
0.0
 11
1047.5
 21
1532.5
 31
0.0
  0
LINE
  5
42E
330
1F
100
AcDbEntity
  8
Ｓ_１_１
  6
CONTINUOUS
 62
     3
100
AcDbLine
 10
952.5000000000001
 20
1532.5
 30
0.0
 11
1047.5
 21
1532.5
 31
0.0
  0
LINE
  5
42F
330
1F
100
AcDbEntity
  8
Ｓ_１_１
  6
CONTINUOUS
 62
     3
100
AcDbLine
 10
1052.5
 20
1587.500000000001
 30
0.0
 11
1052.5
 21
1532.5
 31
0.0
  0
LINE
  5
430
330
1F
100
AcDbEntity
  8
Ｓ_１_１
  6
CONTINUOUS
 62
     3
100
AcDbLine
 10
1052.5
 20
1527.500000000001
 30
0.0
 11
1147.5
 21
1527.500000000001
 31
0.0
  0
LINE
  5
431
330
1F
100
AcDbEntity
  8
Ｓ_１_１
  6
CONTINUOUS
 62
     3
100
AcDbLine
 10
1147.5
 20
1587.500000000001
 30
0.0
 11
1147.5
 21
1532.5
 31
0.0
  0
LINE
  5
432
330
1F
100
AcDbEntity
  8
Ｓ_１_１
  6
CONTINUOUS
 62
     3
100
AcDbLine
 10
1052.5
 20
1532.5
 30
0.0
 11
1147.5
 21
1532.5
 31
0.0
  0
LINE
  5
433
330
1F
100
AcDbEntity
  8
Ｓ_１_１
  6
CONTINUOUS
 62
     3
100
AcDbLine
 10
1152.5
 20
1587.500000000001
 30
0.0
 11
1152.5
 21
1532.5
 31
0.0
  0
LINE
  5
434
330
1F
100
AcDbEntity
  8
Ｓ_１_１
  6
CONTINUOUS
 62
     3
100
AcDbLine
 10
1152.5
 20
1527.500000000001
 30
0.0
 11
1247.5
 21
1527.500000000001
 31
0.0
  0
LINE
  5
435
330
1F
100
AcDbEntity
  8
Ｓ_１_１
  6
CONTINUOUS
 62
     3
100
AcDbLine
 10
1247.5
 20
1587.500000000001
 30
0.0
 11
1247.5
 21
1532.5
 31
0.0
  0
LINE
  5
436
330
1F
100
AcDbEntity
  8
Ｓ_１_１
  6
CONTINUOUS
 62
     3
100
AcDbLine
 10
1152.5
 20
1532.5
 30
0.0
 11
1247.5
 21
1532.5
 31
0.0
  0
LINE
  5
437
330
1F
100
AcDbEntity
  8
Ｓ_１_１
  6
CONTINUOUS
 62
     3
100
AcDbLine
 10
1252.5
 20
1587.500000000001
 30
0.0
 11
1252.5
 21
1532.5
 31
0.0
  0
LINE
  5
438
330
1F
100
AcDbEntity
  8
Ｓ_１_１
  6
CONTINUOUS
 62
     3
100
AcDbLine
 10
1352.5
 20
1527.500000000001
 30
0.0
 11
1400.0
 21
1527.500000000001
 31
0.0
  0
LINE
  5
439
330
1F
100
AcDbEntity
  8
Ｓ_１_１
  6
CONTINUOUS
 62
     3
100
AcDbLine
 10
1252.5
 20
1527.500000000001
 30
0.0
 11
1347.5
 21
1527.500000000001
 31
0.0
  0
LINE
  5
43A
330
1F
100
AcDbEntity
  8
Ｓ_１_１
  6
CONTINUOUS
 62
     3
100
AcDbLine
 10
1347.5
 20
1587.500000000001
 30
0.0
 11
1347.5
 21
1532.5
 31
0.0
  0
LINE
  5
43B
330
1F
100
AcDbEntity
  8
Ｓ_１_１
  6
CONTINUOUS
 62
     3
100
AcDbLine
 10
1252.5
 20
1532.5
 30
0.0
 11
1347.5
 21
1532.5
 31
0.0
  0
LINE
  5
43C
330
1F
100
AcDbEntity
  8
Ｓ_１_１
  6
CONTINUOUS
 62
     3
100
AcDbLine
 10
1352.5
 20
1532.5
 30
0.0
 11
1400.0
 21
1532.5
 31
0.0
  0
LINE
  5
43D
330
1F
100
AcDbEntity
  8
Ｓ_１_１
  6
CONTINUOUS
 62
     3
100
AcDbLine
 10
1352.5
 20
1587.500000000001
 30
0.0
 11
1352.5
 21
1532.5
 31
0.0
  0
LINE
  5
43E
330
1F
100
AcDbEntity
  8
Ｓ_１_１
  6
CONTINUOUS
 62
     3
100
AcDbLine
 10
600.0000000000001
 20
1467.5
 30
0.0
 11
647.5000000000001
 21
1467.500000000001
 31
0.0
  0
LINE
  5
43F
330
1F
100
AcDbEntity
  8
Ｓ_１_１
  6
CONTINUOUS
 62
     3
100
AcDbLine
 10
647.5000000000001
 20
1527.5
 30
0.0
 11
647.5000000000001
 21
1472.5
 31
0.0
  0
LINE
  5
440
330
1F
100
AcDbEntity
  8
Ｓ_１_１
  6
CONTINUOUS
 62
     3
100
AcDbLine
 10
600.0000000000001
 20
1472.5
 30
0.0
 11
647.5000000000001
 21
1472.5
 31
0.0
  0
LINE
  5
441
330
1F
100
AcDbEntity
  8
Ｓ_１_１
  6
CONTINUOUS
 62
     3
100
AcDbLine
 10
652.5000000000001
 20
1527.500000000001
 30
0.0
 11
652.5000000000001
 21
1472.5
 31
0.0
  0
LINE
  5
442
330
1F
100
AcDbEntity
  8
Ｓ_１_１
  6
CONTINUOUS
 62
     3
100
AcDbLine
 10
652.5000000000001
 20
1467.500000000001
 30
0.0
 11
747.5000000000001
 21
1467.500000000001
 31
0.0
  0
LINE
  5
443
330
1F
100
AcDbEntity
  8
Ｓ_１_１
  6
CONTINUOUS
 62
     3
100
AcDbLine
 10
747.5000000000001
 20
1527.500000000001
 30
0.0
 11
747.5000000000001
 21
1472.5
 31
0.0
  0
LINE
  5
444
330
1F
100
AcDbEntity
  8
Ｓ_１_１
  6
CONTINUOUS
 62
     3
100
AcDbLine
 10
652.5000000000001
 20
1472.5
 30
0.0
 11
747.5000000000001
 21
1472.5
 31
0.0
  0
LINE
  5
445
330
1F
100
AcDbEntity
  8
Ｓ_１_１
  6
CONTINUOUS
 62
     3
100
AcDbLine
 10
752.5000000000001
 20
1527.500000000001
 30
0.0
 11
752.5000000000001
 21
1472.5
 31
0.0
  0
LINE
  5
446
330
1F
100
AcDbEntity
  8
Ｓ_１_１
  6
CONTINUOUS
 62
     3
100
AcDbLine
 10
752.5000000000001
 20
1467.500000000001
 30
0.0
 11
847.5000000000001
 21
1467.500000000001
 31
0.0
  0
LINE
  5
447
330
1F
100
AcDbEntity
  8
Ｓ_１_１
  6
CONTINUOUS
 62
     3
100
AcDbLine
 10
847.5000000000001
 20
1527.500000000001
 30
0.0
 11
847.5000000000001
 21
1472.5
 31
0.0
  0
LINE
  5
448
330
1F
100
AcDbEntity
  8
Ｓ_１_１
  6
CONTINUOUS
 62
     3
100
AcDbLine
 10
752.5000000000001
 20
1472.5
 30
0.0
 11
847.5000000000001
 21
1472.5
 31
0.0
  0
LINE
  5
449
330
1F
100
AcDbEntity
  8
Ｓ_１_１
  6
CONTINUOUS
 62
     3
100
AcDbLine
 10
852.5000000000001
 20
1527.500000000001
 30
0.0
 11
852.5000000000001
 21
1472.5
 31
0.0
  0
LINE
  5
44A
330
1F
100
AcDbEntity
  8
Ｓ_１_１
  6
CONTINUOUS
 62
     3
100
AcDbLine
 10
852.5000000000001
 20
1467.500000000001
 30
0.0
 11
947.5000000000001
 21
1467.500000000001
 31
0.0
  0
LINE
  5
44B
330
1F
100
AcDbEntity
  8
Ｓ_１_１
  6
CONTINUOUS
 62
     3
100
AcDbLine
 10
947.5000000000001
 20
1527.500000000001
 30
0.0
 11
947.5000000000001
 21
1472.5
 31
0.0
  0
LINE
  5
44C
330
1F
100
AcDbEntity
  8
Ｓ_１_１
  6
CONTINUOUS
 62
     3
100
AcDbLine
 10
852.5000000000001
 20
1472.5
 30
0.0
 11
947.5000000000001
 21
1472.5
 31
0.0
  0
LINE
  5
44D
330
1F
100
AcDbEntity
  8
Ｓ_１_１
  6
CONTINUOUS
 62
     3
100
AcDbLine
 10
952.5000000000001
 20
1527.500000000001
 30
0.0
 11
952.5000000000001
 21
1472.5
 31
0.0
  0
LINE
  5
44E
330
1F
100
AcDbEntity
  8
Ｓ_１_１
  6
CONTINUOUS
 62
     3
100
AcDbLine
 10
952.5000000000001
 20
1467.500000000001
 30
0.0
 11
1047.5
 21
1467.500000000001
 31
0.0
  0
LINE
  5
44F
330
1F
100
AcDbEntity
  8
Ｓ_１_１
  6
CONTINUOUS
 62
     3
100
AcDbLine
 10
1047.5
 20
1527.500000000001
 30
0.0
 11
1047.5
 21
1472.5
 31
0.0
  0
LINE
  5
450
330
1F
100
AcDbEntity
  8
Ｓ_１_１
  6
CONTINUOUS
 62
     3
100
AcDbLine
 10
952.5000000000001
 20
1472.5
 30
0.0
 11
1047.5
 21
1472.5
 31
0.0
  0
LINE
  5
451
330
1F
100
AcDbEntity
  8
Ｓ_１_１
  6
CONTINUOUS
 62
     3
100
AcDbLine
 10
1052.5
 20
1527.500000000001
 30
0.0
 11
1052.5
 21
1472.5
 31
0.0
  0
LINE
  5
452
330
1F
100
AcDbEntity
  8
Ｓ_１_１
  6
CONTINUOUS
 62
     3
100
AcDbLine
 10
1052.5
 20
1467.500000000001
 30
0.0
 11
1147.5
 21
1467.500000000001
 31
0.0
  0
LINE
  5
453
330
1F
100
AcDbEntity
  8
Ｓ_１_１
  6
CONTINUOUS
 62
     3
100
AcDbLine
 10
1147.5
 20
1527.500000000001
 30
0.0
 11
1147.5
 21
1472.5
 31
0.0
  0
LINE
  5
454
330
1F
100
AcDbEntity
  8
Ｓ_１_１
  6
CONTINUOUS
 62
     3
100
AcDbLine
 10
1052.5
 20
1472.5
 30
0.0
 11
1147.5
 21
1472.5
 31
0.0
  0
LINE
  5
455
330
1F
100
AcDbEntity
  8
Ｓ_１_１
  6
CONTINUOUS
 62
     3
100
AcDbLine
 10
1152.5
 20
1527.500000000001
 30
0.0
 11
1152.5
 21
1472.5
 31
0.0
  0
LINE
  5
456
330
1F
100
AcDbEntity
  8
Ｓ_１_１
  6
CONTINUOUS
 62
     3
100
AcDbLine
 10
1152.5
 20
1467.500000000001
 30
0.0
 11
1247.5
 21
1467.500000000001
 31
0.0
  0
LINE
  5
457
330
1F
100
AcDbEntity
  8
Ｓ_１_１
  6
CONTINUOUS
 62
     3
100
AcDbLine
 10
1247.5
 20
1527.500000000001
 30
0.0
 11
1247.5
 21
1472.5
 31
0.0
  0
LINE
  5
458
330
1F
100
AcDbEntity
  8
Ｓ_１_１
  6
CONTINUOUS
 62
     3
100
AcDbLine
 10
1152.5
 20
1472.5
 30
0.0
 11
1247.5
 21
1472.5
 31
0.0
  0
LINE
  5
459
330
1F
100
AcDbEntity
  8
Ｓ_１_１
  6
CONTINUOUS
 62
     3
100
AcDbLine
 10
1252.5
 20
1527.500000000001
 30
0.0
 11
1252.5
 21
1472.5
 31
0.0
  0
LINE
  5
45A
330
1F
100
AcDbEntity
  8
Ｓ_１_１
  6
CONTINUOUS
 62
     3
100
AcDbLine
 10
1352.5
 20
1467.500000000001
 30
0.0
 11
1400.0
 21
1467.500000000001
 31
0.0
  0
LINE
  5
45B
330
1F
100
AcDbEntity
  8
Ｓ_１_１
  6
CONTINUOUS
 62
     3
100
AcDbLine
 10
1252.5
 20
1467.500000000001
 30
0.0
 11
1347.5
 21
1467.500000000001
 31
0.0
  0
LINE
  5
45C
330
1F
100
AcDbEntity
  8
Ｓ_１_１
  6
CONTINUOUS
 62
     3
100
AcDbLine
 10
1347.5
 20
1527.500000000001
 30
0.0
 11
1347.5
 21
1472.5
 31
0.0
  0
LINE
  5
45D
330
1F
100
AcDbEntity
  8
Ｓ_１_１
  6
CONTINUOUS
 62
     3
100
AcDbLine
 10
1252.5
 20
1472.5
 30
0.0
 11
1347.5
 21
1472.5
 31
0.0
  0
LINE
  5
45E
330
1F
100
AcDbEntity
  8
Ｓ_１_１
  6
CONTINUOUS
 62
     3
100
AcDbLine
 10
1352.5
 20
1472.5
 30
0.0
 11
1400.0
 21
1472.5
 31
0.0
  0
LINE
  5
45F
330
1F
100
AcDbEntity
  8
Ｓ_１_１
  6
CONTINUOUS
 62
     3
100
AcDbLine
 10
1352.5
 20
1527.500000000001
 30
0.0
 11
1352.5
 21
1472.5
 31
0.0
  0
LINE
  5
460
330
1F
100
AcDbEntity
  8
Ｓ_１_１
  6
CONTINUOUS
 62
     3
100
AcDbLine
 10
600.0000000000001
 20
1407.5
 30
0.0
 11
647.5000000000001
 21
1407.500000000001
 31
0.0
  0
LINE
  5
461
330
1F
100
AcDbEntity
  8
Ｓ_１_１
  6
CONTINUOUS
 62
     3
100
AcDbLine
 10
647.5000000000001
 20
1467.5
 30
0.0
 11
647.5000000000001
 21
1412.5
 31
0.0
  0
LINE
  5
462
330
1F
100
AcDbEntity
  8
Ｓ_１_１
  6
CONTINUOUS
 62
     3
100
AcDbLine
 10
600.0000000000001
 20
1412.5
 30
0.0
 11
647.5000000000001
 21
1412.5
 31
0.0
  0
LINE
  5
463
330
1F
100
AcDbEntity
  8
Ｓ_１_１
  6
CONTINUOUS
 62
     3
100
AcDbLine
 10
652.5000000000001
 20
1467.500000000001
 30
0.0
 11
652.5000000000001
 21
1412.5
 31
0.0
  0
LINE
  5
464
330
1F
100
AcDbEntity
  8
Ｓ_１_１
  6
CONTINUOUS
 62
     3
100
AcDbLine
 10
652.5000000000001
 20
1407.500000000001
 30
0.0
 11
747.5000000000001
 21
1407.500000000001
 31
0.0
  0
LINE
  5
465
330
1F
100
AcDbEntity
  8
Ｓ_１_１
  6
CONTINUOUS
 62
     3
100
AcDbLine
 10
652.5000000000001
 20
1412.5
 30
0.0
 11
747.5000000000001
 21
1412.5
 31
0.0
  0
LINE
  5
466
330
1F
100
AcDbEntity
  8
Ｓ_１_１
  6
CONTINUOUS
 62
     3
100
AcDbLine
 10
747.5000000000001
 20
1467.500000000001
 30
0.0
 11
747.5000000000001
 21
1412.5
 31
0.0
  0
LINE
  5
467
330
1F
100
AcDbEntity
  8
Ｓ_１_１
  6
CONTINUOUS
 62
     3
100
AcDbLine
 10
752.5000000000001
 20
1467.500000000001
 30
0.0
 11
752.5000000000001
 21
1412.5
 31
0.0
  0
LINE
  5
468
330
1F
100
AcDbEntity
  8
Ｓ_１_１
  6
CONTINUOUS
 62
     3
100
AcDbLine
 10
752.5000000000001
 20
1407.500000000001
 30
0.0
 11
847.5000000000001
 21
1407.500000000001
 31
0.0
  0
LINE
  5
469
330
1F
100
AcDbEntity
  8
Ｓ_１_１
  6
CONTINUOUS
 62
     3
100
AcDbLine
 10
847.5000000000001
 20
1467.500000000001
 30
0.0
 11
847.5000000000001
 21
1412.5
 31
0.0
  0
LINE
  5
46A
330
1F
100
AcDbEntity
  8
Ｓ_１_１
  6
CONTINUOUS
 62
     3
100
AcDbLine
 10
752.5000000000001
 20
1412.5
 30
0.0
 11
847.5000000000001
 21
1412.5
 31
0.0
  0
LINE
  5
46B
330
1F
100
AcDbEntity
  8
Ｓ_１_１
  6
CONTINUOUS
 62
     3
100
AcDbLine
 10
852.5000000000001
 20
1467.500000000001
 30
0.0
 11
852.5000000000001
 21
1412.5
 31
0.0
  0
LINE
  5
46C
330
1F
100
AcDbEntity
  8
Ｓ_１_１
  6
CONTINUOUS
 62
     3
100
AcDbLine
 10
852.5000000000001
 20
1407.500000000001
 30
0.0
 11
947.5000000000001
 21
1407.500000000001
 31
0.0
  0
LINE
  5
46D
330
1F
100
AcDbEntity
  8
Ｓ_１_１
  6
CONTINUOUS
 62
     3
100
AcDbLine
 10
947.5000000000001
 20
1467.500000000001
 30
0.0
 11
947.5000000000001
 21
1412.5
 31
0.0
  0
LINE
  5
46E
330
1F
100
AcDbEntity
  8
Ｓ_１_１
  6
CONTINUOUS
 62
     3
100
AcDbLine
 10
852.5000000000001
 20
1412.5
 30
0.0
 11
947.5000000000001
 21
1412.5
 31
0.0
  0
LINE
  5
46F
330
1F
100
AcDbEntity
  8
Ｓ_１_１
  6
CONTINUOUS
 62
     3
100
AcDbLine
 10
952.5000000000001
 20
1467.500000000001
 30
0.0
 11
952.5000000000001
 21
1412.5
 31
0.0
  0
LINE
  5
470
330
1F
100
AcDbEntity
  8
Ｓ_１_１
  6
CONTINUOUS
 62
     3
100
AcDbLine
 10
952.5000000000001
 20
1407.500000000001
 30
0.0
 11
1047.5
 21
1407.500000000001
 31
0.0
  0
LINE
  5
471
330
1F
100
AcDbEntity
  8
Ｓ_１_１
  6
CONTINUOUS
 62
     3
100
AcDbLine
 10
1047.5
 20
1467.500000000001
 30
0.0
 11
1047.5
 21
1412.5
 31
0.0
  0
LINE
  5
472
330
1F
100
AcDbEntity
  8
Ｓ_１_１
  6
CONTINUOUS
 62
     3
100
AcDbLine
 10
952.5000000000001
 20
1412.5
 30
0.0
 11
1047.5
 21
1412.5
 31
0.0
  0
LINE
  5
473
330
1F
100
AcDbEntity
  8
Ｓ_１_１
  6
CONTINUOUS
 62
     3
100
AcDbLine
 10
1052.5
 20
1467.500000000001
 30
0.0
 11
1052.5
 21
1412.5
 31
0.0
  0
LINE
  5
474
330
1F
100
AcDbEntity
  8
Ｓ_１_１
  6
CONTINUOUS
 62
     3
100
AcDbLine
 10
1052.5
 20
1407.500000000001
 30
0.0
 11
1147.5
 21
1407.500000000001
 31
0.0
  0
LINE
  5
475
330
1F
100
AcDbEntity
  8
Ｓ_１_１
  6
CONTINUOUS
 62
     3
100
AcDbLine
 10
1147.5
 20
1467.500000000001
 30
0.0
 11
1147.5
 21
1412.5
 31
0.0
  0
LINE
  5
476
330
1F
100
AcDbEntity
  8
Ｓ_１_１
  6
CONTINUOUS
 62
     3
100
AcDbLine
 10
1052.5
 20
1412.5
 30
0.0
 11
1147.5
 21
1412.5
 31
0.0
  0
LINE
  5
477
330
1F
100
AcDbEntity
  8
Ｓ_１_１
  6
CONTINUOUS
 62
     3
100
AcDbLine
 10
1152.5
 20
1467.500000000001
 30
0.0
 11
1152.5
 21
1412.5
 31
0.0
  0
LINE
  5
478
330
1F
100
AcDbEntity
  8
Ｓ_１_１
  6
CONTINUOUS
 62
     3
100
AcDbLine
 10
1152.5
 20
1407.500000000001
 30
0.0
 11
1247.5
 21
1407.500000000001
 31
0.0
  0
LINE
  5
479
330
1F
100
AcDbEntity
  8
Ｓ_１_１
  6
CONTINUOUS
 62
     3
100
AcDbLine
 10
1247.5
 20
1467.500000000001
 30
0.0
 11
1247.5
 21
1412.5
 31
0.0
  0
LINE
  5
47A
330
1F
100
AcDbEntity
  8
Ｓ_１_１
  6
CONTINUOUS
 62
     3
100
AcDbLine
 10
1152.5
 20
1412.5
 30
0.0
 11
1247.5
 21
1412.5
 31
0.0
  0
LINE
  5
47B
330
1F
100
AcDbEntity
  8
Ｓ_１_１
  6
CONTINUOUS
 62
     3
100
AcDbLine
 10
1252.5
 20
1467.500000000001
 30
0.0
 11
1252.5
 21
1412.5
 31
0.0
  0
LINE
  5
47C
330
1F
100
AcDbEntity
  8
Ｓ_１_１
  6
CONTINUOUS
 62
     3
100
AcDbLine
 10
1352.5
 20
1407.500000000001
 30
0.0
 11
1400.0
 21
1407.500000000001
 31
0.0
  0
LINE
  5
47D
330
1F
100
AcDbEntity
  8
Ｓ_１_１
  6
CONTINUOUS
 62
     3
100
AcDbLine
 10
1252.5
 20
1407.500000000001
 30
0.0
 11
1347.5
 21
1407.500000000001
 31
0.0
  0
LINE
  5
47E
330
1F
100
AcDbEntity
  8
Ｓ_１_１
  6
CONTINUOUS
 62
     3
100
AcDbLine
 10
1347.5
 20
1467.500000000001
 30
0.0
 11
1347.5
 21
1412.5
 31
0.0
  0
LINE
  5
47F
330
1F
100
AcDbEntity
  8
Ｓ_１_１
  6
CONTINUOUS
 62
     3
100
AcDbLine
 10
1252.5
 20
1412.5
 30
0.0
 11
1347.5
 21
1412.5
 31
0.0
  0
LINE
  5
480
330
1F
100
AcDbEntity
  8
Ｓ_１_１
  6
CONTINUOUS
 62
     3
100
AcDbLine
 10
1352.5
 20
1412.5
 30
0.0
 11
1400.0
 21
1412.5
 31
0.0
  0
LINE
  5
481
330
1F
100
AcDbEntity
  8
Ｓ_１_１
  6
CONTINUOUS
 62
     3
100
AcDbLine
 10
1352.5
 20
1467.500000000001
 30
0.0
 11
1352.5
 21
1412.5
 31
0.0
  0
LINE
  5
482
330
1F
100
AcDbEntity
  8
Ｓ_１_１
  6
CONTINUOUS
 62
     3
100
AcDbLine
 10
600.0000000000001
 20
1352.5
 30
0.0
 11
620.0000000000001
 21
1352.5
 31
0.0
  0
LINE
  5
483
330
1F
100
AcDbEntity
  8
Ｓ_１_１
  6
CONTINUOUS
 62
     3
100
AcDbLine
 10
640.0000000000001
 20
1352.5
 30
0.0
 11
647.5000000000001
 21
1352.5
 31
0.0
  0
LINE
  5
484
330
1F
100
AcDbEntity
  8
Ｓ_１_１
  6
CONTINUOUS
 62
     3
100
AcDbLine
 10
647.5000000000001
 20
1407.5
 30
0.0
 11
647.5000000000001
 21
1352.5
 31
0.0
  0
LINE
  5
485
330
1F
100
AcDbEntity
  8
Ｓ_１_１
  6
CONTINUOUS
 62
     3
100
AcDbLine
 10
647.5000000000001
 20
1347.5
 30
0.0
 11
647.5000000000001
 21
1325.000000000001
 31
0.0
  0
LINE
  5
486
330
1F
100
AcDbEntity
  8
Ｓ_１_１
  6
CONTINUOUS
 62
     3
100
AcDbLine
 10
600.0000000000001
 20
1347.5
 30
0.0
 11
647.5000000000001
 21
1347.500000000001
 31
0.0
  0
LINE
  5
487
330
1F
100
AcDbEntity
  8
Ｓ_１_１
  6
CONTINUOUS
 62
     3
100
AcDbLine
 10
652.5000000000001
 20
1347.500000000001
 30
0.0
 11
652.5000000000001
 21
1325.000000000001
 31
0.0
  0
LINE
  5
488
330
1F
100
AcDbEntity
  8
Ｓ_１_１
  6
CONTINUOUS
 62
     3
100
AcDbLine
 10
652.5000000000001
 20
1407.500000000001
 30
0.0
 11
652.5000000000001
 21
1352.5
 31
0.0
  0
LINE
  5
489
330
1F
100
AcDbEntity
  8
Ｓ_１_１
  6
CONTINUOUS
 62
     3
100
AcDbLine
 10
652.5000000000001
 20
1347.500000000001
 30
0.0
 11
747.5000000000001
 21
1347.500000000001
 31
0.0
  0
LINE
  5
48A
330
1F
100
AcDbEntity
  8
Ｓ_１_１
  6
CONTINUOUS
 62
     3
100
AcDbLine
 10
747.5000000000001
 20
1347.500000000001
 30
0.0
 11
747.5000000000001
 21
1325.000000000001
 31
0.0
  0
LINE
  5
48B
330
1F
100
AcDbEntity
  8
Ｓ_１_１
  6
CONTINUOUS
 62
     3
100
AcDbLine
 10
747.5000000000001
 20
1407.500000000001
 30
0.0
 11
747.5000000000001
 21
1352.5
 31
0.0
  0
LINE
  5
48C
330
1F
100
AcDbEntity
  8
Ｓ_１_１
  6
CONTINUOUS
 62
     3
100
AcDbLine
 10
652.5000000000001
 20
1352.5
 30
0.0
 11
747.5000000000001
 21
1352.5
 31
0.0
  0
LINE
  5
48D
330
1F
100
AcDbEntity
  8
Ｓ_１_１
  6
CONTINUOUS
 62
     3
100
AcDbLine
 10
752.5000000000001
 20
1407.500000000001
 30
0.0
 11
752.5000000000001
 21
1352.5
 31
0.0
  0
LINE
  5
48E
330
1F
100
AcDbEntity
  8
Ｓ_１_１
  6
CONTINUOUS
 62
     3
100
AcDbLine
 10
752.5000000000001
 20
1347.500000000001
 30
0.0
 11
752.5000000000001
 21
1325.000000000001
 31
0.0
  0
LINE
  5
48F
330
1F
100
AcDbEntity
  8
Ｓ_１_１
  6
CONTINUOUS
 62
     3
100
AcDbLine
 10
752.5000000000001
 20
1352.5
 30
0.0
 11
790.0000000000001
 21
1352.5
 31
0.0
  0
LINE
  5
490
330
1F
100
AcDbEntity
  8
Ｓ_１_１
  6
CONTINUOUS
 62
     3
100
AcDbLine
 10
752.5000000000001
 20
1347.500000000001
 30
0.0
 11
847.5000000000001
 21
1347.500000000001
 31
0.0
  0
LINE
  5
491
330
1F
100
AcDbEntity
  8
Ｓ_１_１
  6
CONTINUOUS
 62
     3
100
AcDbLine
 10
847.5000000000001
 20
1347.500000000001
 30
0.0
 11
847.5000000000001
 21
1325.000000000001
 31
0.0
  0
LINE
  5
492
330
1F
100
AcDbEntity
  8
Ｓ_１_１
  6
CONTINUOUS
 62
     3
100
AcDbLine
 10
847.5000000000001
 20
1407.500000000001
 30
0.0
 11
847.5000000000001
 21
1352.5
 31
0.0
  0
LINE
  5
493
330
1F
100
AcDbEntity
  8
Ｓ_１_１
  6
CONTINUOUS
 62
     3
100
AcDbLine
 10
810.0000000000001
 20
1352.5
 30
0.0
 11
847.5000000000001
 21
1352.5
 31
0.0
  0
LINE
  5
494
330
1F
100
AcDbEntity
  8
Ｓ_１_１
  6
CONTINUOUS
 62
     3
100
AcDbLine
 10
852.5000000000001
 20
1407.500000000001
 30
0.0
 11
852.5000000000001
 21
1352.5
 31
0.0
  0
LINE
  5
495
330
1F
100
AcDbEntity
  8
Ｓ_１_１
  6
CONTINUOUS
 62
     3
100
AcDbLine
 10
852.5000000000001
 20
1347.500000000001
 30
0.0
 11
852.5000000000001
 21
1325.000000000001
 31
0.0
  0
LINE
  5
496
330
1F
100
AcDbEntity
  8
Ｓ_１_１
  6
CONTINUOUS
 62
     3
100
AcDbLine
 10
852.5000000000001
 20
1347.500000000001
 30
0.0
 11
947.5000000000001
 21
1347.500000000001
 31
0.0
  0
LINE
  5
497
330
1F
100
AcDbEntity
  8
Ｓ_１_１
  6
CONTINUOUS
 62
     3
100
AcDbLine
 10
947.5000000000001
 20
1347.500000000001
 30
0.0
 11
947.5000000000001
 21
1325.000000000001
 31
0.0
  0
LINE
  5
498
330
1F
100
AcDbEntity
  8
Ｓ_１_１
  6
CONTINUOUS
 62
     3
100
AcDbLine
 10
947.5000000000001
 20
1407.500000000001
 30
0.0
 11
947.5000000000001
 21
1352.5
 31
0.0
  0
LINE
  5
499
330
1F
100
AcDbEntity
  8
Ｓ_１_１
  6
CONTINUOUS
 62
     3
100
AcDbLine
 10
852.5000000000001
 20
1352.5
 30
0.0
 11
947.5000000000001
 21
1352.5
 31
0.0
  0
LINE
  5
49A
330
1F
100
AcDbEntity
  8
Ｓ_１_１
  6
CONTINUOUS
 62
     3
100
AcDbLine
 10
952.5000000000001
 20
1407.500000000001
 30
0.0
 11
952.5000000000001
 21
1352.5
 31
0.0
  0
LINE
  5
49B
330
1F
100
AcDbEntity
  8
Ｓ_１_１
  6
CONTINUOUS
 62
     3
100
AcDbLine
 10
952.5000000000001
 20
1347.500000000001
 30
0.0
 11
952.5000000000001
 21
1325.000000000001
 31
0.0
  0
LINE
  5
49C
330
1F
100
AcDbEntity
  8
Ｓ_１_１
  6
CONTINUOUS
 62
     3
100
AcDbLine
 10
952.5000000000001
 20
1347.500000000001
 30
0.0
 11
1047.5
 21
1347.500000000001
 31
0.0
  0
LINE
  5
49D
330
1F
100
AcDbEntity
  8
Ｓ_１_１
  6
CONTINUOUS
 62
     3
100
AcDbLine
 10
1047.5
 20
1347.500000000001
 30
0.0
 11
1047.5
 21
1325.000000000001
 31
0.0
  0
LINE
  5
49E
330
1F
100
AcDbEntity
  8
Ｓ_１_１
  6
CONTINUOUS
 62
     3
100
AcDbLine
 10
1047.5
 20
1407.500000000001
 30
0.0
 11
1047.5
 21
1352.5
 31
0.0
  0
LINE
  5
49F
330
1F
100
AcDbEntity
  8
Ｓ_１_１
  6
CONTINUOUS
 62
     3
100
AcDbLine
 10
952.5000000000001
 20
1352.5
 30
0.0
 11
1047.5
 21
1352.5
 31
0.0
  0
LINE
  5
4A0
330
1F
100
AcDbEntity
  8
Ｓ_１_１
  6
CONTINUOUS
 62
     3
100
AcDbLine
 10
1052.5
 20
1407.500000000001
 30
0.0
 11
1052.5
 21
1352.5
 31
0.0
  0
LINE
  5
4A1
330
1F
100
AcDbEntity
  8
Ｓ_１_１
  6
CONTINUOUS
 62
     3
100
AcDbLine
 10
1052.5
 20
1347.500000000001
 30
0.0
 11
1052.5
 21
1325.000000000001
 31
0.0
  0
LINE
  5
4A2
330
1F
100
AcDbEntity
  8
Ｓ_１_１
  6
CONTINUOUS
 62
     3
100
AcDbLine
 10
1052.5
 20
1347.500000000001
 30
0.0
 11
1147.5
 21
1347.500000000001
 31
0.0
  0
LINE
  5
4A3
330
1F
100
AcDbEntity
  8
Ｓ_１_１
  6
CONTINUOUS
 62
     3
100
AcDbLine
 10
1147.5
 20
1347.500000000001
 30
0.0
 11
1147.5
 21
1325.000000000001
 31
0.0
  0
LINE
  5
4A4
330
1F
100
AcDbEntity
  8
Ｓ_１_１
  6
CONTINUOUS
 62
     3
100
AcDbLine
 10
1147.5
 20
1407.500000000001
 30
0.0
 11
1147.5
 21
1352.5
 31
0.0
  0
LINE
  5
4A5
330
1F
100
AcDbEntity
  8
Ｓ_１_１
  6
CONTINUOUS
 62
     3
100
AcDbLine
 10
1052.5
 20
1352.5
 30
0.0
 11
1147.5
 21
1352.5
 31
0.0
  0
LINE
  5
4A6
330
1F
100
AcDbEntity
  8
Ｓ_１_１
  6
CONTINUOUS
 62
     3
100
AcDbLine
 10
1152.5
 20
1407.500000000001
 30
0.0
 11
1152.5
 21
1352.5
 31
0.0
  0
LINE
  5
4A7
330
1F
100
AcDbEntity
  8
Ｓ_１_１
  6
CONTINUOUS
 62
     3
100
AcDbLine
 10
1152.5
 20
1347.500000000001
 30
0.0
 11
1152.5
 21
1325.000000000001
 31
0.0
  0
LINE
  5
4A8
330
1F
100
AcDbEntity
  8
Ｓ_１_１
  6
CONTINUOUS
 62
     3
100
AcDbLine
 10
1152.5
 20
1352.5
 30
0.0
 11
1190.0
 21
1352.5
 31
0.0
  0
LINE
  5
4A9
330
1F
100
AcDbEntity
  8
Ｓ_１_１
  6
CONTINUOUS
 62
     3
100
AcDbLine
 10
1152.5
 20
1347.500000000001
 30
0.0
 11
1247.5
 21
1347.500000000001
 31
0.0
  0
LINE
  5
4AA
330
1F
100
AcDbEntity
  8
Ｓ_１_１
  6
CONTINUOUS
 62
     3
100
AcDbLine
 10
1247.5
 20
1347.500000000001
 30
0.0
 11
1247.5
 21
1325.000000000001
 31
0.0
  0
LINE
  5
4AB
330
1F
100
AcDbEntity
  8
Ｓ_１_１
  6
CONTINUOUS
 62
     3
100
AcDbLine
 10
1247.5
 20
1407.500000000001
 30
0.0
 11
1247.5
 21
1352.5
 31
0.0
  0
LINE
  5
4AC
330
1F
100
AcDbEntity
  8
Ｓ_１_１
  6
CONTINUOUS
 62
     3
100
AcDbLine
 10
1210.0
 20
1352.5
 30
0.0
 11
1247.5
 21
1352.5
 31
0.0
  0
LINE
  5
4AD
330
1F
100
AcDbEntity
  8
Ｓ_１_１
  6
CONTINUOUS
 62
     3
100
AcDbLine
 10
1252.5
 20
1407.500000000001
 30
0.0
 11
1252.5
 21
1352.5
 31
0.0
  0
LINE
  5
4AE
330
1F
100
AcDbEntity
  8
Ｓ_１_１
  6
CONTINUOUS
 62
     3
100
AcDbLine
 10
1252.5
 20
1347.500000000001
 30
0.0
 11
1252.5
 21
1325.000000000001
 31
0.0
  0
LINE
  5
4AF
330
1F
100
AcDbEntity
  8
Ｓ_１_１
  6
CONTINUOUS
 62
     3
100
AcDbLine
 10
1352.5
 20
1347.500000000001
 30
0.0
 11
1400.0
 21
1347.500000000001
 31
0.0
  0
LINE
  5
4B0
330
1F
100
AcDbEntity
  8
Ｓ_１_１
  6
CONTINUOUS
 62
     3
100
AcDbLine
 10
1252.5
 20
1347.500000000001
 30
0.0
 11
1347.5
 21
1347.500000000001
 31
0.0
  0
LINE
  5
4B1
330
1F
100
AcDbEntity
  8
Ｓ_１_１
  6
CONTINUOUS
 62
     3
100
AcDbLine
 10
1347.5
 20
1347.500000000001
 30
0.0
 11
1347.5
 21
1325.000000000001
 31
0.0
  0
LINE
  5
4B2
330
1F
100
AcDbEntity
  8
Ｓ_１_１
  6
CONTINUOUS
 62
     3
100
AcDbLine
 10
1347.5
 20
1407.500000000001
 30
0.0
 11
1347.5
 21
1352.5
 31
0.0
  0
LINE
  5
4B3
330
1F
100
AcDbEntity
  8
Ｓ_１_１
  6
CONTINUOUS
 62
     3
100
AcDbLine
 10
1252.5
 20
1352.5
 30
0.0
 11
1347.5
 21
1352.5
 31
0.0
  0
LINE
  5
4B4
330
1F
100
AcDbEntity
  8
Ｓ_１_１
  6
CONTINUOUS
 62
     3
100
AcDbLine
 10
1352.5
 20
1407.500000000001
 30
0.0
 11
1352.5
 21
1352.5
 31
0.0
  0
LINE
  5
4B5
330
1F
100
AcDbEntity
  8
Ｓ_１_１
  6
CONTINUOUS
 62
     3
100
AcDbLine
 10
1352.5
 20
1347.500000000001
 30
0.0
 11
1352.5
 21
1325.000000000001
 31
0.0
  0
LINE
  5
4B6
330
1F
100
AcDbEntity
  8
Ｓ_１_１
  6
CONTINUOUS
 62
     3
100
AcDbLine
 10
1380.0
 20
1352.5
 30
0.0
 11
1400.0
 21
1352.5
 31
0.0
  0
LINE
  5
4B7
330
1F
100
AcDbEntity
  8
Ｓ_１_１
  6
CONTINUOUS
 62
     3
100
AcDbLine
 10
1352.5
 20
1352.5
 30
0.0
 11
1360.0
 21
1352.5
 31
0.0
  0
LINE
  5
4B8
330
1F
100
AcDbEntity
  8
Ｓ_１_１
  6
CONTINUOUS
 62
     3
100
AcDbLine
 10
1210.0
 20
1647.500000000001
 30
0.0
 11
1247.5
 21
1647.500000000001
 31
0.0
  0
LINE
  5
4B9
330
1F
100
AcDbEntity
  8
Ｓ_１_１
  6
CONTINUOUS
 62
     3
100
AcDbLine
 10
1152.5
 20
1647.500000000001
 30
0.0
 11
1190.0
 21
1647.500000000001
 31
0.0
  0
CIRCLE
  5
4BA
330
1F
100
AcDbEntity
  8
Ｓ_１_１
  6
CONTINUOUS
 62
     3
100
AcDbCircle
 10
1849.999999999999
 20
1750.0
 30
0.0
 40
13.0
  0
CIRCLE
  5
4BB
330
1F
100
AcDbEntity
  8
Ｓ_１_１
  6
CONTINUOUS
 62
     3
100
AcDbCircle
 10
2099.999999999999
 20
1750.0
 30
0.0
 40
13.0
  0
CIRCLE
  5
4BC
330
1F
100
AcDbEntity
  8
Ｓ_１_１
  6
CONTINUOUS
 62
     3
100
AcDbCircle
 10
2349.999999999999
 20
1750.0
 30
0.0
 40
13.0
  0
CIRCLE
  5
4BD
330
1F
100
AcDbEntity
  8
Ｓ_１_１
  6
CONTINUOUS
 62
     3
100
AcDbCircle
 10
1849.999999999999
 20
1500.0
 30
0.0
 40
13.0
  0
CIRCLE
  5
4BE
330
1F
100
AcDbEntity
  8
Ｓ_１_１
  6
CONTINUOUS
 62
     3
100
AcDbCircle
 10
2349.999999999999
 20
1500.0
 30
0.0
 40
13.0
  0
CIRCLE
  5
4BF
330
1F
100
AcDbEntity
  8
Ｓ_１_１
  6
CONTINUOUS
 62
     3
100
AcDbCircle
 10
1849.999999999999
 20
1250.0
 30
0.0
 40
13.0
  0
CIRCLE
  5
4C0
330
1F
100
AcDbEntity
  8
Ｓ_１_１
  6
CONTINUOUS
 62
     3
100
AcDbCircle
 10
2349.999999999999
 20
1250.0
 30
0.0
 40
13.0
  0
CIRCLE
  5
4C1
330
1F
100
AcDbEntity
  8
Ｓ_１_１
  6
CONTINUOUS
 62
     3
100
AcDbCircle
 10
2099.999999999999
 20
1250.0
 30
0.0
 40
13.0
  0
LINE
  5
4C2
330
1F
100
AcDbEntity
  8
Ｓ_１_１
  6
CONTINUOUS
 62
     3
100
AcDbLine
 10
1799.999999999999
 20
1780.0
 30
0.0
 11
1819.999999999999
 21
1800.0
 31
0.0
  0
LINE
  5
4C3
330
1F
100
AcDbEntity
  8
Ｓ_１_１
  6
CONTINUOUS
 62
     3
100
AcDbLine
 10
2379.999999999999
 20
1800.0
 30
0.0
 11
1819.999999999999
 21
1800.0
 31
0.0
  0
LINE
  5
4C4
330
1F
100
AcDbEntity
  8
Ｓ_１_１
  6
CONTINUOUS
 62
     3
100
AcDbLine
 10
2379.999999999999
 20
1800.0
 30
0.0
 11
2399.999999999999
 21
1780.0
 31
0.0
  0
LINE
  5
4C5
330
1F
100
AcDbEntity
  8
Ｓ_１_１
  6
CONTINUOUS
 62
     3
100
AcDbLine
 10
2399.999999999999
 20
1220.0
 30
0.0
 11
2399.999999999999
 21
1780.0
 31
0.0
  0
LINE
  5
4C6
330
1F
100
AcDbEntity
  8
Ｓ_１_１
  6
CONTINUOUS
 62
     3
100
AcDbLine
 10
2379.999999999999
 20
1200.0
 30
0.0
 11
2399.999999999999
 21
1220.0
 31
0.0
  0
LINE
  5
4C7
330
1F
100
AcDbEntity
  8
Ｓ_１_１
  6
CONTINUOUS
 62
     3
100
AcDbLine
 10
1819.999999999999
 20
1200.0
 30
0.0
 11
2379.999999999999
 21
1200.0
 31
0.0
  0
LINE
  5
4C8
330
1F
100
AcDbEntity
  8
Ｓ_１_１
  6
CONTINUOUS
 62
     3
100
AcDbLine
 10
1799.999999999999
 20
1220.0
 30
0.0
 11
1799.999999999999
 21
1780.0
 31
0.0
  0
LINE
  5
4C9
330
1F
100
AcDbEntity
  8
Ｓ_１_１
  6
CONTINUOUS
 62
     3
100
AcDbLine
 10
1819.999999999999
 20
1200.0
 30
0.0
 11
1799.999999999999
 21
1220.0
 31
0.0
  0
CIRCLE
  5
4CA
330
1F
100
AcDbEntity
  8
Ｓ_１_１
  6
CONTINUOUS
 62
     3
100
AcDbCircle
 10
2100.0
 20
1500.0
 30
0.0
 40
13.0
  0
CIRCLE
  5
4CB
330
1F
100
AcDbEntity
  8
Ｓ_１_１
  6
CONTINUOUS
 62
     3
100
AcDbCircle
 10
2099.999999999999
 20
1605.0
 30
0.0
 40
16.0
  0
CIRCLE
  5
4CC
330
1F
100
AcDbEntity
  8
Ｓ_１_１
  6
CONTINUOUS
 62
     3
100
AcDbCircle
 10
2099.999999999999
 20
1605.0
 30
0.0
 40
15.0
  0
CIRCLE
  5
4CD
330
1F
100
AcDbEntity
  8
Ｓ_１_１
  6
CONTINUOUS
 62
     3
100
AcDbCircle
 10
2099.999999999999
 20
1605.0
 30
0.0
 40
13.23527089258635
  0
POLYLINE
  5
4CE
330
1F
100
AcDbEntity
  8
Ｓ_１_１
  6
CONTINUOUS
 62
     3
100
AcDb2dPolyline
 66
     1
 10
0.0
 20
0.0
 30
0.0
 70
   128
  0
VERTEX
  5
4CF
330
4CE
100
AcDbEntity
  8
Ｓ_１_１
  6
CONTINUOUS
 62
     3
100
AcDbVertex
100
AcDb2dVertex
 10
2099.999999999999
 20
1614.814954576224
 30
0.0
  0
VERTEX
  5
4D0
330
4CE
100
AcDbEntity
  8
Ｓ_１_１
  6
CONTINUOUS
 62
     3
100
AcDbVertex
100
AcDb2dVertex
 10
2091.499999999999
 20
1609.907477288112
 30
0.0
  0
VERTEX
  5
4D1
330
4CE
100
AcDbEntity
  8
Ｓ_１_１
  6
CONTINUOUS
 62
     3
100
AcDbVertex
100
AcDb2dVertex
 10
2091.499999999999
 20
1600.092522711887
 30
0.0
  0
VERTEX
  5
4D2
330
4CE
100
AcDbEntity
  8
Ｓ_１_１
  6
CONTINUOUS
 62
     3
100
AcDbVertex
100
AcDb2dVertex
 10
2099.999999999999
 20
1595.185045423777
 30
0.0
  0
VERTEX
  5
4D3
330
4CE
100
AcDbEntity
  8
Ｓ_１_１
  6
CONTINUOUS
 62
     3
100
AcDbVertex
100
AcDb2dVertex
 10
2108.499999999999
 20
1600.092522711887
 30
0.0
  0
VERTEX
  5
4D4
330
4CE
100
AcDbEntity
  8
Ｓ_１_１
  6
CONTINUOUS
 62
     3
100
AcDbVertex
100
AcDb2dVertex
 10
2108.499999999999
 20
1609.907477288112
 30
0.0
  0
VERTEX
  5
4D5
330
4CE
100
AcDbEntity
  8
Ｓ_１_１
  6
CONTINUOUS
 62
     3
100
AcDbVertex
100
AcDb2dVertex
 10
2099.999999999999
 20
1614.814954576224
 30
0.0
  0
SEQEND
  5
4D6
330
4CE
100
AcDbEntity
  8
Ｓ_１_１
  6
CONTINUOUS
 62
     3
  0
CIRCLE
  5
4D7
330
1F
100
AcDbEntity
  8
Ｓ_１_１
  6
CONTINUOUS
 62
     3
100
AcDbCircle
 10
2099.999999999999
 20
1395.000000000001
 30
0.0
 40
16.0
  0
CIRCLE
  5
4D8
330
1F
100
AcDbEntity
  8
Ｓ_１_１
  6
CONTINUOUS
 62
     3
100
AcDbCircle
 10
2099.999999999999
 20
1395.000000000001
 30
0.0
 40
15.0
  0
CIRCLE
  5
4D9
330
1F
100
AcDbEntity
  8
Ｓ_１_１
  6
CONTINUOUS
 62
     3
100
AcDbCircle
 10
2099.999999999999
 20
1395.000000000001
 30
0.0
 40
13.23527089258635
  0
POLYLINE
  5
4DA
330
1F
100
AcDbEntity
  8
Ｓ_１_１
  6
CONTINUOUS
 62
     3
100
AcDb2dPolyline
 66
     1
 10
0.0
 20
0.0
 30
0.0
 70
   128
  0
VERTEX
  5
4DB
330
4DA
100
AcDbEntity
  8
Ｓ_１_１
  6
CONTINUOUS
 62
     3
100
AcDbVertex
100
AcDb2dVertex
 10
2099.999999999999
 20
1385.185045423777
 30
0.0
  0
VERTEX
  5
4DC
330
4DA
100
AcDbEntity
  8
Ｓ_１_１
  6
CONTINUOUS
 62
     3
100
AcDbVertex
100
AcDb2dVertex
 10
2091.499999999999
 20
1390.092522711889
 30
0.0
  0
VERTEX
  5
4DD
330
4DA
100
AcDbEntity
  8
Ｓ_１_１
  6
CONTINUOUS
 62
     3
100
AcDbVertex
100
AcDb2dVertex
 10
2091.499999999999
 20
1399.907477288114
 30
0.0
  0
VERTEX
  5
4DE
330
4DA
100
AcDbEntity
  8
Ｓ_１_１
  6
CONTINUOUS
 62
     3
100
AcDbVertex
100
AcDb2dVertex
 10
2099.999999999999
 20
1404.814954576224
 30
0.0
  0
VERTEX
  5
4DF
330
4DA
100
AcDbEntity
  8
Ｓ_１_１
  6
CONTINUOUS
 62
     3
100
AcDbVertex
100
AcDb2dVertex
 10
2108.499999999999
 20
1399.907477288114
 30
0.0
  0
VERTEX
  5
4E0
330
4DA
100
AcDbEntity
  8
Ｓ_１_１
  6
CONTINUOUS
 62
     3
100
AcDbVertex
100
AcDb2dVertex
 10
2108.499999999999
 20
1390.092522711889
 30
0.0
  0
VERTEX
  5
4E1
330
4DA
100
AcDbEntity
  8
Ｓ_１_１
  6
CONTINUOUS
 62
     3
100
AcDbVertex
100
AcDb2dVertex
 10
2099.999999999999
 20
1385.185045423777
 30
0.0
  0
SEQEND
  5
4E2
330
4DA
100
AcDbEntity
  8
Ｓ_１_１
  6
CONTINUOUS
 62
     3
  0
CIRCLE
  5
4E3
330
1F
100
AcDbEntity
  8
Ｓ_１_１
  6
CONTINUOUS
 62
     3
100
AcDbCircle
 10
1994.999999999999
 20
1500.0
 30
0.0
 40
16.0
  0
CIRCLE
  5
4E4
330
1F
100
AcDbEntity
  8
Ｓ_１_１
  6
CONTINUOUS
 62
     3
100
AcDbCircle
 10
1994.999999999999
 20
1500.0
 30
0.0
 40
15.0
  0
CIRCLE
  5
4E5
330
1F
100
AcDbEntity
  8
Ｓ_１_１
  6
CONTINUOUS
 62
     3
100
AcDbCircle
 10
1994.999999999999
 20
1500.0
 30
0.0
 40
13.23527089258635
  0
POLYLINE
  5
4E6
330
1F
100
AcDbEntity
  8
Ｓ_１_１
  6
CONTINUOUS
 62
     3
100
AcDb2dPolyline
 66
     1
 10
0.0
 20
0.0
 30
0.0
 70
   128
  0
VERTEX
  5
4E7
330
4E6
100
AcDbEntity
  8
Ｓ_１_１
  6
CONTINUOUS
 62
     3
100
AcDbVertex
100
AcDb2dVertex
 10
1985.185045423776
 20
1500.0
 30
0.0
  0
VERTEX
  5
4E8
330
4E6
100
AcDbEntity
  8
Ｓ_１_１
  6
CONTINUOUS
 62
     3
100
AcDbVertex
100
AcDb2dVertex
 10
1990.092522711886
 20
1491.5
 30
0.0
  0
VERTEX
  5
4E9
330
4E6
100
AcDbEntity
  8
Ｓ_１_１
  6
CONTINUOUS
 62
     3
100
AcDbVertex
100
AcDb2dVertex
 10
1999.907477288111
 20
1491.5
 30
0.0
  0
VERTEX
  5
4EA
330
4E6
100
AcDbEntity
  8
Ｓ_１_１
  6
CONTINUOUS
 62
     3
100
AcDbVertex
100
AcDb2dVertex
 10
2004.814954576221
 20
1500.0
 30
0.0
  0
VERTEX
  5
4EB
330
4E6
100
AcDbEntity
  8
Ｓ_１_１
  6
CONTINUOUS
 62
     3
100
AcDbVertex
100
AcDb2dVertex
 10
1999.907477288111
 20
1508.5
 30
0.0
  0
VERTEX
  5
4EC
330
4E6
100
AcDbEntity
  8
Ｓ_１_１
  6
CONTINUOUS
 62
     3
100
AcDbVertex
100
AcDb2dVertex
 10
1990.092522711886
 20
1508.5
 30
0.0
  0
VERTEX
  5
4ED
330
4E6
100
AcDbEntity
  8
Ｓ_１_１
  6
CONTINUOUS
 62
     3
100
AcDbVertex
100
AcDb2dVertex
 10
1985.185045423776
 20
1500.0
 30
0.0
  0
SEQEND
  5
4EE
330
4E6
100
AcDbEntity
  8
Ｓ_１_１
  6
CONTINUOUS
 62
     3
  0
CIRCLE
  5
4EF
330
1F
100
AcDbEntity
  8
Ｓ_１_１
  6
CONTINUOUS
 62
     3
100
AcDbCircle
 10
2205.000000000006
 20
1500.0
 30
0.0
 40
16.0
  0
CIRCLE
  5
4F0
330
1F
100
AcDbEntity
  8
Ｓ_１_１
  6
CONTINUOUS
 62
     3
100
AcDbCircle
 10
2205.000000000006
 20
1500.0
 30
0.0
 40
15.0
  0
CIRCLE
  5
4F1
330
1F
100
AcDbEntity
  8
Ｓ_１_１
  6
CONTINUOUS
 62
     3
100
AcDbCircle
 10
2205.000000000006
 20
1500.0
 30
0.0
 40
13.23527089258635
  0
POLYLINE
  5
4F2
330
1F
100
AcDbEntity
  8
Ｓ_１_１
  6
CONTINUOUS
 62
     3
100
AcDb2dPolyline
 66
     1
 10
0.0
 20
0.0
 30
0.0
 70
   128
  0
VERTEX
  5
4F3
330
4F2
100
AcDbEntity
  8
Ｓ_１_１
  6
CONTINUOUS
 62
     3
100
AcDbVertex
100
AcDb2dVertex
 10
2214.814954576229
 20
1500.0
 30
0.0
  0
VERTEX
  5
4F4
330
4F2
100
AcDbEntity
  8
Ｓ_１_１
  6
CONTINUOUS
 62
     3
100
AcDbVertex
100
AcDb2dVertex
 10
2209.907477288118
 20
1491.5
 30
0.0
  0
VERTEX
  5
4F5
330
4F2
100
AcDbEntity
  8
Ｓ_１_１
  6
CONTINUOUS
 62
     3
100
AcDbVertex
100
AcDb2dVertex
 10
2200.092522711894
 20
1491.5
 30
0.0
  0
VERTEX
  5
4F6
330
4F2
100
AcDbEntity
  8
Ｓ_１_１
  6
CONTINUOUS
 62
     3
100
AcDbVertex
100
AcDb2dVertex
 10
2195.185045423783
 20
1500.0
 30
0.0
  0
VERTEX
  5
4F7
330
4F2
100
AcDbEntity
  8
Ｓ_１_１
  6
CONTINUOUS
 62
     3
100
AcDbVertex
100
AcDb2dVertex
 10
2200.092522711894
 20
1508.5
 30
0.0
  0
VERTEX
  5
4F8
330
4F2
100
AcDbEntity
  8
Ｓ_１_１
  6
CONTINUOUS
 62
     3
100
AcDbVertex
100
AcDb2dVertex
 10
2209.907477288118
 20
1508.5
 30
0.0
  0
VERTEX
  5
4F9
330
4F2
100
AcDbEntity
  8
Ｓ_１_１
  6
CONTINUOUS
 62
     3
100
AcDbVertex
100
AcDb2dVertex
 10
2214.814954576229
 20
1500.0
 30
0.0
  0
SEQEND
  5
4FA
330
4F2
100
AcDbEntity
  8
Ｓ_１_１
  6
CONTINUOUS
 62
     3
  0
LEADER
  5
4FB
330
1F
100
AcDbEntity
  8
Ｓ_１_１
  6
CONTINUOUS
 62
     2
100
AcDbLeader
  3
ISO-25
 76
     2
 10
999.9999200112916
 20
204.285714285716
 30
0.0
 10
999.9999200112916
 20
146.2285714285754
 30
0.0
1001
ACAD
1000
DSTYLE
1002
{
1070
     5
1000
EX_NORM
1070
    41
1040
24.0
1070
   341
1005
7E
1002
}
  0
TEXT
  5
4FC
330
1F
100
AcDbEntity
  8
Ｓ_１_１
  6
CONTINUOUS
 62
     4
100
AcDbText
 10
1009.828491439863
 20
153.3482142857183
 30
0.0
 40
27.70323325635104
  1
A
 41
0.9992307692307693
  7
EXCADTTF1
 72
     5
 11
1027.828491439863
 21
153.3482142857183
 31
0.0
100
AcDbText
  0
TEXT
  5
4FD
330
1F
100
AcDbEntity
  8
Ｓ_１_１
  6
CONTINUOUS
 62
     4
100
AcDbText
 10
2450.0
 20
1205.0625
 30
0.0
 40
27.70323325635104
  1
A矢示図
 41
0.9992307692307693
  7
EXCADTTF1
 72
     5
 11
2576.0
 21
1205.0625
 31
0.0
100
AcDbText
  0
LINE
  5
4FE
330
1F
100
AcDbEntity
  8
Ｓ_１_１
  6
CONTINUOUS
 62
     3
100
AcDbLine
 10
2450.0
 20
1200.0
 30
0.0
 11
2576.0
 21
1200.0
 31
0.0
  0
DIMENSION
  5
4FF
330
1F
100
AcDbEntity
  8
Ｓ_１_１
  6
CONTINUOUS
 62
     2
100
AcDbDimension
  2
*D42
 10
2279.844555433773
 20
846.2500670000989
 30
0.0
 11
2373.116968793296
 21
817.8026258833627
 31
0.0
 70
   163
  3
ISO-25
100
AcDbDiametricDimension
 15
2310.155444566229
 25
828.7500670001011
 35
0.0
 40
0.0
1001
ACAD
1000
DSTYLE
1002
{
1070
   270
1070
     2
1070
     6
1000
EX_NORM
1070
     7
1000
EX_NORM
1070
    41
1040
24.0
1070
    73
1070
     0
1070
    74
1070
     0
1070
    77
1070
     1
1070
    78
1070
     8
1070
   140
1040
27.70323325635104
1070
   147
1040
0.0
1070
   173
1070
     1
1070
   176
1070
     2
1070
   177
1070
     2
1070
   178
1070
     2
1070
   271
1070
     2
1070
   277
1070
     2
1070
   279
1070
     2
1070
   280
1070
     1
1070
   287
1070
     5
1070
   340
1005
241
1002
}
  0
LINE
  5
50B
330
1F
100
AcDbEntity
  8
Ｓ_１_１
  6
EXLTYPE0
 62
     2
100
AcDbLine
 10
915.0
 20
754.9999930000008
 30
0.0
 11
915.0
 21
744.8335918402558
 31
0.0
  0
ARC
  5
50C
330
1F
100
AcDbEntity
  8
Ｓ_１_１
  6
EXLTYPE0
 62
     2
100
AcDbCircle
 10
1000.0
 20
754.9999930000008
 30
0.0
 40
64.80740698407999
100
AcDbArc
 50
0.0
 51
180.0
  0
ARC
  5
50D
330
1F
100
AcDbEntity
  8
Ｓ_１_１
  6
EXLTYPE0
 62
     2
100
AcDbCircle
 10
1000.0
 20
754.9999930000008
 30
0.0
 40
85.0
100
AcDbArc
 50
0.0
 51
180.0
  0
LINE
  5
50E
330
1F
100
AcDbEntity
  8
Ｓ_１_１
  6
EXLTYPE0
 62
     2
100
AcDbLine
 10
2242.586206896601
 20
807.4138601035502
 30
0.0
 11
2265.000000000001
 21
850.0000670001
 31
0.0
  0
LINE
  5
50F
330
1F
100
AcDbEntity
  8
Ｓ_１_１
  6
EXLTYPE0
 62
     2
100
AcDbLine
 10
2264.999999999999
 20
870.0000670001
 30
0.0
 11
2264.999999999999
 21
850.0000670001
 31
0.0
  0
LINE
  5
510
330
1F
100
AcDbEntity
  8
Ｓ_１_１
  6
EXLTYPE0
 62
     2
100
AcDbLine
 10
1957.413793103401
 20
807.4138601035502
 30
0.0
 11
1934.999999999999
 21
850.0000670001
 31
0.0
  0
LINE
  5
511
330
1F
100
AcDbEntity
  8
Ｓ_１_１
  6
EXLTYPE0
 62
     2
100
AcDbLine
 10
1934.999999999999
 20
870.0000670001
 30
0.0
 11
1934.999999999999
 21
850.0000670001
 31
0.0
  0
LINE
  5
512
330
1F
100
AcDbEntity
  8
Ｓ_１_１
  6
EXLTYPE0
 62
     2
100
AcDbLine
 10
901.6068435230301
 20
1283.362914627905
 30
0.0
 11
916.3889160432083
 21
1277.23997971006
 31
0.0
  0
LINE
  5
513
330
1F
100
AcDbEntity
  8
Ｓ_１_１
  6
EXLTYPE0
 62
     2
100
AcDbLine
 10
886.2995062284173
 20
1246.407733327458
 30
0.0
 11
901.0815787485955
 21
1240.284798409613
 31
0.0
  0
LINE
  5
514
330
1F
100
AcDbEntity
  8
Ｓ_１_１
  6
EXLTYPE0
 62
     2
100
AcDbLine
 10
1098.39315647697
 20
1283.362914627905
 30
0.0
 11
1083.611083956792
 21
1277.23997971006
 31
0.0
  0
LINE
  5
515
330
1F
100
AcDbEntity
  8
Ｓ_１_１
  6
EXLTYPE0
 62
     2
100
AcDbLine
 10
1113.700493771583
 20
1246.407733327458
 30
0.0
 11
1098.918421251405
 21
1240.284798409613
 31
0.0
  0
LINE
  5
516
330
1F
100
AcDbEntity
  8
Ｓ_１_１
  6
EXLTYPE0
 62
     2
100
AcDbLine
 10
901.6068435230301
 20
1716.637085372096
 30
0.0
 11
916.3889160432083
 21
1722.760020289941
 31
0.0
  0
LINE
  5
517
330
1F
100
AcDbEntity
  8
Ｓ_１_１
  6
EXLTYPE0
 62
     2
100
AcDbLine
 10
886.2995062284173
 20
1753.592266672543
 30
0.0
 11
901.0815787485955
 21
1759.715201590388
 31
0.0
  0
LINE
  5
518
330
1F
100
AcDbEntity
  8
Ｓ_１_１
  6
EXLTYPE0
 62
     2
100
AcDbLine
 10
1098.39315647697
 20
1716.637085372096
 30
0.0
 11
1083.611083956792
 21
1722.760020289941
 31
0.0
  0
LINE
  5
519
330
1F
100
AcDbEntity
  8
Ｓ_１_１
  6
EXLTYPE0
 62
     2
100
AcDbLine
 10
1113.700493771583
 20
1753.592266672543
 30
0.0
 11
1098.918421251405
 21
1759.715201590388
 31
0.0
  0
LINE
  5
51A
330
1F
100
AcDbEntity
  8
Ｓ_１_１
  6
EXLTYPE0
 62
     2
100
AcDbLine
 10
1821.807207759388
 20
1606.572089898711
 30
0.0
 11
1932.67275166073
 21
1560.650078014869
 31
0.0
  0
LINE
  5
51B
330
1F
100
AcDbEntity
  8
Ｓ_１_１
  6
EXLTYPE0
 62
     2
100
AcDbLine
 10
1821.807207759388
 20
1393.427910101288
 30
0.0
 11
1932.67275166073
 21
1439.34992198513
 31
0.0
  0
CIRCLE
  5
51C
330
1F
100
AcDbEntity
  8
Ｓ_１_１
  6
EXLTYPE0
 62
     2
100
AcDbCircle
 10
2099.999999999999
 20
1500.0
 30
0.0
 40
157.5008642905186
  0
LINE
  5
51D
330
1F
100
AcDbEntity
  8
Ｓ_１_１
  6
EXLTYPE0
 62
     2
100
AcDbLine
 10
1978.645837581108
 20
1227.930142677234
 30
0.0
 11
2024.56784946495
 21
1338.795686578576
 31
0.0
  0
LINE
  5
51E
330
1F
100
AcDbEntity
  8
Ｓ_１_１
  6
EXLTYPE0
 62
     2
100
AcDbLine
 10
2221.354162418886
 20
1227.930142677234
 30
0.0
 11
2175.432150535048
 21
1338.795686578576
 31
0.0
  0
LINE
  5
51F
330
1F
100
AcDbEntity
  8
Ｓ_１_１
  6
EXLTYPE0
 62
     2
100
AcDbLine
 10
2378.192792240609
 20
1393.427910101288
 30
0.0
 11
2267.327248339267
 21
1439.34992198513
 31
0.0
  0
LINE
  5
520
330
1F
100
AcDbEntity
  8
Ｓ_１_１
  6
EXLTYPE0
 62
     2
100
AcDbLine
 10
2372.069857322766
 20
1621.354162418889
 30
0.0
 11
2261.20431342142
 21
1575.432150535048
 31
0.0
  0
LINE
  5
521
330
1F
100
AcDbEntity
  8
Ｓ_１_１
  6
EXLTYPE0
 62
     2
100
AcDbLine
 10
2206.572089898708
 20
1778.192792240611
 30
0.0
 11
2160.650078014869
 21
1667.327248339268
 31
0.0
  0
LINE
  5
522
330
1F
100
AcDbEntity
  8
Ｓ_１_１
  6
EXLTYPE0
 62
     2
100
AcDbLine
 10
1978.645837581108
 20
1772.069857322766
 30
0.0
 11
2024.56784946495
 21
1661.204313421423
 31
0.0
  0
LINE
  5
523
330
1F
100
AcDbEntity
  8
Ｓ_１_１
  6
EXLTYPE0
 62
     2
100
AcDbLine
 10
1978.645837581108
 20
1772.069857322767
 30
0.0
 11
1993.427910101286
 21
1778.192792240612
 31
0.0
  0
LINE
  5
524
330
1F
100
AcDbEntity
  8
Ｓ_１_１
  6
EXLTYPE0
 62
     2
100
AcDbLine
 10
2221.354162418886
 20
1772.069857322767
 30
0.0
 11
2206.572089898708
 21
1778.192792240612
 31
0.0
  0
LINE
  5
525
330
1F
100
AcDbEntity
  8
Ｓ_１_１
  6
EXLTYPE0
 62
     2
100
AcDbLine
 10
2372.069857322766
 20
1621.354162418889
 30
0.0
 11
2378.192792240609
 21
1606.572089898711
 31
0.0
  0
LINE
  5
526
330
1F
100
AcDbEntity
  8
Ｓ_１_１
  6
EXLTYPE0
 62
     2
100
AcDbLine
 10
2372.069857322766
 20
1378.64583758111
 30
0.0
 11
2378.192792240609
 21
1393.427910101288
 31
0.0
  0
LINE
  5
527
330
1F
100
AcDbEntity
  8
Ｓ_１_１
  6
EXLTYPE0
 62
     2
100
AcDbLine
 10
2221.354162418886
 20
1227.930142677232
 30
0.0
 11
2206.572089898708
 21
1221.807207759387
 31
0.0
  0
LINE
  5
528
330
1F
100
AcDbEntity
  8
Ｓ_１_１
  6
EXLTYPE0
 62
     2
100
AcDbLine
 10
1978.645837581108
 20
1227.930142677232
 30
0.0
 11
1993.427910101286
 21
1221.807207759387
 31
0.0
  0
LINE
  5
529
330
1F
100
AcDbEntity
  8
Ｓ_１_１
  6
EXLTYPE0
 62
     2
100
AcDbLine
 10
1827.930142677231
 20
1378.64583758111
 30
0.0
 11
1821.807207759387
 21
1393.427910101288
 31
0.0
  0
LINE
  5
52A
330
1F
100
AcDbEntity
  8
Ｓ_１_１
  6
EXLTYPE0
 62
     2
100
AcDbLine
 10
1827.930142677231
 20
1621.354162418889
 30
0.0
 11
1821.807207759387
 21
1606.572089898711
 31
0.0
  0
LINE
  5
52B
330
1F
100
AcDbEntity
  8
Ｓ_１_１
  6
EXLTYPE0
 62
     2
100
AcDbLine
 10
1938.795686578573
 20
1424.567849464951
 30
0.0
 11
1932.672751660727
 21
1439.349921985131
 31
0.0
  0
LINE
  5
52C
330
1F
100
AcDbEntity
  8
Ｓ_１_１
  6
EXLTYPE0
 62
     2
100
AcDbLine
 10
1827.930142677231
 20
1378.64583758111
 30
0.0
 11
1938.795686578573
 21
1424.567849464951
 31
0.0
  0
LINE
  5
52D
330
1F
100
AcDbEntity
  8
Ｓ_１_１
  6
EXLTYPE0
 62
     2
100
AcDbLine
 10
2024.56784946495
 20
1338.795686578576
 30
0.0
 11
2039.349921985128
 21
1332.67275166073
 31
0.0
  0
LINE
  5
52E
330
1F
100
AcDbEntity
  8
Ｓ_１_１
  6
EXLTYPE0
 62
     2
100
AcDbLine
 10
1993.427910101286
 20
1221.807207759389
 30
0.0
 11
2039.349921985128
 21
1332.672751660731
 31
0.0
  0
LINE
  5
52F
330
1F
100
AcDbEntity
  8
Ｓ_１_１
  6
EXLTYPE0
 62
     2
100
AcDbLine
 10
2175.432150535048
 20
1338.795686578576
 30
0.0
 11
2160.650078014869
 21
1332.67275166073
 31
0.0
  0
LINE
  5
530
330
1F
100
AcDbEntity
  8
Ｓ_１_１
  6
EXLTYPE0
 62
     2
100
AcDbLine
 10
2206.572089898708
 20
1221.807207759389
 30
0.0
 11
2160.650078014869
 21
1332.672751660731
 31
0.0
  0
LINE
  5
531
330
1F
100
AcDbEntity
  8
Ｓ_１_１
  6
EXLTYPE0
 62
     2
100
AcDbLine
 10
2261.204313421424
 20
1424.567849464951
 30
0.0
 11
2267.327248339267
 21
1439.34992198513
 31
0.0
  0
LINE
  5
532
330
1F
100
AcDbEntity
  8
Ｓ_１_１
  6
EXLTYPE0
 62
     2
100
AcDbLine
 10
2372.069857322766
 20
1378.64583758111
 30
0.0
 11
2261.20431342142
 21
1424.567849464951
 31
0.0
  0
LINE
  5
533
330
1F
100
AcDbEntity
  8
Ｓ_１_１
  6
EXLTYPE0
 62
     2
100
AcDbLine
 10
2261.204313421424
 20
1575.432150535048
 30
0.0
 11
2267.327248339267
 21
1560.65007801487
 31
0.0
  0
LINE
  5
534
330
1F
100
AcDbEntity
  8
Ｓ_１_１
  6
EXLTYPE0
 62
     2
100
AcDbLine
 10
2378.192792240609
 20
1606.572089898711
 30
0.0
 11
2267.327248339267
 21
1560.650078014869
 31
0.0
  0
LINE
  5
535
330
1F
100
AcDbEntity
  8
Ｓ_１_１
  6
EXLTYPE0
 62
     2
100
AcDbLine
 10
2175.432150535048
 20
1661.204313421424
 30
0.0
 11
2160.650078014869
 21
1667.32724833927
 31
0.0
  0
LINE
  5
536
330
1F
100
AcDbEntity
  8
Ｓ_１_１
  6
EXLTYPE0
 62
     2
100
AcDbLine
 10
2221.354162418886
 20
1772.069857322766
 30
0.0
 11
2175.432150535048
 21
1661.204313421423
 31
0.0
  0
LINE
  5
537
330
1F
100
AcDbEntity
  8
Ｓ_１_１
  6
EXLTYPE0
 62
     2
100
AcDbLine
 10
2024.56784946495
 20
1661.204313421424
 30
0.0
 11
2039.349921985128
 21
1667.32724833927
 31
0.0
  0
LINE
  5
538
330
1F
100
AcDbEntity
  8
Ｓ_１_１
  6
EXLTYPE0
 62
     2
100
AcDbLine
 10
1993.427910101286
 20
1778.192792240611
 30
0.0
 11
2039.349921985128
 21
1667.327248339268
 31
0.0
  0
LINE
  5
539
330
1F
100
AcDbEntity
  8
Ｓ_１_１
  6
EXLTYPE0
 62
     2
100
AcDbLine
 10
1938.795686578573
 20
1575.432150535048
 30
0.0
 11
1932.672751660727
 21
1560.650078014869
 31
0.0
  0
LINE
  5
53A
330
1F
100
AcDbEntity
  8
Ｓ_１_１
  6
EXLTYPE0
 62
     2
100
AcDbLine
 10
1827.930142677231
 20
1621.354162418889
 30
0.0
 11
1938.795686578573
 21
1575.432150535048
 31
0.0
  0
CIRCLE
  5
53B
330
1F
100
AcDbEntity
  8
Ｓ_１_１
  6
EXLTYPE0
 62
     2
100
AcDbCircle
 10
2099.999999999999
 20
1500.0
 30
0.0
 40
177.8
  0
LINE
  5
53C
330
1F
100
AcDbEntity
  8
Ｓ_１_１
  6
EXLTYPE2
 62
     1
100
AcDbLine
 10
1000.0
 20
926.1600020000005
 30
0.0
 11
1000.0
 21
237.2000020000005
 31
0.0
  0
LINE
  5
53D
330
1F
100
AcDbEntity
  8
Ｓ_１_１
  6
EXLTYPE2
 62
     1
100
AcDbLine
 10
650.0
 20
913.4999930000004
 30
0.0
 11
650.0
 21
903.9999930000004
 31
0.0
  0
LINE
  5
53E
330
1F
100
AcDbEntity
  8
Ｓ_１_１
  6
EXLTYPE2
 62
     1
100
AcDbLine
 10
750.0
 20
913.4999930000004
 30
0.0
 11
750.0
 21
903.9999930000004
 31
0.0
  0
LINE
  5
53F
330
1F
100
AcDbEntity
  8
Ｓ_１_１
  6
EXLTYPE2
 62
     1
100
AcDbLine
 10
850.0
 20
913.4999930000004
 30
0.0
 11
850.0
 21
903.9999930000004
 31
0.0
  0
LINE
  5
540
330
1F
100
AcDbEntity
  8
Ｓ_１_１
  6
EXLTYPE2
 62
     1
100
AcDbLine
 10
950.0
 20
913.4999930000004
 30
0.0
 11
950.0
 21
903.9999930000004
 31
0.0
  0
LINE
  5
541
330
1F
100
AcDbEntity
  8
Ｓ_１_１
  6
EXLTYPE2
 62
     1
100
AcDbLine
 10
1350.0
 20
913.4999930000004
 30
0.0
 11
1350.0
 21
903.9999930000004
 31
0.0
  0
LINE
  5
542
330
1F
100
AcDbEntity
  8
Ｓ_１_１
  6
EXLTYPE2
 62
     1
100
AcDbLine
 10
1250.0
 20
913.4999930000004
 30
0.0
 11
1250.0
 21
903.9999930000004
 31
0.0
  0
LINE
  5
543
330
1F
100
AcDbEntity
  8
Ｓ_１_１
  6
EXLTYPE2
 62
     1
100
AcDbLine
 10
1150.0
 20
913.4999930000004
 30
0.0
 11
1150.0
 21
903.9999930000004
 31
0.0
  0
LINE
  5
544
330
1F
100
AcDbEntity
  8
Ｓ_１_１
  6
EXLTYPE2
 62
     1
100
AcDbLine
 10
1050.0
 20
913.4999930000004
 30
0.0
 11
1050.0
 21
903.9999930000004
 31
0.0
  0
LINE
  5
545
330
1F
100
AcDbEntity
  8
Ｓ_１_１
  6
EXLTYPE2
 62
     1
100
AcDbLine
 10
990.5
 20
754.9999930000008
 30
0.0
 11
1011.099999999999
 21
754.9999930000008
 31
0.0
  0
LINE
  5
546
330
1F
100
AcDbEntity
  8
Ｓ_１_１
  6
EXLTYPE2
 62
     1
100
AcDbLine
 10
896.0399880000004
 20
327.0000000000009
 30
0.0
 11
921.2399879999994
 21
327.0000000000009
 31
0.0
  0
LINE
  5
547
330
1F
100
AcDbEntity
  8
Ｓ_１_１
  6
EXLTYPE2
 62
     1
100
AcDbLine
 10
908.7352473958999
 20
352.8000020000004
 30
0.0
 11
908.7352473958999
 21
300.4000020000008
 31
0.0
  0
LINE
  5
548
330
1F
100
AcDbEntity
  8
Ｓ_１_１
  6
EXLTYPE2
 62
     1
100
AcDbLine
 10
738.5999879999981
 20
327.0000000000009
 30
0.0
 11
791.3999879999992
 21
327.0000000000009
 31
0.0
  0
LINE
  5
549
330
1F
100
AcDbEntity
  8
Ｓ_１_１
  6
EXLTYPE2
 62
     1
100
AcDbLine
 10
764.8853239776981
 20
356.0000020000007
 30
0.0
 11
764.8853239776981
 21
296.0000020000007
 31
0.0
  0
LINE
  5
54A
330
1F
100
AcDbEntity
  8
Ｓ_１_１
  6
EXLTYPE2
 62
     1
100
AcDbLine
 10
1103.960012
 20
327.0000000000009
 30
0.0
 11
1078.760011999999
 21
327.0000000000009
 31
0.0
  0
LINE
  5
54B
330
1F
100
AcDbEntity
  8
Ｓ_１_１
  6
EXLTYPE2
 62
     1
100
AcDbLine
 10
1091.2647526041
 20
352.8000020000004
 30
0.0
 11
1091.2647526041
 21
300.4000020000008
 31
0.0
  0
LINE
  5
54C
330
1F
100
AcDbEntity
  8
Ｓ_１_１
  6
EXLTYPE2
 62
     1
100
AcDbLine
 10
1261.400012
 20
327.0000000000005
 30
0.0
 11
1208.600011999999
 21
327.0000000000009
 31
0.0
  0
LINE
  5
54D
330
1F
100
AcDbEntity
  8
Ｓ_１_１
  6
EXLTYPE2
 62
     1
100
AcDbLine
 10
1235.1146760223
 20
356.0000020000007
 30
0.0
 11
1235.1146760223
 21
296.0000020000007
 31
0.0
  0
LINE
  5
54E
330
1F
100
AcDbEntity
  8
Ｓ_１_１
  6
EXLTYPE2
 62
     1
100
AcDbLine
 10
896.0399880000004
 20
487.0000000000005
 30
0.0
 11
921.2399879999994
 21
487.0000000000005
 31
0.0
  0
LINE
  5
54F
330
1F
100
AcDbEntity
  8
Ｓ_１_１
  6
EXLTYPE2
 62
     1
100
AcDbLine
 10
908.7352473958999
 20
512.8000020000004
 30
0.0
 11
908.7352473958999
 21
460.4000020000008
 31
0.0
  0
LINE
  5
550
330
1F
100
AcDbEntity
  8
Ｓ_１_１
  6
EXLTYPE2
 62
     1
100
AcDbLine
 10
738.5999879999981
 20
487.0000000000005
 30
0.0
 11
791.3999879999992
 21
487.0000000000005
 31
0.0
  0
LINE
  5
551
330
1F
100
AcDbEntity
  8
Ｓ_１_１
  6
EXLTYPE2
 62
     1
100
AcDbLine
 10
764.8853239776981
 20
516.0000020000002
 30
0.0
 11
764.8853239776981
 21
456.0000020000007
 31
0.0
  0
LINE
  5
552
330
1F
100
AcDbEntity
  8
Ｓ_１_１
  6
EXLTYPE2
 62
     1
100
AcDbLine
 10
1103.960012
 20
487.0000000000005
 30
0.0
 11
1078.760011999999
 21
487.0000000000005
 31
0.0
  0
LINE
  5
553
330
1F
100
AcDbEntity
  8
Ｓ_１_１
  6
EXLTYPE2
 62
     1
100
AcDbLine
 10
1091.2647526041
 20
512.8000020000004
 30
0.0
 11
1091.2647526041
 21
460.4000020000008
 31
0.0
  0
LINE
  5
554
330
1F
100
AcDbEntity
  8
Ｓ_１_１
  6
EXLTYPE2
 62
     1
100
AcDbLine
 10
1261.400012
 20
487.0000000000005
 30
0.0
 11
1208.600011999999
 21
487.0000000000005
 31
0.0
  0
LINE
  5
555
330
1F
100
AcDbEntity
  8
Ｓ_１_１
  6
EXLTYPE2
 62
     1
100
AcDbLine
 10
1235.1146760223
 20
516.0000020000002
 30
0.0
 11
1235.1146760223
 21
456.0000020000007
 31
0.0
  0
LINE
  5
556
330
1F
100
AcDbEntity
  8
Ｓ_１_１
  6
EXLTYPE2
 62
     1
100
AcDbLine
 10
983.7165470999316
 20
611.9999924039398
 30
0.0
 11
960.7665470999309
 21
611.9999924039398
 31
0.0
  0
LINE
  5
557
330
1F
100
AcDbEntity
  8
Ｓ_１_１
  6
EXLTYPE2
 62
     1
100
AcDbLine
 10
983.7165470999316
 20
551.9999989604435
 30
0.0
 11
960.7665470999309
 21
551.9999989604435
 31
0.0
  0
LINE
  5
558
330
1F
100
AcDbEntity
  8
Ｓ_１_１
  6
EXLTYPE2
 62
     1
100
AcDbLine
 10
972.4999999999309
 20
540.7128381916
 30
0.0
 11
972.4999999999309
 21
622.7128381916
 31
0.0
  0
LINE
  5
559
330
1F
100
AcDbEntity
  8
Ｓ_１_１
  6
EXLTYPE2
 62
     1
100
AcDbLine
 10
961.2999999999993
 20
581.9999956822203
 30
0.0
 11
983.75
 21
581.9999956822203
 31
0.0
  0
LINE
  5
55A
330
1F
100
AcDbEntity
  8
Ｓ_１_１
  6
EXLTYPE2
 62
     1
100
AcDbLine
 10
1016.283452900068
 20
611.9999924039398
 30
0.0
 11
1039.233452900069
 21
611.9999924039398
 31
0.0
  0
LINE
  5
55B
330
1F
100
AcDbEntity
  8
Ｓ_１_１
  6
EXLTYPE2
 62
     1
100
AcDbLine
 10
1016.283452900068
 20
551.9999989604435
 30
0.0
 11
1039.233452900069
 21
551.9999989604435
 31
0.0
  0
LINE
  5
55C
330
1F
100
AcDbEntity
  8
Ｓ_１_１
  6
EXLTYPE2
 62
     1
100
AcDbLine
 10
1027.500000000069
 20
540.7128381916
 30
0.0
 11
1027.500000000069
 21
622.7128381916
 31
0.0
  0
LINE
  5
55D
330
1F
100
AcDbEntity
  8
Ｓ_１_１
  6
EXLTYPE2
 62
     1
100
AcDbLine
 10
1038.700000000001
 20
581.9999956822203
 30
0.0
 11
1016.25
 21
581.9999956822203
 31
0.0
  0
LINE
  5
55E
330
1F
100
AcDbEntity
  8
Ｓ_１_１
  6
EXLTYPE2
 62
     1
100
AcDbLine
 10
1996.039987999999
 20
327.0000000000009
 30
0.0
 11
2021.239988
 21
327.0000000000009
 31
0.0
  0
LINE
  5
55F
330
1F
100
AcDbEntity
  8
Ｓ_１_１
  6
EXLTYPE2
 62
     1
100
AcDbLine
 10
2008.735247395899
 20
352.8000020000004
 30
0.0
 11
2008.735247395899
 21
300.4000020000008
 31
0.0
  0
LINE
  5
560
330
1F
100
AcDbEntity
  8
Ｓ_１_１
  6
EXLTYPE2
 62
     1
100
AcDbLine
 10
1838.599988000001
 20
327.0000000000009
 30
0.0
 11
1891.399988
 21
327.0000000000009
 31
0.0
  0
LINE
  5
561
330
1F
100
AcDbEntity
  8
Ｓ_１_１
  6
EXLTYPE2
 62
     1
100
AcDbLine
 10
1864.885323977701
 20
356.0000020000007
 30
0.0
 11
1864.885323977701
 21
296.0000020000007
 31
0.0
  0
LINE
  5
562
330
1F
100
AcDbEntity
  8
Ｓ_１_１
  6
EXLTYPE2
 62
     1
100
AcDbLine
 10
2203.960012
 20
327.0000000000009
 30
0.0
 11
2178.760012000002
 21
327.0000000000009
 31
0.0
  0
LINE
  5
563
330
1F
100
AcDbEntity
  8
Ｓ_１_１
  6
EXLTYPE2
 62
     1
100
AcDbLine
 10
2191.264752604101
 20
352.8000020000004
 30
0.0
 11
2191.264752604101
 21
300.4000020000008
 31
0.0
  0
LINE
  5
564
330
1F
100
AcDbEntity
  8
Ｓ_１_１
  6
EXLTYPE2
 62
     1
100
AcDbLine
 10
2361.400012000001
 20
327.0000000000005
 30
0.0
 11
2308.600012000002
 21
327.0000000000009
 31
0.0
  0
LINE
  5
565
330
1F
100
AcDbEntity
  8
Ｓ_１_１
  6
EXLTYPE2
 62
     1
100
AcDbLine
 10
2335.114676022301
 20
356.0000020000007
 30
0.0
 11
2335.114676022301
 21
296.0000020000007
 31
0.0
  0
LINE
  5
566
330
1F
100
AcDbEntity
  8
Ｓ_１_１
  6
EXLTYPE2
 62
     1
100
AcDbLine
 10
2052.599988000001
 20
344.9999910000001
 30
0.0
 11
2147.319988
 21
344.9999910000001
 31
0.0
  0
LINE
  5
567
330
1F
100
AcDbEntity
  8
Ｓ_１_１
  6
EXLTYPE2
 62
     1
100
AcDbLine
 10
1996.039987999999
 20
487.0000000000005
 30
0.0
 11
2021.239988
 21
487.0000000000005
 31
0.0
  0
LINE
  5
568
330
1F
100
AcDbEntity
  8
Ｓ_１_１
  6
EXLTYPE2
 62
     1
100
AcDbLine
 10
2008.735247395899
 20
512.8000020000004
 30
0.0
 11
2008.735247395899
 21
460.4000020000008
 31
0.0
  0
LINE
  5
569
330
1F
100
AcDbEntity
  8
Ｓ_１_１
  6
EXLTYPE2
 62
     1
100
AcDbLine
 10
1838.599988000001
 20
487.0000000000005
 30
0.0
 11
1891.399988
 21
487.0000000000005
 31
0.0
  0
LINE
  5
56A
330
1F
100
AcDbEntity
  8
Ｓ_１_１
  6
EXLTYPE2
 62
     1
100
AcDbLine
 10
1864.885323977701
 20
516.0000020000002
 30
0.0
 11
1864.885323977701
 21
456.0000020000007
 31
0.0
  0
LINE
  5
56B
330
1F
100
AcDbEntity
  8
Ｓ_１_１
  6
EXLTYPE2
 62
     1
100
AcDbLine
 10
2203.960012
 20
487.0000000000005
 30
0.0
 11
2178.760012000002
 21
487.0000000000005
 31
0.0
  0
LINE
  5
56C
330
1F
100
AcDbEntity
  8
Ｓ_１_１
  6
EXLTYPE2
 62
     1
100
AcDbLine
 10
2191.264752604101
 20
512.8000020000004
 30
0.0
 11
2191.264752604101
 21
460.4000020000008
 31
0.0
  0
LINE
  5
56D
330
1F
100
AcDbEntity
  8
Ｓ_１_１
  6
EXLTYPE2
 62
     1
100
AcDbLine
 10
2361.400012000001
 20
487.0000000000005
 30
0.0
 11
2308.600012000002
 21
487.0000000000005
 31
0.0
  0
LINE
  5
56E
330
1F
100
AcDbEntity
  8
Ｓ_１_１
  6
EXLTYPE2
 62
     1
100
AcDbLine
 10
2335.114676022301
 20
516.0000020000002
 30
0.0
 11
2335.114676022301
 21
456.0000020000007
 31
0.0
  0
LINE
  5
56F
330
1F
100
AcDbEntity
  8
Ｓ_１_１
  6
EXLTYPE2
 62
     1
100
AcDbLine
 10
2099.999999999999
 20
932.5600020000006
 30
0.0
 11
2099.999999999999
 21
240.9600020000007
 31
0.0
  0
LINE
  5
570
330
1F
100
AcDbEntity
  8
Ｓ_１_１
  6
EXLTYPE2
 62
     1
100
AcDbLine
 10
2294.999999999999
 20
860.0000670001004
 30
0.0
 11
2294.999999999999
 21
815.0000670001004
 31
0.0
  0
LINE
  5
571
330
1F
100
AcDbEntity
  8
Ｓ_１_１
  6
EXLTYPE2
 62
     1
100
AcDbLine
 10
2272.2
 20
837.5000670001
 30
0.0
 11
2318.64
 21
837.5000670001
 31
0.0
  0
LINE
  5
572
330
1F
100
AcDbEntity
  8
Ｓ_１_１
  6
EXLTYPE2
 62
     1
100
AcDbLine
 10
1904.999999999999
 20
860.0000670001004
 30
0.0
 11
1904.999999999999
 21
815.0000670001004
 31
0.0
  0
LINE
  5
573
330
1F
100
AcDbEntity
  8
Ｓ_１_１
  6
EXLTYPE2
 62
     1
100
AcDbLine
 10
1927.8
 20
837.5000670001
 30
0.0
 11
1881.359999999999
 21
837.5000670001
 31
0.0
  0
LINE
  5
574
330
1F
100
AcDbEntity
  8
Ｓ_１_１
  6
EXLTYPE2
 62
     1
100
AcDbLine
 10
2129.999999999999
 20
913.5000670001
 30
0.0
 11
2129.999999999999
 21
904.0000670001
 31
0.0
  0
LINE
  5
575
330
1F
100
AcDbEntity
  8
Ｓ_１_１
  6
EXLTYPE2
 62
     1
100
AcDbLine
 10
2069.999999999999
 20
913.5000670001
 30
0.0
 11
2069.999999999999
 21
904.0000670001
 31
0.0
  0
LINE
  5
576
330
1F
100
AcDbEntity
  8
Ｓ_１_１
  6
EXLTYPE2
 62
     1
100
AcDbLine
 10
2009.999999999999
 20
913.5000670001
 30
0.0
 11
2009.999999999999
 21
904.0000670001
 31
0.0
  0
LINE
  5
577
330
1F
100
AcDbEntity
  8
Ｓ_１_１
  6
EXLTYPE2
 62
     1
100
AcDbLine
 10
1949.999999999999
 20
913.5000670001
 30
0.0
 11
1949.999999999999
 21
904.0000670001
 31
0.0
  0
LINE
  5
578
330
1F
100
AcDbEntity
  8
Ｓ_１_１
  6
EXLTYPE2
 62
     1
100
AcDbLine
 10
2189.999999999999
 20
913.5000670001
 30
0.0
 11
2189.999999999999
 21
904.0000670001
 31
0.0
  0
LINE
  5
579
330
1F
100
AcDbEntity
  8
Ｓ_１_１
  6
EXLTYPE2
 62
     1
100
AcDbLine
 10
2249.999999999999
 20
913.5000670001
 30
0.0
 11
2249.999999999999
 21
904.0000670001
 31
0.0
  0
LINE
  5
57A
330
1F
100
AcDbEntity
  8
Ｓ_１_１
  6
EXLTYPE2
 62
     1
100
AcDbLine
 10
889.9526892928408
 20
1266.54237936219
 30
0.0
 11
913.1003674880213
 21
1256.954297116291
 31
0.0
  0
LINE
  5
57B
330
1F
100
AcDbEntity
  8
Ｓ_１_１
  6
EXLTYPE2
 62
     1
100
AcDbLine
 10
1110.047310707159
 20
1266.54237936219
 30
0.0
 11
1086.899632511979
 21
1256.954297116291
 31
0.0
  0
LINE
  5
57C
330
1F
100
AcDbEntity
  8
Ｓ_１_１
  6
EXLTYPE2
 62
     1
100
AcDbLine
 10
889.9526892928408
 20
1733.457620637811
 30
0.0
 11
913.1003674880213
 21
1743.04570288371
 31
0.0
  0
LINE
  5
57D
330
1F
100
AcDbEntity
  8
Ｓ_１_１
  6
EXLTYPE2
 62
     1
100
AcDbLine
 10
1110.047310707159
 20
1733.457620637811
 30
0.0
 11
1086.899632511977
 21
1743.04570288371
 31
0.0
  0
LINE
  5
57E
330
1F
100
AcDbEntity
  8
Ｓ_１_１
  6
EXLTYPE2
 62
     1
100
AcDbLine
 10
1000.0
 20
1180.800000000001
 30
0.0
 11
1000.0
 21
1819.2
 31
0.0
  0
LINE
  5
57F
330
1F
100
AcDbEntity
  8
Ｓ_１_１
  6
EXLTYPE2
 62
     1
100
AcDbLine
 10
975.799987999999
 20
1250.0
 30
0.0
 11
1023.799987999999
 21
1250.0
 31
0.0
  0
LINE
  5
580
330
1F
100
AcDbEntity
  8
Ｓ_１_１
  6
EXLTYPE2
 62
     1
100
AcDbLine
 10
1000.0
 20
1274.4
 30
0.0
 11
1000.0
 21
1225.600000000001
 31
0.0
  0
LINE
  5
581
330
1F
100
AcDbEntity
  8
Ｓ_１_１
  6
EXLTYPE2
 62
     1
100
AcDbLine
 10
1225.799987999999
 20
1250.0
 30
0.0
 11
1273.799987999999
 21
1250.0
 31
0.0
  0
LINE
  5
582
330
1F
100
AcDbEntity
  8
Ｓ_１_１
  6
EXLTYPE2
 62
     1
100
AcDbLine
 10
1250.0
 20
1225.600000000001
 30
0.0
 11
1250.0
 21
1274.4
 31
0.0
  0
LINE
  5
583
330
1F
100
AcDbEntity
  8
Ｓ_１_１
  6
EXLTYPE2
 62
     1
100
AcDbLine
 10
725.799987999999
 20
1250.0
 30
0.0
 11
773.799987999999
 21
1250.0
 31
0.0
  0
LINE
  5
584
330
1F
100
AcDbEntity
  8
Ｓ_１_１
  6
EXLTYPE2
 62
     1
100
AcDbLine
 10
750.0000000000001
 20
1225.600000000001
 30
0.0
 11
750.0000000000001
 21
1274.4
 31
0.0
  0
LINE
  5
585
330
1F
100
AcDbEntity
  8
Ｓ_１_１
  6
EXLTYPE2
 62
     1
100
AcDbLine
 10
1225.799987999999
 20
1750.0
 30
0.0
 11
1273.799987999999
 21
1750.0
 31
0.0
  0
LINE
  5
586
330
1F
100
AcDbEntity
  8
Ｓ_１_１
  6
EXLTYPE2
 62
     1
100
AcDbLine
 10
1250.0
 20
1725.6
 30
0.0
 11
1250.0
 21
1774.399999999999
 31
0.0
  0
LINE
  5
587
330
1F
100
AcDbEntity
  8
Ｓ_１_１
  6
EXLTYPE2
 62
     1
100
AcDbLine
 10
975.799987999999
 20
1750.0
 30
0.0
 11
1023.799987999999
 21
1750.0
 31
0.0
  0
LINE
  5
588
330
1F
100
AcDbEntity
  8
Ｓ_１_１
  6
EXLTYPE2
 62
     1
100
AcDbLine
 10
1000.0
 20
1725.6
 30
0.0
 11
1000.0
 21
1774.399999999999
 31
0.0
  0
LINE
  5
589
330
1F
100
AcDbEntity
  8
Ｓ_１_１
  6
EXLTYPE2
 62
     1
100
AcDbLine
 10
725.799987999999
 20
1750.0
 30
0.0
 11
773.799987999999
 21
1750.0
 31
0.0
  0
LINE
  5
58A
330
1F
100
AcDbEntity
  8
Ｓ_１_１
  6
EXLTYPE2
 62
     1
100
AcDbLine
 10
750.0000000000001
 20
1725.6
 30
0.0
 11
750.0000000000001
 21
1774.399999999999
 31
0.0
  0
LINE
  5
58B
330
1F
100
AcDbEntity
  8
Ｓ_１_１
  6
EXLTYPE2
 62
     1
100
AcDbLine
 10
883.9215591705544
 20
1219.761853851755
 30
0.0
 11
927.5126265841938
 21
1325.000000000007
 31
0.0
  0
LINE
  5
58C
330
1F
100
AcDbEntity
  8
Ｓ_１_１
  6
EXLTYPE2
 62
     1
100
AcDbLine
 10
1116.078440829446
 20
1219.761853851755
 30
0.0
 11
1072.487373415792
 21
1325.00000000004
 31
0.0
  0
LINE
  5
58D
330
1F
100
AcDbEntity
  8
Ｓ_１_１
  6
EXLTYPE2
 62
     1
100
AcDbLine
 10
883.9215591705544
 20
1780.238146148245
 30
0.0
 11
927.5126265841756
 21
1675.000000000041
 31
0.0
  0
LINE
  5
58E
330
1F
100
AcDbEntity
  8
Ｓ_１_１
  6
EXLTYPE2
 62
     1
100
AcDbLine
 10
1116.078440829446
 20
1780.238146148245
 30
0.0
 11
1072.487373415825
 21
1675.000000000041
 31
0.0
  0
LINE
  5
58F
330
1F
100
AcDbEntity
  8
Ｓ_１_１
  6
EXLTYPE2
 62
     1
100
AcDbLine
 10
567.7922928453992
 20
1500.0
 30
0.0
 11
1411.399988000001
 21
1500.000000000001
 31
0.0
  0
LINE
  5
590
330
1F
100
AcDbEntity
  8
Ｓ_１_１
  6
EXLTYPE2
 62
     1
100
AcDbLine
 10
1370.0
 20
1661.708293346093
 30
0.0
 11
1370.0
 21
1618.291706653908
 31
0.0
  0
LINE
  5
591
330
1F
100
AcDbEntity
  8
Ｓ_１_１
  6
EXLTYPE2
 62
     1
100
AcDbLine
 10
1200.0
 20
1661.708293346093
 30
0.0
 11
1200.0
 21
1618.291706653908
 31
0.0
  0
LINE
  5
592
330
1F
100
AcDbEntity
  8
Ｓ_１_１
  6
EXLTYPE2
 62
     1
100
AcDbLine
 10
1348.291706653908
 20
1640.0
 30
0.0
 11
1391.708293346092
 21
1640.0
 31
0.0
  0
LINE
  5
593
330
1F
100
AcDbEntity
  8
Ｓ_１_１
  6
EXLTYPE2
 62
     1
100
AcDbLine
 10
1178.291706653908
 20
1640.0
 30
0.0
 11
1221.708293346092
 21
1640.0
 31
0.0
  0
LINE
  5
594
330
1F
100
AcDbEntity
  8
Ｓ_１_１
  6
EXLTYPE2
 62
     1
100
AcDbLine
 10
1370.0
 20
1338.291706653908
 30
0.0
 11
1370.0
 21
1381.708293346093
 31
0.0
  0
LINE
  5
595
330
1F
100
AcDbEntity
  8
Ｓ_１_１
  6
EXLTYPE2
 62
     1
100
AcDbLine
 10
1200.0
 20
1338.291706653908
 30
0.0
 11
1200.0
 21
1381.708293346093
 31
0.0
  0
LINE
  5
596
330
1F
100
AcDbEntity
  8
Ｓ_１_１
  6
EXLTYPE2
 62
     1
100
AcDbLine
 10
1348.291706653908
 20
1360.000000000001
 30
0.0
 11
1391.708293346092
 21
1360.000000000001
 31
0.0
  0
LINE
  5
597
330
1F
100
AcDbEntity
  8
Ｓ_１_１
  6
EXLTYPE2
 62
     1
100
AcDbLine
 10
1178.291706653908
 20
1360.000000000001
 30
0.0
 11
1221.708293346092
 21
1360.000000000001
 31
0.0
  0
LINE
  5
598
330
1F
100
AcDbEntity
  8
Ｓ_１_１
  6
EXLTYPE2
 62
     1
100
AcDbLine
 10
630.0000000000001
 20
1661.708293346093
 30
0.0
 11
630.0000000000001
 21
1618.291706653908
 31
0.0
  0
LINE
  5
599
330
1F
100
AcDbEntity
  8
Ｓ_１_１
  6
EXLTYPE2
 62
     1
100
AcDbLine
 10
800.0000000000001
 20
1661.708293346093
 30
0.0
 11
800.0000000000001
 21
1618.291706653908
 31
0.0
  0
LINE
  5
59A
330
1F
100
AcDbEntity
  8
Ｓ_１_１
  6
EXLTYPE2
 62
     1
100
AcDbLine
 10
651.7082933460916
 20
1640.000000000001
 30
0.0
 11
608.2917066539077
 21
1640.000000000001
 31
0.0
  0
LINE
  5
59B
330
1F
100
AcDbEntity
  8
Ｓ_１_１
  6
EXLTYPE2
 62
     1
100
AcDbLine
 10
821.7082933460916
 20
1640.000000000001
 30
0.0
 11
778.2917066539086
 21
1640.000000000001
 31
0.0
  0
LINE
  5
59C
330
1F
100
AcDbEntity
  8
Ｓ_１_１
  6
EXLTYPE2
 62
     1
100
AcDbLine
 10
630.0000000000001
 20
1338.29170665391
 30
0.0
 11
630.0000000000001
 21
1381.708293346095
 31
0.0
  0
LINE
  5
59D
330
1F
100
AcDbEntity
  8
Ｓ_１_１
  6
EXLTYPE2
 62
     1
100
AcDbLine
 10
800.0000000000001
 20
1338.29170665391
 30
0.0
 11
800.0000000000001
 21
1381.708293346095
 31
0.0
  0
LINE
  5
59E
330
1F
100
AcDbEntity
  8
Ｓ_１_１
  6
EXLTYPE2
 62
     1
100
AcDbLine
 10
651.7082933460916
 20
1360.000000000001
 30
0.0
 11
608.2917066539077
 21
1360.000000000001
 31
0.0
  0
LINE
  5
59F
330
1F
100
AcDbEntity
  8
Ｓ_１_１
  6
EXLTYPE2
 62
     1
100
AcDbLine
 10
821.7082933460916
 20
1360.000000000001
 30
0.0
 11
778.2917066539086
 21
1360.000000000001
 31
0.0
  0
LINE
  5
5A0
330
1F
100
AcDbEntity
  8
Ｓ_１_１
  6
EXLTYPE2
 62
     1
100
AcDbLine
 10
1050.0
 20
1681.5
 30
0.0
 11
1050.0
 21
1320.5
 31
0.0
  0
LINE
  5
5A1
330
1F
100
AcDbEntity
  8
Ｓ_１_１
  6
EXLTYPE2
 62
     1
100
AcDbLine
 10
1150.0
 20
1681.5
 30
0.0
 11
1150.0
 21
1320.5
 31
0.0
  0
LINE
  5
5A2
330
1F
100
AcDbEntity
  8
Ｓ_１_１
  6
EXLTYPE2
 62
     1
100
AcDbLine
 10
1250.0
 20
1681.5
 30
0.0
 11
1250.0
 21
1320.5
 31
0.0
  0
LINE
  5
5A3
330
1F
100
AcDbEntity
  8
Ｓ_１_１
  6
EXLTYPE2
 62
     1
100
AcDbLine
 10
1350.0
 20
1681.5
 30
0.0
 11
1350.0
 21
1320.5
 31
0.0
  0
LINE
  5
5A4
330
1F
100
AcDbEntity
  8
Ｓ_１_１
  6
EXLTYPE2
 62
     1
100
AcDbLine
 10
594.0000000000001
 20
1650.0
 30
0.0
 11
1403.0
 21
1650.000000000001
 31
0.0
  0
LINE
  5
5A5
330
1F
100
AcDbEntity
  8
Ｓ_１_１
  6
EXLTYPE2
 62
     1
100
AcDbLine
 10
594.0000000000001
 20
1590.0
 30
0.0
 11
1403.5
 21
1590.000000000001
 31
0.0
  0
LINE
  5
5A6
330
1F
100
AcDbEntity
  8
Ｓ_１_１
  6
EXLTYPE2
 62
     1
100
AcDbLine
 10
594.5000000000001
 20
1530.0
 30
0.0
 11
1404.5
 21
1530.000000000001
 31
0.0
  0
LINE
  5
5A7
330
1F
100
AcDbEntity
  8
Ｓ_１_１
  6
EXLTYPE2
 62
     1
100
AcDbLine
 10
594.5000000000001
 20
1470.0
 30
0.0
 11
1404.5
 21
1470.0
 31
0.0
  0
LINE
  5
5A8
330
1F
100
AcDbEntity
  8
Ｓ_１_１
  6
EXLTYPE2
 62
     1
100
AcDbLine
 10
594.0000000000001
 20
1410.0
 30
0.0
 11
1403.5
 21
1410.0
 31
0.0
  0
LINE
  5
5A9
330
1F
100
AcDbEntity
  8
Ｓ_１_１
  6
EXLTYPE2
 62
     1
100
AcDbLine
 10
594.0000000000001
 20
1350.0
 30
0.0
 11
1403.0
 21
1350.0
 31
0.0
  0
LINE
  5
5AA
330
1F
100
AcDbEntity
  8
Ｓ_１_１
  6
EXLTYPE2
 62
     1
100
AcDbLine
 10
950.0000000000001
 20
1681.5
 30
0.0
 11
950.0000000000001
 21
1320.500000000001
 31
0.0
  0
LINE
  5
5AB
330
1F
100
AcDbEntity
  8
Ｓ_１_１
  6
EXLTYPE2
 62
     1
100
AcDbLine
 10
850.0000000000001
 20
1681.5
 30
0.0
 11
850.0000000000001
 21
1320.500000000001
 31
0.0
  0
LINE
  5
5AC
330
1F
100
AcDbEntity
  8
Ｓ_１_１
  6
EXLTYPE2
 62
     1
100
AcDbLine
 10
750.0000000000001
 20
1681.5
 30
0.0
 11
750.0000000000001
 21
1320.5
 31
0.0
  0
LINE
  5
5AD
330
1F
100
AcDbEntity
  8
Ｓ_１_１
  6
EXLTYPE2
 62
     1
100
AcDbLine
 10
650.0000000000001
 20
1681.5
 30
0.0
 11
650.0000000000001
 21
1320.5
 31
0.0
  0
LINE
  5
5AE
330
1F
100
AcDbEntity
  8
Ｓ_１_１
  6
EXLTYPE2
 62
     1
100
AcDbLine
 10
1849.999999999999
 20
1725.6
 30
0.0
 11
1849.999999999999
 21
1774.399999999999
 31
0.0
  0
LINE
  5
5AF
330
1F
100
AcDbEntity
  8
Ｓ_１_１
  6
EXLTYPE2
 62
     1
100
AcDbLine
 10
1825.799987999997
 20
1750.0
 30
0.0
 11
1873.799987999997
 21
1750.0
 31
0.0
  0
LINE
  5
5B0
330
1F
100
AcDbEntity
  8
Ｓ_１_１
  6
EXLTYPE2
 62
     1
100
AcDbLine
 10
1983.921559170553
 20
1780.238146148245
 30
0.0
 11
2037.276898229912
 21
1651.426962966221
 31
0.0
  0
LINE
  5
5B1
330
1F
100
AcDbEntity
  8
Ｓ_１_１
  6
EXLTYPE2
 62
     1
100
AcDbLine
 10
1819.761853851753
 20
1616.078440829445
 30
0.0
 11
1948.573037033777
 21
1562.723101770086
 31
0.0
  0
LINE
  5
5B2
330
1F
100
AcDbEntity
  8
Ｓ_１_１
  6
EXLTYPE2
 62
     1
100
AcDbLine
 10
1819.761853851753
 20
1383.921559170554
 30
0.0
 11
1948.573037033777
 21
1437.276898229914
 31
0.0
  0
LINE
  5
5B3
330
1F
100
AcDbEntity
  8
Ｓ_１_１
  6
EXLTYPE2
 62
     1
100
AcDbLine
 10
1983.921559170553
 20
1219.761853851754
 30
0.0
 11
2037.276898229912
 21
1348.573037033778
 31
0.0
  0
LINE
  5
5B4
330
1F
100
AcDbEntity
  8
Ｓ_１_１
  6
EXLTYPE2
 62
     1
100
AcDbLine
 10
2216.078440829444
 20
1219.761853851754
 30
0.0
 11
2162.723101770086
 21
1348.573037033778
 31
0.0
  0
LINE
  5
5B5
330
1F
100
AcDbEntity
  8
Ｓ_１_１
  6
EXLTYPE2
 62
     1
100
AcDbLine
 10
2380.238146148242
 20
1383.921559170554
 30
0.0
 11
2251.426962966218
 21
1437.276898229914
 31
0.0
  0
LINE
  5
5B6
330
1F
100
AcDbEntity
  8
Ｓ_１_１
  6
EXLTYPE2
 62
     1
100
AcDbLine
 10
2380.238146148242
 20
1616.078440829445
 30
0.0
 11
2251.426962966218
 21
1562.723101770086
 31
0.0
  0
LINE
  5
5B7
330
1F
100
AcDbEntity
  8
Ｓ_１_１
  6
EXLTYPE2
 62
     1
100
AcDbLine
 10
2216.078440829444
 20
1780.238146148245
 30
0.0
 11
2162.723101770086
 21
1651.426962966221
 31
0.0
  0
LINE
  5
5B8
330
1F
100
AcDbEntity
  8
Ｓ_１_１
  6
EXLTYPE2
 62
     1
100
AcDbLine
 10
2099.999999999999
 20
1725.6
 30
0.0
 11
2099.999999999999
 21
1774.399999999999
 31
0.0
  0
LINE
  5
5B9
330
1F
100
AcDbEntity
  8
Ｓ_１_１
  6
EXLTYPE2
 62
     1
100
AcDbLine
 10
2075.799987999997
 20
1750.0
 30
0.0
 11
2123.799987999997
 21
1750.0
 31
0.0
  0
LINE
  5
5BA
330
1F
100
AcDbEntity
  8
Ｓ_１_１
  6
EXLTYPE2
 62
     1
100
AcDbLine
 10
2349.999999999999
 20
1725.6
 30
0.0
 11
2349.999999999999
 21
1774.399999999999
 31
0.0
  0
LINE
  5
5BB
330
1F
100
AcDbEntity
  8
Ｓ_１_１
  6
EXLTYPE2
 62
     1
100
AcDbLine
 10
2325.799987999997
 20
1750.0
 30
0.0
 11
2373.799987999997
 21
1750.0
 31
0.0
  0
LINE
  5
5BC
330
1F
100
AcDbEntity
  8
Ｓ_１_１
  6
EXLTYPE2
 62
     1
100
AcDbLine
 10
1849.999999999999
 20
1475.6
 30
0.0
 11
1849.999999999999
 21
1524.399999999999
 31
0.0
  0
LINE
  5
5BD
330
1F
100
AcDbEntity
  8
Ｓ_１_１
  6
EXLTYPE2
 62
     1
100
AcDbLine
 10
2349.999999999999
 20
1475.6
 30
0.0
 11
2349.999999999999
 21
1524.399999999999
 31
0.0
  0
LINE
  5
5BE
330
1F
100
AcDbEntity
  8
Ｓ_１_１
  6
EXLTYPE2
 62
     1
100
AcDbLine
 10
1849.999999999999
 20
1225.6
 30
0.0
 11
1849.999999999999
 21
1274.399999999999
 31
0.0
  0
LINE
  5
5BF
330
1F
100
AcDbEntity
  8
Ｓ_１_１
  6
EXLTYPE2
 62
     1
100
AcDbLine
 10
1825.799987999997
 20
1250.0
 30
0.0
 11
1873.799987999997
 21
1250.0
 31
0.0
  0
LINE
  5
5C0
330
1F
100
AcDbEntity
  8
Ｓ_１_１
  6
EXLTYPE2
 62
     1
100
AcDbLine
 10
2349.999999999999
 20
1225.6
 30
0.0
 11
2349.999999999999
 21
1274.399999999999
 31
0.0
  0
LINE
  5
5C1
330
1F
100
AcDbEntity
  8
Ｓ_１_１
  6
EXLTYPE2
 62
     1
100
AcDbLine
 10
2325.799987999997
 20
1250.0
 30
0.0
 11
2373.799987999997
 21
1250.0
 31
0.0
  0
LINE
  5
5C2
330
1F
100
AcDbEntity
  8
Ｓ_１_１
  6
EXLTYPE2
 62
     1
100
AcDbLine
 10
2099.999999999999
 20
1274.399999999999
 30
0.0
 11
2099.999999999999
 21
1225.6
 31
0.0
  0
LINE
  5
5C3
330
1F
100
AcDbEntity
  8
Ｓ_１_１
  6
EXLTYPE2
 62
     1
100
AcDbLine
 10
2075.799987999997
 20
1250.0
 30
0.0
 11
2123.799987999997
 21
1250.0
 31
0.0
  0
LINE
  5
5C4
330
1F
100
AcDbEntity
  8
Ｓ_１_１
  6
EXLTYPE2
 62
     1
100
AcDbLine
 10
2099.999999999999
 20
1180.8
 30
0.0
 11
2099.999999999999
 21
1815.199999999999
 31
0.0
  0
LINE
  5
5C5
330
1F
100
AcDbEntity
  8
Ｓ_１_１
  6
EXLTYPE2
 62
     1
100
AcDbLine
 10
1782.599987999997
 20
1500.0
 30
0.0
 11
2418.599987999997
 21
1500.0
 31
0.0
  0
CIRCLE
  5
5C6
330
1F
100
AcDbEntity
  8
Ｓ_１_１
  6
EXLTYPE2
 62
     1
100
AcDbCircle
 10
2100.0
 20
1500.0
 30
0.0
 40
105.0
  0
LINE
  5
5C7
330
1F
100
AcDbEntity
  8
Ｓ_１_１
  6
CONTINUOUS
 62
     3
100
AcDbLine
 10
902.5000020000007
 20
716.4999929999999
 30
0.0
 11
902.5000020000007
 21
711.9999170000001
 31
0.0
  0
LINE
  5
5C8
330
1F
100
AcDbEntity
  8
Ｓ_１_１
  6
CONTINUOUS
 62
     3
100
AcDbLine
 10
902.4989380000006
 20
711.999898
 30
0.0
 11
899.9989429999987
 21
707.6697680000002
 31
0.0
  0
LINE
  5
5C9
330
1F
100
AcDbEntity
  8
Ｓ_１_１
  6
CONTINUOUS
 62
     3
100
AcDbLine
 10
1097.499997999999
 20
716.4999929999999
 30
0.0
 11
1097.499997999999
 21
711.9999170000001
 31
0.0
  0
LINE
  5
5CA
330
1F
100
AcDbEntity
  8
Ｓ_１_１
  6
CONTINUOUS
 62
     3
100
AcDbLine
 10
1097.501061999999
 20
711.999898
 30
0.0
 11
1100.001057000001
 21
707.6697680000002
 31
0.0
  0
LINE
  5
5CB
330
1F
100
AcDbEntity
  8
Ｓ_１_１
  6
CONTINUOUS
 62
     3
100
AcDbLine
 10
1149.499996999999
 20
701.9999929999999
 30
0.0
 11
850.500003000001
 21
701.9999929999999
 31
0.0
  0
LINE
  5
5CC
330
1F
100
AcDbEntity
  8
Ｓ_１_１
  6
CONTINUOUS
 62
     3
100
AcDbLine
 10
900.0000020000007
 20
707.669778
 30
0.0
 11
900.0000020000007
 21
701.9999929999999
 31
0.0
  0
LINE
  5
5CD
330
1F
100
AcDbEntity
  8
Ｓ_１_１
  6
CONTINUOUS
 62
     3
100
AcDbLine
 10
1099.999997999999
 20
707.669778
 30
0.0
 11
1099.999997999999
 21
701.9999929999999
 31
0.0
  0
LINE
  5
5CE
330
1F
100
AcDbEntity
  8
Ｓ_１_１
  6
CONTINUOUS
 62
     3
100
AcDbLine
 10
1947.500040000001
 20
699.000039
 30
0.0
 11
2100.000801000001
 21
699.000039
 31
0.0
  0
LINE
  5
5CF
330
1F
100
AcDbEntity
  8
Ｓ_１_１
  6
CONTINUOUS
 62
     3
100
AcDbLine
 10
2252.499960000002
 20
699.000039
 30
0.0
 11
2099.999199000001
 21
699.000039
 31
0.0
  0
LINE
  5
5D0
330
1F
100
AcDbEntity
  8
Ｓ_１_１
  6
CONTINUOUS
 62
     3
100
AcDbLine
 10
2249.499960000002
 20
701.9999929999999
 30
0.0
 11
2099.999199000001
 21
701.9999929999999
 31
0.0
  0
LINE
  5
5D1
330
1F
100
AcDbEntity
  8
Ｓ_１_１
  6
CONTINUOUS
 62
     3
100
AcDbLine
 10
1950.500040000001
 20
701.9999929999999
 30
0.0
 11
2100.000801000001
 21
701.9999929999999
 31
0.0
  0
LINE
  5
5D2
330
1F
100
AcDbEntity
  8
Ｓ_１_１
  6
CONTINUOUS
 62
     3
100
AcDbLine
 10
2197.499998
 20
716.499992
 30
0.0
 11
2197.499998
 21
711.9999160000002
 31
0.0
  0
LINE
  5
5D3
330
1F
100
AcDbEntity
  8
Ｓ_１_１
  6
CONTINUOUS
 62
     3
100
AcDbLine
 10
2197.501062
 20
711.9998970000001
 30
0.0
 11
2200.001057
 21
707.6697669999999
 31
0.0
  0
LINE
  5
5D4
330
1F
100
AcDbEntity
  8
Ｓ_１_１
  6
CONTINUOUS
 62
     3
100
AcDbLine
 10
2002.500002
 20
716.499992
 30
0.0
 11
2002.500002
 21
711.9999160000002
 31
0.0
  0
LINE
  5
5D5
330
1F
100
AcDbEntity
  8
Ｓ_１_１
  6
CONTINUOUS
 62
     3
100
AcDbLine
 10
2002.498937999999
 20
711.9998970000001
 30
0.0
 11
1999.998943000001
 21
707.6697669999999
 31
0.0
  0
TEXT
  5
5D6
330
1F
100
AcDbEntity
  8
Ｓ_１_１
  6
CONTINUOUS
 62
     4
100
AcDbText
 10
1359.2
 20
474.7536038797
 30
0.0
 40
24.62509622786759
  1
安定架台
 41
0.999230769230769
  7
EXCADTTF1
 72
     5
 11
1487.2
 21
474.7536038797
 31
0.0
100
AcDbText
  0
LEADER
  5
5D7
330
1F
100
AcDbEntity
  8
Ｓ_１_１
  6
CONTINUOUS
 62
     2
100
AcDbLeader
  3
ISO-25
 76
     3
 10
1278.1927922406
 20
399.5
 30
0.0
 10
1344.9463961203
 20
466.2536038797
 30
0.0
 10
1487.2
 20
466.2536038797
 30
0.0
1001
ACAD
1000
DSTYLE
1002
{
1070
     5
1000
EX_NORM
1070
    41
1040
24.0
1070
   341
1005
7E
1002
}
  0
LEADER
  5
5D8
330
1F
100
AcDbEntity
  8
Ｓ_１_１
  6
CONTINUOUS
 62
     2
100
AcDbLeader
  3
ISO-25
 76
     3
 10
970.04363033174
 20
834.54630602769
 30
0.0
 10
927.5815090937201
 20
993.01709988513
 30
0.0
 10
683.2000000000002
 20
993.01709988513
 30
0.0
1001
ACAD
1000
DSTYLE
1002
{
1070
     5
1000
EX_NORM
1070
    41
1040
24.0
1070
   341
1005
7E
1002
}
  0
TEXT
  5
5D9
330
1F
100
AcDbEntity
  8
Ｓ_１_１
  6
CONTINUOUS
 62
     4
100
AcDbText
 10
683.2000000000002
 20
1001.51709988513
 30
0.0
 40
24.62509622786759
  1
前後回転ヘッド
 41
0.9992307692307691
  7
EXCADTTF1
 72
     5
 11
907.2000000000002
 21
1001.51709988513
 31
0.0
100
AcDbText
  0
TEXT
  5
5DA
330
1F
100
AcDbEntity
  8
Ｓ_１_１
  6
CONTINUOUS
 62
     4
100
AcDbText
 10
1158.4
 20
1002.83819777931
 30
0.0
 40
24.62509622786759
  1
角ヘッド
 41
0.999230769230769
  7
EXCADTTF1
 72
     5
 11
1286.4
 21
1002.83819777931
 31
0.0
100
AcDbText
  0
LEADER
  5
5DB
330
1F
100
AcDbEntity
  8
Ｓ_１_１
  6
CONTINUOUS
 62
     2
100
AcDbLeader
  3
ISO-25
 76
     3
 10
1092.0
 20
909.999993
 30
0.0
 10
1140.6926852323
 20
994.33819777931
 30
0.0
 10
1286.4
 20
994.33819777931
 30
0.0
1001
ACAD
1000
DSTYLE
1002
{
1070
     5
1000
EX_NORM
1070
    41
1040
24.0
1070
   341
1005
7E
1002
}
  0
TEXT
  5
5DC
330
1F
100
AcDbEntity
  8
Ｓ_１_１
  6
CONTINUOUS
 62
     4
100
AcDbText
 10
414.4000000000001
 20
1774.8303755053
 30
0.0
 40
24.62509622786759
  1
8-25キリ
 41
0.999230769230769
  7
EXCADTTF1
 72
     5
 11
542.4000000000001
 21
1774.8303755053
 31
0.0
100
AcDbText
  0
LEADER
  5
5DD
330
1F
100
AcDbEntity
  8
Ｓ_１_１
  6
CONTINUOUS
 62
     2
100
AcDbLeader
  3
ISO-25
 76
     3
 10
620.0000000000001
 20
1647.5
 30
0.0
 10
551.3932507141001
 20
1766.3303755053
 30
0.0
 10
414.4000000000001
 20
1766.3303755053
 30
0.0
1001
ACAD
1000
DSTYLE
1002
{
1070
     5
1000
EX_NORM
1070
    41
1040
24.0
1070
   341
1005
7E
1002
}
  0
TEXT
  5
5DE
330
1F
100
AcDbEntity
  8
Ｓ_１_１
  6
CONTINUOUS
 62
     4
100
AcDbText
 10
1557.6
 20
1915.3598245749
 30
0.0
 40
24.62509622786759
  1
8-26キリ
 41
0.999230769230769
  7
EXCADTTF1
 72
     5
 11
1685.6
 21
1915.3598245749
 31
0.0
100
AcDbText
  0
LEADER
  5
5DF
330
1F
100
AcDbEntity
  8
Ｓ_１_１
  6
CONTINUOUS
 62
     2
100
AcDbLeader
  3
ISO-25
 76
     3
 10
1839.7384211741
 20
1757.9812279757
 30
0.0
 10
1690.8598245749
 20
1906.8598245749
 30
0.0
 10
1557.6
 20
1906.8598245749
 30
0.0
1001
ACAD
1000
DSTYLE
1002
{
1070
     5
1000
EX_NORM
1070
    41
1040
24.0
1070
   341
1005
7E
1002
}
  0
POLYLINE
  5
5E0
330
1F
100
AcDbEntity
  8
Ｓ_１_１
  6
CONTINUOUS
 62
     3
100
AcDb2dPolyline
 66
     1
 10
0.0
 20
0.0
 30
0.0
 70
   128
  0
VERTEX
  5
5E1
330
5E0
100
AcDbEntity
  8
Ｓ_１_１
  6
CONTINUOUS
 62
     3
100
AcDbVertex
100
AcDb2dVertex
 10
2099.999999999995
 20
583.1435855394484
 30
0.0
  0
VERTEX
  5
5E2
330
5E0
100
AcDbEntity
  8
Ｓ_１_１
  6
CONTINUOUS
 62
     3
100
AcDbVertex
100
AcDb2dVertex
 10
2087.999999999995
 20
590.0717887697247
 30
0.0
  0
VERTEX
  5
5E3
330
5E0
100
AcDbEntity
  8
Ｓ_１_１
  6
CONTINUOUS
 62
     3
100
AcDbVertex
100
AcDb2dVertex
 10
2087.999999999995
 20
603.9281952302754
 30
0.0
  0
VERTEX
  5
5E4
330
5E0
100
AcDbEntity
  8
Ｓ_１_１
  6
CONTINUOUS
 62
     3
100
AcDbVertex
100
AcDb2dVertex
 10
2099.999999999995
 20
610.8563984605516
 30
0.0
  0
VERTEX
  5
5E5
330
5E0
100
AcDbEntity
  8
Ｓ_１_１
  6
CONTINUOUS
 62
     3
100
AcDbVertex
100
AcDb2dVertex
 10
2111.999999999995
 20
603.9281952302754
 30
0.0
  0
VERTEX
  5
5E6
330
5E0
100
AcDbEntity
  8
Ｓ_１_１
  6
CONTINUOUS
 62
     3
100
AcDbVertex
100
AcDb2dVertex
 10
2111.999999999995
 20
590.0717887697247
 30
0.0
  0
VERTEX
  5
5E7
330
5E0
100
AcDbEntity
  8
Ｓ_１_１
  6
CONTINUOUS
 62
     3
100
AcDbVertex
100
AcDb2dVertex
 10
2099.999999999995
 20
583.1435855394484
 30
0.0
  0
SEQEND
  5
5E8
330
5E0
100
AcDbEntity
  8
Ｓ_１_１
  6
CONTINUOUS
 62
     3
  0
CIRCLE
  5
5E9
330
1F
100
AcDbEntity
  8
Ｓ_１_１
  6
CONTINUOUS
 62
     3
100
AcDbCircle
 10
2099.999999999995
 20
596.999992
 30
0.0
 40
12.00000000000102
  0
CIRCLE
  5
5EA
330
1F
100
AcDbEntity
  8
Ｓ_１_１
  6
CONTINUOUS
 62
     3
100
AcDbCircle
 10
2099.999999999995
 20
596.999992
 30
0.0
 40
10.72532284355114
  0
CIRCLE
  5
5EB
330
1F
100
AcDbEntity
  8
Ｓ_１_１
  6
CONTINUOUS
 62
     3
100
AcDbCircle
 10
2099.999999999995
 20
596.999992
 30
0.0
 40
6.323600530683808
  0
CIRCLE
  5
5EC
330
1F
100
AcDbEntity
  8
Ｓ_１_１
  6
CONTINUOUS
 62
     3
100
AcDbCircle
 10
2099.999999999995
 20
596.999992
 30
0.0
 40
4.217842489549019
  0
LINE
  5
5ED
330
1F
100
AcDbEntity
  8
Ｓ_１_１
  6
CONTINUOUS
 62
     3
100
AcDbLine
 10
2051.0
 20
592.7499920000008
 30
0.0
 11
2046.0
 21
592.7499920000008
 31
0.0
  0
LINE
  5
5EE
330
1F
100
AcDbEntity
  8
Ｓ_１_１
  6
CONTINUOUS
 62
     3
100
AcDbLine
 10
2051.0
 20
601.2499920000008
 30
0.0
 11
2046.0
 21
601.2499920000008
 31
0.0
  0
LINE
  5
5EF
330
1F
100
AcDbEntity
  8
Ｓ_１_１
  6
CONTINUOUS
 62
     3
100
AcDbLine
 10
2051.0
 20
601.9999920000008
 30
0.0
 11
2046.75
 21
601.9999920000008
 31
0.0
  0
LINE
  5
5F0
330
1F
100
AcDbEntity
  8
Ｓ_１_１
  6
CONTINUOUS
 62
     3
100
AcDbLine
 10
2051.0
 20
591.9999920000008
 30
0.0
 11
2046.75
 21
591.9999920000008
 31
0.0
  0
LINE
  5
5F1
330
1F
100
AcDbEntity
  8
Ｓ_１_１
  6
CONTINUOUS
 62
     3
100
AcDbLine
 10
2046.0
 20
601.2499920000008
 30
0.0
 11
2046.0
 21
592.7499920000008
 31
0.0
  0
LINE
  5
5F2
330
1F
100
AcDbEntity
  8
Ｓ_１_１
  6
CONTINUOUS
 62
     3
100
AcDbLine
 10
2046.75
 20
601.9999920000008
 30
0.0
 11
2046.75
 21
591.9999920000008
 31
0.0
  0
LINE
  5
5F3
330
1F
100
AcDbEntity
  8
Ｓ_１_１
  6
CONTINUOUS
 62
     3
100
AcDbLine
 10
2046.749997442299
 20
601.9999908750009
 30
0.0
 11
2045.999999343499
 21
601.249992713001
 31
0.0
  0
LINE
  5
5F4
330
1F
100
AcDbEntity
  8
Ｓ_１_１
  6
CONTINUOUS
 62
     3
100
AcDbLine
 10
2045.999998353
 20
592.749990074701
 30
0.0
 11
2046.7499985381
 21
591.999989952901
 31
0.0
  0
LINE
  5
5F5
330
1F
100
AcDbEntity
  8
Ｓ_１_１
  6
CONTINUOUS
 62
     3
100
AcDbLine
 10
2058.0
 20
596.9999920000008
 30
0.0
 11
2058.0
 21
586.9999920000008
 31
0.0
  0
LINE
  5
5F6
330
1F
100
AcDbEntity
  8
Ｓ_１_１
  6
CONTINUOUS
 62
     3
100
AcDbLine
 10
2058.0
 20
606.9999920000008
 30
0.0
 11
2058.0
 21
596.9999920000008
 31
0.0
  0
LINE
  5
5F7
330
1F
100
AcDbEntity
  8
Ｓ_１_１
  6
CONTINUOUS
 62
     3
100
AcDbLine
 10
2057.999999448999
 20
586.9999925510009
 30
0.0
 11
2056.99999942
 21
587.9999926643012
 31
0.0
  0
LINE
  5
5F8
330
1F
100
AcDbEntity
  8
Ｓ_１_１
  6
CONTINUOUS
 62
     3
100
AcDbLine
 10
2056.999999715099
 20
605.9999917994008
 30
0.0
 11
2057.9999995123
 21
606.9999915123011
 31
0.0
  0
LINE
  5
5F9
330
1F
100
AcDbEntity
  8
Ｓ_１_１
  6
CONTINUOUS
 62
     3
100
AcDbLine
 10
2057.0
 20
605.9999917994008
 30
0.0
 11
2057.0
 21
596.9999920000008
 31
0.0
  0
LINE
  5
5FA
330
1F
100
AcDbEntity
  8
Ｓ_１_１
  6
CONTINUOUS
 62
     3
100
AcDbLine
 10
2057.0
 20
596.9999920000008
 30
0.0
 11
2057.0
 21
587.9999926643012
 31
0.0
  0
LINE
  5
5FB
330
1F
100
AcDbEntity
  8
Ｓ_１_１
  6
CONTINUOUS
 62
     3
100
AcDbLine
 10
2087.5
 20
586.9999920000008
 30
0.0
 11
2058.0
 21
586.9999920000008
 31
0.0
  0
LINE
  5
5FC
330
1F
100
AcDbEntity
  8
Ｓ_１_１
  6
CONTINUOUS
 62
     3
100
AcDbLine
 10
2051.0000018344
 20
589.5075793368009
 30
0.0
 11
2052.0000020276
 21
587.4999927471011
 31
0.0
  0
LINE
  5
5FD
330
1F
100
AcDbEntity
  8
Ｓ_１_１
  6
CONTINUOUS
 62
     3
100
AcDbLine
 10
2051.000000485499
 20
604.492405756001
 30
0.0
 11
2052.0000006787
 21
606.4999923457011
 31
0.0
  0
LINE
  5
5FE
330
1F
100
AcDbEntity
  8
Ｓ_１_１
  6
CONTINUOUS
 62
     3
100
AcDbLine
 10
2057.000000023399
 20
589.5075786938008
 30
0.0
 11
2055.999999830199
 21
587.4999921041011
 31
0.0
  0
LINE
  5
5FF
330
1F
100
AcDbEntity
  8
Ｓ_１_１
  6
CONTINUOUS
 62
     3
100
AcDbLine
 10
2057.000001514099
 20
604.4924061143009
 30
0.0
 11
2056.0000014625
 21
606.4999924195012
 31
0.0
  0
LINE
  5
600
330
1F
100
AcDbEntity
  8
Ｓ_１_１
  6
CONTINUOUS
 62
     3
100
AcDbLine
 10
2056.0
 20
606.4999920000008
 30
0.0
 11
2052.0
 21
606.4999920000008
 31
0.0
  0
LINE
  5
601
330
1F
100
AcDbEntity
  8
Ｓ_１_１
  6
CONTINUOUS
 62
     3
100
AcDbLine
 10
2056.0
 20
587.4999920000008
 30
0.0
 11
2052.0
 21
587.4999920000008
 31
0.0
  0
LINE
  5
602
330
1F
100
AcDbEntity
  8
Ｓ_１_１
  6
CONTINUOUS
 62
     3
100
AcDbLine
 10
2051.0
 20
596.9999920000008
 30
0.0
 11
2051.0
 21
589.5075781613008
 31
0.0
  0
LINE
  5
603
330
1F
100
AcDbEntity
  8
Ｓ_１_１
  6
CONTINUOUS
 62
     3
100
AcDbLine
 10
2051.0
 20
604.4924058387008
 30
0.0
 11
2051.0
 21
596.9999920000008
 31
0.0
  0
ARC
  5
604
330
1F
100
AcDbEntity
  8
Ｓ_１_１
  6
CONTINUOUS
 62
     3
100
AcDbCircle
 10
2041.458333333299
 20
596.9999920000008
 30
0.0
 40
15.5416666667
100
AcDbArc
 50
339.3345163543002
 51
339.3345238904478
  0
ARC
  5
605
330
1F
100
AcDbEntity
  8
Ｓ_１_１
  6
CONTINUOUS
 62
     3
100
AcDbCircle
 10
2066.5416666667
 20
596.9999920000008
 30
0.0
 40
15.5416666667
100
AcDbArc
 50
200.6654761095529
 51
200.6654784093996
  0
ARC
  5
606
330
1F
100
AcDbEntity
  8
Ｓ_１_１
  6
CONTINUOUS
 62
     3
100
AcDbCircle
 10
2041.458333333299
 20
596.9999920000008
 30
0.0
 40
15.5416666667
100
AcDbArc
 50
342.8126324028146
 51
17.18736809517867
  0
ARC
  5
607
330
1F
100
AcDbEntity
  8
Ｓ_１_１
  6
CONTINUOUS
 62
     3
100
AcDbCircle
 10
2041.458333333299
 20
596.9999920000008
 30
0.0
 40
15.5416666667
100
AcDbArc
 50
20.66547865603566
 51
20.66548000330019
  0
ARC
  5
608
330
1F
100
AcDbEntity
  8
Ｓ_１_１
  6
CONTINUOUS
 62
     3
100
AcDbCircle
 10
2066.5416666667
 20
596.9999920000008
 30
0.0
 40
15.5416666667
100
AcDbArc
 50
162.8126319048212
 51
197.1873675971855
  0
LINE
  5
609
330
1F
100
AcDbEntity
  8
Ｓ_１_１
  6
CONTINUOUS
 62
     3
100
AcDbLine
 10
2051.694035882138
 20
592.4074695053208
 30
0.0
 11
2056.305964117862
 21
592.4074695053208
 31
0.0
  0
LINE
  5
60A
330
1F
100
AcDbEntity
  8
Ｓ_１_１
  6
CONTINUOUS
 62
     3
100
AcDbLine
 10
2051.694035922053
 20
601.5925146237308
 30
0.0
 11
2056.305964077945
 21
601.5925146237308
 31
0.0
  0
ARC
  5
60B
330
1F
100
AcDbEntity
  8
Ｓ_１_１
  6
CONTINUOUS
 62
     3
100
AcDbCircle
 10
2057.0
 20
604.4924091539909
 30
0.0
 40
6.000000000001596
100
AcDbArc
 50
180.0000417559226
 51
208.9021840779137
  0
ARC
  5
60C
330
1F
100
AcDbEntity
  8
Ｓ_１_１
  6
CONTINUOUS
 62
     3
100
AcDbCircle
 10
2051.0
 20
604.4924047813209
 30
0.0
 40
6.000000000001596
100
AcDbArc
 50
331.0978636188124
 51
0.0000417558857257
  0
ARC
  5
60D
330
1F
100
AcDbEntity
  8
Ｓ_１_１
  6
CONTINUOUS
 62
     3
100
AcDbCircle
 10
2051.0
 20
589.5075786468209
 30
0.0
 40
6.000000000000006
100
AcDbArc
 50
359.9999920172611
 51
28.90214402666208
  0
ARC
  5
60E
330
1F
100
AcDbEntity
  8
Ｓ_１_１
  6
CONTINUOUS
 62
     3
100
AcDbCircle
 10
2057.0
 20
589.5075786468209
 30
0.0
 40
6.000000000001596
100
AcDbArc
 50
151.0978559733464
 51
180.0
  0
LINE
  5
60F
330
1F
100
AcDbEntity
  8
Ｓ_１_１
  6
CONTINUOUS
 62
     3
100
AcDbLine
 10
2087.5
 20
606.9999920000008
 30
0.0
 11
2058.0
 21
606.9999920000008
 31
0.0
  0
LINE
  5
610
330
1F
100
AcDbEntity
  8
Ｓ_１_１
  6
CONTINUOUS
 62
     3
100
AcDbLine
 10
2112.5
 20
584.499992
 30
0.0
 11
2112.5
 21
609.4999919999999
 31
0.0
  0
LINE
  5
611
330
1F
100
AcDbEntity
  8
Ｓ_１_１
  6
CONTINUOUS
 62
     3
100
AcDbLine
 10
2087.5
 20
584.499992
 30
0.0
 11
2087.5
 21
609.499992
 31
0.0
  0
ARC
  5
612
330
1F
100
AcDbEntity
  8
Ｓ_１_１
  6
CONTINUOUS
 62
     3
100
AcDbCircle
 10
2099.999999999995
 20
596.9999920000001
 30
0.0
 40
15.0
100
AcDbArc
 50
236.4426902380794
 51
303.5573097619207
  0
ARC
  5
613
330
1F
100
AcDbEntity
  8
Ｓ_１_１
  6
CONTINUOUS
 62
     3
100
AcDbCircle
 10
2099.999999999995
 20
596.9999920000001
 30
0.0
 40
15.0
100
AcDbArc
 50
326.4426902381223
 51
33.5573097618778
  0
ARC
  5
614
330
1F
100
AcDbEntity
  8
Ｓ_１_１
  6
CONTINUOUS
 62
     3
100
AcDbCircle
 10
2099.999999999995
 20
596.9999920000001
 30
0.0
 40
15.0
100
AcDbArc
 50
56.44269023807925
 51
123.5573097619207
  0
ARC
  5
615
330
1F
100
AcDbEntity
  8
Ｓ_１_１
  6
CONTINUOUS
 62
     3
100
AcDbCircle
 10
2099.999999999995
 20
596.9999920000001
 30
0.0
 40
15.0
100
AcDbArc
 50
146.442690238036
 51
213.5573097619641
  0
LINE
  5
616
330
1F
100
AcDbEntity
  8
Ｓ_１_１
  6
CONTINUOUS
 62
     3
100
AcDbLine
 10
2112.5
 20
609.499992
 30
0.0
 11
2102.349364905383
 21
609.499992
 31
0.0
  0
LINE
  5
617
330
1F
100
AcDbEntity
  8
Ｓ_１_１
  6
CONTINUOUS
 62
     3
100
AcDbLine
 10
2097.650635094604
 20
609.499992
 30
0.0
 11
2087.5
 21
609.499992
 31
0.0
  0
LINE
  5
618
330
1F
100
AcDbEntity
  8
Ｓ_１_１
  6
CONTINUOUS
 62
     3
100
AcDbLine
 10
2111.5
 20
608.4999920000001
 30
0.0
 11
2104.081415712953
 21
608.4999920000001
 31
0.0
  0
LINE
  5
619
330
1F
100
AcDbEntity
  8
Ｓ_１_１
  6
CONTINUOUS
 62
     3
100
AcDbLine
 10
2095.918584287036
 20
608.4999920000001
 30
0.0
 11
2088.5
 21
608.4999920000001
 31
0.0
  0
LINE
  5
61A
330
1F
100
AcDbEntity
  8
Ｓ_１_１
  6
CONTINUOUS
 62
     3
100
AcDbLine
 10
2111.5
 20
604.2168703648666
 30
0.0
 11
2111.5
 21
608.4999920000001
 31
0.0
  0
LINE
  5
61B
330
1F
100
AcDbEntity
  8
Ｓ_１_１
  6
CONTINUOUS
 62
     3
100
AcDbLine
 10
2111.5
 20
585.499992
 30
0.0
 11
2111.5
 21
589.7831136351334
 31
0.0
  0
LINE
  5
61C
330
1F
100
AcDbEntity
  8
Ｓ_１_１
  6
CONTINUOUS
 62
     3
100
AcDbLine
 10
2088.5
 20
585.499992
 30
0.0
 11
2088.5
 21
589.7831136351264
 31
0.0
  0
LINE
  5
61D
330
1F
100
AcDbEntity
  8
Ｓ_１_１
  6
CONTINUOUS
 62
     3
100
AcDbLine
 10
2088.5
 20
604.2168703648738
 30
0.0
 11
2088.5
 21
608.4999920000001
 31
0.0
  0
LINE
  5
61E
330
1F
100
AcDbEntity
  8
Ｓ_１_１
  6
CONTINUOUS
 62
     3
100
AcDbLine
 10
2111.5
 20
585.499992
 30
0.0
 11
2104.081415712953
 21
585.499992
 31
0.0
  0
LINE
  5
61F
330
1F
100
AcDbEntity
  8
Ｓ_１_１
  6
CONTINUOUS
 62
     3
100
AcDbLine
 10
2112.5
 20
584.499992
 30
0.0
 11
2102.349364905383
 21
584.499992
 31
0.0
  0
LINE
  5
620
330
1F
100
AcDbEntity
  8
Ｓ_１_１
  6
CONTINUOUS
 62
     3
100
AcDbLine
 10
2097.650635094604
 20
584.499992
 30
0.0
 11
2087.5
 21
584.499992
 31
0.0
  0
LINE
  5
621
330
1F
100
AcDbEntity
  8
Ｓ_１_１
  6
CONTINUOUS
 62
     3
100
AcDbLine
 10
2095.918584287036
 20
585.499992
 30
0.0
 11
2088.5
 21
585.499992
 31
0.0
  0
LINE
  5
622
330
1F
100
AcDbEntity
  8
Ｓ_１_１
  6
EXLTYPE8
 62
     1
100
AcDbLine
 10
2119.466893196106
 20
596.9999920000046
 30
0.0
 11
2042.52
 21
596.9999920000046
 31
0.0
  0
CIRCLE
  5
623
330
1F
100
AcDbEntity
  8
Ｓ_１_１
  6
CONTINUOUS
 62
     3
100
AcDbCircle
 10
2100.000000000005
 20
344.999991
 30
0.0
 40
16.0
  0
CIRCLE
  5
624
330
1F
100
AcDbEntity
  8
Ｓ_１_１
  6
CONTINUOUS
 62
     3
100
AcDbCircle
 10
2100.000000000005
 20
344.999991
 30
0.0
 40
14.58898671826498
  0
CIRCLE
  5
625
330
1F
100
AcDbEntity
  8
Ｓ_１_１
  6
CONTINUOUS
 62
     3
100
AcDbCircle
 10
2100.000000000005
 20
344.999991
 30
0.0
 40
10.62462489497569
  0
CIRCLE
  5
626
330
1F
100
AcDbEntity
  8
Ｓ_１_１
  6
CONTINUOUS
 62
     3
100
AcDbCircle
 10
2100.000000000005
 20
344.999991
 30
0.0
 40
4.98315573269052
  0
LINE
  5
627
330
1F
100
AcDbEntity
  8
Ｓ_１_１
  6
CONTINUOUS
 62
     3
100
AcDbLine
 10
1158.862273000009
 20
608.4999920000002
 30
0.0
 11
1158.862273000009
 21
596.9999920000002
 31
0.0
  0
LINE
  5
628
330
1F
100
AcDbEntity
  8
Ｓ_１_１
  6
CONTINUOUS
 62
     3
100
AcDbLine
 10
1158.862273000009
 20
596.9999920000002
 30
0.0
 11
1158.862273000009
 21
585.4999920000002
 31
0.0
  0
LINE
  5
629
330
1F
100
AcDbEntity
  8
Ｓ_１_１
  6
CONTINUOUS
 62
     3
100
AcDbLine
 10
1159.862273000009
 20
584.4999920000002
 30
0.0
 11
1175.362273000009
 21
584.4999920000002
 31
0.0
  0
LINE
  5
62A
330
1F
100
AcDbEntity
  8
Ｓ_１_１
  6
CONTINUOUS
 62
     3
100
AcDbLine
 10
1190.862273000009
 20
584.4999920000002
 30
0.0
 11
1175.362273000009
 21
584.4999920000002
 31
0.0
  0
LINE
  5
62B
330
1F
100
AcDbEntity
  8
Ｓ_１_１
  6
CONTINUOUS
 62
     3
100
AcDbLine
 10
1191.862273000009
 20
608.4999920000002
 30
0.0
 11
1191.862273000009
 21
596.9999920000002
 31
0.0
  0
LINE
  5
62C
330
1F
100
AcDbEntity
  8
Ｓ_１_１
  6
CONTINUOUS
 62
     3
100
AcDbLine
 10
1191.862273000009
 20
596.9999920000002
 30
0.0
 11
1191.862273000009
 21
585.4999920000002
 31
0.0
  0
LINE
  5
62D
330
1F
100
AcDbEntity
  8
Ｓ_１_１
  6
CONTINUOUS
 62
     3
100
AcDbLine
 10
1191.862274558709
 20
585.4999906311002
 30
0.0
 11
1190.862274424308
 21
584.4999905811003
 31
0.0
  0
LINE
  5
62E
330
1F
100
AcDbEntity
  8
Ｓ_１_１
  6
CONTINUOUS
 62
     3
100
AcDbLine
 10
1159.862271902909
 20
584.4999912133005
 30
0.0
 11
1158.862272190009
 21
585.4999910104004
 31
0.0
  0
LINE
  5
62F
330
1F
100
AcDbEntity
  8
Ｓ_１_１
  6
CONTINUOUS
 62
     3
100
AcDbLine
 10
1159.862273075809
 20
609.4999919519003
 30
0.0
 11
1158.862273033009
 21
608.4999918248002
 31
0.0
  0
LINE
  5
630
330
1F
100
AcDbEntity
  8
Ｓ_１_１
  6
CONTINUOUS
 62
     3
100
AcDbLine
 10
1159.862273000009
 20
609.4999920000002
 30
0.0
 11
1175.362273000009
 21
609.4999920000002
 31
0.0
  0
LINE
  5
631
330
1F
100
AcDbEntity
  8
Ｓ_１_１
  6
CONTINUOUS
 62
     3
100
AcDbLine
 10
1191.862273462809
 20
608.4999922884001
 30
0.0
 11
1190.862273665709
 21
609.4999920013004
 31
0.0
  0
LINE
  5
632
330
1F
100
AcDbEntity
  8
Ｓ_１_１
  6
CONTINUOUS
 62
     3
100
AcDbLine
 10
1190.862273000009
 20
609.4999920000002
 30
0.0
 11
1175.362273000009
 21
609.4999920000002
 31
0.0
  0
LINE
  5
633
330
1F
100
AcDbEntity
  8
Ｓ_１_１
  6
CONTINUOUS
 62
     3
100
AcDbLine
 10
1190.862273000009
 20
609.4999920000002
 30
0.0
 11
1190.862273000009
 21
584.4999920000002
 31
0.0
  0
LINE
  5
634
330
1F
100
AcDbEntity
  8
Ｓ_１_１
  6
CONTINUOUS
 62
     3
100
AcDbLine
 10
1159.862273000009
 20
609.4999920000002
 30
0.0
 11
1159.862273000009
 21
584.4999920000002
 31
0.0
  0
LINE
  5
635
330
1F
100
AcDbEntity
  8
Ｓ_１_１
  6
CONTINUOUS
 62
     3
100
AcDbLine
 10
1193.22454500002
 20
588.7351300000003
 30
0.0
 11
1193.22454500002
 21
605.2648470000001
 31
0.0
  0
LINE
  5
636
330
1F
100
AcDbEntity
  8
Ｓ_１_１
  6
CONTINUOUS
 62
     3
100
AcDbLine
 10
1199.36224600002
 20
604.1798730000003
 30
0.0
 11
1193.22453300002
 21
604.5634809999999
 31
0.0
  0
LINE
  5
637
330
1F
100
AcDbEntity
  8
Ｓ_１_１
  6
CONTINUOUS
 62
     3
100
AcDbLine
 10
1199.36226400002
 20
604.881243
 30
0.0
 11
1191.86225000002
 21
605.3499939999999
 31
0.0
  0
LINE
  5
638
330
1F
100
AcDbEntity
  8
Ｓ_１_１
  6
CONTINUOUS
 62
     3
100
AcDbLine
 10
1193.22455300002
 20
604.5634660000001
 30
0.0
 11
1191.86227000002
 21
605.3499810000001
 31
0.0
  0
LINE
  5
639
330
1F
100
AcDbEntity
  8
Ｓ_１_１
  6
CONTINUOUS
 62
     3
100
AcDbLine
 10
1199.36227600002
 20
589.1187420000003
 30
0.0
 11
1191.86223100002
 21
588.6499890000002
 31
0.0
  0
LINE
  5
63A
330
1F
100
AcDbEntity
  8
Ｓ_１_１
  6
CONTINUOUS
 62
     3
100
AcDbLine
 10
1191.86225400002
 20
588.650003
 30
0.0
 11
1193.22452400002
 21
589.4365090000003
 31
0.0
  0
LINE
  5
63B
330
1F
100
AcDbEntity
  8
Ｓ_１_１
  6
CONTINUOUS
 62
     3
100
AcDbLine
 10
1199.36225800002
 20
589.8201040000001
 30
0.0
 11
1193.22451500002
 21
589.4364950000001
 31
0.0
  0
LINE
  5
63C
330
1F
100
AcDbEntity
  8
Ｓ_１_１
  6
CONTINUOUS
 62
     3
100
AcDbLine
 10
1152.499982
 20
589.7490030000001
 30
0.0
 11
1157.499992
 21
589.4365020000002
 31
0.0
  0
LINE
  5
63D
330
1F
100
AcDbEntity
  8
Ｓ_１_１
  6
CONTINUOUS
 62
     3
100
AcDbLine
 10
1152.499994
 20
589.0476390000001
 30
0.0
 11
1158.862244999999
 21
588.649999
 31
0.0
  0
LINE
  5
63E
330
1F
100
AcDbEntity
  8
Ｓ_１_１
  6
CONTINUOUS
 62
     3
100
AcDbLine
 10
1157.500000999999
 20
588.7351300000003
 30
0.0
 11
1157.500000999999
 21
605.2648470000001
 31
0.0
  0
LINE
  5
63F
330
1F
100
AcDbEntity
  8
Ｓ_１_１
  6
CONTINUOUS
 62
     3
100
AcDbLine
 10
1158.862292
 20
588.6499799999999
 30
0.0
 11
1157.500009
 21
589.4364940000003
 31
0.0
  0
LINE
  5
640
330
1F
100
AcDbEntity
  8
Ｓ_１_１
  6
CONTINUOUS
 62
     3
100
AcDbLine
 10
1152.499994
 20
604.2509780000003
 30
0.0
 11
1157.500004
 21
604.5634790000001
 31
0.0
  0
LINE
  5
641
330
1F
100
AcDbEntity
  8
Ｓ_１_１
  6
CONTINUOUS
 62
     3
100
AcDbLine
 10
1152.500007
 20
604.952342
 30
0.0
 11
1158.862257
 21
605.349982
 31
0.0
  0
LINE
  5
642
330
1F
100
AcDbEntity
  8
Ｓ_１_１
  6
CONTINUOUS
 62
     3
100
AcDbLine
 10
1157.499993
 20
604.5634889999999
 30
0.0
 11
1158.862263
 21
605.3499960000001
 31
0.0
  0
ARC
  5
643
330
1F
100
AcDbEntity
  8
Ｓ_１_１
  6
CONTINUOUS
 62
     3
100
AcDbCircle
 10
1200.228439000019
 20
586.6077035000105
 30
0.0
 40
6.133925000000002
100
AcDbArc
 50
325.6154380000003
 51
34.38458300000033
  0
ARC
  5
644
330
1F
100
AcDbEntity
  8
Ｓ_１_１
  6
CONTINUOUS
 62
     3
100
AcDbCircle
 10
1183.434127000019
 20
597.0000075000105
 30
0.0
 40
22.927938
100
AcDbArc
 50
342.411858
 51
17.58816600000023
  0
ARC
  5
645
330
1F
100
AcDbEntity
  8
Ｓ_１_１
  6
CONTINUOUS
 62
     3
100
AcDbCircle
 10
1205.496139000018
 20
607.3923415000102
 30
0.0
 40
6.133925000000002
100
AcDbArc
 50
145.6154019999991
 51
214.3845609999998
  0
ARC
  5
646
330
1F
100
AcDbEntity
  8
Ｓ_１_１
  6
CONTINUOUS
 62
     3
100
AcDbCircle
 10
1243.362106000019
 20
601.50000750001
 30
0.0
 40
1.0
100
AcDbArc
 50
359.9999779999952
 51
89.99997499999768
  0
ARC
  5
647
330
1F
100
AcDbEntity
  8
Ｓ_１_１
  6
CONTINUOUS
 62
     3
100
AcDbCircle
 10
1200.228439000019
 20
607.3923415000102
 30
0.0
 40
6.133925000000002
100
AcDbArc
 50
325.6153689999998
 51
34.384513999999
  0
ARC
  5
648
330
1F
100
AcDbEntity
  8
Ｓ_１_１
  6
CONTINUOUS
 62
     3
100
AcDbCircle
 10
1222.290206000019
 20
597.0000075000105
 30
0.0
 40
22.927942
100
AcDbArc
 50
162.4118210000002
 51
197.5881150000002
  0
ARC
  5
649
330
1F
100
AcDbEntity
  8
Ｓ_１_１
  6
CONTINUOUS
 62
     3
100
AcDbCircle
 10
1205.496139000018
 20
586.6077035000105
 30
0.0
 40
6.133925000000002
100
AcDbArc
 50
145.615416
 51
214.3845739999998
  0
ARC
  5
64A
330
1F
100
AcDbEntity
  8
Ｓ_１_１
  6
CONTINUOUS
 62
     3
100
AcDbCircle
 10
1243.362106000019
 20
592.5000375000106
 30
0.0
 40
1.0
100
AcDbArc
 50
269.9999970000024
 51
359.9999780000017
  0
LINE
  5
64B
330
1F
100
AcDbEntity
  8
Ｓ_１_１
  6
CONTINUOUS
 62
     3
100
AcDbLine
 10
1246.362228000018
 20
598.4999765000105
 30
0.0
 11
1246.362228000018
 21
595.5000075000105
 31
0.0
  0
LINE
  5
64C
330
1F
100
AcDbEntity
  8
Ｓ_１_１
  6
CONTINUOUS
 62
     3
100
AcDbLine
 10
1199.362350000019
 20
609.00000750001
 30
0.0
 11
1199.362350000019
 21
585.0000375000106
 31
0.0
  0
LINE
  5
64D
330
1F
100
AcDbEntity
  8
Ｓ_１_１
  6
CONTINUOUS
 62
     3
100
AcDbLine
 10
1243.362106000019
 20
602.5000375000102
 30
0.0
 11
1234.362350000019
 21
602.5000375000102
 31
0.0
  0
LINE
  5
64E
330
1F
100
AcDbEntity
  8
Ｓ_１_１
  6
CONTINUOUS
 62
     3
100
AcDbLine
 10
1234.362350000019
 20
602.5000375000102
 30
0.0
 11
1234.362350000019
 21
591.5000075000105
 31
0.0
  0
LINE
  5
64F
330
1F
100
AcDbEntity
  8
Ｓ_１_１
  6
CONTINUOUS
 62
     3
100
AcDbLine
 10
1230.862106000019
 20
605.99997650001
 30
0.0
 11
1228.862228000018
 21
605.99997650001
 31
0.0
  0
LINE
  5
650
330
1F
100
AcDbEntity
  8
Ｓ_１_１
  6
CONTINUOUS
 62
     3
100
AcDbLine
 10
1230.862106000019
 20
588.0000075000105
 30
0.0
 11
1228.862228000018
 21
588.0000075000105
 31
0.0
  0
LINE
  5
651
330
1F
100
AcDbEntity
  8
Ｓ_１_１
  6
CONTINUOUS
 62
     3
100
AcDbLine
 10
1215.362228000018
 20
608.25000750001
 30
0.0
 11
1215.362228000018
 21
585.7500075000105
 31
0.0
  0
LINE
  5
652
330
1F
100
AcDbEntity
  8
Ｓ_１_１
  6
CONTINUOUS
 62
     3
100
AcDbLine
 10
1214.862228000018
 20
585.2500075000105
 30
0.0
 11
1206.362228000018
 21
585.2500075000105
 31
0.0
  0
LINE
  5
653
330
1F
100
AcDbEntity
  8
Ｓ_１_１
  6
CONTINUOUS
 62
     3
100
AcDbLine
 10
1214.862228000018
 20
608.7500375000102
 30
0.0
 11
1206.362228000018
 21
608.7500375000102
 31
0.0
  0
LINE
  5
654
330
1F
100
AcDbEntity
  8
Ｓ_１_１
  6
CONTINUOUS
 62
     3
100
AcDbLine
 10
1200.434202000019
 20
610.8563755000102
 30
0.0
 11
1199.362425000018
 21
609.00000350001
 31
0.0
  0
LINE
  5
655
330
1F
100
AcDbEntity
  8
Ｓ_１_１
  6
CONTINUOUS
 62
     3
100
AcDbLine
 10
1206.362419000018
 20
585.0000805000107
 30
0.0
 11
1205.290580000018
 21
583.1436025000105
 31
0.0
  0
LINE
  5
656
330
1F
100
AcDbEntity
  8
Ｓ_１_１
  6
CONTINUOUS
 62
     3
100
AcDbLine
 10
1199.362383000019
 20
585.0000385000105
 30
0.0
 11
1200.434160000019
 21
583.1436655000105
 31
0.0
  0
LINE
  5
657
330
1F
100
AcDbEntity
  8
Ｓ_１_１
  6
CONTINUOUS
 62
     3
100
AcDbLine
 10
1205.290720000018
 20
610.8563685000101
 30
0.0
 11
1206.362497000018
 21
608.9999955000101
 31
0.0
  0
LINE
  5
658
330
1F
100
AcDbEntity
  8
Ｓ_１_１
  6
CONTINUOUS
 62
     3
100
AcDbLine
 10
1205.290450000019
 20
583.1435925000108
 30
0.0
 11
1200.434127000019
 21
583.1435925000108
 31
0.0
  0
LINE
  5
659
330
1F
100
AcDbEntity
  8
Ｓ_１_１
  6
CONTINUOUS
 62
     3
100
AcDbLine
 10
1205.290450000019
 20
590.0717845000106
 30
0.0
 11
1200.434127000019
 21
590.0717845000106
 31
0.0
  0
LINE
  5
65A
330
1F
100
AcDbEntity
  8
Ｓ_１_１
  6
CONTINUOUS
 62
     3
100
AcDbLine
 10
1205.290450000019
 20
603.9281385000102
 30
0.0
 11
1200.434127000019
 21
603.9281385000102
 31
0.0
  0
LINE
  5
65B
330
1F
100
AcDbEntity
  8
Ｓ_１_１
  6
CONTINUOUS
 62
     3
100
AcDbLine
 10
1205.290450000019
 20
610.8564065000103
 30
0.0
 11
1200.434127000019
 21
610.8564065000103
 31
0.0
  0
LINE
  5
65C
330
1F
100
AcDbEntity
  8
Ｓ_１_１
  6
CONTINUOUS
 62
     3
100
AcDbLine
 10
1206.362228000018
 20
609.00000750001
 30
0.0
 11
1206.362228000018
 21
585.0000375000106
 31
0.0
  0
LINE
  5
65D
330
1F
100
AcDbEntity
  8
Ｓ_１_１
  6
CONTINUOUS
 62
     3
100
AcDbLine
 10
1244.362350000019
 20
601.50000750001
 30
0.0
 11
1244.362350000019
 21
592.5000375000106
 31
0.0
  0
LINE
  5
65E
330
1F
100
AcDbEntity
  8
Ｓ_１_１
  6
CONTINUOUS
 62
     3
100
AcDbLine
 10
1246.362415000019
 20
595.5001485000105
 30
0.0
 11
1244.362370000019
 21
593.5001035000107
 31
0.0
  0
LINE
  5
65F
330
1F
100
AcDbEntity
  8
Ｓ_１_１
  6
CONTINUOUS
 62
     3
100
AcDbLine
 10
1244.362413000018
 20
600.5001755000101
 30
0.0
 11
1246.362372000019
 21
598.5002165000108
 31
0.0
  0
LINE
  5
660
330
1F
100
AcDbEntity
  8
Ｓ_１_１
  6
CONTINUOUS
 62
     3
100
AcDbLine
 10
1225.862106000019
 20
604.50000750001
 30
0.0
 11
1225.862106000019
 21
589.5000075000105
 31
0.0
  0
LINE
  5
661
330
1F
100
AcDbEntity
  8
Ｓ_１_１
  6
CONTINUOUS
 62
     3
100
AcDbLine
 10
1227.362228000018
 20
604.50000750001
 30
0.0
 11
1227.362228000018
 21
589.5000075000105
 31
0.0
  0
LINE
  5
662
330
1F
100
AcDbEntity
  8
Ｓ_１_１
  6
CONTINUOUS
 62
     3
100
AcDbLine
 10
1230.862106000019
 20
605.99997650001
 30
0.0
 11
1230.862106000019
 21
588.0000075000105
 31
0.0
  0
LINE
  5
663
330
1F
100
AcDbEntity
  8
Ｓ_１_１
  6
CONTINUOUS
 62
     3
100
AcDbLine
 10
1224.362350000019
 20
588.0000075000105
 30
0.0
 11
1215.362228000018
 21
588.0000075000105
 31
0.0
  0
LINE
  5
664
330
1F
100
AcDbEntity
  8
Ｓ_１_１
  6
CONTINUOUS
 62
     3
100
AcDbLine
 10
1224.362350000019
 20
605.99997650001
 30
0.0
 11
1215.362228000018
 21
605.99997650001
 31
0.0
  0
LINE
  5
665
330
1F
100
AcDbEntity
  8
Ｓ_１_１
  6
CONTINUOUS
 62
     3
100
AcDbLine
 10
1228.862249000019
 20
606.0001195000102
 30
0.0
 11
1227.362236000018
 21
604.5001075000102
 31
0.0
  0
LINE
  5
666
330
1F
100
AcDbEntity
  8
Ｓ_１_１
  6
CONTINUOUS
 62
     3
100
AcDbLine
 10
1227.362235000019
 20
589.5000415000106
 30
0.0
 11
1228.862118000018
 21
588.0001585000107
 31
0.0
  0
LINE
  5
667
330
1F
100
AcDbEntity
  8
Ｓ_１_１
  6
CONTINUOUS
 62
     3
100
AcDbLine
 10
1228.862228000018
 20
605.99997650001
 30
0.0
 11
1228.862228000018
 21
588.0000075000105
 31
0.0
  0
LINE
  5
668
330
1F
100
AcDbEntity
  8
Ｓ_１_１
  6
CONTINUOUS
 62
     3
100
AcDbLine
 10
1224.362383000019
 20
606.0000055000103
 30
0.0
 11
1225.862266000018
 21
604.5001225000103
 31
0.0
  0
LINE
  5
669
330
1F
100
AcDbEntity
  8
Ｓ_１_１
  6
CONTINUOUS
 62
     3
100
AcDbLine
 10
1225.862224000019
 20
589.5001555000106
 30
0.0
 11
1224.362212000018
 21
588.0001425000107
 31
0.0
  0
LINE
  5
66A
330
1F
100
AcDbEntity
  8
Ｓ_１_１
  6
CONTINUOUS
 62
     3
100
AcDbLine
 10
1214.862228000018
 20
608.7500375000102
 30
0.0
 11
1214.862228000018
 21
585.2500075000105
 31
0.0
  0
LINE
  5
66B
330
1F
100
AcDbEntity
  8
Ｓ_１_１
  6
CONTINUOUS
 62
     3
100
AcDbLine
 10
1224.362350000019
 20
605.99997650001
 30
0.0
 11
1224.362350000019
 21
588.0000075000105
 31
0.0
  0
LINE
  5
66C
330
1F
100
AcDbEntity
  8
Ｓ_１_１
  6
CONTINUOUS
 62
     3
100
AcDbLine
 10
1227.362228000018
 20
604.50000750001
 30
0.0
 11
1225.862106000019
 21
604.50000750001
 31
0.0
  0
LINE
  5
66D
330
1F
100
AcDbEntity
  8
Ｓ_１_１
  6
CONTINUOUS
 62
     3
100
AcDbLine
 10
1227.362228000018
 20
589.5000075000105
 30
0.0
 11
1225.862106000019
 21
589.5000075000105
 31
0.0
  0
LINE
  5
66E
330
1F
100
AcDbEntity
  8
Ｓ_１_１
  6
CONTINUOUS
 62
     3
100
AcDbLine
 10
1215.362317000018
 20
585.7501115000107
 30
0.0
 11
1214.862371000018
 21
585.2501645000104
 31
0.0
  0
LINE
  5
66F
330
1F
100
AcDbEntity
  8
Ｓ_１_１
  6
CONTINUOUS
 62
     3
100
AcDbLine
 10
1214.862319000018
 20
608.75008250001
 30
0.0
 11
1215.362228000018
 21
608.2501845000099
 31
0.0
  0
LINE
  5
670
330
1F
100
AcDbEntity
  8
Ｓ_１_１
  6
CONTINUOUS
 62
     3
100
AcDbLine
 10
1230.862337000019
 20
606.0000485000103
 30
0.0
 11
1234.362351000019
 21
602.5000345000101
 31
0.0
  0
LINE
  5
671
330
1F
100
AcDbEntity
  8
Ｓ_１_１
  6
CONTINUOUS
 62
     3
100
AcDbLine
 10
1234.362137000018
 20
591.5001575000103
 30
0.0
 11
1230.862165000019
 21
588.0001865000106
 31
0.0
  0
LINE
  5
672
330
1F
100
AcDbEntity
  8
Ｓ_１_１
  6
CONTINUOUS
 62
     3
100
AcDbLine
 10
1243.362106000019
 20
591.5000075000105
 30
0.0
 11
1234.362350000019
 21
591.5000075000105
 31
0.0
  0
CIRCLE
  5
673
330
1F
100
AcDbEntity
  8
Ｓ_１_１
  6
CONTINUOUS
 62
     3
100
AcDbCircle
 10
1175.36227300001
 20
596.9999920000002
 30
0.0
 40
10.0
  0
POLYLINE
  5
674
330
1F
100
AcDbEntity
  8
Ｓ_１_１
  6
CONTINUOUS
 62
     3
100
AcDb2dPolyline
 66
     1
 10
0.0
 20
0.0
 30
0.0
 70
   128
  0
VERTEX
  5
675
330
674
100
AcDbEntity
  8
Ｓ_１_１
  6
CONTINUOUS
 62
     3
100
AcDbVertex
100
AcDb2dVertex
 10
1184.86227300001
 20
596.9999920000002
 30
0.0
  0
VERTEX
  5
676
330
674
100
AcDbEntity
  8
Ｓ_１_１
  6
CONTINUOUS
 62
     3
100
AcDbVertex
100
AcDb2dVertex
 10
1180.11227300001
 20
605.2272333359522
 30
0.0
  0
VERTEX
  5
677
330
674
100
AcDbEntity
  8
Ｓ_１_１
  6
CONTINUOUS
 62
     3
100
AcDbVertex
100
AcDb2dVertex
 10
1170.61227300001
 20
605.2272333359522
 30
0.0
  0
VERTEX
  5
678
330
674
100
AcDbEntity
  8
Ｓ_１_１
  6
CONTINUOUS
 62
     3
100
AcDbVertex
100
AcDb2dVertex
 10
1165.86227300001
 20
596.9999920000002
 30
0.0
  0
VERTEX
  5
679
330
674
100
AcDbEntity
  8
Ｓ_１_１
  6
CONTINUOUS
 62
     3
100
AcDbVertex
100
AcDb2dVertex
 10
1170.61227300001
 20
588.7727506640479
 30
0.0
  0
VERTEX
  5
67A
330
674
100
AcDbEntity
  8
Ｓ_１_１
  6
CONTINUOUS
 62
     3
100
AcDbVertex
100
AcDb2dVertex
 10
1180.11227300001
 20
588.7727506640479
 30
0.0
  0
VERTEX
  5
67B
330
674
100
AcDbEntity
  8
Ｓ_１_１
  6
CONTINUOUS
 62
     3
100
AcDbVertex
100
AcDb2dVertex
 10
1184.86227300001
 20
596.9999920000002
 30
0.0
  0
SEQEND
  5
67C
330
674
100
AcDbEntity
  8
Ｓ_１_１
  6
CONTINUOUS
 62
     3
  0
CIRCLE
  5
67D
330
1F
100
AcDbEntity
  8
Ｓ_１_１
  6
CONTINUOUS
 62
     3
100
AcDbCircle
 10
1175.36227300001
 20
596.9999920000002
 30
0.0
 40
8.227241335951572
  0
ARC
  5
67E
330
1F
100
AcDbEntity
  8
Ｓ_１_１
  6
CONTINUOUS
 62
     3
100
AcDbCircle
 10
1175.36227300001
 20
596.9999920000002
 30
0.0
 40
8.999999915700016
100
AcDbArc
 50
6.083597497282934
 51
53.91640250271725
  0
ARC
  5
67F
330
1F
100
AcDbEntity
  8
Ｓ_１_１
  6
CONTINUOUS
 62
     3
100
AcDbCircle
 10
1175.36227300001
 20
596.9999920000002
 30
0.0
 40
8.999999915700016
100
AcDbArc
 50
66.08359749728265
 51
113.9164025027174
  0
ARC
  5
680
330
1F
100
AcDbEntity
  8
Ｓ_１_１
  6
CONTINUOUS
 62
     3
100
AcDbCircle
 10
1175.36227300001
 20
596.9999920000002
 30
0.0
 40
8.999999915700016
100
AcDbArc
 50
126.083597497283
 51
173.9164025027171
  0
ARC
  5
681
330
1F
100
AcDbEntity
  8
Ｓ_１_１
  6
CONTINUOUS
 62
     3
100
AcDbCircle
 10
1175.36227300001
 20
596.9999920000002
 30
0.0
 40
8.999999915700016
100
AcDbArc
 50
186.0835974972829
 51
233.9164025027172
  0
ARC
  5
682
330
1F
100
AcDbEntity
  8
Ｓ_１_１
  6
CONTINUOUS
 62
     3
100
AcDbCircle
 10
1175.36227300001
 20
596.9999920000002
 30
0.0
 40
8.999999915700016
100
AcDbArc
 50
246.0835974972827
 51
293.9164025027173
  0
ARC
  5
683
330
1F
100
AcDbEntity
  8
Ｓ_１_１
  6
CONTINUOUS
 62
     3
100
AcDbCircle
 10
1175.36227300001
 20
596.9999920000002
 30
0.0
 40
8.999999915700016
100
AcDbArc
 50
306.0835974972829
 51
353.9164025027171
  0
CIRCLE
  5
684
330
1F
100
AcDbEntity
  8
Ｓ_１_１
  6
CONTINUOUS
 62
     3
100
AcDbCircle
 10
1175.36227300001
 20
596.9999920000002
 30
0.0
 40
5.0
  0
CIRCLE
  5
685
330
1F
100
AcDbEntity
  8
Ｓ_１_１
  6
CONTINUOUS
 62
     3
100
AcDbCircle
 10
1175.36227300001
 20
596.9999920000002
 30
0.0
 40
4.25
  0
LINE
  5
686
330
1F
100
AcDbEntity
  8
Ｓ_１_１
  6
EXLTYPE2
 62
     1
100
AcDbLine
 10
1175.362273000009
 20
583.9999920000002
 30
0.0
 11
1175.362273000009
 21
609.9999920000002
 31
0.0
  0
LINE
  5
687
330
1F
100
AcDbEntity
  8
Ｓ_１_１
  6
EXLTYPE2
 62
     1
100
AcDbLine
 10
1146.0
 20
596.999992
 30
0.0
 11
1250.72
 21
596.999992
 31
0.0
  0
POLYLINE
  5
688
330
1F
100
AcDbEntity
  8
Ｓ_１_１
  6
CONTINUOUS
 62
     3
100
AcDb2dPolyline
 66
     1
 10
0.0
 20
0.0
 30
0.0
 70
   128
  0
VERTEX
  5
689
330
688
100
AcDbEntity
  8
Ｓ_１_１
  6
CONTINUOUS
 62
     3
100
AcDbVertex
100
AcDb2dVertex
 10
1172.475521654052
 20
596.999992
 30
0.0
  0
VERTEX
  5
68A
330
688
100
AcDbEntity
  8
Ｓ_１_１
  6
CONTINUOUS
 62
     3
100
AcDbVertex
100
AcDb2dVertex
 10
1173.918897327026
 20
594.499992
 30
0.0
  0
VERTEX
  5
68B
330
688
100
AcDbEntity
  8
Ｓ_１_１
  6
CONTINUOUS
 62
     3
100
AcDbVertex
100
AcDb2dVertex
 10
1176.805648672974
 20
594.499992
 30
0.0
  0
VERTEX
  5
68C
330
688
100
AcDbEntity
  8
Ｓ_１_１
  6
CONTINUOUS
 62
     3
100
AcDbVertex
100
AcDb2dVertex
 10
1178.249024345948
 20
596.999992
 30
0.0
  0
VERTEX
  5
68D
330
688
100
AcDbEntity
  8
Ｓ_１_１
  6
CONTINUOUS
 62
     3
100
AcDbVertex
100
AcDb2dVertex
 10
1176.805648672974
 20
599.499992
 30
0.0
  0
VERTEX
  5
68E
330
688
100
AcDbEntity
  8
Ｓ_１_１
  6
CONTINUOUS
 62
     3
100
AcDbVertex
100
AcDb2dVertex
 10
1173.918897327026
 20
599.499992
 30
0.0
  0
VERTEX
  5
68F
330
688
100
AcDbEntity
  8
Ｓ_１_１
  6
CONTINUOUS
 62
     3
100
AcDbVertex
100
AcDb2dVertex
 10
1172.475521654052
 20
596.999992
 30
0.0
  0
SEQEND
  5
690
330
688
100
AcDbEntity
  8
Ｓ_１_１
  6
CONTINUOUS
 62
     3
  0
LINE
  5
691
330
1F
100
AcDbEntity
  8
Ｓ_１_１
  6
CONTINUOUS
 62
     3
100
AcDbLine
 10
725.0
 20
804.9999930000004
 30
0.0
 11
725.0
 21
869.9999930000004
 31
0.0
  0
LINE
  5
692
330
1F
100
AcDbEntity
  8
Ｓ_１_１
  6
CONTINUOUS
 62
     3
100
AcDbLine
 10
700.0
 20
804.9999930000004
 30
0.0
 11
700.0
 21
869.9999930000004
 31
0.0
  0
LINE
  5
693
330
1F
100
AcDbEntity
  8
Ｓ_１_１
  6
CONTINUOUS
 62
     3
100
AcDbLine
 10
725.0
 20
804.9999930000004
 30
0.0
 11
700.0
 21
804.9999930000004
 31
0.0
  0
LINE
  5
694
330
1F
100
AcDbEntity
  8
Ｓ_１_１
  6
CONTINUOUS
 62
     3
100
AcDbLine
 10
932.0
 20
754.9999930000008
 30
0.0
 11
900.0
 21
754.9999930000008
 31
0.0
  0
LINE
  5
695
330
1F
100
AcDbEntity
  8
Ｓ_１_１
  6
CONTINUOUS
 62
     3
100
AcDbLine
 10
900.0
 20
869.9999930000004
 30
0.0
 11
900.0
 21
754.9999930000008
 31
0.0
  0
LINE
  5
696
330
1F
100
AcDbEntity
  8
Ｓ_１_１
  6
CONTINUOUS
 62
     3
100
AcDbLine
 10
932.0
 20
869.9999930000004
 30
0.0
 11
932.0
 21
754.9999930000008
 31
0.0
  0
LINE
  5
697
330
1F
100
AcDbEntity
  8
Ｓ_１_１
  6
CONTINUOUS
 62
     3
100
AcDbLine
 10
1068.0
 20
869.9999930000004
 30
0.0
 11
1068.0
 21
754.9999930000008
 31
0.0
  0
LINE
  5
698
330
1F
100
AcDbEntity
  8
Ｓ_１_１
  6
CONTINUOUS
 62
     3
100
AcDbLine
 10
1100.0
 20
869.9999930000004
 30
0.0
 11
1100.0
 21
754.9999930000008
 31
0.0
  0
LINE
  5
699
330
1F
100
AcDbEntity
  8
Ｓ_１_１
  6
CONTINUOUS
 62
     3
100
AcDbLine
 10
1068.0
 20
754.9999930000008
 30
0.0
 11
1100.0
 21
754.9999930000008
 31
0.0
  0
LINE
  5
69A
330
1F
100
AcDbEntity
  8
Ｓ_１_１
  6
EXLTYPE0
 62
     2
100
AcDbLine
 10
855.0
 20
754.9999930000008
 30
0.0
 11
875.0
 21
754.9999930000008
 31
0.0
  0
LINE
  5
69B
330
1F
100
AcDbEntity
  8
Ｓ_１_１
  6
EXLTYPE0
 62
     2
100
AcDbLine
 10
855.0
 20
754.9999930000008
 30
0.0
 11
615.0
 21
816.9999930000004
 31
0.0
  0
LINE
  5
69C
330
1F
100
AcDbEntity
  8
Ｓ_１_１
  6
EXLTYPE0
 62
     2
100
AcDbLine
 10
875.0
 20
869.9999930000004
 30
0.0
 11
875.0
 21
746.9999930000008
 31
0.0
  0
LINE
  5
69D
330
1F
100
AcDbEntity
  8
Ｓ_１_１
  6
EXLTYPE0
 62
     2
100
AcDbLine
 10
1125.0
 20
869.9999930000004
 30
0.0
 11
1125.0
 21
746.9999930000008
 31
0.0
  0
LINE
  5
69E
330
1F
100
AcDbEntity
  8
Ｓ_１_１
  6
EXLTYPE0
 62
     2
100
AcDbLine
 10
1145.0
 20
754.9999930000008
 30
0.0
 11
1125.0
 21
754.9999930000008
 31
0.0
  0
LINE
  5
69F
330
1F
100
AcDbEntity
  8
Ｓ_１_１
  6
EXLTYPE0
 62
     2
100
AcDbLine
 10
1145.0
 20
754.9999930000008
 30
0.0
 11
1385.0
 21
816.9999930000004
 31
0.0
  0
LINE
  5
6A0
330
1F
100
AcDbEntity
  8
Ｓ_１_１
  6
EXLTYPE0
 62
     2
100
AcDbLine
 10
875.0
 20
746.9999930000008
 30
0.0
 11
1125.0
 21
746.9999930000008
 31
0.0
  0
LINE
  5
6A1
330
1F
100
AcDbEntity
  8
Ｓ_１_１
  6
EXLTYPE0
 62
     2
100
AcDbLine
 10
914.4658851269269
 20
746.9999930000008
 30
0.0
 11
915.1471862576072
 21
759.9999930000008
 31
0.0
  0
LINE
  5
6A2
330
1F
100
AcDbEntity
  8
Ｓ_１_１
  6
EXLTYPE0
 62
     2
100
AcDbLine
 10
1085.534114873073
 20
746.9999930000008
 30
0.0
 11
1084.852813742393
 21
759.9999930000008
 31
0.0
  0
LINE
  5
6A3
330
1F
100
AcDbEntity
  8
Ｓ_１_１
  6
EXLTYPE0
 62
     2
100
AcDbLine
 10
1084.999997999999
 20
755.0000690000002
 30
0.0
 11
1084.999997999999
 21
744.833443
 31
0.0
  0
LINE
  5
6A4
330
1F
100
AcDbEntity
  8
Ｓ_１_１
  6
EXLTYPE0
 62
     2
100
AcDbLine
 10
935.1925930159196
 20
755.0000690000202
 30
0.0
 11
935.1925930159196
 21
743.869978163173
 31
0.0
  0
LINE
  5
6A5
330
1F
100
AcDbEntity
  8
Ｓ_１_１
  6
EXLTYPE0
 62
     2
100
AcDbLine
 10
1064.80740698408
 20
755.0000690000202
 30
0.0
 11
1064.80740698408
 21
743.869978163173
 31
0.0
  0
LINE
  5
6A6
330
1F
100
AcDbEntity
  8
Ｓ_１_１
  6
CONTINUOUS
 62
     3
100
AcDbLine
 10
935.19259301592
 20
743.86997816317
 30
0.0
 11
935.19259301592
 21
739.9999930000008
 31
0.0
  0
LINE
  5
6A7
330
1F
100
AcDbEntity
  8
Ｓ_１_１
  6
CONTINUOUS
 62
     3
100
AcDbLine
 10
1064.8074069841
 20
743.86997816317
 30
0.0
 11
1064.8074069841
 21
739.9999930000017
 31
0.0
  0
LINE
  5
6A8
330
1F
100
AcDbEntity
  8
Ｓ_１_１
  6
CONTINUOUS
 62
     3
100
AcDbLine
 10
1275.0
 20
804.9999930000004
 30
0.0
 11
1275.0
 21
869.9999930000004
 31
0.0
  0
LINE
  5
6A9
330
1F
100
AcDbEntity
  8
Ｓ_１_１
  6
CONTINUOUS
 62
     3
100
AcDbLine
 10
1300.0
 20
804.9999930000004
 30
0.0
 11
1300.0
 21
869.9999930000004
 31
0.0
  0
LINE
  5
6AA
330
1F
100
AcDbEntity
  8
Ｓ_１_１
  6
CONTINUOUS
 62
     3
100
AcDbLine
 10
1275.0
 20
804.9999930000004
 30
0.0
 11
1300.0
 21
804.9999930000004
 31
0.0
  0
ENDSEC
  0
SECTION
  2
OBJECTS
  0
DICTIONARY
  5
C
330
0
100
AcDbDictionary
  3
ACAD_GROUP
350
D
  3
ACAD_LAYOUT
350
1A
  3
ACAD_MATERIAL
350
43
  3
ACAD_MLEADERSTYLE
350
6B
  3
ACAD_MLINESTYLE
350
17
  3
ACAD_PLOTSETTINGS
350
19
  3
ACAD_SCALELIST
350
47
  3
ACAD_VISUALSTYLE
350
2A
  3
ACDBHEADERROUNDTRIPXREC
350
6AB
  3
ACDBVARIABLEDICTIONARY
350
6CC
  0
DICTIONARY
  5
6D7
330
8
100
AcDbDictionary
280
     1
  3
ACAD_XREC_ROUNDTRIP
360
6D8
  0
DICTIONARY
  5
D
102
{ACAD_REACTORS
330
C
102
}
330
C
100
AcDbDictionary
  0
DICTIONARY
  5
1A
102
{ACAD_REACTORS
330
C
102
}
330
C
100
AcDbDictionary
  0
DICTIONARY
  5
43
102
{ACAD_REACTORS
330
C
102
}
330
C
100
AcDbDictionary
  3
BYBLOCK
350
45
  3
BYLAYER
350
44
  3
GLOBAL
350
46
  0
DICTIONARY
  5
6B
102
{ACAD_REACTORS
330
C
102
}
330
C
100
AcDbDictionary
  3
STANDARD
350
6C
  0
DICTIONARY
  5
17
102
{ACAD_REACTORS
330
C
102
}
330
C
100
AcDbDictionary
  3
STANDARD
350
18
  0
DICTIONARY
  5
19
102
{ACAD_REACTORS
330
C
102
}
330
C
100
AcDbDictionary
  0
DICTIONARY
  5
47
102
{ACAD_REACTORS
330
C
102
}
330
C
100
AcDbDictionary
  3
A0
350
48
  3
A1
350
49
  3
A2
350
4A
  3
A3
350
4B
  3
A4
350
4C
  3
A5
350
4D
  3
A6
350
4E
  3
A7
350
4F
  3
A8
350
50
  3
A9
350
51
  3
B0
350
52
  3
B1
350
53
  3
B2
350
54
  3
B3
350
55
  3
B4
350
56
  3
B5
350
57
  3
B6
350
58
  3
B7
350
59
  3
B8
350
5A
  3
B9
350
5B
  3
C0
350
5C
  3
C1
350
5D
  3
C2
350
5E
  3
C3
350
5F
  3
C4
350
60
  3
C5
350
61
  3
C6
350
62
  3
C7
350
63
  3
C8
350
64
  3
C9
350
65
  3
D0
350
66
  3
D1
350
67
  3
D2
350
68
  0
DICTIONARY
  5
2A
102
{ACAD_REACTORS
330
C
102
}
330
C
100
AcDbDictionary
  3
2DWIREFRAME
350
2F
  3
BASIC
350
32
  3
BRIGHTEN
350
36
  3
COLORCHANGE
350
3A
  3
CONCEPTUAL
350
34
  3
DIM
350
35
  3
EDGECOLOROFF
350
3D
  3
FACEPATTERN
350
39
  3
FLAT
350
2B
  3
FLATWITHEDGES
350
2C
  3
GOURAUD
350
2D
  3
GOURAUDWITHEDGES
350
2E
  3
HIDDEN
350
31
  3
JITTEROFF
350
3B
  3
LINEPATTERN
350
38
  3
OVERHANGOFF
350
3C
  3
REALISTIC
350
33
  3
SHADED
350
42
  3
SHADED_WITH_EDGES
350
41
  3
SHADES_OF_GRAY
350
3E
  3
SKETCHY
350
3F
  3
THICKEN
350
37
  3
WIREFRAME
350
30
  3
X-RAY
350
40
  0
DICTIONARY
  5
6AB
102
{ACAD_REACTORS
330
C
102
}
330
C
100
AcDbDictionary
  3
CEPSNID
350
6B5
  3
CEPSNTYPE
350
6B4
  3
DIMSTYLEDATA
350
6CB
  3
FINGERPRINTGUID
350
6B6
  3
HYPERLINKBASE
350
6AE
  3
INSUNITS
350
6B3
  3
LAYOUTDICT
350
6B0
  3
LWETCUNION
350
6B2
  3
PLOTSETDICT
350
6B1
  3
PSVPSCALE
350
6B8
  3
PUCSBASE
350
6BB
  3
PUCSORGBACK
350
6C1
  3
PUCSORGBOTTOM
350
6BD
  3
PUCSORGFRONT
350
6C0
  3
PUCSORGLEFT
350
6BE
  3
PUCSORGRIGHT
350
6BF
  3
PUCSORGTOP
350
6BC
  3
PUCSORTHOREF
350
6B9
  3
PUCSORTHOVIEW
350
6BA
  3
STYLESHEET
350
6AF
  3
TSTACKALIGN
350
6AC
  3
TSTACKSIZE
350
6AD
  3
UCSBASE
350
6C4
  3
UCSORGBACK
350
6CA
  3
UCSORGBOTTOM
350
6C6
  3
UCSORGFRONT
350
6C9
  3
UCSORGLEFT
350
6C7
  3
UCSORGRIGHT
350
6C8
  3
UCSORGTOP
350
6C5
  3
UCSORTHOREF
350
6C2
  3
UCSORTHOVIEW
350
6C3
  3
VERSIONGUID
350
6B7
  0
DICTIONARY
  5
6CC
102
{ACAD_REACTORS
330
C
102
}
330
C
100
AcDbDictionary
  3
CANNOSCALE
350
6D9
  3
CENTEREXE
350
6D3
  3
CENTERLTYPEFILE
350
6D4
  3
CMLEADERSTYLE
350
6CE
  3
CTABLESTYLE
350
6CD
  3
DIMASSOC
350
6D5
  3
HIDETEXT
350
6D6
  3
MSLTSCALE
350
6DA
  3
PSOLHEIGHT
350
6D0
  3
PSOLWIDTH
350
6CF
  0
XRECORD
  5
6D8
102
{ACAD_REACTORS
330
6D7
102
}
330
6D7
100
AcDbXrecord
102
VTR_0.000_0.000_1.000_1.000_VISUALSTYLE
340
2F
102
VTR_0.000_0.000_1.000_1.000_GRIDDISPLAY
 70
     3
102
VTR_0.000_0.000_1.000_1.000_GRIDMAJOR
 70
     5
102
VTR_0.000_0.000_1.000_1.000_DEFAULTLIGHTING
280
     1
102
VTR_0.000_0.000_1.000_1.000_DEFAULTLIGHTINGTYPE
 70
     1
102
VTR_0.000_0.000_1.000_1.000_BRIGHTNESS
141
0.0
102
VTR_0.000_0.000_1.000_1.000_CONTRAST
142
0.0
  0
MATERIAL
  5
45
102
{ACAD_REACTORS
330
43
102
}
102
{ACAD_XDICTIONARY
360
6DD
102
}
330
43
100
AcDbMaterial
  1
BYBLOCK
  0
MATERIAL
  5
44
102
{ACAD_REACTORS
330
43
102
}
102
{ACAD_XDICTIONARY
360
6DB
102
}
330
43
100
AcDbMaterial
  1
BYLAYER
  0
MATERIAL
  5
46
102
{ACAD_REACTORS
330
43
102
}
102
{ACAD_XDICTIONARY
360
6DF
102
}
330
43
100
AcDbMaterial
  1
GLOBAL
  0
ACAD_PROXY_OBJECT
  5
6C
102
{ACAD_REACTORS
330
6B
102
}
330
6B
100
AcDbProxyObject
 90
      499
 91
      505
 93
      610
310
40901902A4063FBFFFFFE0000000000000020400000000000020404214DD185B99185C990000000000000104090141901A00000000000004100000000000000041025764000000000000039000
340
14
340
0
340
11
340
0
 94
        0
1001
ACAD_MLEADERVER
1070
     2
  0
MLINESTYLE
  5
18
102
{ACAD_REACTORS
330
17
102
}
330
17
100
AcDbMlineStyle
  2
Standard
 70
     0
  3

 62
   256
 51
90.0
 52
90.0
 71
     2
 49
0.5
 62
   256
  6
BYLAYER
 49
-0.5
 62
   256
  6
BYLAYER
  0
ACAD_PROXY_OBJECT
  5
48
102
{ACAD_REACTORS
330
47
102
}
330
47
100
AcDbProxyObject
 90
      499
 91
      503
 93
       41
310
903313A31580
  0
ACAD_PROXY_OBJECT
  5
49
102
{ACAD_REACTORS
330
47
102
}
330
47
100
AcDbProxyObject
 90
      499
 91
      503
 93
      105
310
903313A324000000000000004000
  0
ACAD_PROXY_OBJECT
  5
4A
102
{ACAD_REACTORS
330
47
102
}
330
47
100
AcDbProxyObject
 90
      499
 91
      503
 93
      105
310
903313A344000000000000104000
  0
ACAD_PROXY_OBJECT
  5
4B
102
{ACAD_REACTORS
330
47
102
}
330
47
100
AcDbProxyObject
 90
      499
 91
      503
 93
      105
310
903313A354000000000000144000
  0
ACAD_PROXY_OBJECT
  5
4C
102
{ACAD_REACTORS
330
47
102
}
330
47
100
AcDbProxyObject
 90
      499
 91
      503
 93
      105
310
903313A384000000000000204000
  0
ACAD_PROXY_OBJECT
  5
4D
102
{ACAD_REACTORS
330
47
102
}
330
47
100
AcDbProxyObject
 90
      499
 91
      503
 93
      113
310
904313A31304000000000000244000
  0
ACAD_PROXY_OBJECT
  5
4E
102
{ACAD_REACTORS
330
47
102
}
330
47
100
AcDbProxyObject
 90
      499
 91
      503
 93
      113
310
904313A31364000000000000304000
  0
ACAD_PROXY_OBJECT
  5
4F
102
{ACAD_REACTORS
330
47
102
}
330
47
100
AcDbProxyObject
 90
      499
 91
      503
 93
      113
310
904313A32304000000000000344000
  0
ACAD_PROXY_OBJECT
  5
50
102
{ACAD_REACTORS
330
47
102
}
330
47
100
AcDbProxyObject
 90
      499
 91
      503
 93
      113
310
904313A333040000000000003E4000
  0
ACAD_PROXY_OBJECT
  5
51
102
{ACAD_REACTORS
330
47
102
}
330
47
100
AcDbProxyObject
 90
      499
 91
      503
 93
      113
310
904313A34304000000000000444000
  0
ACAD_PROXY_OBJECT
  5
52
102
{ACAD_REACTORS
330
47
102
}
330
47
100
AcDbProxyObject
 90
      499
 91
      503
 93
      113
310
904313A35304000000000000494000
  0
ACAD_PROXY_OBJECT
  5
53
102
{ACAD_REACTORS
330
47
102
}
330
47
100
AcDbProxyObject
 90
      499
 91
      503
 93
      121
310
905313A3130304000000000000594000
  0
ACAD_PROXY_OBJECT
  5
54
102
{ACAD_REACTORS
330
47
102
}
330
47
100
AcDbProxyObject
 90
      499
 91
      503
 93
      105
310
903323A310000000000000010100
  0
ACAD_PROXY_OBJECT
  5
55
102
{ACAD_REACTORS
330
47
102
}
330
47
100
AcDbProxyObject
 90
      499
 91
      503
 93
      105
310
903343A310000000000000410100
  0
ACAD_PROXY_OBJECT
  5
56
102
{ACAD_REACTORS
330
47
102
}
330
47
100
AcDbProxyObject
 90
      499
 91
      503
 93
      105
310
903383A310000000000000810100
  0
ACAD_PROXY_OBJECT
  5
57
102
{ACAD_REACTORS
330
47
102
}
330
47
100
AcDbProxyObject
 90
      499
 91
      503
 93
      113
310
90431303A310000000000000910100
  0
ACAD_PROXY_OBJECT
  5
58
102
{ACAD_REACTORS
330
47
102
}
330
47
100
AcDbProxyObject
 90
      499
 91
      503
 93
      121
310
9053130303A310000000000001650100
  0
ACAD_PROXY_OBJECT
  5
59
102
{ACAD_REACTORS
330
47
102
}
330
47
100
AcDbProxyObject
 90
      499
 91
      503
 93
      257
310
90E312F31323822203D2031272D3022000000000000200FC000000000000284000
  0
ACAD_PROXY_OBJECT
  5
5A
102
{ACAD_REACTORS
330
47
102
}
330
47
100
AcDbProxyObject
 90
      499
 91
      503
 93
      249
310
90D312F363422203D2031272D3022000000000000240FC000000000000284000
  0
ACAD_PROXY_OBJECT
  5
5B
102
{ACAD_REACTORS
330
47
102
}
330
47
100
AcDbProxyObject
 90
      499
 91
      503
 93
      249
310
90D312F333222203D2031272D3022000000000000280FC000000000000284000
  0
ACAD_PROXY_OBJECT
  5
5C
102
{ACAD_REACTORS
330
47
102
}
330
47
100
AcDbProxyObject
 90
      499
 91
      503
 93
      249
310
90D312F313622203D2031272D30220000000000002C0FC000000000000284000
  0
ACAD_PROXY_OBJECT
  5
5D
102
{ACAD_REACTORS
330
47
102
}
330
47
100
AcDbProxyObject
 90
      499
 91
      503
 93
      249
310
90D332F333222203D2031272D30220000000000002E0FC000000000000284000
  0
ACAD_PROXY_OBJECT
  5
5E
102
{ACAD_REACTORS
330
47
102
}
330
47
100
AcDbProxyObject
 90
      499
 91
      503
 93
      241
310
90C312F3822203D2031272D3022000000000000300FC000000000000284000
  0
ACAD_PROXY_OBJECT
  5
5F
102
{ACAD_REACTORS
330
47
102
}
330
47
100
AcDbProxyObject
 90
      499
 91
      503
 93
      249
310
90D332F313622203D2031272D3022000000000000320FC000000000000284000
  0
ACAD_PROXY_OBJECT
  5
60
102
{ACAD_REACTORS
330
47
102
}
330
47
100
AcDbProxyObject
 90
      499
 91
      503
 93
      241
310
90C312F3422203D2031272D3022000000000000340FC000000000000284000
  0
ACAD_PROXY_OBJECT
  5
61
102
{ACAD_REACTORS
330
47
102
}
330
47
100
AcDbProxyObject
 90
      499
 91
      503
 93
      241
310
90C332F3822203D2031272D3022000000000000360FC000000000000284000
  0
ACAD_PROXY_OBJECT
  5
62
102
{ACAD_REACTORS
330
47
102
}
330
47
100
AcDbProxyObject
 90
      499
 91
      503
 93
      241
310
90C312F3222203D2031272D3022000000000000380FC000000000000284000
  0
ACAD_PROXY_OBJECT
  5
63
102
{ACAD_REACTORS
330
47
102
}
330
47
100
AcDbProxyObject
 90
      499
 91
      503
 93
      241
310
90C332F3422203D2031272D30220000000000003A0FC000000000000284000
  0
ACAD_PROXY_OBJECT
  5
64
102
{ACAD_REACTORS
330
47
102
}
330
47
100
AcDbProxyObject
 90
      499
 91
      503
 93
      161
310
90A3122203D2031272D30224000000000000284000
  0
ACAD_PROXY_OBJECT
  5
65
102
{ACAD_REACTORS
330
47
102
}
330
47
100
AcDbProxyObject
 90
      499
 91
      503
 93
      257
310
90E312D312F3222203D2031272D30220000000000003E0FC000000000000284000
  0
ACAD_PROXY_OBJECT
  5
66
102
{ACAD_REACTORS
330
47
102
}
330
47
100
AcDbProxyObject
 90
      499
 91
      503
 93
      225
310
90A3322203D2031272D302200000000000002100000000000000284000
  0
ACAD_PROXY_OBJECT
  5
67
102
{ACAD_REACTORS
330
47
102
}
330
47
100
AcDbProxyObject
 90
      499
 91
      503
 93
      225
310
90A3622203D2031272D302200000000000006100000000000000284000
  0
ACAD_PROXY_OBJECT
  5
68
102
{ACAD_REACTORS
330
47
102
}
330
47
100
AcDbProxyObject
 90
      499
 91
      503
 93
      249
310
90D31272D3022203D2031272D30220000000000000A100000000000000284000
  0
ACAD_PROXY_OBJECT
  5
2F
102
{ACAD_REACTORS
330
2A
102
}
330
2A
100
AcDbProxyObject
 90
      499
 91
      501
 93
      436
310
42CC9915DA5C99599C985B595049028333333333333E33F0000000000000F90107901411070040501600405405064090741402480A0340
1001
ACAD
1000
AcDbSavedByObjectVersion
1070
     0
  0
ACAD_PROXY_OBJECT
  5
32
102
{ACAD_REACTORS
330
2A
102
}
330
2A
100
AcDbProxyObject
 90
      499
 91
      501
 93
      388
310
4150985CDA58D07406404333333333333E33F0000000000000F90107A41107004050150841D405064090741402480A0350
1001
ACAD
1000
AcDbSavedByObjectVersion
1070
     0
  0
ACAD_PROXY_OBJECT
  5
36
102
{ACAD_REACTORS
330
2A
102
}
330
2A
100
AcDbProxyObject
 90
      499
 91
      501
 93
      428
310
42109C9A59DA1D195B90C409028333333333333E33F0000000000000F9010790141107004050150841D405064090741402480A029950
1001
ACAD
1000
AcDbSavedByObjectVersion
1070
     0
  0
ACAD_PROXY_OBJECT
  5
3A
102
{ACAD_REACTORS
330
2A
102
}
330
2A
100
AcDbProxyObject
 90
      499
 91
      501
 93
      452
310
42D0DBDB1BDC90DA185B99D95104090240C333333333333E33F0000000000000F90108901411070040501508421405064090741402480A0350
1001
ACAD
1000
AcDbSavedByObjectVersion
1070
     0
  0
ACAD_PROXY_OBJECT
  5
34
102
{ACAD_REACTORS
330
2A
102
}
330
2A
100
AcDbProxyObject
 90
      499
 91
      501
 93
      500
310
4290DBDB98D95C1D1D585B10940D028333333333333E33F0000000000000F90107902409070040501000000000018199010841D405064090740C02480A0340
1001
ACAD
1000
AcDbSavedByObjectVersion
1070
     0
  0
ACAD_PROXY_OBJECT
  5
35
102
{ACAD_REACTORS
330
2A
102
}
330
2A
100
AcDbProxyObject
 90
      499
 91
      501
 93
      412
310
40D11A5B50B409028333333333333E33F0000000000000F9010790141107004050150841D405064090741402480A02677FFFFFD0
1001
ACAD
1000
AcDbSavedByObjectVersion
1070
     0
  0
ACAD_PROXY_OBJECT
  5
3D
102
{ACAD_REACTORS
330
2A
102
}
330
2A
100
AcDbProxyObject
 90
      499
 91
      501
 93
      452
310
43115919D950DBDB1BDC93D999916409028333333333333E33F0000000000000F9010790141107004050150841D405064090741402480A0350
1001
ACAD
1000
AcDbSavedByObjectVersion
1070
     0
  0
ACAD_PROXY_OBJECT
  5
39
102
{ACAD_REACTORS
330
2A
102
}
330
2A
100
AcDbProxyObject
 90
      499
 91
      501
 93
      444
310
42D19858D95C185D1D195C9B90F409028333333333333E33F0000000000000F9010790141107004050150841D405064090741402480A0350
1001
ACAD
1000
AcDbSavedByObjectVersion
1070
     0
  0
ACAD_PROXY_OBJECT
  5
2B
102
{ACAD_REACTORS
330
2A
102
}
330
2A
100
AcDbProxyObject
 90
      499
 91
      501
 93
      380
310
41119B185D240901404333333333333E33F0000000000000F9010740A907004050150841D405064090741402480A1B50
1001
ACAD
1000
AcDbSavedByObjectVersion
1070
     0
  0
ACAD_PROXY_OBJECT
  5
2C
102
{ACAD_REACTORS
330
2A
102
}
330
2A
100
AcDbProxyObject
 90
      499
 91
      501
 93
      468
310
43519B185D15DA5D1A115919D95CD0140901404333333333333E33F0000000000000F90107409019070040501600405405064090741402480A1B50
1001
ACAD
1000
AcDbSavedByObjectVersion
1070
     0
  0
ACAD_PROXY_OBJECT
  5
2D
102
{ACAD_REACTORS
330
2A
102
}
330
2A
100
AcDbProxyObject
 90
      499
 91
      501
 93
      404
310
41D1DBDD5C985D5910240902404333333333333E33F0000000000000F9010740A9070040501641D405064090741402480A1B50
1001
ACAD
1000
AcDbSavedByObjectVersion
1070
     0
  0
ACAD_PROXY_OBJECT
  5
2E
102
{ACAD_REACTORS
330
2A
102
}
330
2A
100
AcDbProxyObject
 90
      499
 91
      501
 93
      492
310
4411DBDD5C985D5915DA5D1A115919D95CD0340902404333333333333E33F0000000000000F90107409019070040501600405405064090741402480A1B50
1001
ACAD
1000
AcDbSavedByObjectVersion
1070
     0
  0
ACAD_PROXY_OBJECT
  5
31
102
{ACAD_REACTORS
330
2A
102
}
330
2A
100
AcDbProxyObject
 90
      499
 91
      501
 93
      476
310
41921A5919195B90640502408333333333333E33F0000000000000F901079024090700405020000000000001110200405405064090740C02480A0340
1001
ACAD
1000
AcDbSavedByObjectVersion
1070
     0
  0
ACAD_PROXY_OBJECT
  5
3B
102
{ACAD_REACTORS
330
2A
102
}
330
2A
100
AcDbProxyObject
 90
      499
 91
      501
 93
      428
310
42529A5D1D195C93D999914409028333333333333E33F0000000000000F9010790141107004050150A41D405064090741402480A0350
1001
ACAD
1000
AcDbSavedByObjectVersion
1070
     0
  0
ACAD_PROXY_OBJECT
  5
38
102
{ACAD_REACTORS
330
2A
102
}
330
2A
100
AcDbProxyObject
 90
      499
 91
      501
 93
      444
310
42D31A5B995C185D1D195C9B90E409028333333333333E33F0000000000000F9010790141107004050750841D405064090741402483A0350
1001
ACAD
1000
AcDbSavedByObjectVersion
1070
     0
  0
ACAD_PROXY_OBJECT
  5
3C
102
{ACAD_REACTORS
330
2A
102
}
330
2A
100
AcDbProxyObject
 90
      499
 91
      501
 93
      444
310
42D3DD995C9A185B99D3D999915409028333333333333E33F0000000000000F9010790141107004050150941D405064090741402480A0350
1001
ACAD
1000
AcDbSavedByObjectVersion
1070
     0
  0
ACAD_PROXY_OBJECT
  5
33
102
{ACAD_REACTORS
330
2A
102
}
330
2A
100
AcDbProxyObject
 90
      499
 91
      501
 93
      428
310
425499585B1A5CDD1A58D08409038333333333333E33F0000000000000F9010740A907004050150800405405064090740C02480A1B40
1001
ACAD
1000
AcDbSavedByObjectVersion
1070
     0
  0
ACAD_PROXY_OBJECT
  5
42
102
{ACAD_REACTORS
330
2A
102
}
330
2A
100
AcDbProxyObject
 90
      499
 91
      501
 93
      420
310
4194DA1859195911B40902404333333333333E33F0000000000000F9010740A41107004050150800405405064090840C02480A0B40
1001
ACAD
1000
AcDbSavedByObjectVersion
1070
     0
  0
ACAD_PROXY_OBJECT
  5
41
102
{ACAD_REACTORS
330
2A
102
}
330
2A
100
AcDbProxyObject
 90
      499
 91
      501
 93
      516
310
4454DA18591959081DDA5D1A08195919D95CD1A40902404333333333333E33F0000000000000F901074090142907004050250800405405064090740C02480A0B40
1001
ACAD
1000
AcDbSavedByObjectVersion
1070
     0
  0
ACAD_PROXY_OBJECT
  5
3E
102
{ACAD_REACTORS
330
2A
102
}
330
2A
100
AcDbProxyObject
 90
      499
 91
      501
 93
      532
310
4394DA1859195CC81BD98811DC985E5174090240C333333333333E33F0000000000000F901079024090741D01000000000000111010841D405064090740C02480A0340
1001
ACAD
1000
AcDbSavedByObjectVersion
1070
     0
  0
ACAD_PROXY_OBJECT
  5
3F
102
{ACAD_REACTORS
330
2A
102
}
330
2A
100
AcDbProxyObject
 90
      499
 91
      501
 93
      476
310
41D4DAD95D18DA1E51840502408333333333333E33F0000000000000F901079024090741D01000000000000111010B41D405064090741802480A0340
1001
ACAD
1000
AcDbSavedByObjectVersion
1070
     0
  0
ACAD_PROXY_OBJECT
  5
37
102
{ACAD_REACTORS
330
2A
102
}
330
2A
100
AcDbProxyObject
 90
      499
 91
      501
 93
      412
310
41D51A1A58DAD95B90D409028333333333333E33F0000000000000F9010790141107004050150C41D405064090741402480A0350
1001
ACAD
1000
AcDbSavedByObjectVersion
1070
     0
  0
ACAD_PROXY_OBJECT
  5
30
102
{ACAD_REACTORS
330
2A
102
}
330
2A
100
AcDbProxyObject
 90
      499
 91
      501
 93
      420
310
4255DA5C99599C985B595059028333333333333E33F0000000000000F90107901411070040501600405405064090740C02480A0340
1001
ACAD
1000
AcDbSavedByObjectVersion
1070
     0
  0
ACAD_PROXY_OBJECT
  5
40
102
{ACAD_REACTORS
330
2A
102
}
330
2A
100
AcDbProxyObject
 90
      499
 91
      501
 93
      404
310
41560B54985E51940902404000000000000E03F0000000000000F9010740501907004050150841D405064090740C02480A1B40
1001
ACAD
1000
AcDbSavedByObjectVersion
1070
     0
  0
XRECORD
  5
6B5
102
{ACAD_REACTORS
330
6AB
102
}
330
6AB
100
AcDbXrecord
340
0
  0
XRECORD
  5
6B4
102
{ACAD_REACTORS
330
6AB
102
}
330
6AB
100
AcDbXrecord
 90
        0
  0
XRECORD
  5
6CB
102
{ACAD_REACTORS
330
6AB
102
}
330
6AB
100
AcDbXrecord
1000
DSTYLE
1002
{
1070
   340
340
11
1002
}
  0
XRECORD
  5
6B6
102
{ACAD_REACTORS
330
6AB
102
}
330
6AB
100
AcDbXrecord
  1
{02c835c8-60f3-412d-9539-286e56405036}
  0
XRECORD
  5
6AE
102
{ACAD_REACTORS
330
6AB
102
}
330
6AB
100
AcDbXrecord
  1

  0
XRECORD
  5
6B3
102
{ACAD_REACTORS
330
6AB
102
}
330
6AB
100
AcDbXrecord
 90
        4
  0
XRECORD
  5
6B0
102
{ACAD_REACTORS
330
6AB
102
}
330
6AB
100
AcDbXrecord
340
1A
  0
XRECORD
  5
6B2
102
{ACAD_REACTORS
330
6AB
102
}
330
6AB
100
AcDbXrecord
 90
    10781
  0
XRECORD
  5
6B1
102
{ACAD_REACTORS
330
6AB
102
}
330
6AB
100
AcDbXrecord
340
19
  0
XRECORD
  5
6B8
102
{ACAD_REACTORS
330
6AB
102
}
330
6AB
100
AcDbXrecord
 40
0.0
  0
XRECORD
  5
6BB
102
{ACAD_REACTORS
330
6AB
102
}
330
6AB
100
AcDbXrecord
340
0
  0
XRECORD
  5
6C1
102
{ACAD_REACTORS
330
6AB
102
}
330
6AB
100
AcDbXrecord
 10
0.0
 20
0.0
 30
0.0
  0
XRECORD
  5
6BD
102
{ACAD_REACTORS
330
6AB
102
}
330
6AB
100
AcDbXrecord
 10
0.0
 20
0.0
 30
0.0
  0
XRECORD
  5
6C0
102
{ACAD_REACTORS
330
6AB
102
}
330
6AB
100
AcDbXrecord
 10
0.0
 20
0.0
 30
0.0
  0
XRECORD
  5
6BE
102
{ACAD_REACTORS
330
6AB
102
}
330
6AB
100
AcDbXrecord
 10
0.0
 20
0.0
 30
0.0
  0
XRECORD
  5
6BF
102
{ACAD_REACTORS
330
6AB
102
}
330
6AB
100
AcDbXrecord
 10
0.0
 20
0.0
 30
0.0
  0
XRECORD
  5
6BC
102
{ACAD_REACTORS
330
6AB
102
}
330
6AB
100
AcDbXrecord
 10
0.0
 20
0.0
 30
0.0
  0
XRECORD
  5
6B9
102
{ACAD_REACTORS
330
6AB
102
}
330
6AB
100
AcDbXrecord
340
0
  0
XRECORD
  5
6BA
102
{ACAD_REACTORS
330
6AB
102
}
330
6AB
100
AcDbXrecord
 70
     0
  0
XRECORD
  5
6AF
102
{ACAD_REACTORS
330
6AB
102
}
330
6AB
100
AcDbXrecord
  1

  0
XRECORD
  5
6AC
102
{ACAD_REACTORS
330
6AB
102
}
330
6AB
100
AcDbXrecord
 90
        1
  0
XRECORD
  5
6AD
102
{ACAD_REACTORS
330
6AB
102
}
330
6AB
100
AcDbXrecord
 90
       70
  0
XRECORD
  5
6C4
102
{ACAD_REACTORS
330
6AB
102
}
330
6AB
100
AcDbXrecord
340
0
  0
XRECORD
  5
6CA
102
{ACAD_REACTORS
330
6AB
102
}
330
6AB
100
AcDbXrecord
 10
0.0
 20
0.0
 30
0.0
  0
XRECORD
  5
6C6
102
{ACAD_REACTORS
330
6AB
102
}
330
6AB
100
AcDbXrecord
 10
0.0
 20
0.0
 30
0.0
  0
XRECORD
  5
6C9
102
{ACAD_REACTORS
330
6AB
102
}
330
6AB
100
AcDbXrecord
 10
0.0
 20
0.0
 30
0.0
  0
XRECORD
  5
6C7
102
{ACAD_REACTORS
330
6AB
102
}
330
6AB
100
AcDbXrecord
 10
0.0
 20
0.0
 30
0.0
  0
XRECORD
  5
6C8
102
{ACAD_REACTORS
330
6AB
102
}
330
6AB
100
AcDbXrecord
 10
0.0
 20
0.0
 30
0.0
  0
XRECORD
  5
6C5
102
{ACAD_REACTORS
330
6AB
102
}
330
6AB
100
AcDbXrecord
 10
0.0
 20
0.0
 30
0.0
  0
XRECORD
  5
6C2
102
{ACAD_REACTORS
330
6AB
102
}
330
6AB
100
AcDbXrecord
340
0
  0
XRECORD
  5
6C3
102
{ACAD_REACTORS
330
6AB
102
}
330
6AB
100
AcDbXrecord
 70
     0
  0
XRECORD
  5
6B7
102
{ACAD_REACTORS
330
6AB
102
}
330
6AB
100
AcDbXrecord
  1
{FAEB1C32-E019-11D5-929B-00C0DF256EC4}
  0
DICTIONARYVAR
  5
6D9
102
{ACAD_REACTORS
330
6CC
102
}
330
6CC
100
DictionaryVariables
280
     0
  1
1:1
  0
DICTIONARYVAR
  5
6D3
102
{ACAD_REACTORS
330
6CC
102
}
330
6CC
100
DictionaryVariables
280
     0
  1
3.500000
  0
DICTIONARYVAR
  5
6D4
102
{ACAD_REACTORS
330
6CC
102
}
330
6CC
100
DictionaryVariables
280
     0
  1
acadiso.lin
  0
DICTIONARYVAR
  5
6CE
102
{ACAD_REACTORS
330
6CC
102
}
330
6CC
100
DictionaryVariables
280
     0
  1
Standard
  0
DICTIONARYVAR
  5
6CD
102
{ACAD_REACTORS
330
6CC
102
}
330
6CC
100
DictionaryVariables
280
     0
  1
Standard
  0
DICTIONARYVAR
  5
6D5
102
{ACAD_REACTORS
330
6CC
102
}
330
6CC
100
DictionaryVariables
280
     0
  1
2
  0
DICTIONARYVAR
  5
6D6
102
{ACAD_REACTORS
330
6CC
102
}
330
6CC
100
DictionaryVariables
280
     0
  1
1
  0
DICTIONARYVAR
  5
6DA
102
{ACAD_REACTORS
330
6CC
102
}
330
6CC
100
DictionaryVariables
280
     0
  1
1
  0
DICTIONARYVAR
  5
6D0
102
{ACAD_REACTORS
330
6CC
102
}
330
6CC
100
DictionaryVariables
280
     0
  1
80.000000
  0
DICTIONARYVAR
  5
6CF
102
{ACAD_REACTORS
330
6CC
102
}
330
6CC
100
DictionaryVariables
280
     0
  1
5.000000
  0
DICTIONARY
  5
6DD
330
45
100
AcDbDictionary
280
     1
  3
ACAD_XREC_ROUNDTRIP
360
6DE
  0
DICTIONARY
  5
6DB
330
44
100
AcDbDictionary
280
     1
  3
ACAD_XREC_ROUNDTRIP
360
6DC
  0
DICTIONARY
  5
6DF
330
46
100
AcDbDictionary
280
     1
  3
ACAD_XREC_ROUNDTRIP
360
6E0
  0
XRECORD
  5
6DE
102
{ACAD_REACTORS
330
6DD
102
}
330
6DD
100
AcDbXrecord
102
MATERIAL
148
0.0
149
0.0
149
0.0
 93
        0
 94
      127
282
     0
 72
     1
 77
     1
171
     1
175
     1
179
     1
273
     0
  0
XRECORD
  5
6DC
102
{ACAD_REACTORS
330
6DB
102
}
330
6DB
100
AcDbXrecord
102
MATERIAL
148
0.0
149
0.0
149
0.0
 93
        0
 94
      127
282
     0
 72
     1
 77
     1
171
     1
175
     1
179
     1
273
     0
  0
XRECORD
  5
6E0
102
{ACAD_REACTORS
330
6DF
102
}
330
6DF
100
AcDbXrecord
102
MATERIAL
148
0.0
149
0.0
149
0.0
 93
        0
 94
      127
282
     0
 72
     1
 77
     1
171
     1
175
     1
179
     1
273
     0
  0
ENDSEC
  0
EOF
