  0
SECTION
  2
HEADER
  9
$ACADVER
  1
AC1014
  9
$ACADMAINTVER
 70
     9
  9
$DWGCODEPAGE
  3
ANSI_932
  9
$INSBASE
 10
0.0
 20
0.0
 30
0.0
  9
$EXTMIN
 10
90.0
 20
90.0
 30
0.0
  9
$EXTMAX
 10
3690.0
 20
2583.0
 30
0.0
  9
$LIMMIN
 10
0.0
 20
0.0
  9
$LIMMAX
 10
420.0
 20
297.0
  9
$ORTHOMODE
 70
     0
  9
$REGENMODE
 70
     1
  9
$FILLMODE
 70
     1
  9
$QTEXTMODE
 70
     0
  9
$MIRRTEXT
 70
     1
  9
$DRAGMODE
 70
     2
  9
$LTSCALE
 40
1.0
  9
$OSMODE
 70
    37
  9
$ATTMODE
 70
     1
  9
$TEXTSIZE
 40
2.5
  9
$TRACEWID
 40
1.0
  9
$TEXTSTYLE
  7
STANDARD
  9
$CLAYER
  8
Ｓ_１_１
  9
$CELTYPE
  6
BYLAYER
  9
$CECOLOR
 62
   256
  9
$CELTSCALE
 40
1.0
  9
$DELOBJ
 70
     1
  9
$DISPSILH
 70
     0
  9
$DIMSCALE
 40
1.0
  9
$DIMASZ
 40
2.5
  9
$DIMEXO
 40
0.625
  9
$DIMDLI
 40
3.75
  9
$DIMRND
 40
0.0
  9
$DIMDLE
 40
0.0
  9
$DIMEXE
 40
1.25
  9
$DIMTP
 40
0.0
  9
$DIMTM
 40
0.0
  9
$DIMTXT
 40
2.5
  9
$DIMCEN
 40
2.5
  9
$DIMTSZ
 40
0.0
  9
$DIMTOL
 70
     0
  9
$DIMLIM
 70
     0
  9
$DIMTIH
 70
     0
  9
$DIMTOH
 70
     0
  9
$DIMSE1
 70
     0
  9
$DIMSE2
 70
     0
  9
$DIMTAD
 70
     1
  9
$DIMZIN
 70
     8
  9
$DIMBLK
  1

  9
$DIMASO
 70
     1
  9
$DIMSHO
 70
     1
  9
$DIMPOST
  1

  9
$DIMAPOST
  1

  9
$DIMALT
 70
     0
  9
$DIMALTD
 70
     3
  9
$DIMALTF
 40
0.03937007874016
  9
$DIMLFAC
 40
1.0
  9
$DIMTOFL
 70
     1
  9
$DIMTVP
 40
0.0
  9
$DIMTIX
 70
     0
  9
$DIMSOXD
 70
     0
  9
$DIMSAH
 70
     0
  9
$DIMBLK1
  1

  9
$DIMBLK2
  1

  9
$DIMSTYLE
  2
ISO-25
  9
$DIMCLRD
 70
     0
  9
$DIMCLRE
 70
     0
  9
$DIMCLRT
 70
     0
  9
$DIMTFAC
 40
1.0
  9
$DIMGAP
 40
0.625
  9
$DIMJUST
 70
     0
  9
$DIMSD1
 70
     0
  9
$DIMSD2
 70
     0
  9
$DIMTOLJ
 70
     0
  9
$DIMTZIN
 70
     8
  9
$DIMALTZ
 70
     0
  9
$DIMALTTZ
 70
     0
  9
$DIMFIT
 70
     3
  9
$DIMUPT
 70
     0
  9
$DIMUNIT
 70
     2
  9
$DIMDEC
 70
     2
  9
$DIMTDEC
 70
     2
  9
$DIMALTU
 70
     2
  9
$DIMALTTD
 70
     3
  9
$DIMTXSTY
  7
STANDARD
  9
$DIMAUNIT
 70
     0
  9
$LUNITS
 70
     2
  9
$LUPREC
 70
     4
  9
$SKETCHINC
 40
1.0
  9
$FILLETRAD
 40
10.0
  9
$AUNITS
 70
     0
  9
$AUPREC
 70
     0
  9
$MENU
  1
.
  9
$ELEVATION
 40
0.0
  9
$PELEVATION
 40
0.0
  9
$THICKNESS
 40
0.0
  9
$LIMCHECK
 70
     0
  9
$CHAMFERA
 40
0.0
  9
$CHAMFERB
 40
0.0
  9
$CHAMFERC
 40
0.0
  9
$CHAMFERD
 40
0.0
  9
$SKPOLY
 70
     0
  9
$TDCREATE
 40
2459586.418486678
  9
$TDUPDATE
 40
2459586.418488414
  9
$TDINDWG
 40
0.0000000116
  9
$TDUSRTIMER
 40
0.0000000116
  9
$USRTIMER
 70
     1
  9
$ANGBASE
 50
0.0
  9
$ANGDIR
 70
     0
  9
$PDMODE
 70
     0
  9
$PDSIZE
 40
0.0
  9
$PLINEWID
 40
0.0
  9
$COORDS
 70
     1
  9
$SPLFRAME
 70
     0
  9
$SPLINETYPE
 70
     6
  9
$SPLINESEGS
 70
     8
  9
$ATTDIA
 70
     0
  9
$ATTREQ
 70
     1
  9
$HANDLING
 70
     1
  9
$HANDSEED
  5
617
  9
$SURFTAB1
 70
     6
  9
$SURFTAB2
 70
     6
  9
$SURFTYPE
 70
     6
  9
$SURFU
 70
     6
  9
$SURFV
 70
     6
  9
$UCSNAME
  2

  9
$UCSORG
 10
0.0
 20
0.0
 30
0.0
  9
$UCSXDIR
 10
1.0
 20
0.0
 30
0.0
  9
$UCSYDIR
 10
0.0
 20
1.0
 30
0.0
  9
$PUCSNAME
  2

  9
$PUCSORG
 10
0.0
 20
0.0
 30
0.0
  9
$PUCSXDIR
 10
1.0
 20
0.0
 30
0.0
  9
$PUCSYDIR
 10
0.0
 20
1.0
 30
0.0
  9
$USERI1
 70
     0
  9
$USERI2
 70
     0
  9
$USERI3
 70
     0
  9
$USERI4
 70
     0
  9
$USERI5
 70
     0
  9
$USERR1
 40
0.0
  9
$USERR2
 40
0.0
  9
$USERR3
 40
0.0
  9
$USERR4
 40
0.0
  9
$USERR5
 40
0.0
  9
$WORLDVIEW
 70
     1
  9
$SHADEDGE
 70
     3
  9
$SHADEDIF
 70
    70
  9
$TILEMODE
 70
     1
  9
$MAXACTVP
 70
    64
  9
$PINSBASE
 10
0.0
 20
0.0
 30
0.0
  9
$PLIMCHECK
 70
     0
  9
$PEXTMIN
 10
1.000000000000000E+20
 20
1.000000000000000E+20
 30
1.000000000000000E+20
  9
$PEXTMAX
 10
-1.000000000000000E+20
 20
-1.000000000000000E+20
 30
-1.000000000000000E+20
  9
$PLIMMIN
 10
0.0
 20
0.0
  9
$PLIMMAX
 10
420.0
 20
297.0
  9
$UNITMODE
 70
     0
  9
$VISRETAIN
 70
     1
  9
$PLINEGEN
 70
     0
  9
$PSLTSCALE
 70
     1
  9
$TREEDEPTH
 70
  3020
  9
$PICKSTYLE
 70
     1
  9
$CMLSTYLE
  2
STANDARD
  9
$CMLJUST
 70
     0
  9
$CMLSCALE
 40
20.0
  9
$PROXYGRAPHICS
 70
     1
  9
$MEASUREMENT
 70
     1
  0
ENDSEC
  0
SECTION
  2
CLASSES
  0
CLASS
  1
ACDBDICTIONARYWDFLT
  2
AcDbDictionaryWithDefault
  3
ObjectDBX Classes
 90
        0
280
     0
281
     0
  0
CLASS
  1
VISUALSTYLE
  2
AcDbVisualStyle
  3
ObjectDBX Classes
 90
     4095
280
     0
281
     0
  0
CLASS
  1
MATERIAL
  2
AcDbMaterial
  3
ObjectDBX Classes
 90
     1153
280
     0
281
     0
  0
CLASS
  1
SCALE
  2
AcDbScale
  3
ObjectDBX Classes
 90
     1153
280
     0
281
     0
  0
CLASS
  1
TABLESTYLE
  2
AcDbTableStyle
  3
ObjectDBX Classes
 90
     4095
280
     0
281
     0
  0
CLASS
  1
MLEADERSTYLE
  2
AcDbMLeaderStyle
  3
ACDB_MLEADERSTYLE_CLASS
 90
     4095
280
     0
281
     0
  0
CLASS
  1
SUN
  2
AcDbSun
  3
SCENEOE
 90
     1153
280
     0
281
     0
  0
CLASS
  1
DICTIONARYVAR
  2
AcDbDictionaryVar
  3
ObjectDBX Classes
 90
        0
280
     0
281
     0
  0
CLASS
  1
XRECORD
  2
AcDbXrecord
  3
ObjectDBX Classes
 90
        0
280
     0
281
     0
  0
CLASS
  1
LWPOLYLINE
  2
AcDbPolyline
  3
ObjectDBX Classes
 90
        0
280
     0
281
     1
  0
CLASS
  1
HATCH
  2
AcDbHatch
  3
ObjectDBX Classes
 90
        0
280
     0
281
     1
  0
CLASS
  1
ACDBPLACEHOLDER
  2
AcDbPlaceHolder
  3
ObjectDBX Classes
 90
        0
280
     0
281
     0
  0
CLASS
  1
LAYOUT
  2
AcDbLayout
  3
ObjectDBX Classes
 90
        0
280
     0
281
     0
  0
ENDSEC
  0
SECTION
  2
TABLES
  0
TABLE
  2
VPORT
  5
8
102
{ACAD_XDICTIONARY
360
60C
102
}
330
0
100
AcDbSymbolTable
 70
     1
  0
VPORT
  5
29
330
8
100
AcDbSymbolTableRecord
100
AcDbViewportTableRecord
  2
*ACTIVE
 70
     0
 10
0.0
 20
0.0
 11
1.0
 21
1.0
 12
1890.0
 22
1336.5
 13
0.0
 23
0.0
 14
10.0
 24
10.0
 15
10.0
 25
10.0
 16
0.0
 26
0.0
 36
1.0
 17
0.0
 27
0.0
 37
0.0
 40
2493.0
 41
1.444043321299639
 42
50.0
 43
0.0
 44
0.0
 50
0.0
 51
0.0
 71
     0
 72
  1000
 73
     1
 74
     3
 75
     0
 76
     0
 77
     0
 78
     0
  0
ENDTAB
  0
TABLE
  2
LTYPE
  5
5
330
0
100
AcDbSymbolTable
 70
    15
  0
LTYPE
  5
14
330
5
100
AcDbSymbolTableRecord
100
AcDbLinetypeTableRecord
  2
BYBLOCK
 70
     0
  3

 72
    65
 73
     0
 40
0.0
  0
LTYPE
  5
15
330
5
100
AcDbSymbolTableRecord
100
AcDbLinetypeTableRecord
  2
BYLAYER
 70
     0
  3

 72
    65
 73
     0
 40
0.0
  0
LTYPE
  5
16
330
5
100
AcDbSymbolTableRecord
100
AcDbLinetypeTableRecord
  2
CONTINUOUS
 70
     0
  3
Solid line
 72
    65
 73
     0
 40
0.0
  0
LTYPE
  5
6E
330
5
100
AcDbSymbolTableRecord
100
AcDbLinetypeTableRecord
  2
EXLTYPE0
 70
     0
  3
破線
 72
    65
 73
     2
 40
4.0
 49
3.0
 74
     0
 49
-1.0
 74
     0
  0
LTYPE
  5
6F
330
5
100
AcDbSymbolTableRecord
100
AcDbLinetypeTableRecord
  2
EXLTYPE1
 70
     0
  3
点線
 72
    65
 73
     2
 40
2.0
 49
1.0
 74
     0
 49
-1.0
 74
     0
  0
LTYPE
  5
70
330
5
100
AcDbSymbolTableRecord
100
AcDbLinetypeTableRecord
  2
EXLTYPE2
 70
     0
  3
一点鎖線
 72
    65
 73
     4
 40
13.0
 49
10.0
 74
     0
 49
-1.0
 74
     0
 49
1.0
 74
     0
 49
-1.0
 74
     0
  0
LTYPE
  5
71
330
5
100
AcDbSymbolTableRecord
100
AcDbLinetypeTableRecord
  2
EXLTYPE3
 70
     0
  3
二点鎖線
 72
    65
 73
     6
 40
15.0
 49
10.0
 74
     0
 49
-1.0
 74
     0
 49
1.0
 74
     0
 49
-1.0
 74
     0
 49
1.0
 74
     0
 49
-1.0
 74
     0
  0
LTYPE
  5
72
330
5
100
AcDbSymbolTableRecord
100
AcDbLinetypeTableRecord
  2
EXLTYPE4
 70
     0
  3
一点鎖線2
 72
    65
 73
     4
 40
3.5
 49
2.0
 74
     0
 49
-0.5
 74
     0
 49
0.5
 74
     0
 49
-0.5
 74
     0
  0
LTYPE
  5
73
330
5
100
AcDbSymbolTableRecord
100
AcDbLinetypeTableRecord
  2
EXLTYPE5
 70
     0
  3
二点鎖線2
 72
    65
 73
     6
 40
4.5
 49
2.0
 74
     0
 49
-0.5
 74
     0
 49
0.5
 74
     0
 49
-0.5
 74
     0
 49
0.5
 74
     0
 49
-0.5
 74
     0
  0
LTYPE
  5
74
330
5
100
AcDbSymbolTableRecord
100
AcDbLinetypeTableRecord
  2
EXLTYPE6
 70
     0
  3
一点鎖線5
 72
    65
 73
     4
 40
13.0
 49
10.0
 74
     0
 49
-1.0
 74
     0
 49
1.0
 74
     0
 49
-1.0
 74
     0
  0
LTYPE
  5
75
330
5
100
AcDbSymbolTableRecord
100
AcDbLinetypeTableRecord
  2
EXLTYPE7
 70
     0
  3
破線7
 72
    65
 73
     2
 40
2.5
 49
1.5
 74
     0
 49
-1.0
 74
     0
  0
LTYPE
  5
76
330
5
100
AcDbSymbolTableRecord
100
AcDbLinetypeTableRecord
  2
EXLTYPE8
 70
     0
  3
一点鎖線4
 72
    65
 73
     4
 40
13.0
 49
10.0
 74
     0
 49
-1.0
 74
     0
 49
1.0
 74
     0
 49
-1.0
 74
     0
  0
LTYPE
  5
77
330
5
100
AcDbSymbolTableRecord
100
AcDbLinetypeTableRecord
  2
EXLTYPE9
 70
     0
  3
破線2
 72
    65
 73
     2
 40
2.5
 49
1.5
 74
     0
 49
-1.0
 74
     0
  0
LTYPE
  5
78
330
5
100
AcDbSymbolTableRecord
100
AcDbLinetypeTableRecord
  2
EXLTYPE10
 70
     0
  3
一点鎖線3
 72
    65
 73
     4
 40
13.0
 49
10.0
 74
     0
 49
-1.0
 74
     0
 49
1.0
 74
     0
 49
-1.0
 74
     0
  0
LTYPE
  5
79
330
5
100
AcDbSymbolTableRecord
100
AcDbLinetypeTableRecord
  2
EXLTYPE11
 70
     0
  3
破線5
 72
    65
 73
     2
 40
2.5
 49
1.5
 74
     0
 49
-1.0
 74
     0
  0
LTYPE
  5
7A
330
5
100
AcDbSymbolTableRecord
100
AcDbLinetypeTableRecord
  2
EXLTYPE12
 70
     0
  3
破線3
 72
    65
 73
     2
 40
2.5
 49
1.5
 74
     0
 49
-1.0
 74
     0
  0
LTYPE
  5
7B
330
5
100
AcDbSymbolTableRecord
100
AcDbLinetypeTableRecord
  2
EXLTYPE13
 70
     0
  3
二点鎖線3
 72
    65
 73
     6
 40
15.0
 49
10.0
 74
     0
 49
-1.0
 74
     0
 49
1.0
 74
     0
 49
-1.0
 74
     0
 49
1.0
 74
     0
 49
-1.0
 74
     0
  0
ENDTAB
  0
TABLE
  2
LAYER
  5
2
330
0
100
AcDbSymbolTable
 70
     4
  0
LAYER
  5
10
330
2
100
AcDbSymbolTableRecord
100
AcDbLayerTableRecord
  2
0
 70
     0
 62
     7
  6
CONTINUOUS
  0
LAYER
  5
7E
330
2
100
AcDbSymbolTableRecord
100
AcDbLayerTableRecord
  2
図面枠
 70
     4
 62
     7
  6
CONTINUOUS
  0
LAYER
  5
7F
330
2
100
AcDbSymbolTableRecord
100
AcDbLayerTableRecord
  2
Ｓ_１_１
 70
     0
 62
     7
  6
CONTINUOUS
  0
LAYER
  5
121
330
2
100
AcDbSymbolTableRecord
100
AcDbLayerTableRecord
  2
DEFPOINTS
 70
     0
 62
     7
  6
CONTINUOUS
  0
ENDTAB
  0
TABLE
  2
STYLE
  5
3
330
0
100
AcDbSymbolTable
 70
     5
  0
STYLE
  5
11
330
3
100
AcDbSymbolTableRecord
100
AcDbTextStyleTableRecord
  2
STANDARD
 70
     0
 40
0.0
 41
1.0
 50
0.0
 71
     0
 42
2.5
  3
monotxt
  4
extfont
  0
STYLE
  5
7C
330
3
100
AcDbSymbolTableRecord
100
AcDbTextStyleTableRecord
  2
EXCADSTD
 70
     0
 40
0.0
 41
1.0
 50
0.0
 71
     0
 42
2.5
  3
monotxt
  4
extfont
  0
STYLE
  5
7D
330
3
100
AcDbSymbolTableRecord
100
AcDbTextStyleTableRecord
  2
EXCADVERT
 70
     4
 40
0.0
 41
1.0
 50
0.0
 71
     0
 42
2.5
  3
monotxt
  4
extfont
  0
STYLE
  5
E2
330
3
100
AcDbSymbolTableRecord
100
AcDbTextStyleTableRecord
  2
EXCADTTF1
 70
     0
 40
0.0
 41
1.0
 50
0.0
 71
     0
 42
2.5
  3
msgothic.ttc
  4

1001
ACAD
1000
MS Gothic
1071
    32817
  0
STYLE
  5
11F
330
3
100
AcDbSymbolTableRecord
100
AcDbTextStyleTableRecord
  2
EXCADDIM1
 70
     0
 40
0.0
 41
1.0
 50
0.0
 71
     0
 42
2.5
  3
msgothic.ttc
  4

1001
ACAD
1000
MS Gothic
1071
    32817
  0
ENDTAB
  0
TABLE
  2
VIEW
  5
6
330
0
100
AcDbSymbolTable
 70
     0
  0
ENDTAB
  0
TABLE
  2
UCS
  5
7
330
0
100
AcDbSymbolTable
 70
     0
  0
ENDTAB
  0
TABLE
  2
APPID
  5
9
330
0
100
AcDbSymbolTable
 70
     2
  0
APPID
  5
12
330
9
100
AcDbSymbolTableRecord
100
AcDbRegAppTableRecord
  2
ACAD
 70
     0
  0
APPID
  5
616
330
9
100
AcDbSymbolTableRecord
100
AcDbRegAppTableRecord
  2
ACAD_MLEADERVER
 70
     0
  0
ENDTAB
  0
TABLE
  2
DIMSTYLE
  5
A
330
0
100
AcDbSymbolTable
 70
     1
  0
DIMSTYLE
105
27
102
{ACAD_REACTORS
330
120
330
47A
330
487
330
494
330
49F
330
4AB
330
4B7
330
4C4
330
4D3
330
4DF
330
4EE
330
4FB
330
508
330
537
330
544
330
551
330
55E
330
56B
330
578
330
584
330
590
330
59C
330
5A8
330
5B7
330
5C3
330
5D1
102
}
330
A
100
AcDbSymbolTableRecord
100
AcDbDimStyleTableRecord
  2
ISO-25
 70
     0
  3

  4

  5

  6

  7

 40
1.0
 41
2.5
 42
0.625
 43
3.75
 44
1.25
 45
0.0
 46
0.0
 47
0.0
 48
0.0
140
2.5
141
2.5
142
0.0
143
0.03937007874016
144
1.0
145
0.0
146
1.0
147
0.625
 71
     0
 72
     0
 73
     0
 74
     0
 75
     0
 76
     0
 77
     1
 78
     8
170
     0
171
     3
172
     1
173
     0
174
     0
175
     0
176
     0
177
     0
178
     0
270
     2
271
     2
272
     2
273
     2
274
     3
340
11
275
     0
280
     0
281
     0
282
     0
283
     0
284
     8
285
     0
286
     0
287
     5
288
     0
  0
ENDTAB
  0
TABLE
  2
BLOCK_RECORD
  5
1
330
0
100
AcDbSymbolTable
 70
    40
  0
BLOCK_RECORD
  5
1F
330
1
100
AcDbSymbolTableRecord
100
AcDbBlockTableRecord
  2
*MODEL_SPACE
  0
BLOCK_RECORD
  5
1B
330
1
100
AcDbSymbolTableRecord
100
AcDbBlockTableRecord
  2
*PAPER_SPACE
  0
BLOCK_RECORD
  5
80
330
1
100
AcDbSymbolTableRecord
100
AcDbBlockTableRecord
  2
EX_NORM
  0
BLOCK_RECORD
  5
83
330
1
100
AcDbSymbolTableRecord
100
AcDbBlockTableRecord
  2
EX_BNORM
  0
BLOCK_RECORD
  5
86
330
1
100
AcDbSymbolTableRecord
100
AcDbBlockTableRecord
  2
EX_BCIR
  0
BLOCK_RECORD
  5
89
330
1
100
AcDbSymbolTableRecord
100
AcDbBlockTableRecord
  2
EX_RCIVIL
  0
BLOCK_RECORD
  5
8C
330
1
100
AcDbSymbolTableRecord
100
AcDbBlockTableRecord
  2
EX_SLANT
  0
BLOCK_RECORD
  5
8F
330
1
100
AcDbSymbolTableRecord
100
AcDbBlockTableRecord
  2
EX_NONE
  0
BLOCK_RECORD
  5
92
330
1
100
AcDbSymbolTableRecord
100
AcDbBlockTableRecord
  2
EX_CIVIL
  0
BLOCK_RECORD
  5
95
330
1
100
AcDbSymbolTableRecord
100
AcDbBlockTableRecord
  2
EX_WCIR
  0
BLOCK_RECORD
  5
98
330
1
100
AcDbSymbolTableRecord
100
AcDbBlockTableRecord
  2
EX_WCIR2
  0
BLOCK_RECORD
  5
9B
330
1
100
AcDbSymbolTableRecord
100
AcDbBlockTableRecord
  2
EX_WNORM
  0
BLOCK_RECORD
  5
9E
330
1
100
AcDbSymbolTableRecord
100
AcDbBlockTableRecord
  2
EX_NNORM
  0
BLOCK_RECORD
  5
A1
330
1
100
AcDbSymbolTableRecord
100
AcDbBlockTableRecord
  2
EX_BBOX
  0
BLOCK_RECORD
  5
A4
330
1
100
AcDbSymbolTableRecord
100
AcDbBlockTableRecord
  2
EX_WBOX
  0
BLOCK_RECORD
  5
A7
330
1
100
AcDbSymbolTableRecord
100
AcDbBlockTableRecord
  2
EX_INTEGRAL
  0
BLOCK_RECORD
  5
122
330
1
100
AcDbSymbolTableRecord
100
AcDbBlockTableRecord
  2
*D15
  0
BLOCK_RECORD
  5
47B
330
1
100
AcDbSymbolTableRecord
100
AcDbBlockTableRecord
  2
*D16
  0
BLOCK_RECORD
  5
488
330
1
100
AcDbSymbolTableRecord
100
AcDbBlockTableRecord
  2
*D17
  0
BLOCK_RECORD
  5
495
330
1
100
AcDbSymbolTableRecord
100
AcDbBlockTableRecord
  2
*D18
  0
BLOCK_RECORD
  5
4A0
330
1
100
AcDbSymbolTableRecord
100
AcDbBlockTableRecord
  2
*D19
  0
BLOCK_RECORD
  5
4AC
330
1
100
AcDbSymbolTableRecord
100
AcDbBlockTableRecord
  2
*D20
  0
BLOCK_RECORD
  5
4B8
330
1
100
AcDbSymbolTableRecord
100
AcDbBlockTableRecord
  2
*D21
  0
BLOCK_RECORD
  5
4C5
330
1
100
AcDbSymbolTableRecord
100
AcDbBlockTableRecord
  2
*D22
  0
BLOCK_RECORD
  5
4D4
330
1
100
AcDbSymbolTableRecord
100
AcDbBlockTableRecord
  2
*D23
  0
BLOCK_RECORD
  5
4E0
330
1
100
AcDbSymbolTableRecord
100
AcDbBlockTableRecord
  2
*D24
  0
BLOCK_RECORD
  5
4EF
330
1
100
AcDbSymbolTableRecord
100
AcDbBlockTableRecord
  2
*D25
  0
BLOCK_RECORD
  5
4FC
330
1
100
AcDbSymbolTableRecord
100
AcDbBlockTableRecord
  2
*D26
  0
BLOCK_RECORD
  5
509
330
1
100
AcDbSymbolTableRecord
100
AcDbBlockTableRecord
  2
*D27
  0
BLOCK_RECORD
  5
538
330
1
100
AcDbSymbolTableRecord
100
AcDbBlockTableRecord
  2
*D28
  0
BLOCK_RECORD
  5
545
330
1
100
AcDbSymbolTableRecord
100
AcDbBlockTableRecord
  2
*D29
  0
BLOCK_RECORD
  5
552
330
1
100
AcDbSymbolTableRecord
100
AcDbBlockTableRecord
  2
*D30
  0
BLOCK_RECORD
  5
55F
330
1
100
AcDbSymbolTableRecord
100
AcDbBlockTableRecord
  2
*D31
  0
BLOCK_RECORD
  5
56C
330
1
100
AcDbSymbolTableRecord
100
AcDbBlockTableRecord
  2
*D32
  0
BLOCK_RECORD
  5
579
330
1
100
AcDbSymbolTableRecord
100
AcDbBlockTableRecord
  2
*D33
  0
BLOCK_RECORD
  5
585
330
1
100
AcDbSymbolTableRecord
100
AcDbBlockTableRecord
  2
*D34
  0
BLOCK_RECORD
  5
591
330
1
100
AcDbSymbolTableRecord
100
AcDbBlockTableRecord
  2
*D35
  0
BLOCK_RECORD
  5
59D
330
1
100
AcDbSymbolTableRecord
100
AcDbBlockTableRecord
  2
*D36
  0
BLOCK_RECORD
  5
5A9
330
1
100
AcDbSymbolTableRecord
100
AcDbBlockTableRecord
  2
*D37
  0
BLOCK_RECORD
  5
5B8
330
1
100
AcDbSymbolTableRecord
100
AcDbBlockTableRecord
  2
*D38
  0
BLOCK_RECORD
  5
5C4
330
1
100
AcDbSymbolTableRecord
100
AcDbBlockTableRecord
  2
*D39
  0
BLOCK_RECORD
  5
5D2
330
1
100
AcDbSymbolTableRecord
100
AcDbBlockTableRecord
  2
*D40
  0
ENDTAB
  0
ENDSEC
  0
SECTION
  2
BLOCKS
  0
BLOCK
  5
20
330
1F
100
AcDbEntity
  8
0
100
AcDbBlockBegin
  2
*MODEL_SPACE
 70
     0
 10
0.0
 20
0.0
 30
0.0
  3
*MODEL_SPACE
  1

  0
ENDBLK
  5
21
330
1F
100
AcDbEntity
  8
0
100
AcDbBlockEnd
  0
BLOCK
  5
1C
330
1B
100
AcDbEntity
 67
     1
  8
0
100
AcDbBlockBegin
  2
*PAPER_SPACE
 70
     0
 10
0.0
 20
0.0
 30
0.0
  3
*PAPER_SPACE
  1

  0
ENDBLK
  5
1D
330
1B
100
AcDbEntity
 67
     1
  8
0
100
AcDbBlockEnd
  0
BLOCK
  5
81
330
80
100
AcDbEntity
  8
0
100
AcDbBlockBegin
  2
EX_NORM
 70
     0
 10
0.0
 20
0.0
 30
0.0
  3
EX_NORM
  1

  0
LINE
  5
AA
330
80
100
AcDbEntity
  8
0
  6
CONTINUOUS
 62
     0
100
AcDbLine
 10
0.0
 20
0.0
 30
0.0
 11
-1.0
 21
0.0
 31
0.0
  0
LINE
  5
AB
330
80
100
AcDbEntity
  8
0
  6
CONTINUOUS
 62
     0
100
AcDbLine
 10
0.0
 20
0.0
 30
0.0
 11
-1.0
 21
0.166666667
 31
0.0
  0
LINE
  5
AC
330
80
100
AcDbEntity
  8
0
  6
CONTINUOUS
 62
     0
100
AcDbLine
 10
0.0
 20
0.0
 30
0.0
 11
-1.0
 21
-0.166666667
 31
0.0
  0
ENDBLK
  5
82
330
80
100
AcDbEntity
  8
0
100
AcDbBlockEnd
  0
BLOCK
  5
84
330
83
100
AcDbEntity
  8
0
100
AcDbBlockBegin
  2
EX_BNORM
 70
     0
 10
0.0
 20
0.0
 30
0.0
  3
EX_BNORM
  1

  0
LINE
  5
AD
330
83
100
AcDbEntity
  8
0
  6
CONTINUOUS
 62
     0
100
AcDbLine
 10
0.0
 20
0.0
 30
0.0
 11
-1.0
 21
0.0
 31
0.0
  0
LINE
  5
AE
330
83
100
AcDbEntity
  8
0
  6
CONTINUOUS
 62
     0
100
AcDbLine
 10
0.0
 20
0.0
 30
0.0
 11
-1.0
 21
0.166666667
 31
0.0
  0
LINE
  5
AF
330
83
100
AcDbEntity
  8
0
  6
CONTINUOUS
 62
     0
100
AcDbLine
 10
0.0
 20
0.0
 30
0.0
 11
-1.0
 21
-0.166666667
 31
0.0
  0
LINE
  5
B0
330
83
100
AcDbEntity
  8
0
  6
CONTINUOUS
 62
     0
100
AcDbLine
 10
0.0
 20
0.0
 30
0.0
 11
-1.0
 21
0.083333333
 31
0.0
  0
LINE
  5
B1
330
83
100
AcDbEntity
  8
0
  6
CONTINUOUS
 62
     0
100
AcDbLine
 10
0.0
 20
0.0
 30
0.0
 11
-1.0
 21
-0.083333333
 31
0.0
  0
LINE
  5
B2
330
83
100
AcDbEntity
  8
0
  6
CONTINUOUS
 62
     0
100
AcDbLine
 10
-1.0
 20
0.166666667
 30
0.0
 11
-1.0
 21
-0.166666667
 31
0.0
  0
ENDBLK
  5
85
330
83
100
AcDbEntity
  8
0
100
AcDbBlockEnd
  0
BLOCK
  5
87
330
86
100
AcDbEntity
  8
0
100
AcDbBlockBegin
  2
EX_BCIR
 70
     0
 10
0.0
 20
0.0
 30
0.0
  3
EX_BCIR
  1

  0
LINE
  5
B3
330
86
100
AcDbEntity
  8
0
  6
CONTINUOUS
 62
     0
100
AcDbLine
 10
0.0
 20
0.0
 30
0.0
 11
-1.0
 21
0.0
 31
0.0
  0
CIRCLE
  5
B4
330
86
100
AcDbEntity
  8
0
  6
CONTINUOUS
 62
     0
100
AcDbCircle
 10
0.0
 20
0.0
 30
0.0
 40
0.5
  0
CIRCLE
  5
B5
330
86
100
AcDbEntity
  8
0
  6
CONTINUOUS
 62
     0
100
AcDbCircle
 10
0.0
 20
0.0
 30
0.0
 40
0.25
  0
ENDBLK
  5
88
330
86
100
AcDbEntity
  8
0
100
AcDbBlockEnd
  0
BLOCK
  5
8A
330
89
100
AcDbEntity
  8
0
100
AcDbBlockBegin
  2
EX_RCIVIL
 70
     0
 10
0.0
 20
0.0
 30
0.0
  3
EX_RCIVIL
  1

  0
LINE
  5
B6
330
89
100
AcDbEntity
  8
0
  6
CONTINUOUS
 62
     0
100
AcDbLine
 10
0.0
 20
0.0
 30
0.0
 11
-1.0
 21
0.0
 31
0.0
  0
LINE
  5
B7
330
89
100
AcDbEntity
  8
0
  6
CONTINUOUS
 62
     0
100
AcDbLine
 10
-1.0
 20
-0.25
 30
0.0
 11
0.0
 21
-0.25
 31
0.0
  0
LINE
  5
B8
330
89
100
AcDbEntity
  8
0
  6
CONTINUOUS
 62
     0
100
AcDbLine
 10
-1.0
 20
-0.125
 30
0.0
 11
0.0
 21
-0.125
 31
0.0
  0
ENDBLK
  5
8B
330
89
100
AcDbEntity
  8
0
100
AcDbBlockEnd
  0
BLOCK
  5
8D
330
8C
100
AcDbEntity
  8
0
100
AcDbBlockBegin
  2
EX_SLANT
 70
     0
 10
0.0
 20
0.0
 30
0.0
  3
EX_SLANT
  1

  0
LINE
  5
B9
330
8C
100
AcDbEntity
  8
0
  6
CONTINUOUS
 62
     0
100
AcDbLine
 10
0.0
 20
0.0
 30
0.0
 11
-1.0
 21
0.0
 31
0.0
  0
LINE
  5
BA
330
8C
100
AcDbEntity
  8
0
  6
CONTINUOUS
 62
     0
100
AcDbLine
 10
0.707106781
 20
0.707106781
 30
0.0
 11
-0.707106781
 21
-0.707106781
 31
0.0
  0
ENDBLK
  5
8E
330
8C
100
AcDbEntity
  8
0
100
AcDbBlockEnd
  0
BLOCK
  5
90
330
8F
100
AcDbEntity
  8
0
100
AcDbBlockBegin
  2
EX_NONE
 70
     0
 10
0.0
 20
0.0
 30
0.0
  3
EX_NONE
  1

  0
LINE
  5
BB
330
8F
100
AcDbEntity
  8
0
  6
CONTINUOUS
 62
     0
100
AcDbLine
 10
0.0
 20
0.0
 30
0.0
 11
-1.0
 21
0.0
 31
0.0
  0
ENDBLK
  5
91
330
8F
100
AcDbEntity
  8
0
100
AcDbBlockEnd
  0
BLOCK
  5
93
330
92
100
AcDbEntity
  8
0
100
AcDbBlockBegin
  2
EX_CIVIL
 70
     0
 10
0.0
 20
0.0
 30
0.0
  3
EX_CIVIL
  1

  0
LINE
  5
BC
330
92
100
AcDbEntity
  8
0
  6
CONTINUOUS
 62
     0
100
AcDbLine
 10
0.0
 20
0.0
 30
0.0
 11
-1.0
 21
0.0
 31
0.0
  0
LINE
  5
BD
330
92
100
AcDbEntity
  8
0
  6
CONTINUOUS
 62
     0
100
AcDbLine
 10
-1.0
 20
0.25
 30
0.0
 11
0.0
 21
0.25
 31
0.0
  0
LINE
  5
BE
330
92
100
AcDbEntity
  8
0
  6
CONTINUOUS
 62
     0
100
AcDbLine
 10
-1.0
 20
0.125
 30
0.0
 11
0.0
 21
0.125
 31
0.0
  0
ENDBLK
  5
94
330
92
100
AcDbEntity
  8
0
100
AcDbBlockEnd
  0
BLOCK
  5
96
330
95
100
AcDbEntity
  8
0
100
AcDbBlockBegin
  2
EX_WCIR
 70
     0
 10
0.0
 20
0.0
 30
0.0
  3
EX_WCIR
  1

  0
LINE
  5
BF
330
95
100
AcDbEntity
  8
0
  6
CONTINUOUS
 62
     0
100
AcDbLine
 10
0.0
 20
0.0
 30
0.0
 11
-1.0
 21
0.0
 31
0.0
  0
CIRCLE
  5
C0
330
95
100
AcDbEntity
  8
0
  6
CONTINUOUS
 62
     0
100
AcDbCircle
 10
0.0
 20
0.0
 30
0.0
 40
0.5
  0
ENDBLK
  5
97
330
95
100
AcDbEntity
  8
0
100
AcDbBlockEnd
  0
BLOCK
  5
99
330
98
100
AcDbEntity
  8
0
100
AcDbBlockBegin
  2
EX_WCIR2
 70
     0
 10
0.0
 20
0.0
 30
0.0
  3
EX_WCIR2
  1

  0
LINE
  5
C1
330
98
100
AcDbEntity
  8
0
  6
CONTINUOUS
 62
     0
100
AcDbLine
 10
-0.5
 20
0.0
 30
0.0
 11
-1.0
 21
0.0
 31
0.0
  0
CIRCLE
  5
C2
330
98
100
AcDbEntity
  8
0
  6
CONTINUOUS
 62
     0
100
AcDbCircle
 10
0.0
 20
0.0
 30
0.0
 40
0.5
  0
ENDBLK
  5
9A
330
98
100
AcDbEntity
  8
0
100
AcDbBlockEnd
  0
BLOCK
  5
9C
330
9B
100
AcDbEntity
  8
0
100
AcDbBlockBegin
  2
EX_WNORM
 70
     0
 10
0.0
 20
0.0
 30
0.0
  3
EX_WNORM
  1

  0
LINE
  5
C3
330
9B
100
AcDbEntity
  8
0
  6
CONTINUOUS
 62
     0
100
AcDbLine
 10
-1.0
 20
0.0
 30
0.0
 11
-1.0
 21
0.0
 31
0.0
  0
LINE
  5
C4
330
9B
100
AcDbEntity
  8
0
  6
CONTINUOUS
 62
     0
100
AcDbLine
 10
0.0
 20
0.0
 30
0.0
 11
-1.0
 21
0.166666667
 31
0.0
  0
LINE
  5
C5
330
9B
100
AcDbEntity
  8
0
  6
CONTINUOUS
 62
     0
100
AcDbLine
 10
0.0
 20
0.0
 30
0.0
 11
-1.0
 21
-0.166666667
 31
0.0
  0
LINE
  5
C6
330
9B
100
AcDbEntity
  8
0
  6
CONTINUOUS
 62
     0
100
AcDbLine
 10
-1.0
 20
0.166666667
 30
0.0
 11
-1.0
 21
-0.166666667
 31
0.0
  0
ENDBLK
  5
9D
330
9B
100
AcDbEntity
  8
0
100
AcDbBlockEnd
  0
BLOCK
  5
9F
330
9E
100
AcDbEntity
  8
0
100
AcDbBlockBegin
  2
EX_NNORM
 70
     0
 10
0.0
 20
0.0
 30
0.0
  3
EX_NNORM
  1

  0
LINE
  5
C7
330
9E
100
AcDbEntity
  8
0
  6
CONTINUOUS
 62
     0
100
AcDbLine
 10
0.0
 20
0.0
 30
0.0
 11
-1.0
 21
0.0
 31
0.0
  0
LINE
  5
C8
330
9E
100
AcDbEntity
  8
0
  6
CONTINUOUS
 62
     0
100
AcDbLine
 10
0.0
 20
0.0
 30
0.0
 11
-1.0
 21
0.166666667
 31
0.0
  0
LINE
  5
C9
330
9E
100
AcDbEntity
  8
0
  6
CONTINUOUS
 62
     0
100
AcDbLine
 10
0.0
 20
0.0
 30
0.0
 11
-1.0
 21
-0.166666667
 31
0.0
  0
LINE
  5
CA
330
9E
100
AcDbEntity
  8
0
  6
CONTINUOUS
 62
     0
100
AcDbLine
 10
-1.0
 20
0.166666667
 30
0.0
 11
-1.0
 21
-0.166666667
 31
0.0
  0
ENDBLK
  5
A0
330
9E
100
AcDbEntity
  8
0
100
AcDbBlockEnd
  0
BLOCK
  5
A2
330
A1
100
AcDbEntity
  8
0
100
AcDbBlockBegin
  2
EX_BBOX
 70
     0
 10
0.0
 20
0.0
 30
0.0
  3
EX_BBOX
  1

  0
LINE
  5
CB
330
A1
100
AcDbEntity
  8
0
  6
CONTINUOUS
 62
     0
100
AcDbLine
 10
0.0
 20
0.0
 30
0.0
 11
-1.0
 21
0.0
 31
0.0
  0
LINE
  5
CC
330
A1
100
AcDbEntity
  8
0
  6
CONTINUOUS
 62
     0
100
AcDbLine
 10
-0.5
 20
0.5
 30
0.0
 11
0.5
 21
0.5
 31
0.0
  0
LINE
  5
CD
330
A1
100
AcDbEntity
  8
0
  6
CONTINUOUS
 62
     0
100
AcDbLine
 10
0.5
 20
0.5
 30
0.0
 11
0.5
 21
-0.5
 31
0.0
  0
LINE
  5
CE
330
A1
100
AcDbEntity
  8
0
  6
CONTINUOUS
 62
     0
100
AcDbLine
 10
0.5
 20
-0.5
 30
0.0
 11
-0.5
 21
-0.5
 31
0.0
  0
LINE
  5
CF
330
A1
100
AcDbEntity
  8
0
  6
CONTINUOUS
 62
     0
100
AcDbLine
 10
-0.5
 20
-0.5
 30
0.0
 11
-0.5
 21
0.5
 31
0.0
  0
LINE
  5
D0
330
A1
100
AcDbEntity
  8
0
  6
CONTINUOUS
 62
     0
100
AcDbLine
 10
-0.25
 20
0.25
 30
0.0
 11
0.25
 21
0.25
 31
0.0
  0
LINE
  5
D1
330
A1
100
AcDbEntity
  8
0
  6
CONTINUOUS
 62
     0
100
AcDbLine
 10
0.25
 20
0.25
 30
0.0
 11
0.25
 21
-0.25
 31
0.0
  0
LINE
  5
D2
330
A1
100
AcDbEntity
  8
0
  6
CONTINUOUS
 62
     0
100
AcDbLine
 10
0.25
 20
-0.25
 30
0.0
 11
-0.25
 21
-0.25
 31
0.0
  0
LINE
  5
D3
330
A1
100
AcDbEntity
  8
0
  6
CONTINUOUS
 62
     0
100
AcDbLine
 10
-0.25
 20
-0.25
 30
0.0
 11
-0.25
 21
0.25
 31
0.0
  0
ENDBLK
  5
A3
330
A1
100
AcDbEntity
  8
0
100
AcDbBlockEnd
  0
BLOCK
  5
A5
330
A4
100
AcDbEntity
  8
0
100
AcDbBlockBegin
  2
EX_WBOX
 70
     0
 10
0.0
 20
0.0
 30
0.0
  3
EX_WBOX
  1

  0
LINE
  5
D4
330
A4
100
AcDbEntity
  8
0
  6
CONTINUOUS
 62
     0
100
AcDbLine
 10
-0.5
 20
0.0
 30
0.0
 11
-1.0
 21
0.0
 31
0.0
  0
LINE
  5
D5
330
A4
100
AcDbEntity
  8
0
  6
CONTINUOUS
 62
     0
100
AcDbLine
 10
-0.5
 20
0.5
 30
0.0
 11
0.5
 21
0.5
 31
0.0
  0
LINE
  5
D6
330
A4
100
AcDbEntity
  8
0
  6
CONTINUOUS
 62
     0
100
AcDbLine
 10
0.5
 20
0.5
 30
0.0
 11
0.5
 21
-0.5
 31
0.0
  0
LINE
  5
D7
330
A4
100
AcDbEntity
  8
0
  6
CONTINUOUS
 62
     0
100
AcDbLine
 10
0.5
 20
-0.5
 30
0.0
 11
-0.5
 21
-0.5
 31
0.0
  0
LINE
  5
D8
330
A4
100
AcDbEntity
  8
0
  6
CONTINUOUS
 62
     0
100
AcDbLine
 10
-0.5
 20
-0.5
 30
0.0
 11
-0.5
 21
0.5
 31
0.0
  0
ENDBLK
  5
A6
330
A4
100
AcDbEntity
  8
0
100
AcDbBlockEnd
  0
BLOCK
  5
A8
330
A7
100
AcDbEntity
  8
0
100
AcDbBlockBegin
  2
EX_INTEGRAL
 70
     0
 10
0.0
 20
0.0
 30
0.0
  3
EX_INTEGRAL
  1

  0
LINE
  5
D9
330
A7
100
AcDbEntity
  8
0
  6
CONTINUOUS
 62
     0
100
AcDbLine
 10
0.0
 20
0.0
 30
0.0
 11
-1.0
 21
0.0
 31
0.0
  0
ARC
  5
DA
330
A7
100
AcDbEntity
  8
0
  6
CONTINUOUS
 62
     0
100
AcDbCircle
 10
0.542115
 20
0.164992
 30
0.0
 40
0.56667
100
AcDbArc
 50
73.07249033629006
 51
196.9275130221199
  0
ARC
  5
DB
330
A7
100
AcDbEntity
  8
0
  6
CONTINUOUS
 62
     0
100
AcDbCircle
 10
-0.542115
 20
-0.164992
 30
0.0
 40
0.56667
100
AcDbArc
 50
253.0724869220464
 51
16.9275130559125
  0
ENDBLK
  5
A9
330
A7
100
AcDbEntity
  8
0
100
AcDbBlockEnd
  0
BLOCK
  5
123
330
122
100
AcDbEntity
  8
0
100
AcDbBlockBegin
  2
*D15
 70
     1
 10
0.0
 20
0.0
 30
0.0
  3
*D15
  1

  0
LINE
  5
125
330
122
100
AcDbEntity
  8
Ｓ_１_１
  6
CONTINUOUS
 62
     2
100
AcDbLine
 10
2432.99038041149
 20
812.5000298768298
 30
0.0
 11
2407.009619588508
 21
797.5000306219301
 31
0.0
  0
MTEXT
  5
126
330
122
100
AcDbEntity
  8
Ｓ_１_１
 62
     2
100
AcDbMText
 10
2482.969209483971
 20
869.9341586204936
 30
0.0
 40
31.16613741339492
 41
0.0
 71
     5
 72
     1
  1
%%c84
  7
EXCADDIM1
 11
0.8660254037844445
 21
0.4999999999999898
 31
0.0
  0
LINE
  5
127
330
122
100
AcDbEntity
  8
Ｓ_１_１
  6
CONTINUOUS
 62
     2
100
AcDbLine
 10
2383.626933686328
 20
784.0000306219304
 30
0.0
 11
2456.37306631367
 21
826.0000298768296
 31
0.0
  0
INSERT
  5
128
330
122
100
AcDbEntity
  8
Ｓ_１_１
 62
     2
100
AcDbBlockReference
  2
EX_NORM
 10
2383.626933686328
 20
784.0000306219304
 30
0.0
 41
27.0
 42
27.0
 43
27.0
 50
209.9999999999993
  0
INSERT
  5
129
330
122
100
AcDbEntity
  8
Ｓ_１_１
 62
     2
100
AcDbBlockReference
  2
EX_NORM
 10
2456.37306631367
 20
826.0000298768296
 30
0.0
 41
27.0
 42
27.0
 43
27.0
 50
29.99999999999933
  0
POINT
  5
12A
330
122
100
AcDbEntity
  8
DEFPOINTS
 62
     0
100
AcDbPoint
 10
2456.37306631367
 20
826.0000298768296
 30
0.0
  0
POINT
  5
12B
330
122
100
AcDbEntity
  8
DEFPOINTS
 62
     0
100
AcDbPoint
 10
2383.626933686328
 20
784.0000306219304
 30
0.0
  0
ENDBLK
  5
124
330
122
100
AcDbEntity
  8
0
100
AcDbBlockEnd
  0
BLOCK
  5
47C
330
47B
100
AcDbEntity
  8
0
100
AcDbBlockBegin
  2
*D16
 70
     1
 10
0.0
 20
0.0
 30
0.0
  3
*D16
  1

  0
LINE
  5
47E
330
47B
100
AcDbEntity
  8
Ｓ_１_１
  6
CONTINUOUS
 62
     2
100
AcDbLine
 10
1598.500369
 20
1410.0
 30
0.0
 11
1824.0
 21
1410.0
 31
0.0
  0
LINE
  5
47F
330
47B
100
AcDbEntity
  8
Ｓ_１_１
  6
CONTINUOUS
 62
     2
100
AcDbLine
 10
1598.49984
 20
2110.000244
 30
0.0
 11
1824.0
 21
2110.000244
 31
0.0
  0
LINE
  5
480
330
47B
100
AcDbEntity
  8
Ｓ_１_１
  6
CONTINUOUS
 62
     2
100
AcDbLine
 10
1815.0
 20
1437.0
 30
0.0
 11
1815.0
 21
2083.000244
 31
0.0
  0
INSERT
  5
481
330
47B
100
AcDbEntity
  8
Ｓ_１_１
 62
     2
100
AcDbBlockReference
  2
EX_NORM
 10
1815.0
 20
1410.0
 30
0.0
 41
27.0
 42
27.0
 43
27.0
 50
270.0
  0
INSERT
  5
482
330
47B
100
AcDbEntity
  8
Ｓ_１_１
 62
     2
100
AcDbBlockReference
  2
EX_NORM
 10
1815.0
 20
2110.000244
 30
0.0
 41
27.0
 42
27.0
 43
27.0
 50
90.0
  0
MTEXT
  5
483
330
47B
100
AcDbEntity
  8
Ｓ_１_１
 62
     2
100
AcDbMText
 10
1790.25
 20
1760.000122
 30
0.0
 40
31.16613741339492
 41
0.0
 71
     5
 72
     1
  1
700
  7
EXCADDIM1
 11
0.0
 21
1.0
 31
0.0
  0
POINT
  5
484
330
47B
100
AcDbEntity
  8
DEFPOINTS
 62
     0
100
AcDbPoint
 10
1585.000369
 20
1410.0
 30
0.0
  0
POINT
  5
485
330
47B
100
AcDbEntity
  8
DEFPOINTS
 62
     0
100
AcDbPoint
 10
1584.99984
 20
2110.000244
 30
0.0
  0
POINT
  5
486
330
47B
100
AcDbEntity
  8
DEFPOINTS
 62
     0
100
AcDbPoint
 10
1815.0
 20
2110.000244
 30
0.0
  0
ENDBLK
  5
47D
330
47B
100
AcDbEntity
  8
0
100
AcDbBlockEnd
  0
BLOCK
  5
489
330
488
100
AcDbEntity
  8
0
100
AcDbBlockBegin
  2
*D17
 70
     1
 10
0.0
 20
0.0
 30
0.0
  3
*D17
  1

  0
LINE
  5
48B
330
488
100
AcDbEntity
  8
Ｓ_１_１
  6
CONTINUOUS
 62
     2
100
AcDbLine
 10
915.0
 20
1426.500258
 30
0.0
 11
915.0
 21
1256.0
 31
0.0
  0
LINE
  5
48C
330
488
100
AcDbEntity
  8
Ｓ_１_１
  6
CONTINUOUS
 62
     2
100
AcDbLine
 10
1615.000244
 20
1426.499875
 30
0.0
 11
1615.000244
 21
1256.0
 31
0.0
  0
LINE
  5
48D
330
488
100
AcDbEntity
  8
Ｓ_１_１
  6
CONTINUOUS
 62
     2
100
AcDbLine
 10
942.0
 20
1265.0
 30
0.0
 11
1588.000244
 21
1265.0
 31
0.0
  0
INSERT
  5
48E
330
488
100
AcDbEntity
  8
Ｓ_１_１
 62
     2
100
AcDbBlockReference
  2
EX_NORM
 10
915.0
 20
1265.0
 30
0.0
 41
27.0
 42
27.0
 43
27.0
 50
180.0
  0
INSERT
  5
48F
330
488
100
AcDbEntity
  8
Ｓ_１_１
 62
     2
100
AcDbBlockReference
  2
EX_NORM
 10
1615.000244
 20
1265.0
 30
0.0
 41
27.0
 42
27.0
 43
27.0
  0
MTEXT
  5
490
330
488
100
AcDbEntity
  8
Ｓ_１_１
 62
     2
100
AcDbMText
 10
1265.000122
 20
1289.75
 30
0.0
 40
31.16613741339492
 41
0.0
 71
     5
 72
     1
  1
700
  7
EXCADDIM1
  0
POINT
  5
491
330
488
100
AcDbEntity
  8
DEFPOINTS
 62
     0
100
AcDbPoint
 10
915.0
 20
1440.000258
 30
0.0
  0
POINT
  5
492
330
488
100
AcDbEntity
  8
DEFPOINTS
 62
     0
100
AcDbPoint
 10
1615.000244
 20
1439.999875
 30
0.0
  0
POINT
  5
493
330
488
100
AcDbEntity
  8
DEFPOINTS
 62
     0
100
AcDbPoint
 10
1615.000244
 20
1265.0
 30
0.0
  0
ENDBLK
  5
48A
330
488
100
AcDbEntity
  8
0
100
AcDbBlockEnd
  0
BLOCK
  5
496
330
495
100
AcDbEntity
  8
0
100
AcDbBlockBegin
  2
*D18
 70
     1
 10
0.0
 20
0.0
 30
0.0
  3
*D18
  1

  0
LINE
  5
498
330
495
100
AcDbEntity
  8
Ｓ_１_１
  6
CONTINUOUS
 62
     2
100
AcDbLine
 10
660.0000000000001
 20
302.0000000000001
 30
0.0
 11
660.0000000000001
 21
708.0000312924301
 31
0.0
  0
INSERT
  5
499
330
495
100
AcDbEntity
  8
Ｓ_１_１
 62
     2
100
AcDbBlockReference
  2
EX_NORM
 10
660.0000000000001
 20
275.0000000000001
 30
0.0
 41
27.0
 42
27.0
 43
27.0
 50
270.0
  0
INSERT
  5
49A
330
495
100
AcDbEntity
  8
Ｓ_１_１
 62
     2
100
AcDbBlockReference
  2
EX_NORM
 10
660.0000000000001
 20
735.0000312924301
 30
0.0
 41
27.0
 42
27.0
 43
27.0
 50
90.0
  0
MTEXT
  5
49B
330
495
100
AcDbEntity
  8
Ｓ_１_１
 62
     2
100
AcDbMText
 10
635.2500000000001
 20
505.000015646215
 30
0.0
 40
31.16613741339492
 41
0.0
 71
     5
 72
     1
  1
460
  7
EXCADDIM1
 11
0.0
 21
1.0
 31
0.0
  0
POINT
  5
49C
330
495
100
AcDbEntity
  8
DEFPOINTS
 62
     0
100
AcDbPoint
 10
915.00000521542
 20
275.0
 30
0.0
  0
POINT
  5
49D
330
495
100
AcDbEntity
  8
DEFPOINTS
 62
     0
100
AcDbPoint
 10
1080.000057981
 20
735.00003129243
 30
0.0
  0
POINT
  5
49E
330
495
100
AcDbEntity
  8
DEFPOINTS
 62
     0
100
AcDbPoint
 10
660.0000000000001
 20
735.0000312924301
 30
0.0
  0
ENDBLK
  5
497
330
495
100
AcDbEntity
  8
0
100
AcDbBlockEnd
  0
BLOCK
  5
4A1
330
4A0
100
AcDbEntity
  8
0
100
AcDbBlockBegin
  2
*D19
 70
     1
 10
0.0
 20
0.0
 30
0.0
  3
*D19
  1

  0
LINE
  5
4A3
330
4A0
100
AcDbEntity
  8
Ｓ_１_１
  6
CONTINUOUS
 62
     2
100
AcDbLine
 10
1066.500057981
 20
735.00003129243
 30
0.0
 11
650.9999999999999
 21
735.0000312924301
 31
0.0
  0
LINE
  5
4A4
330
4A0
100
AcDbEntity
  8
Ｓ_１_１
  6
CONTINUOUS
 62
     2
100
AcDbLine
 10
660.0
 20
762.0000312924301
 30
0.0
 11
660.0
 21
923.0000280886801
 31
0.0
  0
INSERT
  5
4A5
330
4A0
100
AcDbEntity
  8
Ｓ_１_１
 62
     2
100
AcDbBlockReference
  2
EX_NORM
 10
660.0
 20
735.0000312924301
 30
0.0
 41
27.0
 42
27.0
 43
27.0
 50
270.0
  0
INSERT
  5
4A6
330
4A0
100
AcDbEntity
  8
Ｓ_１_１
 62
     2
100
AcDbBlockReference
  2
EX_NORM
 10
660.0
 20
950.0000280886801
 30
0.0
 41
27.0
 42
27.0
 43
27.0
 50
90.0
  0
MTEXT
  5
4A7
330
4A0
100
AcDbEntity
  8
Ｓ_１_１
 62
     2
100
AcDbMText
 10
635.25
 20
842.500029690555
 30
0.0
 40
31.16613741339492
 41
0.0
 71
     5
 72
     1
  1
215
  7
EXCADDIM1
 11
0.0
 21
1.0
 31
0.0
  0
POINT
  5
4A8
330
4A0
100
AcDbEntity
  8
DEFPOINTS
 62
     0
100
AcDbPoint
 10
1080.000057981
 20
735.00003129243
 30
0.0
  0
POINT
  5
4A9
330
4A0
100
AcDbEntity
  8
DEFPOINTS
 62
     0
100
AcDbPoint
 10
1179.041549093
 20
950.00002808868
 30
0.0
  0
POINT
  5
4AA
330
4A0
100
AcDbEntity
  8
DEFPOINTS
 62
     0
100
AcDbPoint
 10
660.0
 20
950.0000280886801
 30
0.0
  0
ENDBLK
  5
4A2
330
4A0
100
AcDbEntity
  8
0
100
AcDbBlockEnd
  0
BLOCK
  5
4AD
330
4AC
100
AcDbEntity
  8
0
100
AcDbBlockBegin
  2
*D20
 70
     1
 10
0.0
 20
0.0
 30
0.0
  3
*D20
  1

  0
LINE
  5
4AF
330
4AC
100
AcDbEntity
  8
Ｓ_１_１
  6
CONTINUOUS
 62
     2
100
AcDbLine
 10
1165.541549093
 20
950.00002808868
 30
0.0
 11
650.9999999999999
 21
950.0000280886801
 31
0.0
  0
LINE
  5
4B0
330
4AC
100
AcDbEntity
  8
Ｓ_１_１
  6
CONTINUOUS
 62
     2
100
AcDbLine
 10
660.0
 20
977.0000280886801
 30
0.0
 11
660.0
 21
1072.9999495596
 31
0.0
  0
INSERT
  5
4B1
330
4AC
100
AcDbEntity
  8
Ｓ_１_１
 62
     2
100
AcDbBlockReference
  2
EX_NORM
 10
660.0
 20
950.0000280886801
 30
0.0
 41
27.0
 42
27.0
 43
27.0
 50
270.0
  0
INSERT
  5
4B2
330
4AC
100
AcDbEntity
  8
Ｓ_１_１
 62
     2
100
AcDbBlockReference
  2
EX_NORM
 10
660.0
 20
1099.9999495596
 30
0.0
 41
27.0
 42
27.0
 43
27.0
 50
90.0
  0
MTEXT
  5
4B3
330
4AC
100
AcDbEntity
  8
Ｓ_１_１
 62
     2
100
AcDbMText
 10
635.25
 20
1024.99998882414
 30
0.0
 40
31.16613741339492
 41
0.0
 71
     5
 72
     1
  1
150
  7
EXCADDIM1
 11
0.0
 21
1.0
 31
0.0
  0
POINT
  5
4B4
330
4AC
100
AcDbEntity
  8
DEFPOINTS
 62
     0
100
AcDbPoint
 10
1179.041549093
 20
950.00002808868
 30
0.0
  0
POINT
  5
4B5
330
4AC
100
AcDbEntity
  8
DEFPOINTS
 62
     0
100
AcDbPoint
 10
865.00000429156
 20
1099.9999495596
 30
0.0
  0
POINT
  5
4B6
330
4AC
100
AcDbEntity
  8
DEFPOINTS
 62
     0
100
AcDbPoint
 10
660.0
 20
1099.9999495596
 30
0.0
  0
ENDBLK
  5
4AE
330
4AC
100
AcDbEntity
  8
0
100
AcDbBlockEnd
  0
BLOCK
  5
4B9
330
4B8
100
AcDbEntity
  8
0
100
AcDbBlockBegin
  2
*D21
 70
     1
 10
0.0
 20
0.0
 30
0.0
  3
*D21
  1

  0
LINE
  5
4BB
330
4B8
100
AcDbEntity
  8
Ｓ_１_１
  6
CONTINUOUS
 62
     2
100
AcDbLine
 10
901.50000521542
 20
275.0
 30
0.0
 11
596.0
 21
275.0
 31
0.0
  0
LINE
  5
4BC
330
4B8
100
AcDbEntity
  8
Ｓ_１_１
  6
CONTINUOUS
 62
     2
100
AcDbLine
 10
851.50000429156
 20
1099.9999495596
 30
0.0
 11
596.0
 21
1099.9999495596
 31
0.0
  0
LINE
  5
4BD
330
4B8
100
AcDbEntity
  8
Ｓ_１_１
  6
CONTINUOUS
 62
     2
100
AcDbLine
 10
605.0
 20
302.0
 30
0.0
 11
605.0
 21
1072.9999495596
 31
0.0
  0
INSERT
  5
4BE
330
4B8
100
AcDbEntity
  8
Ｓ_１_１
 62
     2
100
AcDbBlockReference
  2
EX_NORM
 10
605.0
 20
275.0
 30
0.0
 41
27.0
 42
27.0
 43
27.0
 50
270.0
  0
INSERT
  5
4BF
330
4B8
100
AcDbEntity
  8
Ｓ_１_１
 62
     2
100
AcDbBlockReference
  2
EX_NORM
 10
605.0
 20
1099.9999495596
 30
0.0
 41
27.0
 42
27.0
 43
27.0
 50
90.0
  0
MTEXT
  5
4C0
330
4B8
100
AcDbEntity
  8
Ｓ_１_１
 62
     2
100
AcDbMText
 10
580.25
 20
687.4999747798
 30
0.0
 40
31.16613741339492
 41
0.0
 71
     5
 72
     1
  1
825
  7
EXCADDIM1
 11
0.0
 21
1.0
 31
0.0
  0
POINT
  5
4C1
330
4B8
100
AcDbEntity
  8
DEFPOINTS
 62
     0
100
AcDbPoint
 10
915.00000521542
 20
275.0
 30
0.0
  0
POINT
  5
4C2
330
4B8
100
AcDbEntity
  8
DEFPOINTS
 62
     0
100
AcDbPoint
 10
865.00000429156
 20
1099.9999495596
 30
0.0
  0
POINT
  5
4C3
330
4B8
100
AcDbEntity
  8
DEFPOINTS
 62
     0
100
AcDbPoint
 10
605.0
 20
1099.9999495596
 30
0.0
  0
ENDBLK
  5
4BA
330
4B8
100
AcDbEntity
  8
0
100
AcDbBlockEnd
  0
BLOCK
  5
4C6
330
4C5
100
AcDbEntity
  8
0
100
AcDbBlockBegin
  2
*D22
 70
     1
 10
0.0
 20
0.0
 30
0.0
  3
*D22
  1

  0
LINE
  5
4C8
330
4C5
100
AcDbEntity
  8
Ｓ_１_１
  6
CONTINUOUS
 62
     2
100
AcDbLine
 10
901.50000521542
 20
275.0
 30
0.0
 11
706.0
 21
275.0
 31
0.0
  0
LINE
  5
4C9
330
4C5
100
AcDbEntity
  8
Ｓ_１_１
  6
CONTINUOUS
 62
     2
100
AcDbLine
 10
901.50000521542
 20
314.99999940395
 30
0.0
 11
706.0
 21
314.99999940395
 31
0.0
  0
LINE
  5
4CA
330
4C5
100
AcDbEntity
  8
Ｓ_１_１
  6
CONTINUOUS
 62
     2
100
AcDbLine
 10
715.0
 20
275.0
 30
0.0
 11
715.0
 21
314.99999940395
 31
0.0
  0
LINE
  5
4CB
330
4C5
100
AcDbEntity
  8
Ｓ_１_１
  6
CONTINUOUS
 62
     2
100
AcDbLine
 10
715.0
 20
248.0
 30
0.0
 11
715.0
 21
221.0
 31
0.0
  0
LINE
  5
4CC
330
4C5
100
AcDbEntity
  8
Ｓ_１_１
  6
CONTINUOUS
 62
     2
100
AcDbLine
 10
715.0
 20
341.99999940395
 30
0.0
 11
715.0
 21
368.99999940395
 31
0.0
  0
INSERT
  5
4CD
330
4C5
100
AcDbEntity
  8
Ｓ_１_１
 62
     2
100
AcDbBlockReference
  2
EX_NORM
 10
715.0
 20
275.0
 30
0.0
 41
27.0
 42
27.0
 43
27.0
 50
90.0
  0
INSERT
  5
4CE
330
4C5
100
AcDbEntity
  8
Ｓ_１_１
 62
     2
100
AcDbBlockReference
  2
EX_NONE
 10
715.0
 20
314.99999940395
 30
0.0
 41
27.0
 42
27.0
 43
27.0
 50
270.0
  0
MTEXT
  5
4CF
330
4C5
100
AcDbEntity
  8
Ｓ_１_１
 62
     2
100
AcDbMText
 10
690.25
 20
227.7499999999998
 30
0.0
 40
31.16613741339492
 41
0.0
 71
     5
 72
     1
  1
40
  7
EXCADDIM1
 11
0.0
 21
1.0
 31
0.0
  0
POINT
  5
4D0
330
4C5
100
AcDbEntity
  8
DEFPOINTS
 62
     0
100
AcDbPoint
 10
915.00000521542
 20
275.0
 30
0.0
  0
POINT
  5
4D1
330
4C5
100
AcDbEntity
  8
DEFPOINTS
 62
     0
100
AcDbPoint
 10
915.00000521542
 20
314.99999940395
 30
0.0
  0
POINT
  5
4D2
330
4C5
100
AcDbEntity
  8
DEFPOINTS
 62
     0
100
AcDbPoint
 10
715.0
 20
314.99999940395
 30
0.0
  0
ENDBLK
  5
4C7
330
4C5
100
AcDbEntity
  8
0
100
AcDbBlockEnd
  0
BLOCK
  5
4D5
330
4D4
100
AcDbEntity
  8
0
100
AcDbBlockBegin
  2
*D23
 70
     1
 10
0.0
 20
0.0
 30
0.0
  3
*D23
  1

  0
LINE
  5
4D7
330
4D4
100
AcDbEntity
  8
Ｓ_１_１
  6
CONTINUOUS
 62
     2
100
AcDbLine
 10
1066.500057981
 20
735.00003129243
 30
0.0
 11
706.0000000000001
 21
735.0000312924301
 31
0.0
  0
LINE
  5
4D8
330
4D4
100
AcDbEntity
  8
Ｓ_１_１
  6
CONTINUOUS
 62
     2
100
AcDbLine
 10
715.0000000000001
 20
341.9999994039501
 30
0.0
 11
715.0000000000001
 21
708.0000312924301
 31
0.0
  0
INSERT
  5
4D9
330
4D4
100
AcDbEntity
  8
Ｓ_１_１
 62
     2
100
AcDbBlockReference
  2
EX_NORM
 10
715.0000000000001
 20
314.9999994039501
 30
0.0
 41
27.0
 42
27.0
 43
27.0
 50
270.0
  0
INSERT
  5
4DA
330
4D4
100
AcDbEntity
  8
Ｓ_１_１
 62
     2
100
AcDbBlockReference
  2
EX_NORM
 10
715.0000000000001
 20
735.0000312924301
 30
0.0
 41
27.0
 42
27.0
 43
27.0
 50
90.0
  0
MTEXT
  5
4DB
330
4D4
100
AcDbEntity
  8
Ｓ_１_１
 62
     2
100
AcDbMText
 10
690.2500000000001
 20
525.00001534819
 30
0.0
 40
31.16613741339492
 41
0.0
 71
     5
 72
     1
  1
420
  7
EXCADDIM1
 11
0.0
 21
1.0
 31
0.0
  0
POINT
  5
4DC
330
4D4
100
AcDbEntity
  8
DEFPOINTS
 62
     0
100
AcDbPoint
 10
915.00000521542
 20
314.99999940395
 30
0.0
  0
POINT
  5
4DD
330
4D4
100
AcDbEntity
  8
DEFPOINTS
 62
     0
100
AcDbPoint
 10
1080.000057981
 20
735.00003129243
 30
0.0
  0
POINT
  5
4DE
330
4D4
100
AcDbEntity
  8
DEFPOINTS
 62
     0
100
AcDbPoint
 10
715.0000000000001
 20
735.0000312924301
 30
0.0
  0
ENDBLK
  5
4D6
330
4D4
100
AcDbEntity
  8
0
100
AcDbBlockEnd
  0
BLOCK
  5
4E1
330
4E0
100
AcDbEntity
  8
0
100
AcDbBlockBegin
  2
*D24
 70
     1
 10
0.0
 20
0.0
 30
0.0
  3
*D24
  1

  0
LINE
  5
4E3
330
4E0
100
AcDbEntity
  8
Ｓ_１_１
  6
CONTINUOUS
 62
     2
100
AcDbLine
 10
851.5000042915577
 20
1099.999949559617
 30
0.0
 11
705.9999999999997
 21
1099.999949559617
 31
0.0
  0
LINE
  5
4E4
330
4E0
100
AcDbEntity
  8
Ｓ_１_１
  6
CONTINUOUS
 62
     2
100
AcDbLine
 10
851.5000042915577
 20
1060.000011786865
 30
0.0
 11
705.9999999999997
 21
1060.000011786865
 31
0.0
  0
LINE
  5
4E5
330
4E0
100
AcDbEntity
  8
Ｓ_１_１
  6
CONTINUOUS
 62
     2
100
AcDbLine
 10
715.0000000000001
 20
1099.999949559617
 30
0.0
 11
715.0000000000001
 21
1060.000011786865
 31
0.0
  0
LINE
  5
4E6
330
4E0
100
AcDbEntity
  8
Ｓ_１_１
  6
CONTINUOUS
 62
     2
100
AcDbLine
 10
715.0000000000001
 20
1126.999949559617
 30
0.0
 11
715.0000000000001
 21
1153.999949559617
 31
0.0
  0
LINE
  5
4E7
330
4E0
100
AcDbEntity
  8
Ｓ_１_１
  6
CONTINUOUS
 62
     2
100
AcDbLine
 10
715.0000000000001
 20
1033.000011786865
 30
0.0
 11
715.0000000000001
 21
1006.000011786865
 31
0.0
  0
INSERT
  5
4E8
330
4E0
100
AcDbEntity
  8
Ｓ_１_１
 62
     2
100
AcDbBlockReference
  2
EX_NORM
 10
715.0000000000001
 20
1099.999949559617
 30
0.0
 41
27.0
 42
27.0
 43
27.0
 50
270.0
  0
INSERT
  5
4E9
330
4E0
100
AcDbEntity
  8
Ｓ_１_１
 62
     2
100
AcDbBlockReference
  2
EX_NORM
 10
715.0000000000001
 20
1060.000011786865
 30
0.0
 41
27.0
 42
27.0
 43
27.0
 50
90.0
  0
MTEXT
  5
4EA
330
4E0
100
AcDbEntity
  8
Ｓ_１_１
 62
     2
100
AcDbMText
 10
690.2500000000007
 20
1147.249949559617
 30
0.0
 40
31.16613741339492
 41
0.0
 71
     5
 72
     1
  1
40
  7
EXCADDIM1
 11
0.0
 21
1.0
 31
0.0
  0
POINT
  5
4EB
330
4E0
100
AcDbEntity
  8
DEFPOINTS
 62
     0
100
AcDbPoint
 10
865.0000042915577
 20
1099.999949559617
 30
0.0
  0
POINT
  5
4EC
330
4E0
100
AcDbEntity
  8
DEFPOINTS
 62
     0
100
AcDbPoint
 10
865.0000042915577
 20
1060.000011786865
 30
0.0
  0
POINT
  5
4ED
330
4E0
100
AcDbEntity
  8
DEFPOINTS
 62
     0
100
AcDbPoint
 10
715.0000000000001
 20
1060.000011786865
 30
0.0
  0
ENDBLK
  5
4E2
330
4E0
100
AcDbEntity
  8
0
100
AcDbBlockEnd
  0
BLOCK
  5
4F0
330
4EF
100
AcDbEntity
  8
0
100
AcDbBlockBegin
  2
*D25
 70
     1
 10
0.0
 20
0.0
 30
0.0
  3
*D25
  1

  0
LINE
  5
4F2
330
4EF
100
AcDbEntity
  8
Ｓ_１_１
  6
CONTINUOUS
 62
     2
100
AcDbLine
 10
1025.000013113
 20
743.50003136701
 30
0.0
 11
1025.000013113
 21
834.0
 31
0.0
  0
LINE
  5
4F3
330
4EF
100
AcDbEntity
  8
Ｓ_１_１
  6
CONTINUOUS
 62
     2
100
AcDbLine
 10
1504.999986887
 20
743.50003136701
 30
0.0
 11
1504.999986887
 21
834.0
 31
0.0
  0
LINE
  5
4F4
330
4EF
100
AcDbEntity
  8
Ｓ_１_１
  6
CONTINUOUS
 62
     2
100
AcDbLine
 10
1052.000013113
 20
825.0
 30
0.0
 11
1477.999986887
 21
825.0
 31
0.0
  0
INSERT
  5
4F5
330
4EF
100
AcDbEntity
  8
Ｓ_１_１
 62
     2
100
AcDbBlockReference
  2
EX_NORM
 10
1025.000013113
 20
825.0
 30
0.0
 41
27.0
 42
27.0
 43
27.0
 50
180.0
  0
INSERT
  5
4F6
330
4EF
100
AcDbEntity
  8
Ｓ_１_１
 62
     2
100
AcDbBlockReference
  2
EX_NORM
 10
1504.999986887
 20
825.0
 30
0.0
 41
27.0
 42
27.0
 43
27.0
  0
MTEXT
  5
4F7
330
4EF
100
AcDbEntity
  8
Ｓ_１_１
 62
     2
100
AcDbMText
 10
1582.624986887
 20
849.75
 30
0.0
 40
31.16613741339492
 41
0.0
 71
     5
 72
     1
  1
　480
  7
EXCADDIM1
  0
POINT
  5
4F8
330
4EF
100
AcDbEntity
  8
DEFPOINTS
 62
     0
100
AcDbPoint
 10
1025.000013113
 20
730.00003136701
 30
0.0
  0
POINT
  5
4F9
330
4EF
100
AcDbEntity
  8
DEFPOINTS
 62
     0
100
AcDbPoint
 10
1504.999986887
 20
730.00003136701
 30
0.0
  0
POINT
  5
4FA
330
4EF
100
AcDbEntity
  8
DEFPOINTS
 62
     0
100
AcDbPoint
 10
1504.999986887
 20
825.0
 30
0.0
  0
ENDBLK
  5
4F1
330
4EF
100
AcDbEntity
  8
0
100
AcDbBlockEnd
  0
BLOCK
  5
4FD
330
4FC
100
AcDbEntity
  8
0
100
AcDbBlockBegin
  2
*D26
 70
     1
 10
0.0
 20
0.0
 30
0.0
  3
*D26
  1

  0
LINE
  5
4FF
330
4FC
100
AcDbEntity
  8
Ｓ_１_１
  6
CONTINUOUS
 62
     2
100
AcDbLine
 10
975.00001385808
 20
723.50004591236
 30
0.0
 11
975.00001385808
 21
889.0
 31
0.0
  0
LINE
  5
500
330
4FC
100
AcDbEntity
  8
Ｓ_１_１
  6
CONTINUOUS
 62
     2
100
AcDbLine
 10
1554.999986142
 20
723.50004591236
 30
0.0
 11
1554.999986142
 21
889.0
 31
0.0
  0
LINE
  5
501
330
4FC
100
AcDbEntity
  8
Ｓ_１_１
  6
CONTINUOUS
 62
     2
100
AcDbLine
 10
1002.00001385808
 20
880.0
 30
0.0
 11
1527.999986142
 21
880.0
 31
0.0
  0
INSERT
  5
502
330
4FC
100
AcDbEntity
  8
Ｓ_１_１
 62
     2
100
AcDbBlockReference
  2
EX_NORM
 10
975.00001385808
 20
880.0
 30
0.0
 41
27.0
 42
27.0
 43
27.0
 50
180.0
  0
INSERT
  5
503
330
4FC
100
AcDbEntity
  8
Ｓ_１_１
 62
     2
100
AcDbBlockReference
  2
EX_NORM
 10
1554.999986142
 20
880.0
 30
0.0
 41
27.0
 42
27.0
 43
27.0
  0
MTEXT
  5
504
330
4FC
100
AcDbEntity
  8
Ｓ_１_１
 62
     2
100
AcDbMText
 10
1612.374986142
 20
904.75
 30
0.0
 40
31.16613741339492
 41
0.0
 71
     5
 72
     1
  1
580
  7
EXCADDIM1
  0
POINT
  5
505
330
4FC
100
AcDbEntity
  8
DEFPOINTS
 62
     0
100
AcDbPoint
 10
975.00001385808
 20
710.00004591236
 30
0.0
  0
POINT
  5
506
330
4FC
100
AcDbEntity
  8
DEFPOINTS
 62
     0
100
AcDbPoint
 10
1554.999986142
 20
710.00004591236
 30
0.0
  0
POINT
  5
507
330
4FC
100
AcDbEntity
  8
DEFPOINTS
 62
     0
100
AcDbPoint
 10
1554.999986142
 20
880.0
 30
0.0
  0
ENDBLK
  5
4FE
330
4FC
100
AcDbEntity
  8
0
100
AcDbBlockEnd
  0
BLOCK
  5
50A
330
509
100
AcDbEntity
  8
0
100
AcDbBlockBegin
  2
*D27
 70
     1
 10
0.0
 20
0.0
 30
0.0
  3
*D27
  1

  0
LINE
  5
50C
330
509
100
AcDbEntity
  8
Ｓ_１_１
  6
CONTINUOUS
 62
     2
100
AcDbLine
 10
1549.781537545405
 20
649.5993213043429
 30
0.0
 11
1573.164223447586
 21
636.0993213043438
 31
0.0
  0
LINE
  5
50D
330
509
100
AcDbEntity
  8
Ｓ_１_１
  6
CONTINUOUS
 62
     2
100
AcDbLine
 10
1459.714896197061
 20
701.5993209318103
 30
0.0
 11
1436.33221029488
 21
715.0993209318094
 31
0.0
  0
MTEXT
  5
50E
330
509
100
AcDbEntity
  8
Ｓ_１_１
 62
     2
100
AcDbMText
 10
1597.230566398675
 20
650.7834500480096
 30
0.0
 40
31.16613741339492
 41
0.0
 71
     5
 72
     1
  1
%%c50
  7
EXCADDIM1
 11
0.866025403784459
 21
-0.4999999999999648
 31
0.0
  0
LINE
  5
50F
330
509
100
AcDbEntity
  8
Ｓ_１_１
  6
CONTINUOUS
 62
     2
100
AcDbLine
 10
1483.097582099241
 20
688.0993209318112
 30
0.0
 11
1526.398851643225
 21
663.099321304342
 31
0.0
  0
INSERT
  5
510
330
509
100
AcDbEntity
  8
Ｓ_１_１
 62
     2
100
AcDbBlockReference
  2
EX_NORM
 10
1483.097582099241
 20
688.0993209318112
 30
0.0
 41
27.0
 42
27.0
 43
27.0
 50
330.0000000000023
  0
INSERT
  5
511
330
509
100
AcDbEntity
  8
Ｓ_１_１
 62
     2
100
AcDbBlockReference
  2
EX_NORM
 10
1526.398851643225
 20
663.099321304342
 30
0.0
 41
27.0
 42
27.0
 43
27.0
 50
150.0000000000023
  0
POINT
  5
512
330
509
100
AcDbEntity
  8
DEFPOINTS
 62
     0
100
AcDbPoint
 10
1526.398851643225
 20
663.099321304342
 30
0.0
  0
POINT
  5
513
330
509
100
AcDbEntity
  8
DEFPOINTS
 62
     0
100
AcDbPoint
 10
1483.097582099241
 20
688.0993209318112
 30
0.0
  0
ENDBLK
  5
50B
330
509
100
AcDbEntity
  8
0
100
AcDbBlockEnd
  0
BLOCK
  5
539
330
538
100
AcDbEntity
  8
0
100
AcDbBlockBegin
  2
*D28
 70
     1
 10
0.0
 20
0.0
 30
0.0
  3
*D28
  1

  0
LINE
  5
53B
330
538
100
AcDbEntity
  8
Ｓ_１_１
  6
CONTINUOUS
 62
     2
100
AcDbLine
 10
956.5
 20
1860.000244
 30
0.0
 11
761.0
 21
1860.000244
 31
0.0
  0
LINE
  5
53C
330
538
100
AcDbEntity
  8
Ｓ_１_１
  6
CONTINUOUS
 62
     2
100
AcDbLine
 10
956.5
 20
1660.0
 30
0.0
 11
761.0
 21
1660.0
 31
0.0
  0
LINE
  5
53D
330
538
100
AcDbEntity
  8
Ｓ_１_１
  6
CONTINUOUS
 62
     2
100
AcDbLine
 10
770.0000000000001
 20
1833.000244
 30
0.0
 11
770.0000000000001
 21
1687.0
 31
0.0
  0
INSERT
  5
53E
330
538
100
AcDbEntity
  8
Ｓ_１_１
 62
     2
100
AcDbBlockReference
  2
EX_NORM
 10
770.0000000000001
 20
1860.000244
 30
0.0
 41
27.0
 42
27.0
 43
27.0
 50
90.0
  0
INSERT
  5
53F
330
538
100
AcDbEntity
  8
Ｓ_１_１
 62
     2
100
AcDbBlockReference
  2
EX_NORM
 10
770.0000000000001
 20
1660.0
 30
0.0
 41
27.0
 42
27.0
 43
27.0
 50
270.0
  0
MTEXT
  5
540
330
538
100
AcDbEntity
  8
Ｓ_１_１
 62
     2
100
AcDbMText
 10
745.2500000000002
 20
1760.000122
 30
0.0
 40
31.16613741339492
 41
0.0
 71
     5
 72
     1
  1
200
  7
EXCADDIM1
 11
0.0
 21
1.0
 31
0.0
  0
POINT
  5
541
330
538
100
AcDbEntity
  8
DEFPOINTS
 62
     0
100
AcDbPoint
 10
970.0
 20
1860.000244
 30
0.0
  0
POINT
  5
542
330
538
100
AcDbEntity
  8
DEFPOINTS
 62
     0
100
AcDbPoint
 10
970.0
 20
1660.0
 30
0.0
  0
POINT
  5
543
330
538
100
AcDbEntity
  8
DEFPOINTS
 62
     0
100
AcDbPoint
 10
770.0000000000001
 20
1660.0
 30
0.0
  0
ENDBLK
  5
53A
330
538
100
AcDbEntity
  8
0
100
AcDbBlockEnd
  0
BLOCK
  5
546
330
545
100
AcDbEntity
  8
0
100
AcDbBlockBegin
  2
*D29
 70
     1
 10
0.0
 20
0.0
 30
0.0
  3
*D29
  1

  0
LINE
  5
548
330
545
100
AcDbEntity
  8
Ｓ_１_１
  6
CONTINUOUS
 62
     2
100
AcDbLine
 10
856.5
 20
1900.0
 30
0.0
 11
706.0
 21
1900.0
 31
0.0
  0
LINE
  5
549
330
545
100
AcDbEntity
  8
Ｓ_１_１
  6
CONTINUOUS
 62
     2
100
AcDbLine
 10
856.5
 20
1620.0
 30
0.0
 11
706.0
 21
1620.0
 31
0.0
  0
LINE
  5
54A
330
545
100
AcDbEntity
  8
Ｓ_１_１
  6
CONTINUOUS
 62
     2
100
AcDbLine
 10
715.0
 20
1873.0
 30
0.0
 11
715.0
 21
1647.0
 31
0.0
  0
INSERT
  5
54B
330
545
100
AcDbEntity
  8
Ｓ_１_１
 62
     2
100
AcDbBlockReference
  2
EX_NORM
 10
715.0
 20
1900.0
 30
0.0
 41
27.0
 42
27.0
 43
27.0
 50
90.0
  0
INSERT
  5
54C
330
545
100
AcDbEntity
  8
Ｓ_１_１
 62
     2
100
AcDbBlockReference
  2
EX_NORM
 10
715.0
 20
1620.0
 30
0.0
 41
27.0
 42
27.0
 43
27.0
 50
270.0
  0
MTEXT
  5
54D
330
545
100
AcDbEntity
  8
Ｓ_１_１
 62
     2
100
AcDbMText
 10
690.2500000000001
 20
1760.0
 30
0.0
 40
31.16613741339492
 41
0.0
 71
     5
 72
     1
  1
280
  7
EXCADDIM1
 11
0.0
 21
1.0
 31
0.0
  0
POINT
  5
54E
330
545
100
AcDbEntity
  8
DEFPOINTS
 62
     0
100
AcDbPoint
 10
870.0
 20
1900.0
 30
0.0
  0
POINT
  5
54F
330
545
100
AcDbEntity
  8
DEFPOINTS
 62
     0
100
AcDbPoint
 10
870.0
 20
1620.0
 30
0.0
  0
POINT
  5
550
330
545
100
AcDbEntity
  8
DEFPOINTS
 62
     0
100
AcDbPoint
 10
715.0
 20
1620.0
 30
0.0
  0
ENDBLK
  5
547
330
545
100
AcDbEntity
  8
0
100
AcDbBlockEnd
  0
BLOCK
  5
553
330
552
100
AcDbEntity
  8
0
100
AcDbBlockBegin
  2
*D30
 70
     1
 10
0.0
 20
0.0
 30
0.0
  3
*D30
  1

  0
LINE
  5
555
330
552
100
AcDbEntity
  8
Ｓ_１_１
  6
CONTINUOUS
 62
     2
100
AcDbLine
 10
1076.5
 20
1930.000244
 30
0.0
 11
651.0
 21
1930.000244
 31
0.0
  0
LINE
  5
556
330
552
100
AcDbEntity
  8
Ｓ_１_１
  6
CONTINUOUS
 62
     2
100
AcDbLine
 10
1076.5
 20
1590.0
 30
0.0
 11
651.0
 21
1590.0
 31
0.0
  0
LINE
  5
557
330
552
100
AcDbEntity
  8
Ｓ_１_１
  6
CONTINUOUS
 62
     2
100
AcDbLine
 10
660.0
 20
1903.000244
 30
0.0
 11
660.0
 21
1617.0
 31
0.0
  0
INSERT
  5
558
330
552
100
AcDbEntity
  8
Ｓ_１_１
 62
     2
100
AcDbBlockReference
  2
EX_NORM
 10
660.0
 20
1930.000244
 30
0.0
 41
27.0
 42
27.0
 43
27.0
 50
90.0
  0
INSERT
  5
559
330
552
100
AcDbEntity
  8
Ｓ_１_１
 62
     2
100
AcDbBlockReference
  2
EX_NORM
 10
660.0
 20
1590.0
 30
0.0
 41
27.0
 42
27.0
 43
27.0
 50
270.0
  0
MTEXT
  5
55A
330
552
100
AcDbEntity
  8
Ｓ_１_１
 62
     2
100
AcDbMText
 10
635.2500000000001
 20
1760.000122
 30
0.0
 40
31.16613741339492
 41
0.0
 71
     5
 72
     1
  1
340
  7
EXCADDIM1
 11
0.0
 21
1.0
 31
0.0
  0
POINT
  5
55B
330
552
100
AcDbEntity
  8
DEFPOINTS
 62
     0
100
AcDbPoint
 10
1090.0
 20
1930.000244
 30
0.0
  0
POINT
  5
55C
330
552
100
AcDbEntity
  8
DEFPOINTS
 62
     0
100
AcDbPoint
 10
1090.0
 20
1590.0
 30
0.0
  0
POINT
  5
55D
330
552
100
AcDbEntity
  8
DEFPOINTS
 62
     0
100
AcDbPoint
 10
660.0
 20
1590.0
 30
0.0
  0
ENDBLK
  5
554
330
552
100
AcDbEntity
  8
0
100
AcDbBlockEnd
  0
BLOCK
  5
560
330
55F
100
AcDbEntity
  8
0
100
AcDbBlockBegin
  2
*D31
 70
     1
 10
0.0
 20
0.0
 30
0.0
  3
*D31
  1

  0
LINE
  5
562
330
55F
100
AcDbEntity
  8
Ｓ_１_１
  6
CONTINUOUS
 62
     2
100
AcDbLine
 10
851.5000042915381
 20
1960.000244000001
 30
0.0
 11
596.0
 21
1960.000244000001
 31
0.0
  0
LINE
  5
563
330
55F
100
AcDbEntity
  8
Ｓ_１_１
  6
CONTINUOUS
 62
     2
100
AcDbLine
 10
851.5000042915381
 20
1560.000013589854
 30
0.0
 11
596.0
 21
1560.000013589854
 31
0.0
  0
LINE
  5
564
330
55F
100
AcDbEntity
  8
Ｓ_１_１
  6
CONTINUOUS
 62
     2
100
AcDbLine
 10
605.0
 20
1933.000244000001
 30
0.0
 11
605.0
 21
1587.000013589854
 31
0.0
  0
INSERT
  5
565
330
55F
100
AcDbEntity
  8
Ｓ_１_１
 62
     2
100
AcDbBlockReference
  2
EX_NORM
 10
605.0
 20
1960.000244000001
 30
0.0
 41
27.0
 42
27.0
 43
27.0
 50
90.0
  0
INSERT
  5
566
330
55F
100
AcDbEntity
  8
Ｓ_１_１
 62
     2
100
AcDbBlockReference
  2
EX_NORM
 10
605.0
 20
1560.000013589854
 30
0.0
 41
27.0
 42
27.0
 43
27.0
 50
270.0
  0
MTEXT
  5
567
330
55F
100
AcDbEntity
  8
Ｓ_１_１
 62
     2
100
AcDbMText
 10
580.2500000000001
 20
1760.000128794927
 30
0.0
 40
31.16613741339492
 41
0.0
 71
     5
 72
     1
  1
400
  7
EXCADDIM1
 11
0.0
 21
1.0
 31
0.0
  0
POINT
  5
568
330
55F
100
AcDbEntity
  8
DEFPOINTS
 62
     0
100
AcDbPoint
 10
865.0000042915381
 20
1960.000244000001
 30
0.0
  0
POINT
  5
569
330
55F
100
AcDbEntity
  8
DEFPOINTS
 62
     0
100
AcDbPoint
 10
865.0000042915381
 20
1560.000013589854
 30
0.0
  0
POINT
  5
56A
330
55F
100
AcDbEntity
  8
DEFPOINTS
 62
     0
100
AcDbPoint
 10
605.0
 20
1560.000013589854
 30
0.0
  0
ENDBLK
  5
561
330
55F
100
AcDbEntity
  8
0
100
AcDbBlockEnd
  0
BLOCK
  5
56D
330
56C
100
AcDbEntity
  8
0
100
AcDbBlockBegin
  2
*D32
 70
     1
 10
0.0
 20
0.0
 30
0.0
  3
*D32
  1

  0
LINE
  5
56F
330
56C
100
AcDbEntity
  8
Ｓ_１_１
  6
CONTINUOUS
 62
     2
100
AcDbLine
 10
895.0
 20
1938.5
 30
0.0
 11
895.0
 21
2209.0
 31
0.0
  0
LINE
  5
570
330
56C
100
AcDbEntity
  8
Ｓ_１_１
  6
CONTINUOUS
 62
     2
100
AcDbLine
 10
994.9999999999999
 20
1898.500244
 30
0.0
 11
994.9999999999999
 21
2209.0
 31
0.0
  0
LINE
  5
571
330
56C
100
AcDbEntity
  8
Ｓ_１_１
  6
CONTINUOUS
 62
     2
100
AcDbLine
 10
922.0
 20
2200.0
 30
0.0
 11
967.9999999999999
 21
2200.0
 31
0.0
  0
INSERT
  5
572
330
56C
100
AcDbEntity
  8
Ｓ_１_１
 62
     2
100
AcDbBlockReference
  2
EX_NORM
 10
895.0
 20
2200.0
 30
0.0
 41
27.0
 42
27.0
 43
27.0
 50
180.0
  0
INSERT
  5
573
330
56C
100
AcDbEntity
  8
Ｓ_１_１
 62
     2
100
AcDbBlockReference
  2
EX_NORM
 10
994.9999999999999
 20
2200.0
 30
0.0
 41
27.0
 42
27.0
 43
27.0
  0
MTEXT
  5
574
330
56C
100
AcDbEntity
  8
Ｓ_１_１
 62
     2
100
AcDbMText
 10
945.0000000000002
 20
2224.75
 30
0.0
 40
31.16613741339492
 41
0.0
 71
     5
 72
     1
  1
100
  7
EXCADDIM1
  0
POINT
  5
575
330
56C
100
AcDbEntity
  8
DEFPOINTS
 62
     0
100
AcDbPoint
 10
895.0
 20
1925.0
 30
0.0
  0
POINT
  5
576
330
56C
100
AcDbEntity
  8
DEFPOINTS
 62
     0
100
AcDbPoint
 10
994.9999999999999
 20
1885.000244
 30
0.0
  0
POINT
  5
577
330
56C
100
AcDbEntity
  8
DEFPOINTS
 62
     0
100
AcDbPoint
 10
994.9999999999999
 20
2200.0
 30
0.0
  0
ENDBLK
  5
56E
330
56C
100
AcDbEntity
  8
0
100
AcDbBlockEnd
  0
BLOCK
  5
57A
330
579
100
AcDbEntity
  8
0
100
AcDbBlockBegin
  2
*D33
 70
     1
 10
0.0
 20
0.0
 30
0.0
  3
*D33
  1

  0
LINE
  5
57C
330
579
100
AcDbEntity
  8
Ｓ_１_１
  6
CONTINUOUS
 62
     2
100
AcDbLine
 10
1115.0
 20
1973.500244
 30
0.0
 11
1115.0
 21
2209.0
 31
0.0
  0
LINE
  5
57D
330
579
100
AcDbEntity
  8
Ｓ_１_１
  6
CONTINUOUS
 62
     2
100
AcDbLine
 10
1022.0
 20
2200.0
 30
0.0
 11
1088.0
 21
2200.0
 31
0.0
  0
INSERT
  5
57E
330
579
100
AcDbEntity
  8
Ｓ_１_１
 62
     2
100
AcDbBlockReference
  2
EX_NORM
 10
994.9999999999999
 20
2200.0
 30
0.0
 41
27.0
 42
27.0
 43
27.0
 50
180.0
  0
INSERT
  5
57F
330
579
100
AcDbEntity
  8
Ｓ_１_１
 62
     2
100
AcDbBlockReference
  2
EX_NORM
 10
1115.0
 20
2200.0
 30
0.0
 41
27.0
 42
27.0
 43
27.0
  0
MTEXT
  5
580
330
579
100
AcDbEntity
  8
Ｓ_１_１
 62
     2
100
AcDbMText
 10
1055.0
 20
2224.75
 30
0.0
 40
31.16613741339492
 41
0.0
 71
     5
 72
     1
  1
120
  7
EXCADDIM1
  0
POINT
  5
581
330
579
100
AcDbEntity
  8
DEFPOINTS
 62
     0
100
AcDbPoint
 10
994.9999999999999
 20
1885.000244
 30
0.0
  0
POINT
  5
582
330
579
100
AcDbEntity
  8
DEFPOINTS
 62
     0
100
AcDbPoint
 10
1115.0
 20
1960.000244
 30
0.0
  0
POINT
  5
583
330
579
100
AcDbEntity
  8
DEFPOINTS
 62
     0
100
AcDbPoint
 10
1115.0
 20
2200.0
 30
0.0
  0
ENDBLK
  5
57B
330
579
100
AcDbEntity
  8
0
100
AcDbBlockEnd
  0
BLOCK
  5
586
330
585
100
AcDbEntity
  8
0
100
AcDbBlockBegin
  2
*D34
 70
     1
 10
0.0
 20
0.0
 30
0.0
  3
*D34
  1

  0
LINE
  5
588
330
585
100
AcDbEntity
  8
Ｓ_１_１
  6
CONTINUOUS
 62
     2
100
AcDbLine
 10
1415.0
 20
1973.500244
 30
0.0
 11
1415.0
 21
2209.0
 31
0.0
  0
LINE
  5
589
330
585
100
AcDbEntity
  8
Ｓ_１_１
  6
CONTINUOUS
 62
     2
100
AcDbLine
 10
1142.0
 20
2200.0
 30
0.0
 11
1388.0
 21
2200.0
 31
0.0
  0
INSERT
  5
58A
330
585
100
AcDbEntity
  8
Ｓ_１_１
 62
     2
100
AcDbBlockReference
  2
EX_NORM
 10
1115.0
 20
2200.0
 30
0.0
 41
27.0
 42
27.0
 43
27.0
 50
180.0
  0
INSERT
  5
58B
330
585
100
AcDbEntity
  8
Ｓ_１_１
 62
     2
100
AcDbBlockReference
  2
EX_NORM
 10
1415.0
 20
2200.0
 30
0.0
 41
27.0
 42
27.0
 43
27.0
  0
MTEXT
  5
58C
330
585
100
AcDbEntity
  8
Ｓ_１_１
 62
     2
100
AcDbMText
 10
1265.0
 20
2224.75
 30
0.0
 40
31.16613741339492
 41
0.0
 71
     5
 72
     1
  1
300
  7
EXCADDIM1
  0
POINT
  5
58D
330
585
100
AcDbEntity
  8
DEFPOINTS
 62
     0
100
AcDbPoint
 10
1115.0
 20
1960.000244
 30
0.0
  0
POINT
  5
58E
330
585
100
AcDbEntity
  8
DEFPOINTS
 62
     0
100
AcDbPoint
 10
1415.0
 20
1960.000244
 30
0.0
  0
POINT
  5
58F
330
585
100
AcDbEntity
  8
DEFPOINTS
 62
     0
100
AcDbPoint
 10
1415.0
 20
2200.0
 30
0.0
  0
ENDBLK
  5
587
330
585
100
AcDbEntity
  8
0
100
AcDbBlockEnd
  0
BLOCK
  5
592
330
591
100
AcDbEntity
  8
0
100
AcDbBlockBegin
  2
*D35
 70
     1
 10
0.0
 20
0.0
 30
0.0
  3
*D35
  1

  0
LINE
  5
594
330
591
100
AcDbEntity
  8
Ｓ_１_１
  6
CONTINUOUS
 62
     2
100
AcDbLine
 10
1535.0
 20
1898.500244
 30
0.0
 11
1535.0
 21
2209.0
 31
0.0
  0
LINE
  5
595
330
591
100
AcDbEntity
  8
Ｓ_１_１
  6
CONTINUOUS
 62
     2
100
AcDbLine
 10
1442.0
 20
2200.0
 30
0.0
 11
1508.0
 21
2200.0
 31
0.0
  0
INSERT
  5
596
330
591
100
AcDbEntity
  8
Ｓ_１_１
 62
     2
100
AcDbBlockReference
  2
EX_NORM
 10
1415.0
 20
2200.0
 30
0.0
 41
27.0
 42
27.0
 43
27.0
 50
180.0
  0
INSERT
  5
597
330
591
100
AcDbEntity
  8
Ｓ_１_１
 62
     2
100
AcDbBlockReference
  2
EX_NORM
 10
1535.0
 20
2200.0
 30
0.0
 41
27.0
 42
27.0
 43
27.0
  0
MTEXT
  5
598
330
591
100
AcDbEntity
  8
Ｓ_１_１
 62
     2
100
AcDbMText
 10
1475.0
 20
2224.75
 30
0.0
 40
31.16613741339492
 41
0.0
 71
     5
 72
     1
  1
120
  7
EXCADDIM1
  0
POINT
  5
599
330
591
100
AcDbEntity
  8
DEFPOINTS
 62
     0
100
AcDbPoint
 10
1415.0
 20
1960.000244
 30
0.0
  0
POINT
  5
59A
330
591
100
AcDbEntity
  8
DEFPOINTS
 62
     0
100
AcDbPoint
 10
1535.0
 20
1885.000244
 30
0.0
  0
POINT
  5
59B
330
591
100
AcDbEntity
  8
DEFPOINTS
 62
     0
100
AcDbPoint
 10
1535.0
 20
2200.0
 30
0.0
  0
ENDBLK
  5
593
330
591
100
AcDbEntity
  8
0
100
AcDbBlockEnd
  0
BLOCK
  5
59E
330
59D
100
AcDbEntity
  8
0
100
AcDbBlockBegin
  2
*D36
 70
     1
 10
0.0
 20
0.0
 30
0.0
  3
*D36
  1

  0
LINE
  5
5A0
330
59D
100
AcDbEntity
  8
Ｓ_１_１
  6
CONTINUOUS
 62
     2
100
AcDbLine
 10
1635.0
 20
1938.5
 30
0.0
 11
1635.0
 21
2209.0
 31
0.0
  0
LINE
  5
5A1
330
59D
100
AcDbEntity
  8
Ｓ_１_１
  6
CONTINUOUS
 62
     2
100
AcDbLine
 10
1562.0
 20
2200.0
 30
0.0
 11
1608.0
 21
2200.0
 31
0.0
  0
INSERT
  5
5A2
330
59D
100
AcDbEntity
  8
Ｓ_１_１
 62
     2
100
AcDbBlockReference
  2
EX_NORM
 10
1535.0
 20
2200.0
 30
0.0
 41
27.0
 42
27.0
 43
27.0
 50
180.0
  0
INSERT
  5
5A3
330
59D
100
AcDbEntity
  8
Ｓ_１_１
 62
     2
100
AcDbBlockReference
  2
EX_NORM
 10
1635.0
 20
2200.0
 30
0.0
 41
27.0
 42
27.0
 43
27.0
  0
MTEXT
  5
5A4
330
59D
100
AcDbEntity
  8
Ｓ_１_１
 62
     2
100
AcDbMText
 10
1585.0
 20
2224.75
 30
0.0
 40
31.16613741339492
 41
0.0
 71
     5
 72
     1
  1
100
  7
EXCADDIM1
  0
POINT
  5
5A5
330
59D
100
AcDbEntity
  8
DEFPOINTS
 62
     0
100
AcDbPoint
 10
1535.0
 20
1885.000244
 30
0.0
  0
POINT
  5
5A6
330
59D
100
AcDbEntity
  8
DEFPOINTS
 62
     0
100
AcDbPoint
 10
1635.0
 20
1925.0
 30
0.0
  0
POINT
  5
5A7
330
59D
100
AcDbEntity
  8
DEFPOINTS
 62
     0
100
AcDbPoint
 10
1635.0
 20
2200.0
 30
0.0
  0
ENDBLK
  5
59F
330
59D
100
AcDbEntity
  8
0
100
AcDbBlockEnd
  0
BLOCK
  5
5AA
330
5A9
100
AcDbEntity
  8
0
100
AcDbBlockBegin
  2
*D37
 70
     1
 10
0.0
 20
0.0
 30
0.0
  3
*D37
  1

  0
LINE
  5
5AC
330
5A9
100
AcDbEntity
  8
Ｓ_１_１
  6
CONTINUOUS
 62
     2
100
AcDbLine
 10
865.00000429154
 20
1973.500244
 30
0.0
 11
865.00000429154
 21
2264.0
 31
0.0
  0
LINE
  5
5AD
330
5A9
100
AcDbEntity
  8
Ｓ_１_１
  6
CONTINUOUS
 62
     2
100
AcDbLine
 10
895.0
 20
1938.5
 30
0.0
 11
895.0
 21
2264.0
 31
0.0
  0
LINE
  5
5AE
330
5A9
100
AcDbEntity
  8
Ｓ_１_１
  6
CONTINUOUS
 62
     2
100
AcDbLine
 10
865.00000429154
 20
2255.0
 30
0.0
 11
895.0
 21
2255.0
 31
0.0
  0
LINE
  5
5AF
330
5A9
100
AcDbEntity
  8
Ｓ_１_１
  6
CONTINUOUS
 62
     2
100
AcDbLine
 10
838.00000429154
 20
2255.0
 30
0.0
 11
811.00000429154
 21
2255.0
 31
0.0
  0
LINE
  5
5B0
330
5A9
100
AcDbEntity
  8
Ｓ_１_１
  6
CONTINUOUS
 62
     2
100
AcDbLine
 10
922.0
 20
2255.0
 30
0.0
 11
949.0
 21
2255.0
 31
0.0
  0
INSERT
  5
5B1
330
5A9
100
AcDbEntity
  8
Ｓ_１_１
 62
     2
100
AcDbBlockReference
  2
EX_NORM
 10
865.00000429154
 20
2255.0
 30
0.0
 41
27.0
 42
27.0
 43
27.0
  0
INSERT
  5
5B2
330
5A9
100
AcDbEntity
  8
Ｓ_１_１
 62
     2
100
AcDbBlockReference
  2
EX_NONE
 10
895.0
 20
2255.0
 30
0.0
 41
27.0
 42
27.0
 43
27.0
 50
180.0
  0
MTEXT
  5
5B3
330
5A9
100
AcDbEntity
  8
Ｓ_１_１
 62
     2
100
AcDbMText
 10
817.7500042915401
 20
2279.75
 30
0.0
 40
31.16613741339492
 41
0.0
 71
     5
 72
     1
  1
30
  7
EXCADDIM1
  0
POINT
  5
5B4
330
5A9
100
AcDbEntity
  8
DEFPOINTS
 62
     0
100
AcDbPoint
 10
865.00000429154
 20
1960.000244
 30
0.0
  0
POINT
  5
5B5
330
5A9
100
AcDbEntity
  8
DEFPOINTS
 62
     0
100
AcDbPoint
 10
895.0
 20
1925.0
 30
0.0
  0
POINT
  5
5B6
330
5A9
100
AcDbEntity
  8
DEFPOINTS
 62
     0
100
AcDbPoint
 10
895.0
 20
2255.0
 30
0.0
  0
ENDBLK
  5
5AB
330
5A9
100
AcDbEntity
  8
0
100
AcDbBlockEnd
  0
BLOCK
  5
5B9
330
5B8
100
AcDbEntity
  8
0
100
AcDbBlockBegin
  2
*D38
 70
     1
 10
0.0
 20
0.0
 30
0.0
  3
*D38
  1

  0
LINE
  5
5BB
330
5B8
100
AcDbEntity
  8
Ｓ_１_１
  6
CONTINUOUS
 62
     2
100
AcDbLine
 10
1635.0
 20
1938.5
 30
0.0
 11
1635.0
 21
2264.0
 31
0.0
  0
LINE
  5
5BC
330
5B8
100
AcDbEntity
  8
Ｓ_１_１
  6
CONTINUOUS
 62
     2
100
AcDbLine
 10
922.0
 20
2255.0
 30
0.0
 11
1608.0
 21
2255.0
 31
0.0
  0
INSERT
  5
5BD
330
5B8
100
AcDbEntity
  8
Ｓ_１_１
 62
     2
100
AcDbBlockReference
  2
EX_NORM
 10
895.0
 20
2255.0
 30
0.0
 41
27.0
 42
27.0
 43
27.0
 50
180.0
  0
INSERT
  5
5BE
330
5B8
100
AcDbEntity
  8
Ｓ_１_１
 62
     2
100
AcDbBlockReference
  2
EX_NORM
 10
1635.0
 20
2255.0
 30
0.0
 41
27.0
 42
27.0
 43
27.0
  0
MTEXT
  5
5BF
330
5B8
100
AcDbEntity
  8
Ｓ_１_１
 62
     2
100
AcDbMText
 10
1265.0
 20
2279.75
 30
0.0
 40
31.16613741339492
 41
0.0
 71
     5
 72
     1
  1
740
  7
EXCADDIM1
  0
POINT
  5
5C0
330
5B8
100
AcDbEntity
  8
DEFPOINTS
 62
     0
100
AcDbPoint
 10
895.0
 20
1925.0
 30
0.0
  0
POINT
  5
5C1
330
5B8
100
AcDbEntity
  8
DEFPOINTS
 62
     0
100
AcDbPoint
 10
1635.0
 20
1925.0
 30
0.0
  0
POINT
  5
5C2
330
5B8
100
AcDbEntity
  8
DEFPOINTS
 62
     0
100
AcDbPoint
 10
1635.0
 20
2255.0
 30
0.0
  0
ENDBLK
  5
5BA
330
5B8
100
AcDbEntity
  8
0
100
AcDbBlockEnd
  0
BLOCK
  5
5C5
330
5C4
100
AcDbEntity
  8
0
100
AcDbBlockBegin
  2
*D39
 70
     1
 10
0.0
 20
0.0
 30
0.0
  3
*D39
  1

  0
LINE
  5
5C7
330
5C4
100
AcDbEntity
  8
Ｓ_１_１
  6
CONTINUOUS
 62
     2
100
AcDbLine
 10
1664.9999728203
 20
1973.500244
 30
0.0
 11
1664.9999728203
 21
2264.0
 31
0.0
  0
LINE
  5
5C8
330
5C4
100
AcDbEntity
  8
Ｓ_１_１
  6
CONTINUOUS
 62
     2
100
AcDbLine
 10
1635.0
 20
2255.0
 30
0.0
 11
1664.9999728203
 21
2255.0
 31
0.0
  0
LINE
  5
5C9
330
5C4
100
AcDbEntity
  8
Ｓ_１_１
  6
CONTINUOUS
 62
     2
100
AcDbLine
 10
1608.0
 20
2255.0
 30
0.0
 11
1581.0
 21
2255.0
 31
0.0
  0
LINE
  5
5CA
330
5C4
100
AcDbEntity
  8
Ｓ_１_１
  6
CONTINUOUS
 62
     2
100
AcDbLine
 10
1691.9999728203
 20
2255.0
 30
0.0
 11
1718.9999728203
 21
2255.0
 31
0.0
  0
INSERT
  5
5CB
330
5C4
100
AcDbEntity
  8
Ｓ_１_１
 62
     2
100
AcDbBlockReference
  2
EX_NONE
 10
1635.0
 20
2255.0
 30
0.0
 41
27.0
 42
27.0
 43
27.0
  0
INSERT
  5
5CC
330
5C4
100
AcDbEntity
  8
Ｓ_１_１
 62
     2
100
AcDbBlockReference
  2
EX_NORM
 10
1664.9999728203
 20
2255.0
 30
0.0
 41
27.0
 42
27.0
 43
27.0
 50
180.0
  0
MTEXT
  5
5CD
330
5C4
100
AcDbEntity
  8
Ｓ_１_１
 62
     2
100
AcDbMText
 10
1712.2499728203
 20
2279.75
 30
0.0
 40
31.16613741339492
 41
0.0
 71
     5
 72
     1
  1
30
  7
EXCADDIM1
  0
POINT
  5
5CE
330
5C4
100
AcDbEntity
  8
DEFPOINTS
 62
     0
100
AcDbPoint
 10
1635.0
 20
1925.0
 30
0.0
  0
POINT
  5
5CF
330
5C4
100
AcDbEntity
  8
DEFPOINTS
 62
     0
100
AcDbPoint
 10
1664.9999728203
 20
1960.000244
 30
0.0
  0
POINT
  5
5D0
330
5C4
100
AcDbEntity
  8
DEFPOINTS
 62
     0
100
AcDbPoint
 10
1664.9999728203
 20
2255.0
 30
0.0
  0
ENDBLK
  5
5C6
330
5C4
100
AcDbEntity
  8
0
100
AcDbBlockEnd
  0
BLOCK
  5
5D3
330
5D2
100
AcDbEntity
  8
0
100
AcDbBlockBegin
  2
*D40
 70
     1
 10
0.0
 20
0.0
 30
0.0
  3
*D40
  1

  0
LINE
  5
5D5
330
5D2
100
AcDbEntity
  8
Ｓ_１_１
  6
CONTINUOUS
 62
     2
100
AcDbLine
 10
865.0000042915381
 20
1973.500244000001
 30
0.0
 11
865.0000042915381
 21
2319.0
 31
0.0
  0
LINE
  5
5D6
330
5D2
100
AcDbEntity
  8
Ｓ_１_１
  6
CONTINUOUS
 62
     2
100
AcDbLine
 10
1664.999972820286
 20
1973.500244000001
 30
0.0
 11
1664.999972820286
 21
2319.0
 31
0.0
  0
LINE
  5
5D7
330
5D2
100
AcDbEntity
  8
Ｓ_１_１
  6
CONTINUOUS
 62
     2
100
AcDbLine
 10
892.0000042915381
 20
2310.0
 30
0.0
 11
1637.999972820286
 21
2310.0
 31
0.0
  0
INSERT
  5
5D8
330
5D2
100
AcDbEntity
  8
Ｓ_１_１
 62
     2
100
AcDbBlockReference
  2
EX_NORM
 10
865.0000042915381
 20
2310.0
 30
0.0
 41
27.0
 42
27.0
 43
27.0
 50
180.0
  0
INSERT
  5
5D9
330
5D2
100
AcDbEntity
  8
Ｓ_１_１
 62
     2
100
AcDbBlockReference
  2
EX_NORM
 10
1664.999972820286
 20
2310.0
 30
0.0
 41
27.0
 42
27.0
 43
27.0
  0
MTEXT
  5
5DA
330
5D2
100
AcDbEntity
  8
Ｓ_１_１
 62
     2
100
AcDbMText
 10
1264.999988555913
 20
2334.75
 30
0.0
 40
31.16613741339492
 41
0.0
 71
     5
 72
     1
  1
800
  7
EXCADDIM1
  0
POINT
  5
5DB
330
5D2
100
AcDbEntity
  8
DEFPOINTS
 62
     0
100
AcDbPoint
 10
865.0000042915381
 20
1960.000244000001
 30
0.0
  0
POINT
  5
5DC
330
5D2
100
AcDbEntity
  8
DEFPOINTS
 62
     0
100
AcDbPoint
 10
1664.999972820286
 20
1960.000244000001
 30
0.0
  0
POINT
  5
5DD
330
5D2
100
AcDbEntity
  8
DEFPOINTS
 62
     0
100
AcDbPoint
 10
1664.999972820286
 20
2310.0
 30
0.0
  0
ENDBLK
  5
5D4
330
5D2
100
AcDbEntity
  8
0
100
AcDbBlockEnd
  0
ENDSEC
  0
SECTION
  2
ENTITIES
  0
LINE
  5
DC
330
1F
100
AcDbEntity
  8
図面枠
  6
CONTINUOUS
 62
     5
100
AcDbLine
 10
90.0
 20
90.0
 30
0.0
 11
3690.0
 21
90.0
 31
0.0
  0
LINE
  5
DD
330
1F
100
AcDbEntity
  8
図面枠
  6
CONTINUOUS
 62
     5
100
AcDbLine
 10
3690.0
 20
90.0
 30
0.0
 11
3690.0
 21
2583.0
 31
0.0
  0
LINE
  5
DE
330
1F
100
AcDbEntity
  8
図面枠
  6
CONTINUOUS
 62
     5
100
AcDbLine
 10
3690.0
 20
2583.0
 30
0.0
 11
90.00000000000047
 21
2583.0
 31
0.0
  0
LINE
  5
DF
330
1F
100
AcDbEntity
  8
図面枠
  6
CONTINUOUS
 62
     5
100
AcDbLine
 10
90.00000000000047
 20
2583.0
 30
0.0
 11
90.0
 21
90.0
 31
0.0
  0
LINE
  5
E0
330
1F
100
AcDbEntity
  8
図面枠
  6
CONTINUOUS
 62
     3
100
AcDbLine
 10
3645.0
 20
216.0
 30
0.0
 11
3645.0
 21
135.0
 31
0.0
  0
LINE
  5
E1
330
1F
100
AcDbEntity
  8
図面枠
  6
CONTINUOUS
 62
     3
100
AcDbLine
 10
135.0000000000001
 20
2538.0
 30
0.0
 11
135.0000000000001
 21
2457.0
 31
0.0
  0
TEXT
  5
E3
330
1F
100
AcDbEntity
  8
図面枠
  6
CONTINUOUS
 62
     4
100
AcDbText
 10
3483.0
 20
2442.4453125
 30
0.0
 40
31.16613741339492
  1
kN
 41
0.9992307692307693
  7
EXCADTTF1
 72
     5
 11
3523.5
 21
2442.4453125
 31
0.0
100
AcDbText
  0
TEXT
  5
E4
330
1F
100
AcDbEntity
  8
図面枠
  6
CONTINUOUS
 62
     4
100
AcDbText
 10
2943.0
 20
2442.4453125
 30
0.0
 40
31.16613741339492
  1
能力
 41
0.9992307692307693
  7
EXCADTTF1
 72
     5
 11
3024.0
 21
2442.4453125
 31
0.0
100
AcDbText
  0
TEXT
  5
E5
330
1F
100
AcDbEntity
  8
図面枠
  6
CONTINUOUS
 62
     4
100
AcDbText
 10
3183.75
 20
2496.4453125
 30
0.0
 40
31.16613741339492
  1
仕　　　様
 41
0.9992307692307693
  7
EXCADTTF1
 72
     5
 11
3386.25
 21
2496.4453125
 31
0.0
100
AcDbText
  0
LINE
  5
E6
330
1F
100
AcDbEntity
  8
図面枠
  6
CONTINUOUS
 62
     3
100
AcDbLine
 10
2925.0
 20
2538.0
 30
0.0
 11
3645.0
 21
2538.0
 31
0.0
  0
LINE
  5
E7
330
1F
100
AcDbEntity
  8
図面枠
  6
CONTINUOUS
 62
     3
100
AcDbLine
 10
2925.0
 20
2484.0
 30
0.0
 11
3645.0
 21
2484.0
 31
0.0
  0
TEXT
  5
E8
330
1F
100
AcDbEntity
  8
図面枠
  6
CONTINUOUS
 62
     4
100
AcDbText
 10
3483.0
 20
2388.4453125
 30
0.0
 40
31.16613741339492
  1
mm
 41
0.9992307692307693
  7
EXCADTTF1
 72
     5
 11
3523.5
 21
2388.4453125
 31
0.0
100
AcDbText
  0
TEXT
  5
E9
330
1F
100
AcDbEntity
  8
図面枠
  6
CONTINUOUS
 62
     4
100
AcDbText
 10
3483.0
 20
2334.4453125
 30
0.0
 40
31.16613741339492
  1
mm
 41
0.9992307692307693
  7
EXCADTTF1
 72
     5
 11
3523.5
 21
2334.4453125
 31
0.0
100
AcDbText
  0
TEXT
  5
EA
330
1F
100
AcDbEntity
  8
図面枠
  6
CONTINUOUS
 62
     4
100
AcDbText
 10
3483.0
 20
2280.4453125
 30
0.0
 40
31.16613741339492
  1
mm
 41
0.9992307692307693
  7
EXCADTTF1
 72
     5
 11
3523.5
 21
2280.4453125
 31
0.0
100
AcDbText
  0
TEXT
  5
EB
330
1F
100
AcDbEntity
  8
図面枠
  6
CONTINUOUS
 62
     4
100
AcDbText
 10
2943.0
 20
2388.4453125
 30
0.0
 40
31.16613741339492
  1
ストローク
 41
0.9992307692307693
  7
EXCADTTF1
 72
     5
 11
3145.5
 21
2388.4453125
 31
0.0
100
AcDbText
  0
TEXT
  5
EC
330
1F
100
AcDbEntity
  8
図面枠
  6
CONTINUOUS
 62
     4
100
AcDbText
 10
2943.0
 20
2334.4453125
 30
0.0
 40
31.16613741339492
  1
最低機械高
 41
0.9992307692307693
  7
EXCADTTF1
 72
     5
 11
3145.5
 21
2334.4453125
 31
0.0
100
AcDbText
  0
TEXT
  5
ED
330
1F
100
AcDbEntity
  8
図面枠
  6
CONTINUOUS
 62
     4
100
AcDbText
 10
2943.0
 20
2280.4453125
 30
0.0
 40
31.16613741339492
  1
シリンダー外径
 41
0.9992307692307693
  7
EXCADTTF1
 72
     5
 11
3226.5
 21
2280.4453125
 31
0.0
100
AcDbText
  0
LINE
  5
EE
330
1F
100
AcDbEntity
  8
図面枠
  6
CONTINUOUS
 62
     2
100
AcDbLine
 10
2925.0
 20
2430.0
 30
0.0
 11
3645.0
 21
2430.0
 31
0.0
  0
LINE
  5
EF
330
1F
100
AcDbEntity
  8
図面枠
  6
CONTINUOUS
 62
     2
100
AcDbLine
 10
2925.0
 20
2376.0
 30
0.0
 11
3645.0
 21
2376.0
 31
0.0
  0
LINE
  5
F0
330
1F
100
AcDbEntity
  8
図面枠
  6
CONTINUOUS
 62
     2
100
AcDbLine
 10
2925.0
 20
2322.0
 30
0.0
 11
3645.0
 21
2322.0
 31
0.0
  0
LINE
  5
F1
330
1F
100
AcDbEntity
  8
図面枠
  6
CONTINUOUS
 62
     2
100
AcDbLine
 10
2925.0
 20
2268.0
 30
0.0
 11
3645.0
 21
2268.0
 31
0.0
  0
TEXT
  5
F2
330
1F
100
AcDbEntity
  8
図面枠
  6
CONTINUOUS
 62
     4
100
AcDbText
 10
3483.000000000001
 20
2226.4453125
 30
0.0
 40
31.16613741339492
  1
cm
 41
0.9992307692307693
  7
EXCADTTF1
 72
     5
 11
3523.500000000001
 21
2226.4453125
 31
0.0
100
AcDbText
  0
TEXT
  5
F3
330
1F
100
AcDbEntity
  8
図面枠
  6
CONTINUOUS
 62
     4
100
AcDbText
 10
3511.350000000001
 20
2245.587890893221
 30
0.0
 40
14.02476066181162
  1
2
 41
0.9992308528908869
  7
EXCADTTF1
 72
     5
 11
3520.462500000001
 21
2245.587890893221
 31
0.0
100
AcDbText
  0
LINE
  5
F4
330
1F
100
AcDbEntity
  8
図面枠
  6
CONTINUOUS
 62
     3
100
AcDbLine
 10
1746.000000000001
 20
2538.0
 30
0.0
 11
1746.000000000001
 21
2457.0
 31
0.0
  0
LINE
  5
F5
330
1F
100
AcDbEntity
  8
図面枠
  6
CONTINUOUS
 62
     3
100
AcDbLine
 10
135.0000000000001
 20
2538.0
 30
0.0
 11
1746.0
 21
2538.0
 31
0.0
  0
LINE
  5
F6
330
1F
100
AcDbEntity
  8
図面枠
  6
CONTINUOUS
 62
     3
100
AcDbLine
 10
135.0000000000001
 20
2457.0
 30
0.0
 11
1746.000000000001
 21
2457.0
 31
0.0
  0
TEXT
  5
F7
330
1F
100
AcDbEntity
  8
図面枠
  6
CONTINUOUS
 62
     4
100
AcDbText
 10
3483.0
 20
2172.4453125
 30
0.0
 40
31.16613741339492
  1
MPa
 41
0.9992307692307693
  7
EXCADTTF1
 72
     5
 11
3543.75
 21
2172.4453125
 31
0.0
100
AcDbText
  0
TEXT
  5
F8
330
1F
100
AcDbEntity
  8
図面枠
  6
CONTINUOUS
 62
     4
100
AcDbText
 10
2943.0
 20
2226.4453125
 30
0.0
 40
31.16613741339492
  1
受圧面積
 41
0.9992307692307693
  7
EXCADTTF1
 72
     5
 11
3105.0
 21
2226.4453125
 31
0.0
100
AcDbText
  0
TEXT
  5
F9
330
1F
100
AcDbEntity
  8
図面枠
  6
CONTINUOUS
 62
     4
100
AcDbText
 10
2943.0
 20
2172.4453125
 30
0.0
 40
31.16613741339492
  1
最高使用圧力
 41
0.9992307692307693
  7
EXCADTTF1
 72
     5
 11
3186.0
 21
2172.4453125
 31
0.0
100
AcDbText
  0
LINE
  5
FA
330
1F
100
AcDbEntity
  8
図面枠
  6
CONTINUOUS
 62
     2
100
AcDbLine
 10
2925.0
 20
2214.0
 30
0.0
 11
3645.0
 21
2214.0
 31
0.0
  0
TEXT
  5
FB
330
1F
100
AcDbEntity
  8
図面枠
  6
CONTINUOUS
 62
     4
100
AcDbText
 10
3483.0
 20
2064.4453125
 30
0.0
 40
31.16613741339492
  1
kg
 41
0.9992307692307693
  7
EXCADTTF1
 72
     5
 11
3523.5
 21
2064.4453125
 31
0.0
100
AcDbText
  0
TEXT
  5
FC
330
1F
100
AcDbEntity
  8
図面枠
  6
CONTINUOUS
 62
     4
100
AcDbText
 10
2943.0
 20
2118.4453125
 30
0.0
 40
31.16613741339492
  1
所要油量
 41
0.9992307692307693
  7
EXCADTTF1
 72
     5
 11
3105.0
 21
2118.4453125
 31
0.0
100
AcDbText
  0
LINE
  5
FD
330
1F
100
AcDbEntity
  8
図面枠
  6
CONTINUOUS
 62
     2
100
AcDbLine
 10
2925.0
 20
2160.0
 30
0.0
 11
3645.0
 21
2160.0
 31
0.0
  0
LINE
  5
FE
330
1F
100
AcDbEntity
  8
図面枠
  6
CONTINUOUS
 62
     2
100
AcDbLine
 10
2925.0
 20
2106.0
 30
0.0
 11
3645.0
 21
2106.0
 31
0.0
  0
TEXT
  5
FF
330
1F
100
AcDbEntity
  8
図面枠
  6
CONTINUOUS
 62
     4
100
AcDbText
 10
2943.0
 20
2064.4453125
 30
0.0
 40
31.16613741339492
  1
重量
 41
0.9992307692307693
  7
EXCADTTF1
 72
     5
 11
3024.0
 21
2064.4453125
 31
0.0
100
AcDbText
  0
TEXT
  5
100
330
1F
100
AcDbEntity
  8
図面枠
  6
CONTINUOUS
 62
     4
100
AcDbText
 10
2943.0
 20
2010.4453125
 30
0.0
 40
31.16613741339492
  1
ユニバーサル
 41
0.9992307692307693
  7
EXCADTTF1
 72
     5
 11
3186.0
 21
2010.4453125
 31
0.0
100
AcDbText
  0
TEXT
  5
101
330
1F
100
AcDbEntity
  8
図面枠
  6
CONTINUOUS
 62
     4
100
AcDbText
 10
2943.0
 20
1969.9453125
 30
0.0
 40
31.16613741339492
  1
振り角
 41
0.9992307692307693
  7
EXCADTTF1
 72
     5
 11
3064.5
 21
1969.9453125
 31
0.0
100
AcDbText
  0
TEXT
  5
102
330
1F
100
AcDbEntity
  8
図面枠
  6
CONTINUOUS
 62
     4
100
AcDbText
 10
3386.25
 20
2010.4453125
 30
0.0
 40
31.16613741339492
  1
±3
 41
0.9992307692307693
  7
EXCADTTF1
 72
     5
 11
3447.0
 21
2010.4453125
 31
0.0
100
AcDbText
  0
TEXT
  5
103
330
1F
100
AcDbEntity
  8
図面枠
  6
CONTINUOUS
 62
     4
100
AcDbText
 10
3483.0
 20
2010.4453125
 30
0.0
 40
31.16613741339492
  1
°
 41
0.9992307692307693
  7
EXCADTTF1
 72
     5
 11
3523.5
 21
2010.4453125
 31
0.0
100
AcDbText
  0
TEXT
  5
104
330
1F
100
AcDbEntity
  8
図面枠
  6
CONTINUOUS
 62
     4
100
AcDbText
 10
3483.0
 20
1956.4453125
 30
0.0
 40
31.16613741339492
  1
%%%
 41
0.9992307692307693
  7
EXCADTTF1
 72
     5
 11
3503.25
 21
1956.4453125
 31
0.0
100
AcDbText
  0
TEXT
  5
105
330
1F
100
AcDbEntity
  8
図面枠
  6
CONTINUOUS
 62
     4
100
AcDbText
 10
3386.25
 20
1956.4453125
 30
0.0
 40
31.16613741339492
  1
±5
 41
0.9992307692307693
  7
EXCADTTF1
 72
     5
 11
3447.0
 21
1956.4453125
 31
0.0
100
AcDbText
  0
LINE
  5
106
330
1F
100
AcDbEntity
  8
図面枠
  6
CONTINUOUS
 62
     2
100
AcDbLine
 10
3285.0
 20
1998.0
 30
0.0
 11
3645.0
 21
1998.0
 31
0.0
  0
LINE
  5
107
330
1F
100
AcDbEntity
  8
図面枠
  6
CONTINUOUS
 62
     3
100
AcDbLine
 10
2925.0
 20
1944.0
 30
0.0
 11
3645.0
 21
1944.0
 31
0.0
  0
LINE
  5
108
330
1F
100
AcDbEntity
  8
図面枠
  6
CONTINUOUS
 62
     2
100
AcDbLine
 10
2925.0
 20
2052.0
 30
0.0
 11
3645.0
 21
2052.0
 31
0.0
  0
TEXT
  5
109
330
1F
100
AcDbEntity
  8
図面枠
  6
CONTINUOUS
 62
     4
100
AcDbText
 10
3483.0
 20
2118.4453125
 30
0.0
 40
31.16613741339492
  1
L
 41
0.9992307692307693
  7
EXCADTTF1
 72
     5
 11
3503.25
 21
2118.4453125
 31
0.0
100
AcDbText
  0
LINE
  5
10A
330
1F
100
AcDbEntity
  8
図面枠
  6
CONTINUOUS
 62
     3
100
AcDbLine
 10
2925.0
 20
2538.0
 30
0.0
 11
2925.0
 21
1944.0
 31
0.0
  0
LINE
  5
10B
330
1F
100
AcDbEntity
  8
図面枠
  6
CONTINUOUS
 62
     2
100
AcDbLine
 10
3285.0
 20
2484.0
 30
0.0
 11
3285.0
 21
1944.0
 31
0.0
  0
LINE
  5
10C
330
1F
100
AcDbEntity
  8
図面枠
  6
CONTINUOUS
 62
     2
100
AcDbLine
 10
3465.0
 20
2484.0
 30
0.0
 11
3465.0
 21
1944.0
 31
0.0
  0
LINE
  5
10D
330
1F
100
AcDbEntity
  8
図面枠
  6
CONTINUOUS
 62
     3
100
AcDbLine
 10
3645.0
 20
2538.0
 30
0.0
 11
3645.0
 21
1944.0
 31
0.0
  0
LINE
  5
10E
330
1F
100
AcDbEntity
  8
図面枠
  6
CONTINUOUS
 62
     3
100
AcDbLine
 10
3375.0
 20
216.0
 30
0.0
 11
3375.0
 21
135.0
 31
0.0
  0
LINE
  5
10F
330
1F
100
AcDbEntity
  8
図面枠
  6
CONTINUOUS
 62
     3
100
AcDbLine
 10
3375.0
 20
135.0
 30
0.0
 11
3645.0
 21
135.0
 31
0.0
  0
LINE
  5
110
330
1F
100
AcDbEntity
  8
図面枠
  6
CONTINUOUS
 62
     3
100
AcDbLine
 10
3375.0
 20
216.0
 30
0.0
 11
3645.0
 21
216.0
 31
0.0
  0
TEXT
  5
111
330
1F
100
AcDbEntity
  8
図面枠
  6
CONTINUOUS
 62
     4
100
AcDbText
 10
3386.25
 20
2388.4453125
 30
0.0
 40
31.16613741339492
  1
220
 41
0.9992307692307693
  7
EXCADTTF1
 72
     5
 11
3447.0
 21
2388.4453125
 31
0.0
100
AcDbText
  0
TEXT
  5
112
330
1F
100
AcDbEntity
  8
図面枠
  6
CONTINUOUS
 62
     4
100
AcDbText
 10
171.0
 20
2478.09375
 30
0.0
 40
41.55484988452656
  1
3110kN220ストローク仮受け用油圧ジャッキ　球面回転ヘッド型
 41
0.9992307692307693
  7
EXCADTTF1
 72
     5
 11
1710.0
 21
2478.09375
 31
0.0
100
AcDbText
  0
TEXT
  5
113
330
1F
100
AcDbEntity
  8
図面枠
  6
CONTINUOUS
 62
     4
100
AcDbText
 10
2872.799999999998
 20
1840.795312499995
 30
0.0
 40
31.16613741339492
  1
※）球面回転ヘッドの為、無負荷ジャッキ
 41
0.9992307692307693
  7
EXCADTTF1
 72
     5
 11
3642.299999999998
 21
1840.795312499995
 31
0.0
100
AcDbText
  0
TEXT
  5
114
330
1F
100
AcDbEntity
  8
図面枠
  6
CONTINUOUS
 62
     4
100
AcDbText
 10
2872.799999999998
 20
1800.295312499995
 30
0.0
 40
31.16613741339492
  1
　　作動時にヘッドが急に傾く場合があり
 41
0.9992307692307693
  7
EXCADTTF1
 72
     5
 11
3642.299999999998
 21
1800.295312499995
 31
0.0
100
AcDbText
  0
TEXT
  5
115
330
1F
100
AcDbEntity
  8
図面枠
  6
CONTINUOUS
 62
     4
100
AcDbText
 10
2872.799999999998
 20
1759.795312499995
 30
0.0
 40
31.16613741339492
  1
　　ます。必要に応じて搭載物の転倒防止
 41
0.9992307692307693
  7
EXCADTTF1
 72
     5
 11
3642.299999999998
 21
1759.795312499995
 31
0.0
100
AcDbText
  0
TEXT
  5
116
330
1F
100
AcDbEntity
  8
図面枠
  6
CONTINUOUS
 62
     4
100
AcDbText
 10
2872.799999999998
 20
1719.295312499995
 30
0.0
 40
31.16613741339492
  1
　　を行ってください。
 41
0.9992307692307693
  7
EXCADTTF1
 72
     5
 11
3318.299999999998
 21
1719.295312499995
 31
0.0
100
AcDbText
  0
TEXT
  5
117
330
1F
100
AcDbEntity
  8
図面枠
  6
CONTINUOUS
 62
     4
100
AcDbText
 10
3366.0
 20
2442.4453125
 30
0.0
 40
31.16613741339492
  1
3110
 41
0.9992307692307693
  7
EXCADTTF1
 72
     5
 11
3447.0
 21
2442.4453125
 31
0.0
100
AcDbText
  0
TEXT
  5
118
330
1F
100
AcDbEntity
  8
図面枠
  6
CONTINUOUS
 62
     4
100
AcDbText
 10
3386.25
 20
2334.4453125
 30
0.0
 40
31.16613741339492
  1
825
 41
0.9992307692307693
  7
EXCADTTF1
 72
     5
 11
3447.0
 21
2334.4453125
 31
0.0
100
AcDbText
  0
TEXT
  5
119
330
1F
100
AcDbEntity
  8
図面枠
  6
CONTINUOUS
 62
     4
100
AcDbText
 10
3386.25
 20
2280.4453125
 30
0.0
 40
31.16613741339492
  1
320
 41
0.9992307692307693
  7
EXCADTTF1
 72
     5
 11
3447.0
 21
2280.4453125
 31
0.0
100
AcDbText
  0
TEXT
  5
11A
330
1F
100
AcDbEntity
  8
図面枠
  6
CONTINUOUS
 62
     4
100
AcDbText
 10
3345.75
 20
2226.4453125
 30
0.0
 40
31.16613741339492
  1
415.5
 41
0.9992307692307693
  7
EXCADTTF1
 72
     5
 11
3447.0
 21
2226.4453125
 31
0.0
100
AcDbText
  0
TEXT
  5
11B
330
1F
100
AcDbEntity
  8
図面枠
  6
CONTINUOUS
 62
     4
100
AcDbText
 10
3366.0
 20
2172.4453125
 30
0.0
 40
31.16613741339492
  1
74.9
 41
0.9992307692307693
  7
EXCADTTF1
 72
     5
 11
3447.0
 21
2172.4453125
 31
0.0
100
AcDbText
  0
TEXT
  5
11C
330
1F
100
AcDbEntity
  8
図面枠
  6
CONTINUOUS
 62
     4
100
AcDbText
 10
3386.25
 20
2118.4453125
 30
0.0
 40
31.16613741339492
  1
9.1
 41
0.9992307692307693
  7
EXCADTTF1
 72
     5
 11
3447.0
 21
2118.4453125
 31
0.0
100
AcDbText
  0
TEXT
  5
11D
330
1F
100
AcDbEntity
  8
図面枠
  6
CONTINUOUS
 62
     4
100
AcDbText
 10
3402.0
 20
156.09375
 30
0.0
 40
41.55484988452656
  1
RJ-31122
 41
0.9992307692307688
  7
EXCADTTF1
 72
     5
 11
3618.0
 21
156.09375
 31
0.0
100
AcDbText
  0
TEXT
  5
11E
330
1F
100
AcDbEntity
  8
図面枠
  6
CONTINUOUS
 62
     4
100
AcDbText
 10
3345.75
 20
2064.4453125
 30
0.0
 40
31.16613741339492
  1
約890
 41
0.9992307692307693
  7
EXCADTTF1
 72
     5
 11
3447.0
 21
2064.4453125
 31
0.0
100
AcDbText
  0
DIMENSION
  5
120
330
1F
100
AcDbEntity
  8
Ｓ_１_１
  6
CONTINUOUS
 62
     2
100
AcDbDimension
  2
*D15
 10
2383.626933686328
 20
784.0000306219304
 30
0.0
 11
2482.969209483971
 21
869.9341586204936
 31
0.0
 70
   163
  3
ISO-25
100
AcDbDiametricDimension
 15
2456.37306631367
 25
826.0000298768296
 35
0.0
 40
0.0
1001
ACAD
1000
DSTYLE
1002
{
1070
   270
1070
     2
1070
     6
1000
EX_NORM
1070
     7
1000
EX_NORM
1070
    41
1040
27.0
1070
    73
1070
     0
1070
    74
1070
     0
1070
    77
1070
     1
1070
    78
1070
     8
1070
   140
1040
31.16613741339492
1070
   147
1040
0.0
1070
   173
1070
     1
1070
   176
1070
     2
1070
   177
1070
     2
1070
   178
1070
     2
1070
   271
1070
     2
1070
   277
1070
     2
1070
   279
1070
     2
1070
   280
1070
     1
1070
   287
1070
     5
1070
   340
1005
11F
1002
}
  0
LINE
  5
12C
330
1F
100
AcDbEntity
  8
Ｓ_１_１
  6
CONTINUOUS
 62
     3
100
AcDbLine
 10
1517.499999999983
 20
1097.99994955955
 30
0.0
 11
1512.499999999983
 21
1097.99994955955
 31
0.0
  0
LINE
  5
12D
330
1F
100
AcDbEntity
  8
Ｓ_１_１
  6
CONTINUOUS
 62
     3
100
AcDbLine
 10
1512.499999999983
 20
1097.99994955955
 30
0.0
 11
1512.499999999983
 21
1099.99994955955
 31
0.0
  0
LINE
  5
12E
330
1F
100
AcDbEntity
  8
Ｓ_１_１
  6
CONTINUOUS
 62
     3
100
AcDbLine
 10
1517.499999999983
 20
1097.99994955955
 30
0.0
 11
1517.499999999983
 21
1099.99994955955
 31
0.0
  0
LINE
  5
12F
330
1F
100
AcDbEntity
  8
Ｓ_１_１
  6
CONTINUOUS
 62
     3
100
AcDbLine
 10
1417.499999999983
 20
1097.99994955955
 30
0.0
 11
1412.499999999983
 21
1097.99994955955
 31
0.0
  0
LINE
  5
130
330
1F
100
AcDbEntity
  8
Ｓ_１_１
  6
CONTINUOUS
 62
     3
100
AcDbLine
 10
1412.499999999983
 20
1097.99994955955
 30
0.0
 11
1412.499999999983
 21
1099.99994955955
 31
0.0
  0
LINE
  5
131
330
1F
100
AcDbEntity
  8
Ｓ_１_１
  6
CONTINUOUS
 62
     3
100
AcDbLine
 10
1417.499999999983
 20
1097.99994955955
 30
0.0
 11
1417.499999999983
 21
1099.99994955955
 31
0.0
  0
LINE
  5
132
330
1F
100
AcDbEntity
  8
Ｓ_１_１
  6
CONTINUOUS
 62
     3
100
AcDbLine
 10
1317.499999999983
 20
1097.99994955955
 30
0.0
 11
1312.499999999983
 21
1097.99994955955
 31
0.0
  0
LINE
  5
133
330
1F
100
AcDbEntity
  8
Ｓ_１_１
  6
CONTINUOUS
 62
     3
100
AcDbLine
 10
1312.499999999983
 20
1097.99994955955
 30
0.0
 11
1312.499999999983
 21
1099.99994955955
 31
0.0
  0
LINE
  5
134
330
1F
100
AcDbEntity
  8
Ｓ_１_１
  6
CONTINUOUS
 62
     3
100
AcDbLine
 10
1317.499999999983
 20
1097.99994955955
 30
0.0
 11
1317.499999999983
 21
1099.99994955955
 31
0.0
  0
LINE
  5
135
330
1F
100
AcDbEntity
  8
Ｓ_１_１
  6
CONTINUOUS
 62
     3
100
AcDbLine
 10
1217.499999999983
 20
1097.99994955955
 30
0.0
 11
1212.499999999983
 21
1097.99994955955
 31
0.0
  0
LINE
  5
136
330
1F
100
AcDbEntity
  8
Ｓ_１_１
  6
CONTINUOUS
 62
     3
100
AcDbLine
 10
1212.499999999983
 20
1097.99994955955
 30
0.0
 11
1212.499999999983
 21
1099.99994955955
 31
0.0
  0
LINE
  5
137
330
1F
100
AcDbEntity
  8
Ｓ_１_１
  6
CONTINUOUS
 62
     3
100
AcDbLine
 10
1217.499999999983
 20
1097.99994955955
 30
0.0
 11
1217.499999999983
 21
1099.99994955955
 31
0.0
  0
LINE
  5
138
330
1F
100
AcDbEntity
  8
Ｓ_１_１
  6
CONTINUOUS
 62
     3
100
AcDbLine
 10
1117.499999999983
 20
1097.99994955955
 30
0.0
 11
1112.499999999983
 21
1097.99994955955
 31
0.0
  0
LINE
  5
139
330
1F
100
AcDbEntity
  8
Ｓ_１_１
  6
CONTINUOUS
 62
     3
100
AcDbLine
 10
1112.499999999983
 20
1097.99994955955
 30
0.0
 11
1112.499999999983
 21
1099.99994955955
 31
0.0
  0
LINE
  5
13A
330
1F
100
AcDbEntity
  8
Ｓ_１_１
  6
CONTINUOUS
 62
     3
100
AcDbLine
 10
1117.499999999983
 20
1097.99994955955
 30
0.0
 11
1117.499999999983
 21
1099.99994955955
 31
0.0
  0
LINE
  5
13B
330
1F
100
AcDbEntity
  8
Ｓ_１_１
  6
CONTINUOUS
 62
     3
100
AcDbLine
 10
1017.499999999983
 20
1097.99994955955
 30
0.0
 11
1012.499999999983
 21
1097.99994955955
 31
0.0
  0
LINE
  5
13C
330
1F
100
AcDbEntity
  8
Ｓ_１_１
  6
CONTINUOUS
 62
     3
100
AcDbLine
 10
1012.499999999983
 20
1097.99994955955
 30
0.0
 11
1012.499999999983
 21
1099.99994955955
 31
0.0
  0
LINE
  5
13D
330
1F
100
AcDbEntity
  8
Ｓ_１_１
  6
CONTINUOUS
 62
     3
100
AcDbLine
 10
1017.499999999983
 20
1097.99994955955
 30
0.0
 11
1017.499999999983
 21
1099.99994955955
 31
0.0
  0
LINE
  5
13E
330
1F
100
AcDbEntity
  8
Ｓ_１_１
  6
CONTINUOUS
 62
     3
100
AcDbLine
 10
1255.00000968575
 20
385.0000007450409
 30
0.0
 11
1274.99999031428
 21
385.0000007450409
 31
0.0
  0
LINE
  5
13F
330
1F
100
AcDbEntity
  8
Ｓ_１_１
  6
CONTINUOUS
 62
     3
100
AcDbLine
 10
1255.00000968575
 20
395.0000005960292
 30
0.0
 11
1274.99999031428
 21
395.0000005960292
 31
0.0
  0
LINE
  5
140
330
1F
100
AcDbEntity
  8
Ｓ_１_１
  6
CONTINUOUS
 62
     3
100
AcDbLine
 10
1274.99999031428
 20
395.0000005960293
 30
0.0
 11
1274.99999031428
 21
314.9999994039364
 31
0.0
  0
LINE
  5
141
330
1F
100
AcDbEntity
  8
Ｓ_１_１
  6
CONTINUOUS
 62
     3
100
AcDbLine
 10
1255.00000968575
 20
395.0000005960293
 30
0.0
 11
1255.00000968575
 21
314.9999994039364
 31
0.0
  0
LINE
  5
142
330
1F
100
AcDbEntity
  8
Ｓ_１_１
  6
CONTINUOUS
 62
     3
100
AcDbLine
 10
1554.999986141955
 20
710.0000316650362
 30
0.0
 11
1554.999986141955
 21
640.0000327081175
 31
0.0
  0
LINE
  5
143
330
1F
100
AcDbEntity
  8
Ｓ_１_１
  6
CONTINUOUS
 62
     3
100
AcDbLine
 10
1503.134574466446
 20
630.0000328571291
 30
0.0
 11
1544.999986290967
 21
630.0000328571291
 31
0.0
  0
LINE
  5
144
330
1F
100
AcDbEntity
  8
Ｓ_１_１
  6
CONTINUOUS
 62
     3
100
AcDbLine
 10
1545.000006142039
 20
630.0000466611009
 30
0.0
 11
1555.000016608922
 21
640.0000579709217
 31
0.0
  0
LINE
  5
145
330
1F
100
AcDbEntity
  8
Ｓ_１_１
  6
CONTINUOUS
 62
     3
100
AcDbLine
 10
1454.999987632071
 20
730.000031367013
 30
0.0
 11
1454.999987632071
 21
715.0000315905304
 31
0.0
  0
LINE
  5
146
330
1F
100
AcDbEntity
  8
Ｓ_１_１
  6
CONTINUOUS
 62
     3
100
AcDbLine
 10
1462.499987520313
 20
720.0000315160246
 30
0.0
 11
1462.499987520313
 21
715.0000315905304
 31
0.0
  0
LINE
  5
147
330
1F
100
AcDbEntity
  8
Ｓ_１_１
  6
CONTINUOUS
 62
     3
100
AcDbLine
 10
1462.500007731755
 20
720.0000467096424
 30
0.0
 11
1455.000007468025
 21
727.5000476055751
 31
0.0
  0
LINE
  5
148
330
1F
100
AcDbEntity
  8
Ｓ_１_１
  6
CONTINUOUS
 62
     3
100
AcDbLine
 10
1462.499987520313
 20
720.0000315160246
 30
0.0
 11
1544.999986290967
 21
720.0000315160246
 31
0.0
  0
LINE
  5
149
330
1F
100
AcDbEntity
  8
Ｓ_１_１
  6
CONTINUOUS
 62
     3
100
AcDbLine
 10
1544.999998937034
 20
720.0000339602211
 30
0.0
 11
1554.999999288674
 21
710.0000327656444
 31
0.0
  0
ARC
  5
14A
330
1F
100
AcDbEntity
  8
Ｓ_１_１
  6
CONTINUOUS
 62
     3
100
AcDbCircle
 10
1504.748216871233
 20
675.5993211180767
 30
0.0
 40
24.99999962747098
100
AcDbArc
 50
246.3870204957043
 51
154.2399238178785
  0
LINE
  5
14B
330
1F
100
AcDbEntity
  8
Ｓ_１_１
  6
CONTINUOUS
 62
     3
100
AcDbLine
 10
1026.865425533584
 20
630.0000328571291
 30
0.0
 11
985.0000137090635
 21
630.0000328571291
 31
0.0
  0
ARC
  5
14C
330
1F
100
AcDbEntity
  8
Ｓ_１_１
  6
CONTINUOUS
 62
     3
100
AcDbCircle
 10
1025.251783128797
 20
675.5993211180767
 30
0.0
 40
24.99999962747098
100
AcDbArc
 50
25.76007618212158
 51
293.6129795042957
  0
LINE
  5
14D
330
1F
100
AcDbEntity
  8
Ｓ_１_１
  6
CONTINUOUS
 62
     3
100
AcDbLine
 10
1075.000012367959
 20
730.000031367013
 30
0.0
 11
1075.000012367959
 21
715.0000315905304
 31
0.0
  0
LINE
  5
14E
330
1F
100
AcDbEntity
  8
Ｓ_１_１
  6
CONTINUOUS
 62
     3
100
AcDbLine
 10
975.0000138580751
 20
710.0000316650362
 30
0.0
 11
975.0000138580751
 21
640.0000327081175
 31
0.0
  0
LINE
  5
14F
330
1F
100
AcDbEntity
  8
Ｓ_１_１
  6
CONTINUOUS
 62
     3
100
AcDbLine
 10
1067.500012479718
 20
720.0000315160246
 30
0.0
 11
985.0000137090635
 21
720.0000315160246
 31
0.0
  0
LINE
  5
150
330
1F
100
AcDbEntity
  8
Ｓ_１_１
  6
CONTINUOUS
 62
     3
100
AcDbLine
 10
1067.500012479718
 20
720.0000315160246
 30
0.0
 11
1067.500012479718
 21
715.0000315905304
 31
0.0
  0
LINE
  5
151
330
1F
100
AcDbEntity
  8
Ｓ_１_１
  6
CONTINUOUS
 62
     3
100
AcDbLine
 10
985.0000010629963
 20
720.0000339602211
 30
0.0
 11
975.0000007113565
 21
710.0000327656444
 31
0.0
  0
LINE
  5
152
330
1F
100
AcDbEntity
  8
Ｓ_１_１
  6
CONTINUOUS
 62
     3
100
AcDbLine
 10
984.999993857992
 20
630.0000466611009
 30
0.0
 11
974.9999833911086
 21
640.0000579709217
 31
0.0
  0
LINE
  5
153
330
1F
100
AcDbEntity
  8
Ｓ_１_１
  6
CONTINUOUS
 62
     3
100
AcDbLine
 10
1067.499992268275
 20
720.0000467096424
 30
0.0
 11
1074.999992532005
 21
727.5000476055751
 31
0.0
  0
LINE
  5
154
330
1F
100
AcDbEntity
  8
Ｓ_１_１
  6
CONTINUOUS
 62
     3
100
AcDbLine
 10
2567.499755999984
 20
1099.999906088681
 30
0.0
 11
2512.499755999984
 21
1099.999906088681
 31
0.0
  0
LINE
  5
155
330
1F
100
AcDbEntity
  8
Ｓ_１_１
  6
CONTINUOUS
 62
     3
100
AcDbLine
 10
2619.999998807895
 20
1099.999906088681
 30
0.0
 11
2572.499755999984
 21
1099.999906088681
 31
0.0
  0
LINE
  5
156
330
1F
100
AcDbEntity
  8
Ｓ_１_１
  6
CONTINUOUS
 62
     3
100
AcDbLine
 10
2507.499755999984
 20
1099.999906088681
 30
0.0
 11
2452.499999999985
 21
1099.999906088681
 31
0.0
  0
LINE
  5
157
330
1F
100
AcDbEntity
  8
Ｓ_１_１
  6
CONTINUOUS
 62
     3
100
AcDbLine
 10
2447.499999999985
 20
1099.999906088681
 30
0.0
 11
2419.999999999997
 21
1099.999906088681
 31
0.0
  0
LINE
  5
158
330
1F
100
AcDbEntity
  8
Ｓ_１_１
  6
CONTINUOUS
 62
     3
100
AcDbLine
 10
2332.499999999985
 20
1099.999906088681
 30
0.0
 11
2387.499999999985
 21
1099.999906088681
 31
0.0
  0
LINE
  5
159
330
1F
100
AcDbEntity
  8
Ｓ_１_１
  6
CONTINUOUS
 62
     3
100
AcDbLine
 10
2392.499999999985
 20
1099.999906088681
 30
0.0
 11
2419.999999999997
 21
1099.999906088681
 31
0.0
  0
LINE
  5
15A
330
1F
100
AcDbEntity
  8
Ｓ_１_１
  6
CONTINUOUS
 62
     3
100
AcDbLine
 10
2272.499999999985
 20
1099.999906088681
 30
0.0
 11
2327.499999999985
 21
1099.999906088681
 31
0.0
  0
LINE
  5
15B
330
1F
100
AcDbEntity
  8
Ｓ_１_１
  6
CONTINUOUS
 62
     3
100
AcDbLine
 10
2220.000001192099
 20
1099.999906088681
 30
0.0
 11
2267.499999999985
 21
1099.999906088681
 31
0.0
  0
LINE
  5
15C
330
1F
100
AcDbEntity
  8
Ｓ_１_１
  6
CONTINUOUS
 62
     3
100
AcDbLine
 10
2572.499755999984
 20
1097.99990608875
 30
0.0
 11
2567.499755999984
 21
1097.99990608875
 31
0.0
  0
LINE
  5
15D
330
1F
100
AcDbEntity
  8
Ｓ_１_１
  6
CONTINUOUS
 62
     3
100
AcDbLine
 10
2567.499755999984
 20
1097.99990608875
 30
0.0
 11
2567.499755999984
 21
1099.99990608875
 31
0.0
  0
LINE
  5
15E
330
1F
100
AcDbEntity
  8
Ｓ_１_１
  6
CONTINUOUS
 62
     3
100
AcDbLine
 10
2572.499755999984
 20
1097.99990608875
 30
0.0
 11
2572.499755999984
 21
1099.99990608875
 31
0.0
  0
LINE
  5
15F
330
1F
100
AcDbEntity
  8
Ｓ_１_１
  6
CONTINUOUS
 62
     3
100
AcDbLine
 10
2512.499755999984
 20
1097.99990608875
 30
0.0
 11
2507.499755999984
 21
1097.99990608875
 31
0.0
  0
LINE
  5
160
330
1F
100
AcDbEntity
  8
Ｓ_１_１
  6
CONTINUOUS
 62
     3
100
AcDbLine
 10
2507.499755999984
 20
1097.99990608875
 30
0.0
 11
2507.499755999984
 21
1099.99990608875
 31
0.0
  0
LINE
  5
161
330
1F
100
AcDbEntity
  8
Ｓ_１_１
  6
CONTINUOUS
 62
     3
100
AcDbLine
 10
2512.499755999984
 20
1097.99990608875
 30
0.0
 11
2512.499755999984
 21
1099.99990608875
 31
0.0
  0
LINE
  5
162
330
1F
100
AcDbEntity
  8
Ｓ_１_１
  6
CONTINUOUS
 62
     3
100
AcDbLine
 10
2452.499999999985
 20
1097.99990608875
 30
0.0
 11
2447.499999999985
 21
1097.99990608875
 31
0.0
  0
LINE
  5
163
330
1F
100
AcDbEntity
  8
Ｓ_１_１
  6
CONTINUOUS
 62
     3
100
AcDbLine
 10
2447.499999999985
 20
1097.99990608875
 30
0.0
 11
2447.499999999985
 21
1099.99990608875
 31
0.0
  0
LINE
  5
164
330
1F
100
AcDbEntity
  8
Ｓ_１_１
  6
CONTINUOUS
 62
     3
100
AcDbLine
 10
2452.499999999985
 20
1097.99990608875
 30
0.0
 11
2452.499999999985
 21
1099.99990608875
 31
0.0
  0
LINE
  5
165
330
1F
100
AcDbEntity
  8
Ｓ_１_１
  6
CONTINUOUS
 62
     3
100
AcDbLine
 10
2392.499999999985
 20
1097.99990608875
 30
0.0
 11
2387.499999999985
 21
1097.99990608875
 31
0.0
  0
LINE
  5
166
330
1F
100
AcDbEntity
  8
Ｓ_１_１
  6
CONTINUOUS
 62
     3
100
AcDbLine
 10
2387.499999999985
 20
1097.99990608875
 30
0.0
 11
2387.499999999985
 21
1099.99990608875
 31
0.0
  0
LINE
  5
167
330
1F
100
AcDbEntity
  8
Ｓ_１_１
  6
CONTINUOUS
 62
     3
100
AcDbLine
 10
2392.499999999985
 20
1097.99990608875
 30
0.0
 11
2392.499999999985
 21
1099.99990608875
 31
0.0
  0
LINE
  5
168
330
1F
100
AcDbEntity
  8
Ｓ_１_１
  6
CONTINUOUS
 62
     3
100
AcDbLine
 10
2332.499999999985
 20
1097.99990608875
 30
0.0
 11
2327.499999999985
 21
1097.99990608875
 31
0.0
  0
LINE
  5
169
330
1F
100
AcDbEntity
  8
Ｓ_１_１
  6
CONTINUOUS
 62
     3
100
AcDbLine
 10
2327.499999999985
 20
1097.99990608875
 30
0.0
 11
2327.499999999985
 21
1099.99990608875
 31
0.0
  0
LINE
  5
16A
330
1F
100
AcDbEntity
  8
Ｓ_１_１
  6
CONTINUOUS
 62
     3
100
AcDbLine
 10
2332.499999999985
 20
1097.99990608875
 30
0.0
 11
2332.499999999985
 21
1099.99990608875
 31
0.0
  0
LINE
  5
16B
330
1F
100
AcDbEntity
  8
Ｓ_１_１
  6
CONTINUOUS
 62
     3
100
AcDbLine
 10
2272.499999999985
 20
1097.99990608875
 30
0.0
 11
2267.499999999985
 21
1097.99990608875
 31
0.0
  0
LINE
  5
16C
330
1F
100
AcDbEntity
  8
Ｓ_１_１
  6
CONTINUOUS
 62
     3
100
AcDbLine
 10
2267.499999999985
 20
1097.99990608875
 30
0.0
 11
2267.499999999985
 21
1099.99990608875
 31
0.0
  0
LINE
  5
16D
330
1F
100
AcDbEntity
  8
Ｓ_１_１
  6
CONTINUOUS
 62
     3
100
AcDbLine
 10
2272.499999999985
 20
1097.99990608875
 30
0.0
 11
2272.499999999985
 21
1099.99990608875
 31
0.0
  0
LINE
  5
16E
330
1F
100
AcDbEntity
  8
Ｓ_１_１
  6
CONTINUOUS
 62
     3
100
AcDbLine
 10
2519.999999999997
 20
970.5770208240258
 30
0.0
 11
2519.999999999997
 21
958.9999060886805
 31
0.0
  0
LINE
  5
16F
330
1F
100
AcDbEntity
  8
Ｓ_１_１
  6
CONTINUOUS
 62
     3
100
AcDbLine
 10
2460.974609238995
 20
959.9999060886805
 30
0.0
 11
2505.212214403597
 21
959.9999060886805
 31
0.0
  0
LINE
  5
170
330
1F
100
AcDbEntity
  8
Ｓ_１_１
  6
CONTINUOUS
 62
     3
100
AcDbLine
 10
2460.974609238995
 20
1059.999906088681
 30
0.0
 11
2460.974609238995
 21
959.9999060886805
 31
0.0
  0
LINE
  5
171
330
1F
100
AcDbEntity
  8
Ｓ_１_１
  6
CONTINUOUS
 62
     3
100
AcDbLine
 10
2472.446132604996
 20
959.9999060886801
 30
0.0
 11
2584.293538756195
 21
1039.99990608868
 31
0.0
  0
LINE
  5
172
330
1F
100
AcDbEntity
  8
Ｓ_１_１
  6
CONTINUOUS
 62
     3
100
AcDbLine
 10
2505.212214403596
 20
959.9999060886796
 30
0.0
 11
2596.999999031396
 21
1025.652056843946
 31
0.0
  0
ARC
  5
173
330
1F
100
AcDbEntity
  8
Ｓ_１_１
  6
CONTINUOUS
 62
     3
100
AcDbCircle
 10
2604.999999031396
 20
984.9999060886796
 30
0.0
 40
8.0
100
AcDbArc
 50
180.0
 51
0.0
  0
LINE
  5
174
330
1F
100
AcDbEntity
  8
Ｓ_１_１
  6
CONTINUOUS
 62
     3
100
AcDbLine
 10
2617.999999033152
 20
1059.999906086926
 30
0.0
 11
2612.875074548851
 21
1054.874981602625
 31
0.0
  0
LINE
  5
175
330
1F
100
AcDbEntity
  8
Ｓ_１_１
  6
CONTINUOUS
 62
     3
100
AcDbLine
 10
2591.999999029641
 20
1059.999906086926
 30
0.0
 11
2597.124923513941
 21
1054.874981602625
 31
0.0
  0
LINE
  5
176
330
1F
100
AcDbEntity
  8
Ｓ_１_１
  6
CONTINUOUS
 62
     3
100
AcDbLine
 10
2612.999999031396
 20
1054.99990608868
 30
0.0
 11
2596.999999031396
 21
1054.99990608868
 31
0.0
  0
LINE
  5
177
330
1F
100
AcDbEntity
  8
Ｓ_１_１
  6
CONTINUOUS
 62
     3
100
AcDbLine
 10
2612.999999031396
 20
984.9999060886796
 30
0.0
 11
2612.999999031396
 21
1054.99990608868
 31
0.0
  0
LINE
  5
178
330
1F
100
AcDbEntity
  8
Ｓ_１_１
  6
CONTINUOUS
 62
     3
100
AcDbLine
 10
2596.999999031396
 20
984.9999060886796
 30
0.0
 11
2596.999999031396
 21
1054.99990608868
 31
0.0
  0
LINE
  5
179
330
1F
100
AcDbEntity
  8
Ｓ_１_１
  6
CONTINUOUS
 62
     3
100
AcDbLine
 10
2612.999999031396
 20
1037.096220316719
 30
0.0
 11
2617.059620554796
 21
1039.99990608868
 31
0.0
  0
LINE
  5
17A
330
1F
100
AcDbEntity
  8
Ｓ_１_１
  6
CONTINUOUS
 62
     3
100
AcDbLine
 10
2612.999999031396
 20
1039.99990608868
 30
0.0
 11
2617.059620554796
 21
1039.99990608868
 31
0.0
  0
LINE
  5
17B
330
1F
100
AcDbEntity
  8
Ｓ_１_１
  6
CONTINUOUS
 62
     3
100
AcDbLine
 10
2584.293538756195
 20
1039.99990608868
 30
0.0
 11
2596.999999031396
 21
1039.99990608868
 31
0.0
  0
LINE
  5
17C
330
1F
100
AcDbEntity
  8
Ｓ_１_１
  6
CONTINUOUS
 62
     3
100
AcDbLine
 10
2617.059620554796
 20
1059.999906088681
 30
0.0
 11
2617.059620554796
 21
1039.99990608868
 31
0.0
  0
LINE
  5
17D
330
1F
100
AcDbEntity
  8
Ｓ_１_１
  6
CONTINUOUS
 62
     3
100
AcDbLine
 10
2584.293538756195
 20
1059.999906088681
 30
0.0
 11
2584.293538756195
 21
1039.99990608868
 31
0.0
  0
LINE
  5
17E
330
1F
100
AcDbEntity
  8
Ｓ_１_１
  6
CONTINUOUS
 62
     3
100
AcDbLine
 10
2619.999998807895
 20
1099.999906088681
 30
0.0
 11
2619.999998807895
 21
1059.999906088681
 31
0.0
  0
ARC
  5
17F
330
1F
100
AcDbEntity
  8
Ｓ_１_１
  6
CONTINUOUS
 62
     3
100
AcDbCircle
 10
2235.000000968598
 20
984.9999060886796
 30
0.0
 40
8.0
100
AcDbArc
 50
180.0
 51
0.0
  0
LINE
  5
180
330
1F
100
AcDbEntity
  8
Ｓ_１_１
  6
CONTINUOUS
 62
     3
100
AcDbLine
 10
2222.000000966843
 20
1059.999906086926
 30
0.0
 11
2227.124925451143
 21
1054.874981602625
 31
0.0
  0
LINE
  5
181
330
1F
100
AcDbEntity
  8
Ｓ_１_１
  6
CONTINUOUS
 62
     3
100
AcDbLine
 10
2248.000000970354
 20
1059.999906086926
 30
0.0
 11
2242.875076486053
 21
1054.874981602625
 31
0.0
  0
LINE
  5
182
330
1F
100
AcDbEntity
  8
Ｓ_１_１
  6
CONTINUOUS
 62
     3
100
AcDbLine
 10
2227.000000968598
 20
1054.99990608868
 30
0.0
 11
2243.000000968598
 21
1054.99990608868
 31
0.0
  0
LINE
  5
183
330
1F
100
AcDbEntity
  8
Ｓ_１_１
  6
CONTINUOUS
 62
     3
100
AcDbLine
 10
2227.000000968598
 20
984.9999060886796
 30
0.0
 11
2227.000000968598
 21
1054.99990608868
 31
0.0
  0
LINE
  5
184
330
1F
100
AcDbEntity
  8
Ｓ_１_１
  6
CONTINUOUS
 62
     3
100
AcDbLine
 10
2243.000000968598
 20
984.9999060886796
 30
0.0
 11
2243.000000968598
 21
1054.99990608868
 31
0.0
  0
LINE
  5
185
330
1F
100
AcDbEntity
  8
Ｓ_１_１
  6
CONTINUOUS
 62
     3
100
AcDbLine
 10
2334.787785596399
 20
959.9999060886796
 30
0.0
 11
2243.000000968598
 21
1025.652056843946
 31
0.0
  0
LINE
  5
186
330
1F
100
AcDbEntity
  8
Ｓ_１_１
  6
CONTINUOUS
 62
     3
100
AcDbLine
 10
2227.000000968598
 20
1037.096220316719
 30
0.0
 11
2222.940379445198
 21
1039.99990608868
 31
0.0
  0
LINE
  5
187
330
1F
100
AcDbEntity
  8
Ｓ_１_１
  6
CONTINUOUS
 62
     3
100
AcDbLine
 10
2227.000000968598
 20
1039.99990608868
 30
0.0
 11
2222.940379445198
 21
1039.99990608868
 31
0.0
  0
LINE
  5
188
330
1F
100
AcDbEntity
  8
Ｓ_１_１
  6
CONTINUOUS
 62
     3
100
AcDbLine
 10
2255.7064612438
 20
1039.99990608868
 30
0.0
 11
2243.000000968598
 21
1039.99990608868
 31
0.0
  0
LINE
  5
189
330
1F
100
AcDbEntity
  8
Ｓ_１_１
  6
CONTINUOUS
 62
     3
100
AcDbLine
 10
2319.999999999998
 20
970.5770208240258
 30
0.0
 11
2319.999999999998
 21
958.9999060886805
 31
0.0
  0
LINE
  5
18A
330
1F
100
AcDbEntity
  8
Ｓ_１_１
  6
CONTINUOUS
 62
     3
100
AcDbLine
 10
2379.025390760999
 20
1059.999906088681
 30
0.0
 11
2379.025390760999
 21
959.9999060886805
 31
0.0
  0
LINE
  5
18B
330
1F
100
AcDbEntity
  8
Ｓ_１_１
  6
CONTINUOUS
 62
     3
100
AcDbLine
 10
2379.025390760999
 20
959.9999060886805
 30
0.0
 11
2334.787785596399
 21
959.9999060886805
 31
0.0
  0
LINE
  5
18C
330
1F
100
AcDbEntity
  8
Ｓ_１_１
  6
CONTINUOUS
 62
     3
100
AcDbLine
 10
2222.940379445198
 20
1059.999906088681
 30
0.0
 11
2222.940379445198
 21
1039.99990608868
 31
0.0
  0
LINE
  5
18D
330
1F
100
AcDbEntity
  8
Ｓ_１_１
  6
CONTINUOUS
 62
     3
100
AcDbLine
 10
2255.7064612438
 20
1059.999906088681
 30
0.0
 11
2255.7064612438
 21
1039.99990608868
 31
0.0
  0
LINE
  5
18E
330
1F
100
AcDbEntity
  8
Ｓ_１_１
  6
CONTINUOUS
 62
     3
100
AcDbLine
 10
2367.553867394999
 20
959.9999060886801
 30
0.0
 11
2255.7064612438
 21
1039.99990608868
 31
0.0
  0
LINE
  5
18F
330
1F
100
AcDbEntity
  8
Ｓ_１_１
  6
CONTINUOUS
 62
     3
100
AcDbLine
 10
2220.000001192099
 20
1099.999906088681
 30
0.0
 11
2220.000001192099
 21
1059.999906088681
 31
0.0
  0
LINE
  5
190
330
1F
100
AcDbEntity
  8
Ｓ_１_１
  6
CONTINUOUS
 62
     3
100
AcDbLine
 10
2439.999996721697
 20
1039.99990608868
 30
0.0
 11
2400.000003278298
 21
1039.99990608868
 31
0.0
  0
LINE
  5
191
330
1F
100
AcDbEntity
  8
Ｓ_１_１
  6
CONTINUOUS
 62
     3
100
AcDbLine
 10
2439.999996721697
 20
959.9999060886805
 30
0.0
 11
2400.000003278298
 21
959.9999060886805
 31
0.0
  0
LINE
  5
192
330
1F
100
AcDbEntity
  8
Ｓ_１_１
  6
CONTINUOUS
 62
     3
100
AcDbLine
 10
2439.999996721697
 20
1059.999906088681
 30
0.0
 11
2439.999996721697
 21
959.9999060886805
 31
0.0
  0
LINE
  5
193
330
1F
100
AcDbEntity
  8
Ｓ_１_１
  6
CONTINUOUS
 62
     3
100
AcDbLine
 10
2400.000003278298
 20
1059.999906088681
 30
0.0
 11
2400.000003278298
 21
959.9999060886805
 31
0.0
  0
LINE
  5
194
330
1F
100
AcDbEntity
  8
Ｓ_１_１
  6
CONTINUOUS
 62
     3
100
AcDbLine
 10
2321.999999999997
 20
956.9999060886804
 30
0.0
 11
2419.999999999997
 21
956.9999060886804
 31
0.0
  0
LINE
  5
195
330
1F
100
AcDbEntity
  8
Ｓ_１_１
  6
CONTINUOUS
 62
     3
100
AcDbLine
 10
2319.999775999998
 20
959.0000730886807
 30
0.0
 11
2321.999907999999
 21
956.9999410886805
 31
0.0
  0
LINE
  5
196
330
1F
100
AcDbEntity
  8
Ｓ_１_１
  6
CONTINUOUS
 62
     3
100
AcDbLine
 10
2319.999999999998
 20
958.9999060886805
 30
0.0
 11
2419.999999999997
 21
958.9999060886805
 31
0.0
  0
LINE
  5
197
330
1F
100
AcDbEntity
  8
Ｓ_１_１
  6
CONTINUOUS
 62
     3
100
AcDbLine
 10
2517.999999999998
 20
956.9999060886804
 30
0.0
 11
2419.999999999997
 21
956.9999060886804
 31
0.0
  0
LINE
  5
198
330
1F
100
AcDbEntity
  8
Ｓ_１_１
  6
CONTINUOUS
 62
     3
100
AcDbLine
 10
2519.999728999998
 20
958.9999870886807
 30
0.0
 11
2517.999769999998
 21
957.0000280886804
 31
0.0
  0
LINE
  5
199
330
1F
100
AcDbEntity
  8
Ｓ_１_１
  6
CONTINUOUS
 62
     3
100
AcDbLine
 10
2519.999999999997
 20
958.9999060886805
 30
0.0
 11
2419.999999999997
 21
958.9999060886805
 31
0.0
  0
ARC
  5
19A
330
1F
100
AcDbEntity
  8
Ｓ_１_１
  6
CONTINUOUS
 62
     3
100
AcDbCircle
 10
2486.999999999997
 20
954.9999060886805
 30
0.0
 40
2.0
100
AcDbArc
 50
90.000003
 51
180.000005
  0
ARC
  5
19B
330
1F
100
AcDbEntity
  8
Ｓ_１_１
  6
CONTINUOUS
 62
     3
100
AcDbCircle
 10
2352.999755999998
 20
954.9999060886805
 30
0.0
 40
2.0
100
AcDbArc
 50
0.0
 51
90.000003
  0
ARC
  5
19C
330
1F
100
AcDbEntity
  8
Ｓ_１_１
  6
CONTINUOUS
 62
     3
100
AcDbCircle
 10
2486.999999999997
 20
954.9999060886805
 30
0.0
 40
2.0
100
AcDbArc
 50
89.99999600000004
 51
180.000005
  0
LINE
  5
19D
330
1F
100
AcDbEntity
  8
Ｓ_１_１
  6
CONTINUOUS
 62
     3
100
AcDbLine
 10
2407.499999999999
 20
842.0000672884802
 30
0.0
 11
2432.499999999999
 21
842.0000672884802
 31
0.0
  0
LINE
  5
19E
330
1F
100
AcDbEntity
  8
Ｓ_１_１
  6
CONTINUOUS
 62
     3
100
AcDbLine
 10
2407.499999999999
 20
867.99996110098
 30
0.0
 11
2432.499999999999
 21
867.99996110098
 31
0.0
  0
ARC
  5
19F
330
1F
100
AcDbEntity
  8
Ｓ_１_１
  6
CONTINUOUS
 62
     3
100
AcDbCircle
 10
2420.0
 20
805.00003024938
 30
0.0
 40
41.9999992549001
100
AcDbArc
 50
107.3146539042008
 51
72.6853460957536
  0
ARC
  5
1A0
330
1F
100
AcDbEntity
  8
Ｓ_１_１
  6
CONTINUOUS
 62
     3
100
AcDbCircle
 10
2420.0
 20
805.00003024938
 30
0.0
 40
57.9999992549001
100
AcDbArc
 50
102.4458746422224
 51
77.5541253577453
  0
LINE
  5
1A1
330
1F
100
AcDbEntity
  8
Ｓ_１_１
  6
CONTINUOUS
 62
     3
100
AcDbLine
 10
2432.500000000015
 20
874.99994035518
 30
0.0
 11
2432.500000000015
 21
835.0000298022801
 31
0.0
  0
LINE
  5
1A2
330
1F
100
AcDbEntity
  8
Ｓ_１_１
  6
CONTINUOUS
 62
     3
100
AcDbLine
 10
2407.500000000015
 20
874.99994035518
 30
0.0
 11
2407.500000000015
 21
835.0000298022801
 31
0.0
  0
LINE
  5
1A3
330
1F
100
AcDbEntity
  8
Ｓ_１_１
  6
CONTINUOUS
 62
     3
100
AcDbLine
 10
2407.500000000015
 20
835.0000298022801
 30
0.0
 11
2432.499999999999
 21
835.0000298022801
 31
0.0
  0
LINE
  5
1A4
330
1F
100
AcDbEntity
  8
Ｓ_１_１
  6
CONTINUOUS
 62
     3
100
AcDbLine
 10
2407.500000000015
 20
874.99994035518
 30
0.0
 11
2432.500000000015
 21
874.99994035518
 31
0.0
  0
LINE
  5
1A5
330
1F
100
AcDbEntity
  8
Ｓ_１_１
  6
CONTINUOUS
 62
     3
100
AcDbLine
 10
2404.000000000015
 20
640.0000275039799
 30
0.0
 11
2436.000000000015
 21
640.0000275039799
 31
0.0
  0
LINE
  5
1A6
330
1F
100
AcDbEntity
  8
Ｓ_１_１
  6
CONTINUOUS
 62
     3
100
AcDbLine
 10
2404.000000000015
 20
710.0000459123801
 30
0.0
 11
2436.000000000015
 21
710.0000459123801
 31
0.0
  0
LINE
  5
1A7
330
1F
100
AcDbEntity
  8
Ｓ_１_１
  6
CONTINUOUS
 62
     3
100
AcDbLine
 10
2404.000000000015
 20
630.00003285708
 30
0.0
 11
2436.000000000015
 21
630.00003285708
 31
0.0
  0
LINE
  5
1A8
330
1F
100
AcDbEntity
  8
Ｓ_１_１
  6
CONTINUOUS
 62
     3
100
AcDbLine
 10
2404.000000000015
 20
720.0000669210799
 30
0.0
 11
2436.000000000015
 21
720.0000669210799
 31
0.0
  0
LINE
  5
1A9
330
1F
100
AcDbEntity
  8
Ｓ_１_１
  6
CONTINUOUS
 62
     3
100
AcDbLine
 10
2404.000000000015
 20
720.0000669210799
 30
0.0
 11
2404.000000000015
 21
630.00003285708
 31
0.0
  0
LINE
  5
1AA
330
1F
100
AcDbEntity
  8
Ｓ_１_１
  6
CONTINUOUS
 62
     3
100
AcDbLine
 10
2436.000000000015
 20
720.0000669210799
 30
0.0
 11
2436.000000000015
 21
630.00003285708
 31
0.0
  0
LINE
  5
1AB
330
1F
100
AcDbEntity
  8
Ｓ_１_１
  6
CONTINUOUS
 62
     3
100
AcDbLine
 10
2410.00000968575
 20
385.0000007450409
 30
0.0
 11
2429.99999031428
 21
385.0000007450409
 31
0.0
  0
LINE
  5
1AC
330
1F
100
AcDbEntity
  8
Ｓ_１_１
  6
CONTINUOUS
 62
     3
100
AcDbLine
 10
2410.00000968575
 20
395.0000005960292
 30
0.0
 11
2429.99999031428
 21
395.0000005960292
 31
0.0
  0
LINE
  5
1AD
330
1F
100
AcDbEntity
  8
Ｓ_１_１
  6
CONTINUOUS
 62
     3
100
AcDbLine
 10
2429.99999031428
 20
395.0000005960293
 30
0.0
 11
2429.99999031428
 21
314.9999994039364
 31
0.0
  0
LINE
  5
1AE
330
1F
100
AcDbEntity
  8
Ｓ_１_１
  6
CONTINUOUS
 62
     3
100
AcDbLine
 10
2410.00000968575
 20
395.0000005960293
 30
0.0
 11
2410.00000968575
 21
314.9999994039364
 31
0.0
  0
LINE
  5
1AF
330
1F
100
AcDbEntity
  8
Ｓ_１_１
  6
CONTINUOUS
 62
     3
100
AcDbLine
 10
2609.999987632072
 20
730.000031367013
 30
0.0
 11
2609.999987632072
 21
715.0000315905304
 31
0.0
  0
LINE
  5
1B0
330
1F
100
AcDbEntity
  8
Ｓ_１_１
  6
CONTINUOUS
 62
     3
100
AcDbLine
 10
2230.000012367959
 20
730.000031367013
 30
0.0
 11
2230.000012367959
 21
715.0000315905304
 31
0.0
  0
LINE
  5
1B1
330
1F
100
AcDbEntity
  8
Ｓ_１_１
  6
EXLTYPE0
 62
     2
100
AcDbLine
 10
975.0000043213502
 20
1059.999950155612
 30
0.0
 11
975.0000043213502
 21
1039.999950453635
 31
0.0
  0
LINE
  5
1B2
330
1F
100
AcDbEntity
  8
Ｓ_１_１
  6
EXLTYPE0
 62
     2
100
AcDbLine
 10
987.9999449498961
 20
1033.882325944104
 30
0.0
 11
975.0000795377352
 21
1039.999909717847
 31
0.0
  0
LINE
  5
1B3
330
1F
100
AcDbEntity
  8
Ｓ_１_１
  6
EXLTYPE0
 62
     2
100
AcDbLine
 10
1077.999885912606
 20
1010.457116197508
 30
0.0
 11
1062.000068575748
 21
1018.47031448515
 31
0.0
  0
LINE
  5
1B4
330
1F
100
AcDbEntity
  8
Ｓ_１_１
  6
EXLTYPE0
 62
     2
100
AcDbLine
 10
1077.292584710709
 20
998.7462048892312
 30
0.0
 11
1061.91217499638
 21
1006.44918487902
 31
0.0
  0
LINE
  5
1B5
330
1F
100
AcDbEntity
  8
Ｓ_１_１
  6
EXLTYPE0
 62
     2
100
AcDbLine
 10
1075.220457022658
 20
992.8373787483547
 30
0.0
 11
1060.741922155282
 21
999.6508069773417
 31
0.0
  0
LINE
  5
1B6
330
1F
100
AcDbEntity
  8
Ｓ_１_１
  6
EXLTYPE0
 62
     2
100
AcDbLine
 10
1554.999995678678
 20
1059.999950155612
 30
0.0
 11
1554.999995678678
 21
1039.999950453635
 31
0.0
  0
LINE
  5
1B7
330
1F
100
AcDbEntity
  8
Ｓ_１_１
  6
EXLTYPE0
 62
     2
100
AcDbLine
 10
1542.000020921377
 20
1033.882246557088
 30
0.0
 11
1555.000024397912
 21
1039.999895302303
 31
0.0
  0
LINE
  5
1B8
330
1F
100
AcDbEntity
  8
Ｓ_１_１
  6
EXLTYPE0
 62
     2
100
AcDbLine
 10
1452.000129976092
 20
1010.45694548861
 30
0.0
 11
1468.000083746347
 21
1018.470212106274
 31
0.0
  0
LINE
  5
1B9
330
1F
100
AcDbEntity
  8
Ｓ_１_１
  6
EXLTYPE0
 62
     2
100
AcDbLine
 10
1452.707362847968
 20
998.7461706137306
 30
0.0
 11
1468.087908995693
 21
1006.449218933541
 31
0.0
  0
LINE
  5
1BA
330
1F
100
AcDbEntity
  8
Ｓ_１_１
  6
EXLTYPE0
 62
     2
100
AcDbLine
 10
1454.779646912988
 20
992.8373643328099
 30
0.0
 11
1469.258181780365
 21
999.6507925617966
 31
0.0
  0
ARC
  5
1BB
330
1F
100
AcDbEntity
  8
Ｓ_１_１
  6
EXLTYPE0
 62
     2
100
AcDbCircle
 10
1085.000002682224
 20
855.0000295042943
 30
0.0
 40
8.0
100
AcDbArc
 50
179.9999949910438
 51
0.0
  0
ARC
  5
1BC
330
1F
100
AcDbEntity
  8
Ｓ_１_１
  6
EXLTYPE0
 62
     2
100
AcDbCircle
 10
1085.000002682224
 20
755.0000309944103
 30
0.0
 40
8.0
100
AcDbArc
 50
0.0
 51
180.0000050089563
  0
ARC
  5
1BD
330
1F
100
AcDbEntity
  8
Ｓ_１_１
  6
EXLTYPE0
 62
     2
100
AcDbCircle
 10
1444.999997317806
 20
855.0000295042943
 30
0.0
 40
8.0
100
AcDbArc
 50
179.9999949910438
 51
0.0000000000000573
  0
ARC
  5
1BE
330
1F
100
AcDbEntity
  8
Ｓ_１_１
  6
EXLTYPE0
 62
     2
100
AcDbCircle
 10
1444.999997317806
 20
755.0000309944103
 30
0.0
 40
8.0
100
AcDbArc
 50
0.0000000000000573
 51
180.0000050089563
  0
LINE
  5
1BF
330
1F
100
AcDbEntity
  8
Ｓ_１_１
  6
EXLTYPE2
 62
     1
100
AcDbLine
 10
1514.999999999983
 20
1093.279505833964
 30
0.0
 11
1514.999999999983
 21
1103.787181004863
 31
0.0
  0
LINE
  5
1C0
330
1F
100
AcDbEntity
  8
Ｓ_１_１
  6
EXLTYPE2
 62
     1
100
AcDbLine
 10
1414.999999999983
 20
1093.279505833964
 30
0.0
 11
1414.999999999983
 21
1103.787181004863
 31
0.0
  0
LINE
  5
1C1
330
1F
100
AcDbEntity
  8
Ｓ_１_１
  6
EXLTYPE2
 62
     1
100
AcDbLine
 10
1314.999999999983
 20
1093.279505833964
 30
0.0
 11
1314.999999999983
 21
1103.787181004863
 31
0.0
  0
LINE
  5
1C2
330
1F
100
AcDbEntity
  8
Ｓ_１_１
  6
EXLTYPE2
 62
     1
100
AcDbLine
 10
1214.999999999983
 20
1093.279505833964
 30
0.0
 11
1214.999999999983
 21
1103.787181004863
 31
0.0
  0
LINE
  5
1C3
330
1F
100
AcDbEntity
  8
Ｓ_１_１
  6
EXLTYPE2
 62
     1
100
AcDbLine
 10
1114.999999999983
 20
1093.279505833964
 30
0.0
 11
1114.999999999983
 21
1103.787181004863
 31
0.0
  0
LINE
  5
1C4
330
1F
100
AcDbEntity
  8
Ｓ_１_１
  6
EXLTYPE2
 62
     1
100
AcDbLine
 10
1014.999999999983
 20
1093.279505833964
 30
0.0
 11
1014.999999999983
 21
1103.787181004863
 31
0.0
  0
LINE
  5
1C5
330
1F
100
AcDbEntity
  8
Ｓ_１_１
  6
EXLTYPE2
 62
     1
100
AcDbLine
 10
1265.000000000015
 20
1117.49999999998
 30
0.0
 11
1265.000000000015
 21
256.74999999998
 31
0.0
  0
LINE
  5
1C6
330
1F
100
AcDbEntity
  8
Ｓ_１_１
  6
EXLTYPE2
 62
     1
100
AcDbLine
 10
1465.498835437051
 20
675.0000321865768
 30
0.0
 11
1546.397500613403
 21
675.0000321865768
 31
0.0
  0
LINE
  5
1C7
330
1F
100
AcDbEntity
  8
Ｓ_１_１
  6
EXLTYPE2
 62
     1
100
AcDbLine
 10
1504.999986887013
 20
730.000031367013
 30
0.0
 11
1504.999986887013
 21
620.8850236850922
 31
0.0
  0
LINE
  5
1C8
330
1F
100
AcDbEntity
  8
Ｓ_１_１
  6
EXLTYPE2
 62
     1
100
AcDbLine
 10
1064.501164562978
 20
675.0000321865768
 30
0.0
 11
983.6024993866264
 21
675.0000321865768
 31
0.0
  0
LINE
  5
1C9
330
1F
100
AcDbEntity
  8
Ｓ_１_１
  6
EXLTYPE2
 62
     1
100
AcDbLine
 10
1025.000013113017
 20
730.000031367013
 30
0.0
 11
1025.000013113017
 21
620.8850236850922
 31
0.0
  0
ARC
  5
1CA
330
1F
100
AcDbEntity
  8
Ｓ_１_１
  6
EXLTYPE2
 62
     1
100
AcDbCircle
 10
1529.999996051207
 20
1004.999950975176
 30
0.0
 40
19.99999970197679
100
AcDbArc
 50
269.9999974955218
 51
0.0000086514222361
  0
ARC
  5
1CB
330
1F
100
AcDbEntity
  8
Ｓ_１_１
  6
EXLTYPE2
 62
     1
100
AcDbCircle
 10
1479.999996796266
 20
1004.999950975176
 30
0.0
 40
19.99999970197679
100
AcDbArc
 50
179.9999949910438
 51
270.0000043257111
  0
LINE
  5
1CC
330
1F
100
AcDbEntity
  8
Ｓ_１_１
  6
EXLTYPE2
 62
     1
100
AcDbLine
 10
995.0000040233288
 20
1116.899973721798
 30
0.0
 11
995.0000040233288
 21
1050.399883159992
 31
0.0
  0
LINE
  5
1CD
330
1F
100
AcDbEntity
  8
Ｓ_１_１
  6
EXLTYPE2
 62
     1
100
AcDbLine
 10
1115.000002235189
 20
1115.149943230297
 30
0.0
 11
1115.000002235189
 21
1050.399883159992
 31
0.0
  0
LINE
  5
1CE
330
1F
100
AcDbEntity
  8
Ｓ_１_１
  6
EXLTYPE2
 62
     1
100
AcDbLine
 10
1414.999997764841
 20
1116.899973721798
 30
0.0
 11
1414.999997764841
 21
1048.65000525638
 31
0.0
  0
LINE
  5
1CF
330
1F
100
AcDbEntity
  8
Ｓ_１_１
  6
EXLTYPE2
 62
     1
100
AcDbLine
 10
1534.999995976701
 20
1111.649882247296
 30
0.0
 11
1534.999995976701
 21
1046.899974764879
 31
0.0
  0
LINE
  5
1D0
330
1F
100
AcDbEntity
  8
Ｓ_１_１
  6
EXLTYPE2
 62
     1
100
AcDbLine
 10
1216.175232661154
 20
620.0000330060666
 30
0.0
 11
1314.875182362285
 21
620.0000330060666
 31
0.0
  0
LINE
  5
1D1
330
1F
100
AcDbEntity
  8
Ｓ_１_１
  6
EXLTYPE2
 62
     1
100
AcDbLine
 10
1459.94994826691
 20
755.0000309944103
 30
0.0
 11
1431.949765578675
 21
755.0000309944103
 31
0.0
  0
LINE
  5
1D2
330
1F
100
AcDbEntity
  8
Ｓ_１_１
  6
EXLTYPE2
 62
     1
100
AcDbLine
 10
1470.974728376065
 20
855.0000295042943
 30
0.0
 11
1414.999997764841
 21
855.0000295042943
 31
0.0
  0
LINE
  5
1D3
330
1F
100
AcDbEntity
  8
Ｓ_１_１
  6
EXLTYPE2
 62
     1
100
AcDbLine
 10
1444.999997317806
 20
880.5568223363584
 30
0.0
 11
1444.999997317806
 21
742.3067786200777
 31
0.0
  0
LINE
  5
1D4
330
1F
100
AcDbEntity
  8
Ｓ_１_１
  6
EXLTYPE2
 62
     1
100
AcDbLine
 10
1070.050051733121
 20
755.0000309944103
 30
0.0
 11
1098.050234421353
 21
755.0000309944103
 31
0.0
  0
LINE
  5
1D5
330
1F
100
AcDbEntity
  8
Ｓ_１_１
  6
EXLTYPE2
 62
     1
100
AcDbLine
 10
1085.000002682224
 20
880.5568223363584
 30
0.0
 11
1085.000002682224
 21
742.3067786200777
 31
0.0
  0
LINE
  5
1D6
330
1F
100
AcDbEntity
  8
Ｓ_１_１
  6
EXLTYPE2
 62
     1
100
AcDbLine
 10
1059.025271623965
 20
855.0000295042943
 30
0.0
 11
1115.000002235189
 21
855.0000295042943
 31
0.0
  0
LINE
  5
1D7
330
1F
100
AcDbEntity
  8
Ｓ_１_１
  6
EXLTYPE2
 62
     1
100
AcDbLine
 10
1459.999997094289
 20
1067.940013513858
 30
0.0
 11
1459.999997094289
 21
1004.999950975176
 31
0.0
  0
LINE
  5
1D8
330
1F
100
AcDbEntity
  8
Ｓ_１_１
  6
EXLTYPE2
 62
     1
100
AcDbLine
 10
1529.999996051207
 20
984.9999512731988
 30
0.0
 11
1479.999996796266
 21
984.9999512731988
 31
0.0
  0
LINE
  5
1D9
330
1F
100
AcDbEntity
  8
Ｓ_１_１
  6
EXLTYPE2
 62
     1
100
AcDbLine
 10
1549.999995753183
 20
1067.239940282102
 30
0.0
 11
1549.999995753183
 21
1004.999950975176
 31
0.0
  0
LINE
  5
1DA
330
1F
100
AcDbEntity
  8
Ｓ_１_１
  6
EXLTYPE2
 62
     1
100
AcDbLine
 10
2569.999755999984
 20
1093.279462363164
 30
0.0
 11
2569.999755999984
 21
1103.787137534062
 31
0.0
  0
LINE
  5
1DB
330
1F
100
AcDbEntity
  8
Ｓ_１_１
  6
EXLTYPE2
 62
     1
100
AcDbLine
 10
2509.999755999984
 20
1093.279462363164
 30
0.0
 11
2509.999755999984
 21
1103.787137534062
 31
0.0
  0
LINE
  5
1DC
330
1F
100
AcDbEntity
  8
Ｓ_１_１
  6
EXLTYPE2
 62
     1
100
AcDbLine
 10
2449.999999999985
 20
1093.279462363164
 30
0.0
 11
2449.999999999985
 21
1103.787137534062
 31
0.0
  0
LINE
  5
1DD
330
1F
100
AcDbEntity
  8
Ｓ_１_１
  6
EXLTYPE2
 62
     1
100
AcDbLine
 10
2389.999999999985
 20
1093.279462363164
 30
0.0
 11
2389.999999999985
 21
1103.787137534062
 31
0.0
  0
LINE
  5
1DE
330
1F
100
AcDbEntity
  8
Ｓ_１_１
  6
EXLTYPE2
 62
     1
100
AcDbLine
 10
2329.999999999985
 20
1093.279462363164
 30
0.0
 11
2329.999999999985
 21
1103.787137534062
 31
0.0
  0
LINE
  5
1DF
330
1F
100
AcDbEntity
  8
Ｓ_１_１
  6
EXLTYPE2
 62
     1
100
AcDbLine
 10
2269.999999999985
 20
1093.279462363164
 30
0.0
 11
2269.999999999985
 21
1103.787137534062
 31
0.0
  0
LINE
  5
1E0
330
1F
100
AcDbEntity
  8
Ｓ_１_１
  6
EXLTYPE2
 62
     1
100
AcDbLine
 10
2604.999999031396
 20
1066.50005808868
 30
0.0
 11
2604.999999031396
 21
975.000058088681
 31
0.0
  0
LINE
  5
1E1
330
1F
100
AcDbEntity
  8
Ｓ_１_１
  6
EXLTYPE2
 62
     1
100
AcDbLine
 10
2620.499999999995
 20
984.999906088641
 30
0.0
 11
2587.249999999995
 21
984.999906088641
 31
0.0
  0
LINE
  5
1E2
330
1F
100
AcDbEntity
  8
Ｓ_１_１
  6
EXLTYPE2
 62
     1
100
AcDbLine
 10
2235.000000968598
 20
1066.50005808868
 30
0.0
 11
2235.000000968598
 21
975.000058088681
 31
0.0
  0
LINE
  5
1E3
330
1F
100
AcDbEntity
  8
Ｓ_１_１
  6
EXLTYPE2
 62
     1
100
AcDbLine
 10
2219.499999999999
 20
984.999906088641
 30
0.0
 11
2252.749999999999
 21
984.999906088641
 31
0.0
  0
LINE
  5
1E4
330
1F
100
AcDbEntity
  8
Ｓ_１_１
  6
EXLTYPE2
 62
     1
100
AcDbLine
 10
2347.833106804
 20
805.0000302493537
 30
0.0
 11
2489.583106804
 21
805.0000302493537
 31
0.0
  0
CIRCLE
  5
1E5
330
1F
100
AcDbEntity
  8
Ｓ_１_１
  6
EXLTYPE2
 62
     1
100
AcDbCircle
 10
2420.0
 20
805.00003024938
 30
0.0
 40
49.99999925490011
  0
LINE
  5
1E6
330
1F
100
AcDbEntity
  8
Ｓ_１_１
  6
EXLTYPE2
 62
     1
100
AcDbLine
 10
2390.833106804
 20
675.0000321865799
 30
0.0
 11
2452.083106804
 21
675.0000321865799
 31
0.0
  0
LINE
  5
1E7
330
1F
100
AcDbEntity
  8
Ｓ_１_１
  6
EXLTYPE2
 62
     1
100
AcDbLine
 10
2420.000000000016
 20
1117.49999999998
 30
0.0
 11
2420.000000000016
 21
256.74999999998
 31
0.0
  0
LINE
  5
1E8
330
1F
100
AcDbEntity
  8
Ｓ_１_１
  6
CONTINUOUS
 62
     3
100
AcDbLine
 10
1017.499999999983
 20
1099.999949559565
 30
0.0
 11
1112.499999999999
 21
1099.999949559565
 31
0.0
  0
LINE
  5
1E9
330
1F
100
AcDbEntity
  8
Ｓ_１_１
  6
CONTINUOUS
 62
     3
100
AcDbLine
 10
1117.499999999983
 20
1099.999949559565
 30
0.0
 11
1212.499999999999
 21
1099.999949559565
 31
0.0
  0
LINE
  5
1EA
330
1F
100
AcDbEntity
  8
Ｓ_１_１
  6
CONTINUOUS
 62
     3
100
AcDbLine
 10
1217.499999999983
 20
1099.999949559565
 30
0.0
 11
1265.000000000015
 21
1099.999949559565
 31
0.0
  0
LINE
  5
1EB
330
1F
100
AcDbEntity
  8
Ｓ_１_１
  6
CONTINUOUS
 62
     3
100
AcDbLine
 10
1312.499999999999
 20
1099.999949559565
 30
0.0
 11
1265.000000000015
 21
1099.999949559565
 31
0.0
  0
LINE
  5
1EC
330
1F
100
AcDbEntity
  8
Ｓ_１_１
  6
CONTINUOUS
 62
     3
100
AcDbLine
 10
1412.499999999999
 20
1099.999949559565
 30
0.0
 11
1317.499999999983
 21
1099.999949559565
 31
0.0
  0
LINE
  5
1ED
330
1F
100
AcDbEntity
  8
Ｓ_１_１
  6
CONTINUOUS
 62
     3
100
AcDbLine
 10
1512.499999999999
 20
1099.999949559565
 30
0.0
 11
1417.499999999983
 21
1099.999949559565
 31
0.0
  0
LINE
  5
1EE
330
1F
100
AcDbEntity
  8
Ｓ_１_１
  6
CONTINUOUS
 62
     3
100
AcDbLine
 10
1454.999997168795
 20
730.0000313669393
 30
0.0
 11
1454.999997168795
 21
715.0000315904563
 31
0.0
  0
CIRCLE
  5
1EF
330
1F
100
AcDbEntity
  8
Ｓ_１_１
  6
CONTINUOUS
 62
     3
100
AcDbCircle
 10
1265.000000000015
 20
620.0000330060666
 30
0.0
 40
39.99999940395358
  0
ARC
  5
1F0
330
1F
100
AcDbEntity
  8
Ｓ_１_１
  6
CONTINUOUS
 62
     3
100
AcDbCircle
 10
1444.999997317806
 20
855.0000295042943
 30
0.0
 40
8.0
100
AcDbArc
 50
0.0000000000000573
 51
180.0000050089563
  0
ARC
  5
1F1
330
1F
100
AcDbEntity
  8
Ｓ_１_１
  6
CONTINUOUS
 62
     3
100
AcDbCircle
 10
1444.999997317806
 20
755.0000309944103
 30
0.0
 40
8.0
100
AcDbArc
 50
179.9999949910438
 51
0.0000000000000573
  0
ARC
  5
1F2
330
1F
100
AcDbEntity
  8
Ｓ_１_１
  6
CONTINUOUS
 62
     3
100
AcDbCircle
 10
1085.000002682224
 20
755.0000309944103
 30
0.0
 40
8.0
100
AcDbArc
 50
179.9999949910438
 51
0.0
  0
ARC
  5
1F3
330
1F
100
AcDbEntity
  8
Ｓ_１_１
  6
CONTINUOUS
 62
     3
100
AcDbCircle
 10
1085.000002682224
 20
855.0000295042943
 30
0.0
 40
8.0
100
AcDbArc
 50
0.0
 51
180.0000050089563
  0
ARC
  5
1F4
330
1F
100
AcDbEntity
  8
Ｓ_１_１
  6
CONTINUOUS
 62
     3
100
AcDbCircle
 10
1529.999996051207
 20
1004.999950975176
 30
0.0
 40
27.99999910593035
100
AcDbArc
 50
269.9999974955218
 51
0.0000086514222361
  0
ARC
  5
1F5
330
1F
100
AcDbEntity
  8
Ｓ_１_１
  6
CONTINUOUS
 62
     3
100
AcDbCircle
 10
1529.999996051207
 20
1004.999950975176
 30
0.0
 40
12.00000029802322
100
AcDbArc
 50
269.9999974955218
 51
0.0000086514222361
  0
ARC
  5
1F6
330
1F
100
AcDbEntity
  8
Ｓ_１_１
  6
CONTINUOUS
 62
     3
100
AcDbCircle
 10
1479.999996796266
 20
1004.999950975176
 30
0.0
 40
12.00000029802322
100
AcDbArc
 50
179.9999949910438
 51
270.0000043257111
  0
ARC
  5
1F7
330
1F
100
AcDbEntity
  8
Ｓ_１_１
  6
CONTINUOUS
 62
     3
100
AcDbCircle
 10
1479.999996796266
 20
1004.999950975176
 30
0.0
 40
27.99999910593035
100
AcDbArc
 50
179.9999949910438
 51
270.0000043257111
  0
ARC
  5
1F8
330
1F
100
AcDbEntity
  8
Ｓ_１_１
  6
CONTINUOUS
 62
     3
100
AcDbCircle
 10
1332.000121071948
 20
954.9999517202336
 30
0.0
 40
2.0
100
AcDbArc
 50
89.999995674289
 51
180.0000050089563
  0
ARC
  5
1F9
330
1F
100
AcDbEntity
  8
Ｓ_１_１
  6
CONTINUOUS
 62
     3
100
AcDbCircle
 10
1000.000003948823
 20
1004.999950975176
 30
0.0
 40
27.99999910593035
100
AcDbArc
 50
179.999991348578
 51
270.0000006832453
  0
ARC
  5
1FA
330
1F
100
AcDbEntity
  8
Ｓ_１_１
  6
CONTINUOUS
 62
     3
100
AcDbCircle
 10
1000.000003948823
 20
1004.999950975176
 30
0.0
 40
12.00000029802322
100
AcDbArc
 50
179.999991348578
 51
270.0000006832453
  0
ARC
  5
1FB
330
1F
100
AcDbEntity
  8
Ｓ_１_１
  6
CONTINUOUS
 62
     3
100
AcDbCircle
 10
1050.000003203765
 20
1004.999950975176
 30
0.0
 40
12.00000029802322
100
AcDbArc
 50
269.9999974955218
 51
0.0
  0
ARC
  5
1FC
330
1F
100
AcDbEntity
  8
Ｓ_１_１
  6
CONTINUOUS
 62
     3
100
AcDbCircle
 10
1050.000003203765
 20
1004.999950975176
 30
0.0
 40
27.99999910593035
100
AcDbArc
 50
269.9999974955218
 51
0.0
  0
ARC
  5
1FD
330
1F
100
AcDbEntity
  8
Ｓ_１_１
  6
CONTINUOUS
 62
     3
100
AcDbCircle
 10
1197.999878928082
 20
954.9999517202336
 30
0.0
 40
2.0
100
AcDbArc
 50
0.0
 51
90.00000250447819
  0
ARC
  5
1FE
330
1F
100
AcDbEntity
  8
Ｓ_１_１
  6
CONTINUOUS
 62
     3
100
AcDbCircle
 10
1332.000121071948
 20
954.9999517202336
 30
0.0
 40
2.0
100
AcDbArc
 50
90.00000250447819
 51
180.0000050089563
  0
LINE
  5
1FF
330
1F
100
AcDbEntity
  8
Ｓ_１_１
  6
CONTINUOUS
 62
     3
100
AcDbLine
 10
1601.23189733004
 20
364.9999837060932
 30
0.0
 11
1471.66937681473
 21
715.0000467235936
 31
0.0
  0
LINE
  5
200
330
1F
100
AcDbEntity
  8
Ｓ_１_１
  6
CONTINUOUS
 62
     3
100
AcDbLine
 10
1464.398351615377
 20
714.9999695020365
 30
0.0
 11
1593.96081915886
 21
365.0000495825767
 31
0.0
  0
LINE
  5
201
330
1F
100
AcDbEntity
  8
Ｓ_１_１
  6
CONTINUOUS
 62
     3
100
AcDbLine
 10
1436.682126348002
 20
715.0000315904563
 30
0.0
 11
1471.66930844384
 21
715.0000315904563
 31
0.0
  0
LINE
  5
202
330
1F
100
AcDbEntity
  8
Ｓ_１_１
  6
CONTINUOUS
 62
     3
100
AcDbLine
 10
1601.231989618673
 20
364.9999986588905
 30
0.0
 11
1601.231989618673
 21
314.9999994039486
 31
0.0
  0
LINE
  5
203
330
1F
100
AcDbEntity
  8
Ｓ_１_１
  6
CONTINUOUS
 62
     3
100
AcDbLine
 10
1593.960871562959
 20
364.9999986588905
 30
0.0
 11
1593.960871562959
 21
314.9999994039486
 31
0.0
  0
LINE
  5
204
330
1F
100
AcDbEntity
  8
Ｓ_１_１
  6
CONTINUOUS
 62
     3
100
AcDbLine
 10
1601.231989618673
 20
364.9999986588905
 30
0.0
 11
1593.960871562959
 21
364.9999986588905
 31
0.0
  0
LINE
  5
205
330
1F
100
AcDbEntity
  8
Ｓ_１_１
  6
CONTINUOUS
 62
     3
100
AcDbLine
 10
1436.682126348002
 20
715.0000315904563
 30
0.0
 11
1436.682126348002
 21
314.9999994039486
 31
0.0
  0
LINE
  5
206
330
1F
100
AcDbEntity
  8
Ｓ_１_１
  6
CONTINUOUS
 62
     3
100
AcDbLine
 10
1357.876170985852
 20
714.999950845167
 30
0.0
 11
1411.54275730411
 21
364.9999853021268
 31
0.0
  0
LINE
  5
207
330
1F
100
AcDbEntity
  8
Ｓ_１_１
  6
CONTINUOUS
 62
     3
100
AcDbLine
 10
1393.989194789361
 20
365.0000593654582
 30
0.0
 11
1340.322608471103
 21
715.0000249084987
 31
0.0
  0
LINE
  5
208
330
1F
100
AcDbEntity
  8
Ｓ_１_１
  6
CONTINUOUS
 62
     3
100
AcDbLine
 10
1411.542661390577
 20
364.9999986588905
 30
0.0
 11
1393.988950714648
 21
364.9999986588905
 31
0.0
  0
LINE
  5
209
330
1F
100
AcDbEntity
  8
Ｓ_１_１
  6
CONTINUOUS
 62
     3
100
AcDbLine
 10
1357.876280354331
 20
715.0000315904563
 30
0.0
 11
1328.841856958853
 21
715.0000315904563
 31
0.0
  0
LINE
  5
20A
330
1F
100
AcDbEntity
  8
Ｓ_１_１
  6
CONTINUOUS
 62
     3
100
AcDbLine
 10
1411.542661390577
 20
364.9999986588905
 30
0.0
 11
1411.542661390577
 21
314.9999994039486
 31
0.0
  0
LINE
  5
20B
330
1F
100
AcDbEntity
  8
Ｓ_１_１
  6
CONTINUOUS
 62
     3
100
AcDbLine
 10
1393.988950714648
 20
364.9999986588905
 30
0.0
 11
1393.988950714648
 21
314.9999994039486
 31
0.0
  0
LINE
  5
20C
330
1F
100
AcDbEntity
  8
Ｓ_１_１
  6
CONTINUOUS
 62
     3
100
AcDbLine
 10
1328.841856958853
 20
715.0000315904563
 30
0.0
 11
1328.841856958853
 21
314.9999994039486
 31
0.0
  0
LINE
  5
20D
330
1F
100
AcDbEntity
  8
Ｓ_１_１
  6
CONTINUOUS
 62
     3
100
AcDbLine
 10
928.7680947870401
 20
365.0000019332034
 30
0.0
 11
1058.330588816437
 21
714.9999934016832
 31
0.0
  0
LINE
  5
20E
330
1F
100
AcDbEntity
  8
Ｓ_１_１
  6
CONTINUOUS
 62
     3
100
AcDbLine
 10
1065.601627258745
 20
714.9999519546368
 30
0.0
 11
936.0391199863914
 21
364.9999247116466
 31
0.0
  0
LINE
  5
20F
330
1F
100
AcDbEntity
  8
Ｓ_１_１
  6
CONTINUOUS
 62
     3
100
AcDbLine
 10
928.7680103813551
 20
364.9999986588905
 30
0.0
 11
936.0391284370695
 21
364.9999986588905
 31
0.0
  0
LINE
  5
210
330
1F
100
AcDbEntity
  8
Ｓ_１_１
  6
CONTINUOUS
 62
     3
100
AcDbLine
 10
1093.317873652028
 20
715.0000315904563
 30
0.0
 11
1058.33069155619
 21
715.0000315904563
 31
0.0
  0
LINE
  5
211
330
1F
100
AcDbEntity
  8
Ｓ_１_１
  6
CONTINUOUS
 62
     3
100
AcDbLine
 10
928.7680103813551
 20
364.9999986588905
 30
0.0
 11
928.7680103813551
 21
314.9999994039486
 31
0.0
  0
LINE
  5
212
330
1F
100
AcDbEntity
  8
Ｓ_１_１
  6
CONTINUOUS
 62
     3
100
AcDbLine
 10
936.0391284370695
 20
364.9999986588905
 30
0.0
 11
936.0391284370695
 21
314.9999994039486
 31
0.0
  0
LINE
  5
213
330
1F
100
AcDbEntity
  8
Ｓ_１_１
  6
CONTINUOUS
 62
     3
100
AcDbLine
 10
1093.317873652028
 20
715.0000315904563
 30
0.0
 11
1093.317873652028
 21
314.9999994039486
 31
0.0
  0
LINE
  5
214
330
1F
100
AcDbEntity
  8
Ｓ_１_１
  6
CONTINUOUS
 62
     3
100
AcDbLine
 10
1172.123865366196
 20
715.000011715641
 30
0.0
 11
1118.457271459558
 21
364.9999966830952
 31
0.0
  0
LINE
  5
215
330
1F
100
AcDbEntity
  8
Ｓ_１_１
  6
CONTINUOUS
 62
     3
100
AcDbLine
 10
1136.01082494052
 20
365.0000118303483
 30
0.0
 11
1189.677416317699
 21
715.000010366392
 31
0.0
  0
LINE
  5
216
330
1F
100
AcDbEntity
  8
Ｓ_１_１
  6
CONTINUOUS
 62
     3
100
AcDbLine
 10
1118.457338609451
 20
364.9999986588905
 30
0.0
 11
1136.011049285381
 21
364.9999986588905
 31
0.0
  0
LINE
  5
217
330
1F
100
AcDbEntity
  8
Ｓ_１_１
  6
CONTINUOUS
 62
     3
100
AcDbLine
 10
1172.124024821475
 20
715.0000315904563
 30
0.0
 11
1201.158143041176
 21
715.0000315904563
 31
0.0
  0
LINE
  5
218
330
1F
100
AcDbEntity
  8
Ｓ_１_１
  6
CONTINUOUS
 62
     3
100
AcDbLine
 10
1118.457338609451
 20
364.9999986588905
 30
0.0
 11
1118.457338609451
 21
314.9999994039486
 31
0.0
  0
LINE
  5
219
330
1F
100
AcDbEntity
  8
Ｓ_１_１
  6
CONTINUOUS
 62
     3
100
AcDbLine
 10
1136.011049285381
 20
364.9999986588905
 30
0.0
 11
1136.011049285381
 21
314.9999994039486
 31
0.0
  0
LINE
  5
21A
330
1F
100
AcDbEntity
  8
Ｓ_１_１
  6
CONTINUOUS
 62
     3
100
AcDbLine
 10
1201.158143041176
 20
715.0000315904563
 30
0.0
 11
1201.158143041176
 21
314.9999994039486
 31
0.0
  0
LINE
  5
21B
330
1F
100
AcDbEntity
  8
Ｓ_１_１
  6
CONTINUOUS
 62
     3
100
AcDbLine
 10
1075.000002831236
 20
730.0000313669393
 30
0.0
 11
1454.999997168795
 21
730.0000313669393
 31
0.0
  0
LINE
  5
21C
330
1F
100
AcDbEntity
  8
Ｓ_１_１
  6
CONTINUOUS
 62
     3
100
AcDbLine
 10
1449.999875250222
 20
735.0001023303057
 30
0.0
 11
1454.999988465167
 21
729.9999891153625
 31
0.0
  0
LINE
  5
21D
330
1F
100
AcDbEntity
  8
Ｓ_１_１
  6
CONTINUOUS
 62
     3
100
AcDbLine
 10
1075.000015803895
 20
729.9999891153625
 30
0.0
 11
1080.000021122909
 21
734.9999944343749
 31
0.0
  0
LINE
  5
21E
330
1F
100
AcDbEntity
  8
Ｓ_１_１
  6
CONTINUOUS
 62
     3
100
AcDbLine
 10
1432.000028735266
 20
834.9999929187061
 30
0.0
 11
1425.000064447019
 21
828.0000286304598
 31
0.0
  0
LINE
  5
21F
330
1F
100
AcDbEntity
  8
Ｓ_１_１
  6
CONTINUOUS
 62
     3
100
AcDbLine
 10
1464.999999103192
 20
842.0000651028827
 30
0.0
 11
1458.000034814947
 21
835.0001008146369
 31
0.0
  0
LINE
  5
220
330
1F
100
AcDbEntity
  8
Ｓ_１_１
  6
CONTINUOUS
 62
     3
100
AcDbLine
 10
1464.999999103192
 20
867.9999632866343
 30
0.0
 11
1457.999926919015
 21
875.0000354708104
 31
0.0
  0
LINE
  5
221
330
1F
100
AcDbEntity
  8
Ｓ_１_１
  6
CONTINUOUS
 62
     3
100
AcDbLine
 10
1432.000028735266
 20
875.0000354708104
 30
0.0
 11
1424.999956551089
 21
882.0001076549875
 31
0.0
  0
LINE
  5
222
330
1F
100
AcDbEntity
  8
Ｓ_１_１
  6
CONTINUOUS
 62
     3
100
AcDbLine
 10
1437.000119507326
 20
835.0000298023174
 30
0.0
 11
1432.000119581832
 21
835.0000298023174
 31
0.0
  0
LINE
  5
223
330
1F
100
AcDbEntity
  8
Ｓ_１_１
  6
CONTINUOUS
 62
     3
100
AcDbLine
 10
1464.999997019783
 20
868.0000598281563
 30
0.0
 11
1464.999997019783
 21
841.9999991804311
 31
0.0
  0
LINE
  5
224
330
1F
100
AcDbEntity
  8
Ｓ_１_１
  6
CONTINUOUS
 62
     3
100
AcDbLine
 10
1457.99987505378
 20
875.0000292062709
 30
0.0
 11
1432.000119581832
 21
875.0000292062709
 31
0.0
  0
LINE
  5
225
330
1F
100
AcDbEntity
  8
Ｓ_１_１
  6
CONTINUOUS
 62
     3
100
AcDbLine
 10
1457.99987505378
 20
835.0000298023174
 30
0.0
 11
1452.999875128286
 21
835.0000298023174
 31
0.0
  0
LINE
  5
226
330
1F
100
AcDbEntity
  8
Ｓ_１_１
  6
CONTINUOUS
 62
     3
100
AcDbLine
 10
1432.000119581832
 20
875.0000292062709
 30
0.0
 11
1432.000119581832
 21
835.0000298023174
 31
0.0
  0
LINE
  5
227
330
1F
100
AcDbEntity
  8
Ｓ_１_１
  6
CONTINUOUS
 62
     3
100
AcDbLine
 10
1452.999875128286
 20
855.0000295042943
 30
0.0
 11
1452.999875128286
 21
755.0000309944103
 31
0.0
  0
LINE
  5
228
330
1F
100
AcDbEntity
  8
Ｓ_１_１
  6
CONTINUOUS
 62
     3
100
AcDbLine
 10
1437.000119507326
 20
855.0000295042943
 30
0.0
 11
1437.000119507326
 21
755.0000309944103
 31
0.0
  0
LINE
  5
229
330
1F
100
AcDbEntity
  8
Ｓ_１_１
  6
CONTINUOUS
 62
     3
100
AcDbLine
 10
1097.999975533797
 20
834.9999929187065
 30
0.0
 11
1105.000047717974
 21
827.9999207345295
 31
0.0
  0
LINE
  5
22A
330
1F
100
AcDbEntity
  8
Ｓ_１_１
  6
CONTINUOUS
 62
     3
100
AcDbLine
 10
1097.999975533797
 20
875.0000354708104
 30
0.0
 11
1104.999939822044
 21
881.9999997590567
 31
0.0
  0
LINE
  5
22B
330
1F
100
AcDbEntity
  8
Ｓ_１_１
  6
CONTINUOUS
 62
     3
100
AcDbLine
 10
1065.000005165871
 20
842.0000651028827
 30
0.0
 11
1072.000077350048
 21
834.9999929187065
 31
0.0
  0
LINE
  5
22C
330
1F
100
AcDbEntity
  8
Ｓ_１_１
  6
CONTINUOUS
 62
     3
100
AcDbLine
 10
1065.000005165871
 20
867.9999632866343
 30
0.0
 11
1072.000077350048
 21
875.0000354708104
 31
0.0
  0
LINE
  5
22D
330
1F
100
AcDbEntity
  8
Ｓ_１_１
  6
CONTINUOUS
 62
     3
100
AcDbLine
 10
1092.999880492704
 20
835.0000298023174
 30
0.0
 11
1097.999880418198
 21
835.0000298023174
 31
0.0
  0
LINE
  5
22E
330
1F
100
AcDbEntity
  8
Ｓ_１_１
  6
CONTINUOUS
 62
     3
100
AcDbLine
 10
1097.999880418198
 20
875.0000292062709
 30
0.0
 11
1097.999880418198
 21
835.0000298023174
 31
0.0
  0
LINE
  5
22F
330
1F
100
AcDbEntity
  8
Ｓ_１_１
  6
CONTINUOUS
 62
     3
100
AcDbLine
 10
1072.00012494625
 20
835.0000298023174
 30
0.0
 11
1077.000124871744
 21
835.0000298023174
 31
0.0
  0
LINE
  5
230
330
1F
100
AcDbEntity
  8
Ｓ_１_１
  6
CONTINUOUS
 62
     3
100
AcDbLine
 10
1072.00012494625
 20
875.0000292062709
 30
0.0
 11
1097.999880418198
 21
875.0000292062709
 31
0.0
  0
LINE
  5
231
330
1F
100
AcDbEntity
  8
Ｓ_１_１
  6
CONTINUOUS
 62
     3
100
AcDbLine
 10
1065.000002980247
 20
868.0000598281563
 30
0.0
 11
1065.000002980247
 21
841.9999991804311
 31
0.0
  0
LINE
  5
232
330
1F
100
AcDbEntity
  8
Ｓ_１_１
  6
CONTINUOUS
 62
     3
100
AcDbLine
 10
1077.000124871744
 20
855.0000295042943
 30
0.0
 11
1077.000124871744
 21
755.0000309944103
 31
0.0
  0
LINE
  5
233
330
1F
100
AcDbEntity
  8
Ｓ_１_１
  6
CONTINUOUS
 62
     3
100
AcDbLine
 10
1092.999880492704
 20
855.0000295042943
 30
0.0
 11
1092.999880492704
 21
755.0000309944103
 31
0.0
  0
LINE
  5
234
330
1F
100
AcDbEntity
  8
Ｓ_１_１
  6
CONTINUOUS
 62
     3
100
AcDbLine
 10
1105.000002384201
 20
932.9999825656369
 30
0.0
 11
1424.999997615829
 21
932.9999825656369
 31
0.0
  0
LINE
  5
235
330
1F
100
AcDbEntity
  8
Ｓ_１_１
  6
CONTINUOUS
 62
     3
100
AcDbLine
 10
1175.00000134112
 20
943.0000587105692
 30
0.0
 11
1354.999998658911
 21
943.0000587105692
 31
0.0
  0
LINE
  5
236
330
1F
100
AcDbEntity
  8
Ｓ_１_１
  6
CONTINUOUS
 62
     3
100
AcDbLine
 10
1175.000088359068
 20
943.0000128863771
 30
0.0
 11
1179.041531224343
 21
949.9999971392813
 31
0.0
  0
LINE
  5
237
330
1F
100
AcDbEntity
  8
Ｓ_１_１
  6
CONTINUOUS
 62
     3
100
AcDbLine
 10
1355.000046822218
 20
942.999947625699
 30
0.0
 11
1350.958603956944
 21
949.9999318786035
 31
0.0
  0
LINE
  5
238
330
1F
100
AcDbEntity
  8
Ｓ_１_１
  6
CONTINUOUS
 62
     3
100
AcDbLine
 10
1179.041444151991
 20
950.0000280886838
 30
0.0
 11
1350.958555848038
 21
950.0000280886838
 31
0.0
  0
LINE
  5
239
330
1F
100
AcDbEntity
  8
Ｓ_１_１
  6
CONTINUOUS
 62
     3
100
AcDbLine
 10
1175.00000134112
 20
943.0000587105692
 30
0.0
 11
1175.00000134112
 21
935.0000283122013
 31
0.0
  0
LINE
  5
23A
330
1F
100
AcDbEntity
  8
Ｓ_１_１
  6
CONTINUOUS
 62
     3
100
AcDbLine
 10
1354.999998658911
 20
943.0000587105692
 30
0.0
 11
1354.999998658911
 21
935.0000283122013
 31
0.0
  0
LINE
  5
23B
330
1F
100
AcDbEntity
  8
Ｓ_１_１
  6
CONTINUOUS
 62
     3
100
AcDbLine
 10
1364.999998509899
 20
958.9999669194181
 30
0.0
 11
1265.000000000015
 21
958.9999669194181
 31
0.0
  0
LINE
  5
23C
330
1F
100
AcDbEntity
  8
Ｓ_１_１
  6
CONTINUOUS
 62
     3
100
AcDbLine
 10
1469.258181780365
 20
999.6507925617966
 30
0.0
 11
1542.000020921377
 21
1033.882246557088
 31
0.0
  0
LINE
  5
23D
330
1F
100
AcDbEntity
  8
Ｓ_１_１
  6
CONTINUOUS
 62
     3
100
AcDbLine
 10
1468.087908995693
 20
1006.449218933541
 30
0.0
 11
1535.07807127288
 21
1039.999942816612
 31
0.0
  0
LINE
  5
23E
330
1F
100
AcDbEntity
  8
Ｓ_１_１
  6
CONTINUOUS
 62
     3
100
AcDbLine
 10
1468.000083746347
 20
1018.470212106274
 30
0.0
 11
1510.987927783705
 21
1039.999840287471
 31
0.0
  0
LINE
  5
23F
330
1F
100
AcDbEntity
  8
Ｓ_１_１
  6
CONTINUOUS
 62
     3
100
AcDbLine
 10
1385.000116999906
 20
959.9999382209644
 30
0.0
 11
1454.779646912988
 21
992.8373643328099
 31
0.0
  0
LINE
  5
240
330
1F
100
AcDbEntity
  8
Ｓ_１_１
  6
CONTINUOUS
 62
     3
100
AcDbLine
 10
1375.343321109677
 20
959.9999516457278
 30
0.0
 11
1384.999998211876
 21
959.9999516457278
 31
0.0
  0
LINE
  5
241
330
1F
100
AcDbEntity
  8
Ｓ_１_１
  6
CONTINUOUS
 62
     3
100
AcDbLine
 10
1365.000000618863
 20
958.999930617555
 30
0.0
 11
1363.000041649628
 21
956.9999716483221
 31
0.0
  0
LINE
  5
242
330
1F
100
AcDbEntity
  8
Ｓ_１_１
  6
CONTINUOUS
 62
     3
100
AcDbLine
 10
1334.870299251834
 20
959.9999516457278
 30
0.0
 11
1375.343321109677
 21
959.9999516457278
 31
0.0
  0
LINE
  5
243
330
1F
100
AcDbEntity
  8
Ｓ_１_１
  6
CONTINUOUS
 62
     3
100
AcDbLine
 10
1535.078120975536
 20
1039.999950453635
 30
0.0
 11
1510.987850338416
 21
1039.999950453635
 31
0.0
  0
LINE
  5
244
330
1F
100
AcDbEntity
  8
Ｓ_１_１
  6
CONTINUOUS
 62
     3
100
AcDbLine
 10
1535.078120975536
 20
1059.999950155612
 30
0.0
 11
1535.078120975536
 21
1039.999950453635
 31
0.0
  0
LINE
  5
245
330
1F
100
AcDbEntity
  8
Ｓ_１_１
  6
CONTINUOUS
 62
     3
100
AcDbLine
 10
1510.987850338416
 20
1059.999950155612
 30
0.0
 11
1510.987850338416
 21
1039.999950453635
 31
0.0
  0
LINE
  5
246
330
1F
100
AcDbEntity
  8
Ｓ_１_１
  6
CONTINUOUS
 62
     3
100
AcDbLine
 10
1351.253207304803
 20
959.9998026826638
 30
0.0
 11
1452.000129976092
 21
1010.45694548861
 31
0.0
  0
LINE
  5
247
330
1F
100
AcDbEntity
  8
Ｓ_１_１
  6
CONTINUOUS
 62
     3
100
AcDbLine
 10
1375.343487227375
 20
959.999973541826
 30
0.0
 11
1452.707362847968
 21
998.7461706137306
 31
0.0
  0
LINE
  5
248
330
1F
100
AcDbEntity
  8
Ｓ_１_１
  6
CONTINUOUS
 62
     3
100
AcDbLine
 10
1325.77591615801
 20
959.9999924911003
 30
0.0
 11
1351.427414084745
 21
1039.999969062246
 31
0.0
  0
LINE
  5
249
330
1F
100
AcDbEntity
  8
Ｓ_１_１
  6
CONTINUOUS
 62
     3
100
AcDbLine
 10
1286.308811312735
 20
960.000003006619
 30
0.0
 11
1311.960309239469
 21
1039.999979577764
 31
0.0
  0
LINE
  5
24A
330
1F
100
AcDbEntity
  8
Ｓ_１_１
  6
CONTINUOUS
 62
     3
100
AcDbLine
 10
1351.427611016831
 20
1039.999950453635
 30
0.0
 11
1311.960448519
 21
1039.999950453635
 31
0.0
  0
LINE
  5
24B
330
1F
100
AcDbEntity
  8
Ｓ_１_１
  6
CONTINUOUS
 62
     3
100
AcDbLine
 10
1351.427611016831
 20
1059.999950155612
 30
0.0
 11
1351.427611016831
 21
1039.999950453635
 31
0.0
  0
LINE
  5
24C
330
1F
100
AcDbEntity
  8
Ｓ_１_１
  6
CONTINUOUS
 62
     3
100
AcDbLine
 10
1311.960448519
 20
1059.999950155612
 30
0.0
 11
1311.960448519
 21
1039.999950453635
 31
0.0
  0
LINE
  5
24D
330
1F
100
AcDbEntity
  8
Ｓ_１_１
  6
CONTINUOUS
 62
     3
100
AcDbLine
 10
1334.870299251834
 20
988.3620728051305
 30
0.0
 11
1334.870299251834
 21
959.9999516457278
 31
0.0
  0
LINE
  5
24E
330
1F
100
AcDbEntity
  8
Ｓ_１_１
  6
CONTINUOUS
 62
     3
100
AcDbLine
 10
1325.776061106099
 20
959.9999516457278
 30
0.0
 11
1279.468383573482
 21
959.9999516457278
 31
0.0
  0
LINE
  5
24F
330
1F
100
AcDbEntity
  8
Ｓ_１_１
  6
CONTINUOUS
 62
     3
100
AcDbLine
 10
1279.468383573482
 20
1059.999950155612
 30
0.0
 11
1279.468383573482
 21
959.9999516457278
 31
0.0
  0
LINE
  5
250
330
1F
100
AcDbEntity
  8
Ｓ_１_１
  6
CONTINUOUS
 62
     3
100
AcDbLine
 10
1472.999942876055
 20
1060.000016482433
 30
0.0
 11
1467.999937557043
 21
1055.000011163419
 31
0.0
  0
LINE
  5
251
330
1F
100
AcDbEntity
  8
Ｓ_１_１
  6
CONTINUOUS
 62
     3
100
AcDbLine
 10
1563.00014651422
 20
1059.999908586502
 30
0.0
 11
1558.000141195208
 21
1054.999903267489
 31
0.0
  0
LINE
  5
252
330
1F
100
AcDbEntity
  8
Ｓ_１_１
  6
CONTINUOUS
 62
     3
100
AcDbLine
 10
1558.00017873944
 20
1054.999950230118
 30
0.0
 11
1542.000117942703
 21
1054.999950230118
 31
0.0
  0
LINE
  5
253
330
1F
100
AcDbEntity
  8
Ｓ_１_１
  6
CONTINUOUS
 62
     3
100
AcDbLine
 10
1542.000037857621
 20
1054.999903267489
 30
0.0
 11
1536.999924642678
 21
1060.000016482433
 31
0.0
  0
LINE
  5
254
330
1F
100
AcDbEntity
  8
Ｓ_１_１
  6
CONTINUOUS
 62
     3
100
AcDbLine
 10
1452.000157907248
 20
1054.999903267489
 30
0.0
 11
1447.000044692304
 21
1060.000016482433
 31
0.0
  0
LINE
  5
255
330
1F
100
AcDbEntity
  8
Ｓ_１_１
  6
CONTINUOUS
 62
     3
100
AcDbLine
 10
1468.000180080544
 20
1054.999950230118
 30
0.0
 11
1452.000119283809
 21
1054.999950230118
 31
0.0
  0
LINE
  5
256
330
1F
100
AcDbEntity
  8
Ｓ_１_１
  6
CONTINUOUS
 62
     3
100
AcDbLine
 10
1542.000117942703
 20
1054.999950230118
 30
0.0
 11
1542.000117942703
 21
1004.999950975176
 31
0.0
  0
LINE
  5
257
330
1F
100
AcDbEntity
  8
Ｓ_１_１
  6
CONTINUOUS
 62
     3
100
AcDbLine
 10
1558.00017873944
 20
1054.999950230118
 30
0.0
 11
1558.00017873944
 21
1004.999950975176
 31
0.0
  0
LINE
  5
258
330
1F
100
AcDbEntity
  8
Ｓ_１_１
  6
CONTINUOUS
 62
     3
100
AcDbLine
 10
1529.999996051207
 20
976.9999208748304
 30
0.0
 11
1479.999996796266
 21
976.9999208748304
 31
0.0
  0
LINE
  5
259
330
1F
100
AcDbEntity
  8
Ｓ_１_１
  6
CONTINUOUS
 62
     3
100
AcDbLine
 10
1529.999996051207
 20
992.9999816715672
 30
0.0
 11
1479.999996796266
 21
992.9999816715672
 31
0.0
  0
LINE
  5
25A
330
1F
100
AcDbEntity
  8
Ｓ_１_１
  6
CONTINUOUS
 62
     3
100
AcDbLine
 10
1468.000180080544
 20
1054.999950230118
 30
0.0
 11
1468.000180080544
 21
1004.999950975176
 31
0.0
  0
LINE
  5
25B
330
1F
100
AcDbEntity
  8
Ｓ_１_１
  6
CONTINUOUS
 62
     3
100
AcDbLine
 10
1452.000119283809
 20
1054.999950230118
 30
0.0
 11
1452.000119283809
 21
1004.999950975176
 31
0.0
  0
LINE
  5
25C
330
1F
100
AcDbEntity
  8
Ｓ_１_１
  6
CONTINUOUS
 62
     3
100
AcDbLine
 10
1329.99999903144
 20
949.9999517947394
 30
0.0
 11
1329.99999903144
 21
954.9999517202336
 31
0.0
  0
LINE
  5
25D
330
1F
100
AcDbEntity
  8
Ｓ_１_１
  6
CONTINUOUS
 62
     3
100
AcDbLine
 10
1363.000181645166
 20
956.9999211728536
 30
0.0
 11
1265.000000000015
 21
956.9999211728536
 31
0.0
  0
LINE
  5
25E
330
1F
100
AcDbEntity
  8
Ｓ_１_１
  6
CONTINUOUS
 62
     3
100
AcDbLine
 10
1364.999998509899
 20
959.9999516457278
 30
0.0
 11
1364.999998509899
 21
958.9999669194181
 31
0.0
  0
LINE
  5
25F
330
1F
100
AcDbEntity
  8
Ｓ_１_１
  6
CONTINUOUS
 62
     3
100
AcDbLine
 10
1165.000001490131
 20
958.9999669194181
 30
0.0
 11
1265.000000000015
 21
958.9999669194181
 31
0.0
  0
LINE
  5
260
330
1F
100
AcDbEntity
  8
Ｓ_１_１
  6
CONTINUOUS
 62
     3
100
AcDbLine
 10
1060.741922155282
 20
999.6508069773417
 30
0.0
 11
987.9999449498961
 21
1033.882325944104
 31
0.0
  0
LINE
  5
261
330
1F
100
AcDbEntity
  8
Ｓ_１_１
  6
CONTINUOUS
 62
     3
100
AcDbLine
 10
1061.91217499638
 20
1006.44918487902
 30
0.0
 11
994.9220127191945
 21
1039.99990876209
 31
0.0
  0
LINE
  5
262
330
1F
100
AcDbEntity
  8
Ｓ_１_１
  6
CONTINUOUS
 62
     3
100
AcDbLine
 10
1062.000068575748
 20
1018.47031448515
 30
0.0
 11
1019.012088104994
 21
1040.000010996369
 31
0.0
  0
LINE
  5
263
330
1F
100
AcDbEntity
  8
Ｓ_１_１
  6
CONTINUOUS
 62
     3
100
AcDbLine
 10
1144.999848871367
 20
960.0000176079802
 30
0.0
 11
1075.220457022658
 21
992.8373787483547
 31
0.0
  0
LINE
  5
264
330
1F
100
AcDbEntity
  8
Ｓ_１_１
  6
CONTINUOUS
 62
     3
100
AcDbLine
 10
1154.656678890352
 20
959.9999516457278
 30
0.0
 11
1145.000001788155
 21
959.9999516457278
 31
0.0
  0
LINE
  5
265
330
1F
100
AcDbEntity
  8
Ｓ_１_１
  6
CONTINUOUS
 62
     3
100
AcDbLine
 10
1164.99989575427
 20
959.0000385134858
 30
0.0
 11
1167.000070515364
 21
956.9998637523918
 31
0.0
  0
LINE
  5
266
330
1F
100
AcDbEntity
  8
Ｓ_１_１
  6
CONTINUOUS
 62
     3
100
AcDbLine
 10
1154.656596764697
 20
959.9999394873053
 30
0.0
 11
1077.292584710709
 21
998.7462048892312
 31
0.0
  0
LINE
  5
267
330
1F
100
AcDbEntity
  8
Ｓ_１_１
  6
CONTINUOUS
 62
     3
100
AcDbLine
 10
1178.746945017292
 20
959.9999050615402
 30
0.0
 11
1077.999885912606
 21
1010.457116197508
 31
0.0
  0
LINE
  5
268
330
1F
100
AcDbEntity
  8
Ｓ_１_１
  6
CONTINUOUS
 62
     3
100
AcDbLine
 10
1195.130005923972
 20
959.9999516457278
 30
0.0
 11
1154.656678890352
 21
959.9999516457278
 31
0.0
  0
LINE
  5
269
330
1F
100
AcDbEntity
  8
Ｓ_１_１
  6
CONTINUOUS
 62
     3
100
AcDbLine
 10
994.9218790244929
 20
1039.999950453635
 30
0.0
 11
1019.012149661613
 21
1039.999950453635
 31
0.0
  0
LINE
  5
26A
330
1F
100
AcDbEntity
  8
Ｓ_１_１
  6
CONTINUOUS
 62
     3
100
AcDbLine
 10
994.9218790244929
 20
1059.999950155612
 30
0.0
 11
994.9218790244929
 21
1039.999950453635
 31
0.0
  0
LINE
  5
26B
330
1F
100
AcDbEntity
  8
Ｓ_１_１
  6
CONTINUOUS
 62
     3
100
AcDbLine
 10
1019.012149661613
 20
1059.999950155612
 30
0.0
 11
1019.012149661613
 21
1039.999950453635
 31
0.0
  0
LINE
  5
26C
330
1F
100
AcDbEntity
  8
Ｓ_１_１
  6
CONTINUOUS
 62
     3
100
AcDbLine
 10
1195.130005923972
 20
988.3620728051305
 30
0.0
 11
1195.130005923972
 21
959.9999516457278
 31
0.0
  0
LINE
  5
26D
330
1F
100
AcDbEntity
  8
Ｓ_１_１
  6
CONTINUOUS
 62
     3
100
AcDbLine
 10
1204.22394255092
 20
959.9998648235437
 30
0.0
 11
1178.572409681736
 21
1039.999950370597
 31
0.0
  0
LINE
  5
26E
330
1F
100
AcDbEntity
  8
Ｓ_１_１
  6
CONTINUOUS
 62
     3
100
AcDbLine
 10
1243.69102410123
 20
959.9999479896678
 30
0.0
 11
1218.039537821979
 21
1039.999888235511
 31
0.0
  0
LINE
  5
26F
330
1F
100
AcDbEntity
  8
Ｓ_１_１
  6
CONTINUOUS
 62
     3
100
AcDbLine
 10
1178.5723889832
 20
1039.999950453635
 30
0.0
 11
1218.03955148103
 21
1039.999950453635
 31
0.0
  0
LINE
  5
270
330
1F
100
AcDbEntity
  8
Ｓ_１_１
  6
CONTINUOUS
 62
     3
100
AcDbLine
 10
1178.5723889832
 20
1059.999950155612
 30
0.0
 11
1178.5723889832
 21
1039.999950453635
 31
0.0
  0
LINE
  5
271
330
1F
100
AcDbEntity
  8
Ｓ_１_１
  6
CONTINUOUS
 62
     3
100
AcDbLine
 10
1218.03955148103
 20
1059.999950155612
 30
0.0
 11
1218.03955148103
 21
1039.999950453635
 31
0.0
  0
LINE
  5
272
330
1F
100
AcDbEntity
  8
Ｓ_１_１
  6
CONTINUOUS
 62
     3
100
AcDbLine
 10
1204.22393889393
 20
959.9999516457278
 30
0.0
 11
1250.531616426548
 21
959.9999516457278
 31
0.0
  0
LINE
  5
273
330
1F
100
AcDbEntity
  8
Ｓ_１_１
  6
CONTINUOUS
 62
     3
100
AcDbLine
 10
1250.531616426548
 20
1059.999950155612
 30
0.0
 11
1250.531616426548
 21
959.9999516457278
 31
0.0
  0
LINE
  5
274
330
1F
100
AcDbEntity
  8
Ｓ_１_１
  6
CONTINUOUS
 62
     3
100
AcDbLine
 10
1057.000061393007
 20
1059.999800690572
 30
0.0
 11
1061.99995881609
 21
1054.99990326749
 31
0.0
  0
LINE
  5
275
330
1F
100
AcDbEntity
  8
Ｓ_１_１
  6
CONTINUOUS
 62
     3
100
AcDbLine
 10
966.9999656507723
 20
1060.000016482433
 30
0.0
 11
972.000078865716
 21
1054.999903267489
 31
0.0
  0
LINE
  5
276
330
1F
100
AcDbEntity
  8
Ｓ_１_１
  6
CONTINUOUS
 62
     3
100
AcDbLine
 10
987.9998585155106
 20
1055.00001116342
 30
0.0
 11
992.999863834523
 21
1060.000016482433
 31
0.0
  0
LINE
  5
277
330
1F
100
AcDbEntity
  8
Ｓ_１_１
  6
CONTINUOUS
 62
     3
100
AcDbLine
 10
1078.000062153677
 20
1054.99990326749
 30
0.0
 11
1083.000067472689
 21
1059.999908586502
 31
0.0
  0
LINE
  5
278
330
1F
100
AcDbEntity
  8
Ｓ_１_１
  6
CONTINUOUS
 62
     3
100
AcDbLine
 10
972.0001264363643
 20
1054.999950230118
 30
0.0
 11
987.9998820573262
 21
1054.999950230118
 31
0.0
  0
LINE
  5
279
330
1F
100
AcDbEntity
  8
Ｓ_１_１
  6
CONTINUOUS
 62
     3
100
AcDbLine
 10
1062.000125095262
 20
1054.999950230118
 30
0.0
 11
1077.999880716222
 21
1054.999950230118
 31
0.0
  0
LINE
  5
27A
330
1F
100
AcDbEntity
  8
Ｓ_１_１
  6
CONTINUOUS
 62
     3
100
AcDbLine
 10
987.9998820573262
 20
1054.999950230118
 30
0.0
 11
987.9998820573262
 21
1004.999950975176
 31
0.0
  0
LINE
  5
27B
330
1F
100
AcDbEntity
  8
Ｓ_１_１
  6
CONTINUOUS
 62
     3
100
AcDbLine
 10
972.0001264363643
 20
1054.999950230118
 30
0.0
 11
972.0001264363643
 21
1004.999950975176
 31
0.0
  0
LINE
  5
27C
330
1F
100
AcDbEntity
  8
Ｓ_１_１
  6
CONTINUOUS
 62
     3
100
AcDbLine
 10
1000.000003948823
 20
976.9999208748304
 30
0.0
 11
1050.000003203765
 21
976.9999208748304
 31
0.0
  0
LINE
  5
27D
330
1F
100
AcDbEntity
  8
Ｓ_１_１
  6
CONTINUOUS
 62
     3
100
AcDbLine
 10
1000.000003948823
 20
992.9999816715672
 30
0.0
 11
1050.000003203765
 21
992.9999816715672
 31
0.0
  0
LINE
  5
27E
330
1F
100
AcDbEntity
  8
Ｓ_１_１
  6
CONTINUOUS
 62
     3
100
AcDbLine
 10
1077.999880716222
 20
1054.999950230118
 30
0.0
 11
1077.999880716222
 21
1004.999950975176
 31
0.0
  0
LINE
  5
27F
330
1F
100
AcDbEntity
  8
Ｓ_１_１
  6
CONTINUOUS
 62
     3
100
AcDbLine
 10
1062.000125095262
 20
1054.999950230118
 30
0.0
 11
1062.000125095262
 21
1004.999950975176
 31
0.0
  0
LINE
  5
280
330
1F
100
AcDbEntity
  8
Ｓ_１_１
  6
CONTINUOUS
 62
     3
100
AcDbLine
 10
1200.000000968591
 20
949.9999517947394
 30
0.0
 11
1200.000000968591
 21
954.9999517202336
 31
0.0
  0
LINE
  5
281
330
1F
100
AcDbEntity
  8
Ｓ_１_１
  6
CONTINUOUS
 62
     3
100
AcDbLine
 10
1167.00012353064
 20
956.9999211728536
 30
0.0
 11
1265.000000000015
 21
956.9999211728536
 31
0.0
  0
LINE
  5
282
330
1F
100
AcDbEntity
  8
Ｓ_１_１
  6
CONTINUOUS
 62
     3
100
AcDbLine
 10
1165.000001490131
 20
959.9999516457278
 30
0.0
 11
1165.000001490131
 21
958.9999669194181
 31
0.0
  0
LINE
  5
283
330
1F
100
AcDbEntity
  8
Ｓ_１_１
  6
CONTINUOUS
 62
     3
100
AcDbLine
 10
1423.000321269647
 20
934.9997756111757
 30
0.0
 11
1425.00028023888
 21
932.9998166419423
 31
0.0
  0
LINE
  5
284
330
1F
100
AcDbEntity
  8
Ｓ_１_１
  6
CONTINUOUS
 62
     3
100
AcDbLine
 10
1105.000155613906
 20
933.0000324338039
 30
0.0
 11
1107.000114583138
 21
934.9999914030373
 31
0.0
  0
LINE
  5
285
330
1F
100
AcDbEntity
  8
Ｓ_１_１
  6
CONTINUOUS
 62
     3
100
AcDbLine
 10
1105.000002384201
 20
932.9999825656369
 30
0.0
 11
1105.000002384201
 21
735.0000312924335
 31
0.0
  0
LINE
  5
286
330
1F
100
AcDbEntity
  8
Ｓ_１_１
  6
CONTINUOUS
 62
     3
100
AcDbLine
 10
1424.999997615829
 20
932.9999825656369
 30
0.0
 11
1424.999997615829
 21
735.0000312924335
 31
0.0
  0
LINE
  5
287
330
1F
100
AcDbEntity
  8
Ｓ_１_１
  6
CONTINUOUS
 62
     3
100
AcDbLine
 10
1107.000124424709
 20
935.0000283122013
 30
0.0
 11
1423.000180751097
 21
935.0000283122013
 31
0.0
  0
LINE
  5
288
330
1F
100
AcDbEntity
  8
Ｓ_１_１
  6
CONTINUOUS
 62
     3
100
AcDbLine
 10
1075.000002831236
 20
730.0000313669393
 30
0.0
 11
1075.000002831236
 21
715.0000315904563
 31
0.0
  0
LINE
  5
289
330
1F
100
AcDbEntity
  8
Ｓ_１_１
  6
CONTINUOUS
 62
     3
100
AcDbLine
 10
1454.999997168795
 20
730.0000313669393
 30
0.0
 11
1454.999997168795
 21
715.0000315904563
 31
0.0
  0
LINE
  5
28A
330
1F
100
AcDbEntity
  8
Ｓ_１_１
  6
CONTINUOUS
 62
     3
100
AcDbLine
 10
1080.00000275673
 20
735.0000312924335
 30
0.0
 11
1449.9999972433
 21
735.0000312924335
 31
0.0
  0
LINE
  5
28B
330
1F
100
AcDbEntity
  8
Ｓ_１_１
  6
CONTINUOUS
 62
     3
100
AcDbLine
 10
915.0000052154198
 20
314.9999994039486
 30
0.0
 11
1614.999994784608
 21
314.9999994039486
 31
0.0
  0
LINE
  5
28C
330
1F
100
AcDbEntity
  8
Ｓ_１_１
  6
CONTINUOUS
 62
     3
100
AcDbLine
 10
915.0000052154198
 20
314.9999994039486
 30
0.0
 11
915.0000052154198
 21
274.9999999999951
 31
0.0
  0
LINE
  5
28D
330
1F
100
AcDbEntity
  8
Ｓ_１_１
  6
CONTINUOUS
 62
     3
100
AcDbLine
 10
1614.999994784608
 20
314.9999994039486
 30
0.0
 11
1614.999994784608
 21
274.9999999999951
 31
0.0
  0
LINE
  5
28E
330
1F
100
AcDbEntity
  8
Ｓ_１_１
  6
CONTINUOUS
 62
     3
100
AcDbLine
 10
915.0000052154198
 20
274.9999999999951
 30
0.0
 11
1614.999994784608
 21
274.9999999999951
 31
0.0
  0
LINE
  5
28F
330
1F
100
AcDbEntity
  8
Ｓ_１_１
  6
CONTINUOUS
 62
     3
100
AcDbLine
 10
2609.999997168795
 20
730.0000313669393
 30
0.0
 11
2609.999997168795
 21
715.0000315904563
 31
0.0
  0
LINE
  5
290
330
1F
100
AcDbEntity
  8
Ｓ_１_１
  6
CONTINUOUS
 62
     3
100
AcDbLine
 10
2756.23189733004
 20
364.9999837060932
 30
0.0
 11
2626.669376814729
 21
715.0000467235936
 31
0.0
  0
LINE
  5
291
330
1F
100
AcDbEntity
  8
Ｓ_１_１
  6
CONTINUOUS
 62
     3
100
AcDbLine
 10
2619.398351615378
 20
714.9999695020365
 30
0.0
 11
2748.96081915886
 21
365.0000495825767
 31
0.0
  0
LINE
  5
292
330
1F
100
AcDbEntity
  8
Ｓ_１_１
  6
CONTINUOUS
 62
     3
100
AcDbLine
 10
2591.682126348002
 20
715.0000315904563
 30
0.0
 11
2626.66930844384
 21
715.0000315904563
 31
0.0
  0
LINE
  5
293
330
1F
100
AcDbEntity
  8
Ｓ_１_１
  6
CONTINUOUS
 62
     3
100
AcDbLine
 10
2756.231989618674
 20
364.9999986588905
 30
0.0
 11
2756.231989618674
 21
314.9999994039486
 31
0.0
  0
LINE
  5
294
330
1F
100
AcDbEntity
  8
Ｓ_１_１
  6
CONTINUOUS
 62
     3
100
AcDbLine
 10
2748.960871562959
 20
364.9999986588905
 30
0.0
 11
2748.960871562959
 21
314.9999994039486
 31
0.0
  0
LINE
  5
295
330
1F
100
AcDbEntity
  8
Ｓ_１_１
  6
CONTINUOUS
 62
     3
100
AcDbLine
 10
2756.231989618674
 20
364.9999986588905
 30
0.0
 11
2748.960871562959
 21
364.9999986588905
 31
0.0
  0
LINE
  5
296
330
1F
100
AcDbEntity
  8
Ｓ_１_１
  6
CONTINUOUS
 62
     3
100
AcDbLine
 10
2591.682126348002
 20
715.0000315904563
 30
0.0
 11
2591.682126348002
 21
314.9999994039486
 31
0.0
  0
LINE
  5
297
330
1F
100
AcDbEntity
  8
Ｓ_１_１
  6
CONTINUOUS
 62
     3
100
AcDbLine
 10
2512.876170985853
 20
714.999950845167
 30
0.0
 11
2566.54275730411
 21
364.9999853021268
 31
0.0
  0
LINE
  5
298
330
1F
100
AcDbEntity
  8
Ｓ_１_１
  6
CONTINUOUS
 62
     3
100
AcDbLine
 10
2548.989194789362
 20
365.0000593654582
 30
0.0
 11
2495.322608471103
 21
715.0000249084987
 31
0.0
  0
LINE
  5
299
330
1F
100
AcDbEntity
  8
Ｓ_１_１
  6
CONTINUOUS
 62
     3
100
AcDbLine
 10
2566.542661390577
 20
364.9999986588905
 30
0.0
 11
2548.988950714648
 21
364.9999986588905
 31
0.0
  0
LINE
  5
29A
330
1F
100
AcDbEntity
  8
Ｓ_１_１
  6
CONTINUOUS
 62
     3
100
AcDbLine
 10
2512.876280354331
 20
715.0000315904563
 30
0.0
 11
2483.841856958853
 21
715.0000315904563
 31
0.0
  0
LINE
  5
29B
330
1F
100
AcDbEntity
  8
Ｓ_１_１
  6
CONTINUOUS
 62
     3
100
AcDbLine
 10
2566.542661390577
 20
364.9999986588905
 30
0.0
 11
2566.542661390577
 21
314.9999994039486
 31
0.0
  0
LINE
  5
29C
330
1F
100
AcDbEntity
  8
Ｓ_１_１
  6
CONTINUOUS
 62
     3
100
AcDbLine
 10
2548.988950714648
 20
364.9999986588905
 30
0.0
 11
2548.988950714648
 21
314.9999994039486
 31
0.0
  0
LINE
  5
29D
330
1F
100
AcDbEntity
  8
Ｓ_１_１
  6
CONTINUOUS
 62
     3
100
AcDbLine
 10
2483.841856958853
 20
715.0000315904563
 30
0.0
 11
2483.841856958853
 21
314.9999994039486
 31
0.0
  0
LINE
  5
29E
330
1F
100
AcDbEntity
  8
Ｓ_１_１
  6
CONTINUOUS
 62
     3
100
AcDbLine
 10
2083.76809478704
 20
365.0000019332034
 30
0.0
 11
2213.330588816437
 21
714.9999934016832
 31
0.0
  0
LINE
  5
29F
330
1F
100
AcDbEntity
  8
Ｓ_１_１
  6
CONTINUOUS
 62
     3
100
AcDbLine
 10
2220.601627258745
 20
714.9999519546368
 30
0.0
 11
2091.039119986392
 21
364.9999247116466
 31
0.0
  0
LINE
  5
2A0
330
1F
100
AcDbEntity
  8
Ｓ_１_１
  6
CONTINUOUS
 62
     3
100
AcDbLine
 10
2083.768010381355
 20
364.9999986588905
 30
0.0
 11
2091.03912843707
 21
364.9999986588905
 31
0.0
  0
LINE
  5
2A1
330
1F
100
AcDbEntity
  8
Ｓ_１_１
  6
CONTINUOUS
 62
     3
100
AcDbLine
 10
2248.317873652029
 20
715.0000315904563
 30
0.0
 11
2213.330691556191
 21
715.0000315904563
 31
0.0
  0
LINE
  5
2A2
330
1F
100
AcDbEntity
  8
Ｓ_１_１
  6
CONTINUOUS
 62
     3
100
AcDbLine
 10
2083.768010381355
 20
364.9999986588905
 30
0.0
 11
2083.768010381355
 21
314.9999994039486
 31
0.0
  0
LINE
  5
2A3
330
1F
100
AcDbEntity
  8
Ｓ_１_１
  6
CONTINUOUS
 62
     3
100
AcDbLine
 10
2091.03912843707
 20
364.9999986588905
 30
0.0
 11
2091.03912843707
 21
314.9999994039486
 31
0.0
  0
LINE
  5
2A4
330
1F
100
AcDbEntity
  8
Ｓ_１_１
  6
CONTINUOUS
 62
     3
100
AcDbLine
 10
2248.317873652029
 20
715.0000315904563
 30
0.0
 11
2248.317873652029
 21
314.9999994039486
 31
0.0
  0
LINE
  5
2A5
330
1F
100
AcDbEntity
  8
Ｓ_１_１
  6
CONTINUOUS
 62
     3
100
AcDbLine
 10
2327.123865366196
 20
715.000011715641
 30
0.0
 11
2273.457271459558
 21
364.9999966830952
 31
0.0
  0
LINE
  5
2A6
330
1F
100
AcDbEntity
  8
Ｓ_１_１
  6
CONTINUOUS
 62
     3
100
AcDbLine
 10
2291.01082494052
 20
365.0000118303483
 30
0.0
 11
2344.677416317699
 21
715.000010366392
 31
0.0
  0
LINE
  5
2A7
330
1F
100
AcDbEntity
  8
Ｓ_１_１
  6
CONTINUOUS
 62
     3
100
AcDbLine
 10
2273.457338609452
 20
364.9999986588905
 30
0.0
 11
2291.011049285381
 21
364.9999986588905
 31
0.0
  0
LINE
  5
2A8
330
1F
100
AcDbEntity
  8
Ｓ_１_１
  6
CONTINUOUS
 62
     3
100
AcDbLine
 10
2327.124024821475
 20
715.0000315904563
 30
0.0
 11
2356.158143041176
 21
715.0000315904563
 31
0.0
  0
LINE
  5
2A9
330
1F
100
AcDbEntity
  8
Ｓ_１_１
  6
CONTINUOUS
 62
     3
100
AcDbLine
 10
2273.457338609452
 20
364.9999986588905
 30
0.0
 11
2273.457338609452
 21
314.9999994039486
 31
0.0
  0
LINE
  5
2AA
330
1F
100
AcDbEntity
  8
Ｓ_１_１
  6
CONTINUOUS
 62
     3
100
AcDbLine
 10
2291.011049285381
 20
364.9999986588905
 30
0.0
 11
2291.011049285381
 21
314.9999994039486
 31
0.0
  0
LINE
  5
2AB
330
1F
100
AcDbEntity
  8
Ｓ_１_１
  6
CONTINUOUS
 62
     3
100
AcDbLine
 10
2356.158143041176
 20
715.0000315904563
 30
0.0
 11
2356.158143041176
 21
314.9999994039486
 31
0.0
  0
LINE
  5
2AC
330
1F
100
AcDbEntity
  8
Ｓ_１_１
  6
CONTINUOUS
 62
     3
100
AcDbLine
 10
2230.000002831236
 20
730.0000313669393
 30
0.0
 11
2609.999997168795
 21
730.0000313669393
 31
0.0
  0
LINE
  5
2AD
330
1F
100
AcDbEntity
  8
Ｓ_１_１
  6
CONTINUOUS
 62
     3
100
AcDbLine
 10
2604.999875250222
 20
735.0001023303057
 30
0.0
 11
2609.999988465167
 21
729.9999891153625
 31
0.0
  0
LINE
  5
2AE
330
1F
100
AcDbEntity
  8
Ｓ_１_１
  6
CONTINUOUS
 62
     3
100
AcDbLine
 10
2230.000015803896
 20
729.9999891153625
 30
0.0
 11
2235.000021122909
 21
734.9999944343749
 31
0.0
  0
LINE
  5
2AF
330
1F
100
AcDbEntity
  8
Ｓ_１_１
  6
CONTINUOUS
 62
     3
100
AcDbLine
 10
2260.000002384201
 20
932.9999825656369
 30
0.0
 11
2579.99999761583
 21
932.9999825656369
 31
0.0
  0
LINE
  5
2B0
330
1F
100
AcDbEntity
  8
Ｓ_１_１
  6
CONTINUOUS
 62
     3
100
AcDbLine
 10
2330.00000134112
 20
943.0000587105692
 30
0.0
 11
2509.999998658911
 21
943.0000587105692
 31
0.0
  0
LINE
  5
2B1
330
1F
100
AcDbEntity
  8
Ｓ_１_１
  6
CONTINUOUS
 62
     3
100
AcDbLine
 10
2330.000088359068
 20
943.0000128863771
 30
0.0
 11
2334.041531224343
 21
949.9999971392813
 31
0.0
  0
LINE
  5
2B2
330
1F
100
AcDbEntity
  8
Ｓ_１_１
  6
CONTINUOUS
 62
     3
100
AcDbLine
 10
2510.000046822218
 20
942.999947625699
 30
0.0
 11
2505.958603956944
 21
949.9999318786035
 31
0.0
  0
LINE
  5
2B3
330
1F
100
AcDbEntity
  8
Ｓ_１_１
  6
CONTINUOUS
 62
     3
100
AcDbLine
 10
2334.041444151991
 20
950.0000280886838
 30
0.0
 11
2505.958555848038
 21
950.0000280886838
 31
0.0
  0
LINE
  5
2B4
330
1F
100
AcDbEntity
  8
Ｓ_１_１
  6
CONTINUOUS
 62
     3
100
AcDbLine
 10
2330.00000134112
 20
943.0000587105692
 30
0.0
 11
2330.00000134112
 21
935.0000283122013
 31
0.0
  0
LINE
  5
2B5
330
1F
100
AcDbEntity
  8
Ｓ_１_１
  6
CONTINUOUS
 62
     3
100
AcDbLine
 10
2509.999998658911
 20
943.0000587105692
 30
0.0
 11
2509.999998658911
 21
935.0000283122013
 31
0.0
  0
LINE
  5
2B6
330
1F
100
AcDbEntity
  8
Ｓ_１_１
  6
CONTINUOUS
 62
     3
100
AcDbLine
 10
2484.99999903144
 20
949.9999517947394
 30
0.0
 11
2484.99999903144
 21
954.9999517202336
 31
0.0
  0
LINE
  5
2B7
330
1F
100
AcDbEntity
  8
Ｓ_１_１
  6
CONTINUOUS
 62
     3
100
AcDbLine
 10
2355.000000968591
 20
949.9999517947394
 30
0.0
 11
2355.000000968591
 21
954.9999517202336
 31
0.0
  0
LINE
  5
2B8
330
1F
100
AcDbEntity
  8
Ｓ_１_１
  6
CONTINUOUS
 62
     3
100
AcDbLine
 10
2578.000321269647
 20
934.9997756111757
 30
0.0
 11
2580.00028023888
 21
932.9998166419423
 31
0.0
  0
LINE
  5
2B9
330
1F
100
AcDbEntity
  8
Ｓ_１_１
  6
CONTINUOUS
 62
     3
100
AcDbLine
 10
2260.000155613906
 20
933.0000324338039
 30
0.0
 11
2262.000114583138
 21
934.9999914030373
 31
0.0
  0
LINE
  5
2BA
330
1F
100
AcDbEntity
  8
Ｓ_１_１
  6
CONTINUOUS
 62
     3
100
AcDbLine
 10
2260.000002384201
 20
932.9999825656369
 30
0.0
 11
2260.000002384201
 21
735.0000312924335
 31
0.0
  0
LINE
  5
2BB
330
1F
100
AcDbEntity
  8
Ｓ_１_１
  6
CONTINUOUS
 62
     3
100
AcDbLine
 10
2579.99999761583
 20
932.9999825656369
 30
0.0
 11
2579.99999761583
 21
735.0000312924335
 31
0.0
  0
LINE
  5
2BC
330
1F
100
AcDbEntity
  8
Ｓ_１_１
  6
CONTINUOUS
 62
     3
100
AcDbLine
 10
2262.00012442471
 20
935.0000283122013
 30
0.0
 11
2578.000180751097
 21
935.0000283122013
 31
0.0
  0
LINE
  5
2BD
330
1F
100
AcDbEntity
  8
Ｓ_１_１
  6
CONTINUOUS
 62
     3
100
AcDbLine
 10
2230.000002831236
 20
730.0000313669393
 30
0.0
 11
2230.000002831236
 21
715.0000315904563
 31
0.0
  0
LINE
  5
2BE
330
1F
100
AcDbEntity
  8
Ｓ_１_１
  6
CONTINUOUS
 62
     3
100
AcDbLine
 10
2609.999997168795
 20
730.0000313669393
 30
0.0
 11
2609.999997168795
 21
715.0000315904563
 31
0.0
  0
LINE
  5
2BF
330
1F
100
AcDbEntity
  8
Ｓ_１_１
  6
CONTINUOUS
 62
     3
100
AcDbLine
 10
2235.00000275673
 20
735.0000312924335
 30
0.0
 11
2604.999997243301
 21
735.0000312924335
 31
0.0
  0
LINE
  5
2C0
330
1F
100
AcDbEntity
  8
Ｓ_１_１
  6
CONTINUOUS
 62
     3
100
AcDbLine
 10
2070.00000521542
 20
314.9999994039486
 30
0.0
 11
2769.999994784608
 21
314.9999994039486
 31
0.0
  0
LINE
  5
2C1
330
1F
100
AcDbEntity
  8
Ｓ_１_１
  6
CONTINUOUS
 62
     3
100
AcDbLine
 10
2070.00000521542
 20
314.9999994039486
 30
0.0
 11
2070.00000521542
 21
274.9999999999951
 31
0.0
  0
LINE
  5
2C2
330
1F
100
AcDbEntity
  8
Ｓ_１_１
  6
CONTINUOUS
 62
     3
100
AcDbLine
 10
2769.999994784608
 20
314.9999994039486
 30
0.0
 11
2769.999994784608
 21
274.9999999999951
 31
0.0
  0
LINE
  5
2C3
330
1F
100
AcDbEntity
  8
Ｓ_１_１
  6
CONTINUOUS
 62
     3
100
AcDbLine
 10
2070.00000521542
 20
274.9999999999951
 30
0.0
 11
2769.999994784608
 21
274.9999999999951
 31
0.0
  0
LINE
  5
2C4
330
1F
100
AcDbEntity
  8
Ｓ_１_１
  6
CONTINUOUS
 62
     3
100
AcDbLine
 10
944.9999999999961
 20
2110.000244000001
 30
0.0
 11
1584.999999999996
 21
2110.000244000001
 31
0.0
  0
LINE
  5
2C5
330
1F
100
AcDbEntity
  8
Ｓ_１_１
  6
CONTINUOUS
 62
     3
100
AcDbLine
 10
944.9999999999961
 20
1410.000000000001
 30
0.0
 11
1584.999999999996
 21
1410.000000000001
 31
0.0
  0
LINE
  5
2C6
330
1F
100
AcDbEntity
  8
Ｓ_１_１
  6
CONTINUOUS
 62
     3
100
AcDbLine
 10
1564.999999999996
 20
1960.000244000001
 30
0.0
 11
1564.999999999996
 21
1560.000000000001
 31
0.0
  0
LINE
  5
2C7
330
1F
100
AcDbEntity
  8
Ｓ_１_１
  6
CONTINUOUS
 62
     3
100
AcDbLine
 10
964.9999999999961
 20
1960.000244000001
 30
0.0
 11
964.9999999999961
 21
1560.000000000001
 31
0.0
  0
LINE
  5
2C8
330
1F
100
AcDbEntity
  8
Ｓ_１_１
  6
CONTINUOUS
 62
     3
100
AcDbLine
 10
1393.989686999997
 20
2096.231993
 30
0.0
 11
1411.542945999998
 21
2088.961194
 31
0.0
  0
LINE
  5
2C9
330
1F
100
AcDbEntity
  8
Ｓ_１_１
  6
CONTINUOUS
 62
     3
100
AcDbLine
 10
1358.125487999998
 20
1960.000044
 30
0.0
 11
1411.542945999998
 21
2088.961194
 31
0.0
  0
LINE
  5
2CA
330
1F
100
AcDbEntity
  8
Ｓ_１_１
  6
CONTINUOUS
 62
     3
100
AcDbLine
 10
1337.560464999997
 20
1959.999802
 30
0.0
 11
1393.989686999997
 21
2096.231993
 31
0.0
  0
LINE
  5
2CB
330
1F
100
AcDbEntity
  8
Ｓ_１_１
  6
CONTINUOUS
 62
     3
100
AcDbLine
 10
1192.440030999998
 20
1559.999973000001
 30
0.0
 11
1136.010855999997
 21
1423.767895000001
 31
0.0
  0
LINE
  5
2CC
330
1F
100
AcDbEntity
  8
Ｓ_１_１
  6
CONTINUOUS
 62
     3
100
AcDbLine
 10
1171.875054999997
 20
1559.999844000001
 30
0.0
 11
1118.457596999997
 21
1431.038693000001
 31
0.0
  0
LINE
  5
2CD
330
1F
100
AcDbEntity
  8
Ｓ_１_１
  6
CONTINUOUS
 62
     3
100
AcDbLine
 10
1136.010855999997
 20
1423.767895000001
 30
0.0
 11
1118.457596999997
 21
1431.038693000001
 31
0.0
  0
LINE
  5
2CE
330
1F
100
AcDbEntity
  8
Ｓ_１_１
  6
CONTINUOUS
 62
     3
100
AcDbLine
 10
1171.874660999998
 20
1959.999882
 30
0.0
 11
1118.457155999997
 21
2088.961146
 31
0.0
  0
LINE
  5
2CF
330
1F
100
AcDbEntity
  8
Ｓ_１_１
  6
CONTINUOUS
 62
     3
100
AcDbLine
 10
1192.440041999998
 20
1960.000053
 30
0.0
 11
1136.010866999997
 21
2096.232131000001
 31
0.0
  0
LINE
  5
2D0
330
1F
100
AcDbEntity
  8
Ｓ_１_１
  6
CONTINUOUS
 62
     3
100
AcDbLine
 10
1118.457155999997
 20
2088.961146
 30
0.0
 11
1136.010866999997
 21
2096.232131000001
 31
0.0
  0
LINE
  5
2D1
330
1F
100
AcDbEntity
  8
Ｓ_１_１
  6
CONTINUOUS
 62
     3
100
AcDbLine
 10
1358.125428999998
 20
1560.000151000001
 30
0.0
 11
1411.542933999997
 21
1431.038888000001
 31
0.0
  0
LINE
  5
2D2
330
1F
100
AcDbEntity
  8
Ｓ_１_１
  6
CONTINUOUS
 62
     3
100
AcDbLine
 10
1337.560047999997
 20
1559.999980000001
 30
0.0
 11
1393.989222999997
 21
1423.767903000001
 31
0.0
  0
LINE
  5
2D3
330
1F
100
AcDbEntity
  8
Ｓ_１_１
  6
CONTINUOUS
 62
     3
100
AcDbLine
 10
1411.542933999997
 20
1431.038888000001
 30
0.0
 11
1393.989222999997
 21
1423.767903000001
 31
0.0
  0
LINE
  5
2D4
330
1F
100
AcDbEntity
  8
Ｓ_１_１
  6
CONTINUOUS
 62
     3
100
AcDbLine
 10
1585.000156999997
 20
2109.999927000001
 30
0.0
 11
1615.000058999998
 21
2080.000025
 31
0.0
  0
LINE
  5
2D5
330
1F
100
AcDbEntity
  8
Ｓ_１_１
  6
CONTINUOUS
 62
     3
100
AcDbLine
 10
1585.000221999997
 20
1409.999853000001
 30
0.0
 11
1615.000253999997
 21
1439.999885000001
 31
0.0
  0
LINE
  5
2D6
330
1F
100
AcDbEntity
  8
Ｓ_１_１
  6
CONTINUOUS
 62
     3
100
AcDbLine
 10
915.0002439999969
 20
1440.000014000001
 30
0.0
 11
945.0001469999968
 21
1410.000112
 31
0.0
  0
LINE
  5
2D7
330
1F
100
AcDbEntity
  8
Ｓ_１_１
  6
CONTINUOUS
 62
     3
100
AcDbLine
 10
915.0001579999969
 20
2079.999917
 30
0.0
 11
945.0001899999968
 21
2109.999949
 31
0.0
  0
LINE
  5
2D8
330
1F
100
AcDbEntity
  8
Ｓ_１_１
  6
CONTINUOUS
 62
     3
100
AcDbLine
 10
964.9999999999961
 20
1912.499756
 30
0.0
 11
1012.499999999996
 21
1912.499756
 31
0.0
  0
LINE
  5
2D9
330
1F
100
AcDbEntity
  8
Ｓ_１_１
  6
CONTINUOUS
 62
     3
100
AcDbLine
 10
964.9999999999961
 20
1907.499756
 30
0.0
 11
1012.499999999996
 21
1907.499756
 31
0.0
  0
LINE
  5
2DA
330
1F
100
AcDbEntity
  8
Ｓ_１_１
  6
CONTINUOUS
 62
     3
100
AcDbLine
 10
964.9999999999961
 20
1852.499756
 30
0.0
 11
985.0002439999968
 21
1852.499756
 31
0.0
  0
LINE
  5
2DB
330
1F
100
AcDbEntity
  8
Ｓ_１_１
  6
CONTINUOUS
 62
     3
100
AcDbLine
 10
964.9999999999961
 20
1847.499756
 30
0.0
 11
1012.499999999996
 21
1847.499756
 31
0.0
  0
LINE
  5
2DC
330
1F
100
AcDbEntity
  8
Ｓ_１_１
  6
CONTINUOUS
 62
     3
100
AcDbLine
 10
964.9999999999961
 20
1787.5
 30
0.0
 11
1012.499999999996
 21
1787.5
 31
0.0
  0
LINE
  5
2DD
330
1F
100
AcDbEntity
  8
Ｓ_１_１
  6
CONTINUOUS
 62
     3
100
AcDbLine
 10
964.9999999999961
 20
1792.5
 30
0.0
 11
1012.499999999996
 21
1792.5
 31
0.0
  0
LINE
  5
2DE
330
1F
100
AcDbEntity
  8
Ｓ_１_１
  6
CONTINUOUS
 62
     3
100
AcDbLine
 10
964.9999999999961
 20
1732.500000000001
 30
0.0
 11
1012.499999999996
 21
1732.500000000001
 31
0.0
  0
LINE
  5
2DF
330
1F
100
AcDbEntity
  8
Ｓ_１_１
  6
CONTINUOUS
 62
     3
100
AcDbLine
 10
964.9999999999961
 20
1727.500000000001
 30
0.0
 11
1012.499999999996
 21
1727.500000000001
 31
0.0
  0
LINE
  5
2E0
330
1F
100
AcDbEntity
  8
Ｓ_１_１
  6
CONTINUOUS
 62
     3
100
AcDbLine
 10
1017.499999999996
 20
1960.000244000001
 30
0.0
 11
1017.499999999996
 21
1912.499756
 31
0.0
  0
LINE
  5
2E1
330
1F
100
AcDbEntity
  8
Ｓ_１_１
  6
CONTINUOUS
 62
     3
100
AcDbLine
 10
1012.499999999996
 20
1960.000244000001
 30
0.0
 11
1012.499999999996
 21
1912.499756
 31
0.0
  0
LINE
  5
2E2
330
1F
100
AcDbEntity
  8
Ｓ_１_１
  6
CONTINUOUS
 62
     3
100
AcDbLine
 10
1112.499999999996
 20
1960.000244000001
 30
0.0
 11
1112.499999999996
 21
1942.247558
 31
0.0
  0
LINE
  5
2E3
330
1F
100
AcDbEntity
  8
Ｓ_１_１
  6
CONTINUOUS
 62
     3
100
AcDbLine
 10
1117.499999999996
 20
1960.000244000001
 30
0.0
 11
1117.499999999996
 21
1942.247558
 31
0.0
  0
LINE
  5
2E4
330
1F
100
AcDbEntity
  8
Ｓ_１_１
  6
CONTINUOUS
 62
     3
100
AcDbLine
 10
1217.499999999996
 20
1960.000244000001
 30
0.0
 11
1217.499999999996
 21
1912.499756
 31
0.0
  0
LINE
  5
2E5
330
1F
100
AcDbEntity
  8
Ｓ_１_１
  6
CONTINUOUS
 62
     3
100
AcDbLine
 10
1212.499999999996
 20
1960.000244000001
 30
0.0
 11
1212.499999999996
 21
1912.499756
 31
0.0
  0
LINE
  5
2E6
330
1F
100
AcDbEntity
  8
Ｓ_１_１
  6
CONTINUOUS
 62
     3
100
AcDbLine
 10
1312.499999999996
 20
1960.000244000001
 30
0.0
 11
1312.499999999996
 21
1912.499756
 31
0.0
  0
LINE
  5
2E7
330
1F
100
AcDbEntity
  8
Ｓ_１_１
  6
CONTINUOUS
 62
     3
100
AcDbLine
 10
1317.499999999996
 20
1960.000244000001
 30
0.0
 11
1317.499999999996
 21
1912.499756
 31
0.0
  0
LINE
  5
2E8
330
1F
100
AcDbEntity
  8
Ｓ_１_１
  6
CONTINUOUS
 62
     3
100
AcDbLine
 10
1412.499999999996
 20
1960.000244000001
 30
0.0
 11
1412.499999999996
 21
1942.247558
 31
0.0
  0
LINE
  5
2E9
330
1F
100
AcDbEntity
  8
Ｓ_１_１
  6
CONTINUOUS
 62
     3
100
AcDbLine
 10
1417.499999999996
 20
1960.000244000001
 30
0.0
 11
1417.499999999996
 21
1942.247558
 31
0.0
  0
LINE
  5
2EA
330
1F
100
AcDbEntity
  8
Ｓ_１_１
  6
CONTINUOUS
 62
     3
100
AcDbLine
 10
964.9999999999961
 20
1672.500000000001
 30
0.0
 11
1012.499999999996
 21
1672.500000000001
 31
0.0
  0
LINE
  5
2EB
330
1F
100
AcDbEntity
  8
Ｓ_１_１
  6
CONTINUOUS
 62
     3
100
AcDbLine
 10
964.9999999999961
 20
1667.500000000001
 30
0.0
 11
984.999999999996
 21
1667.500000000001
 31
0.0
  0
LINE
  5
2EC
330
1F
100
AcDbEntity
  8
Ｓ_１_１
  6
CONTINUOUS
 62
     3
100
AcDbLine
 10
964.9999999999961
 20
1607.500000000001
 30
0.0
 11
1012.499999999996
 21
1607.500000000001
 31
0.0
  0
LINE
  5
2ED
330
1F
100
AcDbEntity
  8
Ｓ_１_１
  6
CONTINUOUS
 62
     3
100
AcDbLine
 10
964.9999999999961
 20
1612.500000000001
 30
0.0
 11
1012.499999999996
 21
1612.500000000001
 31
0.0
  0
LINE
  5
2EE
330
1F
100
AcDbEntity
  8
Ｓ_１_１
  6
CONTINUOUS
 62
     3
100
AcDbLine
 10
1517.499999999996
 20
1960.000244000001
 30
0.0
 11
1517.499999999996
 21
1912.499756
 31
0.0
  0
LINE
  5
2EF
330
1F
100
AcDbEntity
  8
Ｓ_１_１
  6
CONTINUOUS
 62
     3
100
AcDbLine
 10
1512.499999999996
 20
1960.000244000001
 30
0.0
 11
1512.499999999996
 21
1912.499756
 31
0.0
  0
LINE
  5
2F0
330
1F
100
AcDbEntity
  8
Ｓ_１_１
  6
CONTINUOUS
 62
     3
100
AcDbLine
 10
1512.499999999996
 20
1907.499756
 30
0.0
 11
1512.499999999996
 21
1852.499756
 31
0.0
  0
LINE
  5
2F1
330
1F
100
AcDbEntity
  8
Ｓ_１_１
  6
CONTINUOUS
 62
     3
100
AcDbLine
 10
1517.499999999996
 20
1912.499756
 30
0.0
 11
1564.999999999996
 21
1912.499756
 31
0.0
  0
LINE
  5
2F2
330
1F
100
AcDbEntity
  8
Ｓ_１_１
  6
CONTINUOUS
 62
     3
100
AcDbLine
 10
1517.499999999996
 20
1907.499756
 30
0.0
 11
1517.499999999996
 21
1852.499756
 31
0.0
  0
LINE
  5
2F3
330
1F
100
AcDbEntity
  8
Ｓ_１_１
  6
CONTINUOUS
 62
     3
100
AcDbLine
 10
1517.499999999996
 20
1907.499756
 30
0.0
 11
1564.999999999996
 21
1907.499756
 31
0.0
  0
LINE
  5
2F4
330
1F
100
AcDbEntity
  8
Ｓ_１_１
  6
CONTINUOUS
 62
     3
100
AcDbLine
 10
1417.499999999996
 20
1907.499756
 30
0.0
 11
1512.499999999996
 21
1907.499756
 31
0.0
  0
LINE
  5
2F5
330
1F
100
AcDbEntity
  8
Ｓ_１_１
  6
CONTINUOUS
 62
     3
100
AcDbLine
 10
1417.499999999996
 20
1907.499756
 30
0.0
 11
1417.499999999996
 21
1852.499756
 31
0.0
  0
LINE
  5
2F6
330
1F
100
AcDbEntity
  8
Ｓ_１_１
  6
CONTINUOUS
 62
     3
100
AcDbLine
 10
1417.499999999996
 20
1912.499756
 30
0.0
 11
1512.499999999996
 21
1912.499756
 31
0.0
  0
LINE
  5
2F7
330
1F
100
AcDbEntity
  8
Ｓ_１_１
  6
CONTINUOUS
 62
     3
100
AcDbLine
 10
1412.499999999996
 20
1907.499756
 30
0.0
 11
1412.499999999996
 21
1852.499756
 31
0.0
  0
LINE
  5
2F8
330
1F
100
AcDbEntity
  8
Ｓ_１_１
  6
CONTINUOUS
 62
     3
100
AcDbLine
 10
1412.499999999996
 20
1917.752929
 30
0.0
 11
1412.499999999996
 21
1912.499756
 31
0.0
  0
LINE
  5
2F9
330
1F
100
AcDbEntity
  8
Ｓ_１_１
  6
CONTINUOUS
 62
     3
100
AcDbLine
 10
1417.499999999996
 20
1917.752929
 30
0.0
 11
1417.499999999996
 21
1912.499756
 31
0.0
  0
LINE
  5
2FA
330
1F
100
AcDbEntity
  8
Ｓ_１_１
  6
CONTINUOUS
 62
     3
100
AcDbLine
 10
1317.499999999996
 20
1907.499756
 30
0.0
 11
1412.499999999996
 21
1907.499756
 31
0.0
  0
LINE
  5
2FB
330
1F
100
AcDbEntity
  8
Ｓ_１_１
  6
CONTINUOUS
 62
     3
100
AcDbLine
 10
1317.499999999996
 20
1912.499756
 30
0.0
 11
1412.499999999996
 21
1912.499756
 31
0.0
  0
LINE
  5
2FC
330
1F
100
AcDbEntity
  8
Ｓ_１_１
  6
CONTINUOUS
 62
     3
100
AcDbLine
 10
1317.499999999996
 20
1907.499756
 30
0.0
 11
1317.499999999996
 21
1852.499756
 31
0.0
  0
LINE
  5
2FD
330
1F
100
AcDbEntity
  8
Ｓ_１_１
  6
CONTINUOUS
 62
     3
100
AcDbLine
 10
1312.499999999996
 20
1907.499756
 30
0.0
 11
1312.499999999996
 21
1852.499756
 31
0.0
  0
LINE
  5
2FE
330
1F
100
AcDbEntity
  8
Ｓ_１_１
  6
CONTINUOUS
 62
     3
100
AcDbLine
 10
1212.499999999996
 20
1907.499756
 30
0.0
 11
1212.499999999996
 21
1852.499756
 31
0.0
  0
LINE
  5
2FF
330
1F
100
AcDbEntity
  8
Ｓ_１_１
  6
CONTINUOUS
 62
     3
100
AcDbLine
 10
1217.499999999996
 20
1912.499756
 30
0.0
 11
1312.499999999996
 21
1912.499756
 31
0.0
  0
LINE
  5
300
330
1F
100
AcDbEntity
  8
Ｓ_１_１
  6
CONTINUOUS
 62
     3
100
AcDbLine
 10
1217.499999999996
 20
1907.499756
 30
0.0
 11
1217.499999999996
 21
1852.499756
 31
0.0
  0
LINE
  5
301
330
1F
100
AcDbEntity
  8
Ｓ_１_１
  6
CONTINUOUS
 62
     3
100
AcDbLine
 10
1217.499999999996
 20
1907.499756
 30
0.0
 11
1312.499999999996
 21
1907.499756
 31
0.0
  0
LINE
  5
302
330
1F
100
AcDbEntity
  8
Ｓ_１_１
  6
CONTINUOUS
 62
     3
100
AcDbLine
 10
1117.499999999996
 20
1917.752929
 30
0.0
 11
1117.499999999996
 21
1912.499756
 31
0.0
  0
LINE
  5
303
330
1F
100
AcDbEntity
  8
Ｓ_１_１
  6
CONTINUOUS
 62
     3
100
AcDbLine
 10
1112.499999999996
 20
1917.752929
 30
0.0
 11
1112.499999999996
 21
1912.499756
 31
0.0
  0
LINE
  5
304
330
1F
100
AcDbEntity
  8
Ｓ_１_１
  6
CONTINUOUS
 62
     3
100
AcDbLine
 10
1117.499999999996
 20
1907.499756
 30
0.0
 11
1117.499999999996
 21
1852.499756
 31
0.0
  0
LINE
  5
305
330
1F
100
AcDbEntity
  8
Ｓ_１_１
  6
CONTINUOUS
 62
     3
100
AcDbLine
 10
1117.499999999996
 20
1907.499756
 30
0.0
 11
1212.499999999996
 21
1907.499756
 31
0.0
  0
LINE
  5
306
330
1F
100
AcDbEntity
  8
Ｓ_１_１
  6
CONTINUOUS
 62
     3
100
AcDbLine
 10
1112.499999999996
 20
1907.499756
 30
0.0
 11
1112.499999999996
 21
1852.499756
 31
0.0
  0
LINE
  5
307
330
1F
100
AcDbEntity
  8
Ｓ_１_１
  6
CONTINUOUS
 62
     3
100
AcDbLine
 10
1117.499999999996
 20
1912.499756
 30
0.0
 11
1212.499999999996
 21
1912.499756
 31
0.0
  0
LINE
  5
308
330
1F
100
AcDbEntity
  8
Ｓ_１_１
  6
CONTINUOUS
 62
     3
100
AcDbLine
 10
1017.499999999996
 20
1907.499756
 30
0.0
 11
1112.499999999996
 21
1907.499756
 31
0.0
  0
LINE
  5
309
330
1F
100
AcDbEntity
  8
Ｓ_１_１
  6
CONTINUOUS
 62
     3
100
AcDbLine
 10
1017.499999999996
 20
1907.499756
 30
0.0
 11
1017.499999999996
 21
1852.499756
 31
0.0
  0
LINE
  5
30A
330
1F
100
AcDbEntity
  8
Ｓ_１_１
  6
CONTINUOUS
 62
     3
100
AcDbLine
 10
1017.499999999996
 20
1912.499756
 30
0.0
 11
1112.499999999996
 21
1912.499756
 31
0.0
  0
LINE
  5
30B
330
1F
100
AcDbEntity
  8
Ｓ_１_１
  6
CONTINUOUS
 62
     3
100
AcDbLine
 10
1012.499999999996
 20
1907.499756
 30
0.0
 11
1012.499999999996
 21
1852.499756
 31
0.0
  0
LINE
  5
30C
330
1F
100
AcDbEntity
  8
Ｓ_１_１
  6
CONTINUOUS
 62
     3
100
AcDbLine
 10
1004.999511999996
 20
1852.499756
 30
0.0
 11
1012.499999999996
 21
1852.499756
 31
0.0
  0
LINE
  5
30D
330
1F
100
AcDbEntity
  8
Ｓ_１_１
  6
CONTINUOUS
 62
     3
100
AcDbLine
 10
1017.499999999996
 20
1847.499756
 30
0.0
 11
1112.499999999996
 21
1847.499756
 31
0.0
  0
LINE
  5
30E
330
1F
100
AcDbEntity
  8
Ｓ_１_１
  6
CONTINUOUS
 62
     3
100
AcDbLine
 10
1017.499999999996
 20
1607.500000000001
 30
0.0
 11
1017.499999999996
 21
1560.000000000001
 31
0.0
  0
LINE
  5
30F
330
1F
100
AcDbEntity
  8
Ｓ_１_１
  6
CONTINUOUS
 62
     3
100
AcDbLine
 10
1017.499999999996
 20
1612.500000000001
 30
0.0
 11
1112.499999999996
 21
1612.500000000001
 31
0.0
  0
LINE
  5
310
330
1F
100
AcDbEntity
  8
Ｓ_１_１
  6
CONTINUOUS
 62
     3
100
AcDbLine
 10
1012.499999999996
 20
1607.500000000001
 30
0.0
 11
1012.499999999996
 21
1560.000000000001
 31
0.0
  0
LINE
  5
311
330
1F
100
AcDbEntity
  8
Ｓ_１_１
  6
CONTINUOUS
 62
     3
100
AcDbLine
 10
1017.499999999996
 20
1607.500000000001
 30
0.0
 11
1112.499999999996
 21
1607.500000000001
 31
0.0
  0
LINE
  5
312
330
1F
100
AcDbEntity
  8
Ｓ_１_１
  6
CONTINUOUS
 62
     3
100
AcDbLine
 10
1004.999999999996
 20
1667.500000000001
 30
0.0
 11
1012.499999999996
 21
1667.500000000001
 31
0.0
  0
LINE
  5
313
330
1F
100
AcDbEntity
  8
Ｓ_１_１
  6
CONTINUOUS
 62
     3
100
AcDbLine
 10
1017.499999999996
 20
1667.500000000001
 30
0.0
 11
1112.499999999996
 21
1667.500000000001
 31
0.0
  0
LINE
  5
314
330
1F
100
AcDbEntity
  8
Ｓ_１_１
  6
CONTINUOUS
 62
     3
100
AcDbLine
 10
1017.499999999996
 20
1667.500000000001
 30
0.0
 11
1017.499999999996
 21
1612.500000000001
 31
0.0
  0
LINE
  5
315
330
1F
100
AcDbEntity
  8
Ｓ_１_１
  6
CONTINUOUS
 62
     3
100
AcDbLine
 10
1017.499999999996
 20
1672.500000000001
 30
0.0
 11
1112.499999999996
 21
1672.500000000001
 31
0.0
  0
LINE
  5
316
330
1F
100
AcDbEntity
  8
Ｓ_１_１
  6
CONTINUOUS
 62
     3
100
AcDbLine
 10
1012.499999999996
 20
1667.500000000001
 30
0.0
 11
1012.499999999996
 21
1612.500000000001
 31
0.0
  0
LINE
  5
317
330
1F
100
AcDbEntity
  8
Ｓ_１_１
  6
CONTINUOUS
 62
     3
100
AcDbLine
 10
1117.499999999996
 20
1667.500000000001
 30
0.0
 11
1212.499999999996
 21
1667.500000000001
 31
0.0
  0
LINE
  5
318
330
1F
100
AcDbEntity
  8
Ｓ_１_１
  6
CONTINUOUS
 62
     3
100
AcDbLine
 10
1117.499999999996
 20
1667.500000000001
 30
0.0
 11
1117.499999999996
 21
1612.500000000001
 31
0.0
  0
LINE
  5
319
330
1F
100
AcDbEntity
  8
Ｓ_１_１
  6
CONTINUOUS
 62
     3
100
AcDbLine
 10
1117.499999999996
 20
1672.500000000001
 30
0.0
 11
1212.499999999996
 21
1672.500000000001
 31
0.0
  0
LINE
  5
31A
330
1F
100
AcDbEntity
  8
Ｓ_１_１
  6
CONTINUOUS
 62
     3
100
AcDbLine
 10
1112.499999999996
 20
1667.500000000001
 30
0.0
 11
1112.499999999996
 21
1612.500000000001
 31
0.0
  0
LINE
  5
31B
330
1F
100
AcDbEntity
  8
Ｓ_１_１
  6
CONTINUOUS
 62
     3
100
AcDbLine
 10
1117.499999999996
 20
1607.500000000001
 30
0.0
 11
1212.499999999996
 21
1607.500000000001
 31
0.0
  0
LINE
  5
31C
330
1F
100
AcDbEntity
  8
Ｓ_１_１
  6
CONTINUOUS
 62
     3
100
AcDbLine
 10
1117.499999999996
 20
1607.500000000001
 30
0.0
 11
1117.499999999996
 21
1602.247558000001
 31
0.0
  0
LINE
  5
31D
330
1F
100
AcDbEntity
  8
Ｓ_１_１
  6
CONTINUOUS
 62
     3
100
AcDbLine
 10
1117.499999999996
 20
1612.500000000001
 30
0.0
 11
1212.499999999996
 21
1612.500000000001
 31
0.0
  0
LINE
  5
31E
330
1F
100
AcDbEntity
  8
Ｓ_１_１
  6
CONTINUOUS
 62
     3
100
AcDbLine
 10
1112.499999999996
 20
1607.500000000001
 30
0.0
 11
1112.499999999996
 21
1602.247558000001
 31
0.0
  0
LINE
  5
31F
330
1F
100
AcDbEntity
  8
Ｓ_１_１
  6
CONTINUOUS
 62
     3
100
AcDbLine
 10
1112.499999999996
 20
1577.752441000001
 30
0.0
 11
1112.499999999996
 21
1560.000000000001
 31
0.0
  0
LINE
  5
320
330
1F
100
AcDbEntity
  8
Ｓ_１_１
  6
CONTINUOUS
 62
     3
100
AcDbLine
 10
1117.499999999996
 20
1577.752441000001
 30
0.0
 11
1117.499999999996
 21
1560.000000000001
 31
0.0
  0
LINE
  5
321
330
1F
100
AcDbEntity
  8
Ｓ_１_１
  6
CONTINUOUS
 62
     3
100
AcDbLine
 10
1012.499999999996
 20
1727.500000000001
 30
0.0
 11
1012.499999999996
 21
1672.500000000001
 31
0.0
  0
LINE
  5
322
330
1F
100
AcDbEntity
  8
Ｓ_１_１
  6
CONTINUOUS
 62
     3
100
AcDbLine
 10
1017.499999999996
 20
1732.500000000001
 30
0.0
 11
1112.499999999996
 21
1732.500000000001
 31
0.0
  0
LINE
  5
323
330
1F
100
AcDbEntity
  8
Ｓ_１_１
  6
CONTINUOUS
 62
     3
100
AcDbLine
 10
1017.499999999996
 20
1727.500000000001
 30
0.0
 11
1017.499999999996
 21
1672.500000000001
 31
0.0
  0
LINE
  5
324
330
1F
100
AcDbEntity
  8
Ｓ_１_１
  6
CONTINUOUS
 62
     3
100
AcDbLine
 10
1017.499999999996
 20
1727.500000000001
 30
0.0
 11
1112.499999999996
 21
1727.500000000001
 31
0.0
  0
LINE
  5
325
330
1F
100
AcDbEntity
  8
Ｓ_１_１
  6
CONTINUOUS
 62
     3
100
AcDbLine
 10
1117.499999999996
 20
1727.500000000001
 30
0.0
 11
1212.499999999996
 21
1727.500000000001
 31
0.0
  0
LINE
  5
326
330
1F
100
AcDbEntity
  8
Ｓ_１_１
  6
CONTINUOUS
 62
     3
100
AcDbLine
 10
1117.499999999996
 20
1727.500000000001
 30
0.0
 11
1117.499999999996
 21
1672.500000000001
 31
0.0
  0
LINE
  5
327
330
1F
100
AcDbEntity
  8
Ｓ_１_１
  6
CONTINUOUS
 62
     3
100
AcDbLine
 10
1117.499999999996
 20
1732.500000000001
 30
0.0
 11
1212.499999999996
 21
1732.500000000001
 31
0.0
  0
LINE
  5
328
330
1F
100
AcDbEntity
  8
Ｓ_１_１
  6
CONTINUOUS
 62
     3
100
AcDbLine
 10
1112.499999999996
 20
1727.500000000001
 30
0.0
 11
1112.499999999996
 21
1672.500000000001
 31
0.0
  0
LINE
  5
329
330
1F
100
AcDbEntity
  8
Ｓ_１_１
  6
CONTINUOUS
 62
     3
100
AcDbLine
 10
1117.499999999996
 20
1787.5
 30
0.0
 11
1212.499999999996
 21
1787.5
 31
0.0
  0
LINE
  5
32A
330
1F
100
AcDbEntity
  8
Ｓ_１_１
  6
CONTINUOUS
 62
     3
100
AcDbLine
 10
1117.499999999996
 20
1787.5
 30
0.0
 11
1117.499999999996
 21
1732.500000000001
 31
0.0
  0
LINE
  5
32B
330
1F
100
AcDbEntity
  8
Ｓ_１_１
  6
CONTINUOUS
 62
     3
100
AcDbLine
 10
1012.499999999996
 20
1787.5
 30
0.0
 11
1012.499999999996
 21
1732.500000000001
 31
0.0
  0
LINE
  5
32C
330
1F
100
AcDbEntity
  8
Ｓ_１_１
  6
CONTINUOUS
 62
     3
100
AcDbLine
 10
1017.499999999996
 20
1792.5
 30
0.0
 11
1112.499999999996
 21
1792.5
 31
0.0
  0
LINE
  5
32D
330
1F
100
AcDbEntity
  8
Ｓ_１_１
  6
CONTINUOUS
 62
     3
100
AcDbLine
 10
1017.499999999996
 20
1787.5
 30
0.0
 11
1017.499999999996
 21
1732.500000000001
 31
0.0
  0
LINE
  5
32E
330
1F
100
AcDbEntity
  8
Ｓ_１_１
  6
CONTINUOUS
 62
     3
100
AcDbLine
 10
1017.499999999996
 20
1787.5
 30
0.0
 11
1112.499999999996
 21
1787.5
 31
0.0
  0
LINE
  5
32F
330
1F
100
AcDbEntity
  8
Ｓ_１_１
  6
CONTINUOUS
 62
     3
100
AcDbLine
 10
1112.499999999996
 20
1787.5
 30
0.0
 11
1112.499999999996
 21
1732.500000000001
 31
0.0
  0
LINE
  5
330
330
1F
100
AcDbEntity
  8
Ｓ_１_１
  6
CONTINUOUS
 62
     3
100
AcDbLine
 10
1117.499999999996
 20
1792.5
 30
0.0
 11
1212.499999999996
 21
1792.5
 31
0.0
  0
LINE
  5
331
330
1F
100
AcDbEntity
  8
Ｓ_１_１
  6
CONTINUOUS
 62
     3
100
AcDbLine
 10
1017.499999999996
 20
1852.499756
 30
0.0
 11
1112.499999999996
 21
1852.499756
 31
0.0
  0
LINE
  5
332
330
1F
100
AcDbEntity
  8
Ｓ_１_１
  6
CONTINUOUS
 62
     3
100
AcDbLine
 10
1017.499999999996
 20
1847.499756
 30
0.0
 11
1017.499999999996
 21
1792.5
 31
0.0
  0
LINE
  5
333
330
1F
100
AcDbEntity
  8
Ｓ_１_１
  6
CONTINUOUS
 62
     3
100
AcDbLine
 10
1012.499999999996
 20
1847.499756
 30
0.0
 11
1012.499999999996
 21
1792.5
 31
0.0
  0
LINE
  5
334
330
1F
100
AcDbEntity
  8
Ｓ_１_１
  6
CONTINUOUS
 62
     3
100
AcDbLine
 10
1117.499999999996
 20
1847.499756
 30
0.0
 11
1212.499999999996
 21
1847.499756
 31
0.0
  0
LINE
  5
335
330
1F
100
AcDbEntity
  8
Ｓ_１_１
  6
CONTINUOUS
 62
     3
100
AcDbLine
 10
1117.499999999996
 20
1847.499756
 30
0.0
 11
1117.499999999996
 21
1792.5
 31
0.0
  0
LINE
  5
336
330
1F
100
AcDbEntity
  8
Ｓ_１_１
  6
CONTINUOUS
 62
     3
100
AcDbLine
 10
1117.499999999996
 20
1852.499756
 30
0.0
 11
1212.499999999996
 21
1852.499756
 31
0.0
  0
LINE
  5
337
330
1F
100
AcDbEntity
  8
Ｓ_１_１
  6
CONTINUOUS
 62
     3
100
AcDbLine
 10
1112.499999999996
 20
1847.499756
 30
0.0
 11
1112.499999999996
 21
1792.5
 31
0.0
  0
LINE
  5
338
330
1F
100
AcDbEntity
  8
Ｓ_１_１
  6
CONTINUOUS
 62
     3
100
AcDbLine
 10
1217.499999999996
 20
1847.499756
 30
0.0
 11
1312.499999999996
 21
1847.499756
 31
0.0
  0
LINE
  5
339
330
1F
100
AcDbEntity
  8
Ｓ_１_１
  6
CONTINUOUS
 62
     3
100
AcDbLine
 10
1217.499999999996
 20
1847.499756
 30
0.0
 11
1217.499999999996
 21
1792.5
 31
0.0
  0
LINE
  5
33A
330
1F
100
AcDbEntity
  8
Ｓ_１_１
  6
CONTINUOUS
 62
     3
100
AcDbLine
 10
1217.499999999996
 20
1852.499756
 30
0.0
 11
1312.499999999996
 21
1852.499756
 31
0.0
  0
LINE
  5
33B
330
1F
100
AcDbEntity
  8
Ｓ_１_１
  6
CONTINUOUS
 62
     3
100
AcDbLine
 10
1212.499999999996
 20
1847.499756
 30
0.0
 11
1212.499999999996
 21
1792.5
 31
0.0
  0
LINE
  5
33C
330
1F
100
AcDbEntity
  8
Ｓ_１_１
  6
CONTINUOUS
 62
     3
100
AcDbLine
 10
1217.499999999996
 20
1787.5
 30
0.0
 11
1217.499999999996
 21
1732.500000000001
 31
0.0
  0
LINE
  5
33D
330
1F
100
AcDbEntity
  8
Ｓ_１_１
  6
CONTINUOUS
 62
     3
100
AcDbLine
 10
1217.499999999996
 20
1792.5
 30
0.0
 11
1312.499999999996
 21
1792.5
 31
0.0
  0
LINE
  5
33E
330
1F
100
AcDbEntity
  8
Ｓ_１_１
  6
CONTINUOUS
 62
     3
100
AcDbLine
 10
1212.499999999996
 20
1787.5
 30
0.0
 11
1212.499999999996
 21
1732.500000000001
 31
0.0
  0
LINE
  5
33F
330
1F
100
AcDbEntity
  8
Ｓ_１_１
  6
CONTINUOUS
 62
     3
100
AcDbLine
 10
1217.499999999996
 20
1787.5
 30
0.0
 11
1312.499999999996
 21
1787.5
 31
0.0
  0
LINE
  5
340
330
1F
100
AcDbEntity
  8
Ｓ_１_１
  6
CONTINUOUS
 62
     3
100
AcDbLine
 10
1317.499999999996
 20
1787.5
 30
0.0
 11
1412.499999999996
 21
1787.5
 31
0.0
  0
LINE
  5
341
330
1F
100
AcDbEntity
  8
Ｓ_１_１
  6
CONTINUOUS
 62
     3
100
AcDbLine
 10
1317.499999999996
 20
1787.5
 30
0.0
 11
1317.499999999996
 21
1732.500000000001
 31
0.0
  0
LINE
  5
342
330
1F
100
AcDbEntity
  8
Ｓ_１_１
  6
CONTINUOUS
 62
     3
100
AcDbLine
 10
1317.499999999996
 20
1792.5
 30
0.0
 11
1412.499999999996
 21
1792.5
 31
0.0
  0
LINE
  5
343
330
1F
100
AcDbEntity
  8
Ｓ_１_１
  6
CONTINUOUS
 62
     3
100
AcDbLine
 10
1312.499999999996
 20
1787.5
 30
0.0
 11
1312.499999999996
 21
1732.500000000001
 31
0.0
  0
LINE
  5
344
330
1F
100
AcDbEntity
  8
Ｓ_１_１
  6
CONTINUOUS
 62
     3
100
AcDbLine
 10
1317.499999999996
 20
1727.500000000001
 30
0.0
 11
1412.499999999996
 21
1727.500000000001
 31
0.0
  0
LINE
  5
345
330
1F
100
AcDbEntity
  8
Ｓ_１_１
  6
CONTINUOUS
 62
     3
100
AcDbLine
 10
1317.499999999996
 20
1727.500000000001
 30
0.0
 11
1317.499999999996
 21
1672.500000000001
 31
0.0
  0
LINE
  5
346
330
1F
100
AcDbEntity
  8
Ｓ_１_１
  6
CONTINUOUS
 62
     3
100
AcDbLine
 10
1317.499999999996
 20
1732.500000000001
 30
0.0
 11
1412.499999999996
 21
1732.500000000001
 31
0.0
  0
LINE
  5
347
330
1F
100
AcDbEntity
  8
Ｓ_１_１
  6
CONTINUOUS
 62
     3
100
AcDbLine
 10
1312.499999999996
 20
1727.500000000001
 30
0.0
 11
1312.499999999996
 21
1672.500000000001
 31
0.0
  0
LINE
  5
348
330
1F
100
AcDbEntity
  8
Ｓ_１_１
  6
CONTINUOUS
 62
     3
100
AcDbLine
 10
1217.499999999996
 20
1727.500000000001
 30
0.0
 11
1312.499999999996
 21
1727.500000000001
 31
0.0
  0
LINE
  5
349
330
1F
100
AcDbEntity
  8
Ｓ_１_１
  6
CONTINUOUS
 62
     3
100
AcDbLine
 10
1212.499999999996
 20
1727.500000000001
 30
0.0
 11
1212.499999999996
 21
1672.500000000001
 31
0.0
  0
LINE
  5
34A
330
1F
100
AcDbEntity
  8
Ｓ_１_１
  6
CONTINUOUS
 62
     3
100
AcDbLine
 10
1217.499999999996
 20
1732.500000000001
 30
0.0
 11
1312.499999999996
 21
1732.500000000001
 31
0.0
  0
LINE
  5
34B
330
1F
100
AcDbEntity
  8
Ｓ_１_１
  6
CONTINUOUS
 62
     3
100
AcDbLine
 10
1217.499999999996
 20
1727.500000000001
 30
0.0
 11
1217.499999999996
 21
1672.500000000001
 31
0.0
  0
LINE
  5
34C
330
1F
100
AcDbEntity
  8
Ｓ_１_１
  6
CONTINUOUS
 62
     3
100
AcDbLine
 10
1417.499999999996
 20
1847.499756
 30
0.0
 11
1417.499999999996
 21
1792.5
 31
0.0
  0
LINE
  5
34D
330
1F
100
AcDbEntity
  8
Ｓ_１_１
  6
CONTINUOUS
 62
     3
100
AcDbLine
 10
1417.499999999996
 20
1852.499756
 30
0.0
 11
1512.499999999996
 21
1852.499756
 31
0.0
  0
LINE
  5
34E
330
1F
100
AcDbEntity
  8
Ｓ_１_１
  6
CONTINUOUS
 62
     3
100
AcDbLine
 10
1412.499999999996
 20
1847.499756
 30
0.0
 11
1412.499999999996
 21
1792.5
 31
0.0
  0
LINE
  5
34F
330
1F
100
AcDbEntity
  8
Ｓ_１_１
  6
CONTINUOUS
 62
     3
100
AcDbLine
 10
1417.499999999996
 20
1847.499756
 30
0.0
 11
1512.499999999996
 21
1847.499756
 31
0.0
  0
LINE
  5
350
330
1F
100
AcDbEntity
  8
Ｓ_１_１
  6
CONTINUOUS
 62
     3
100
AcDbLine
 10
1512.499999999996
 20
1847.499756
 30
0.0
 11
1512.499999999996
 21
1792.5
 31
0.0
  0
LINE
  5
351
330
1F
100
AcDbEntity
  8
Ｓ_１_１
  6
CONTINUOUS
 62
     3
100
AcDbLine
 10
1517.499999999996
 20
1847.499756
 30
0.0
 11
1564.999999999996
 21
1847.499756
 31
0.0
  0
LINE
  5
352
330
1F
100
AcDbEntity
  8
Ｓ_１_１
  6
CONTINUOUS
 62
     3
100
AcDbLine
 10
1517.499999999996
 20
1847.499756
 30
0.0
 11
1517.499999999996
 21
1792.5
 31
0.0
  0
LINE
  5
353
330
1F
100
AcDbEntity
  8
Ｓ_１_１
  6
CONTINUOUS
 62
     3
100
AcDbLine
 10
1517.499999999996
 20
1852.499756
 30
0.0
 11
1525.000243999997
 21
1852.499756
 31
0.0
  0
LINE
  5
354
330
1F
100
AcDbEntity
  8
Ｓ_１_１
  6
CONTINUOUS
 62
     3
100
AcDbLine
 10
1544.999511999996
 20
1852.499756
 30
0.0
 11
1564.999999999996
 21
1852.499756
 31
0.0
  0
LINE
  5
355
330
1F
100
AcDbEntity
  8
Ｓ_１_１
  6
CONTINUOUS
 62
     3
100
AcDbLine
 10
1517.499999999996
 20
1787.5
 30
0.0
 11
1564.999999999996
 21
1787.5
 31
0.0
  0
LINE
  5
356
330
1F
100
AcDbEntity
  8
Ｓ_１_１
  6
CONTINUOUS
 62
     3
100
AcDbLine
 10
1517.499999999996
 20
1787.5
 30
0.0
 11
1517.499999999996
 21
1732.500000000001
 31
0.0
  0
LINE
  5
357
330
1F
100
AcDbEntity
  8
Ｓ_１_１
  6
CONTINUOUS
 62
     3
100
AcDbLine
 10
1517.499999999996
 20
1792.5
 30
0.0
 11
1564.999999999996
 21
1792.5
 31
0.0
  0
LINE
  5
358
330
1F
100
AcDbEntity
  8
Ｓ_１_１
  6
CONTINUOUS
 62
     3
100
AcDbLine
 10
1512.499999999996
 20
1787.5
 30
0.0
 11
1512.499999999996
 21
1732.500000000001
 31
0.0
  0
LINE
  5
359
330
1F
100
AcDbEntity
  8
Ｓ_１_１
  6
CONTINUOUS
 62
     3
100
AcDbLine
 10
1417.499999999996
 20
1787.5
 30
0.0
 11
1512.499999999996
 21
1787.5
 31
0.0
  0
LINE
  5
35A
330
1F
100
AcDbEntity
  8
Ｓ_１_１
  6
CONTINUOUS
 62
     3
100
AcDbLine
 10
1412.499999999996
 20
1787.5
 30
0.0
 11
1412.499999999996
 21
1732.500000000001
 31
0.0
  0
LINE
  5
35B
330
1F
100
AcDbEntity
  8
Ｓ_１_１
  6
CONTINUOUS
 62
     3
100
AcDbLine
 10
1417.499999999996
 20
1792.5
 30
0.0
 11
1512.499999999996
 21
1792.5
 31
0.0
  0
LINE
  5
35C
330
1F
100
AcDbEntity
  8
Ｓ_１_１
  6
CONTINUOUS
 62
     3
100
AcDbLine
 10
1417.499999999996
 20
1787.5
 30
0.0
 11
1417.499999999996
 21
1732.500000000001
 31
0.0
  0
LINE
  5
35D
330
1F
100
AcDbEntity
  8
Ｓ_１_１
  6
CONTINUOUS
 62
     3
100
AcDbLine
 10
1417.499999999996
 20
1727.500000000001
 30
0.0
 11
1417.499999999996
 21
1672.500000000001
 31
0.0
  0
LINE
  5
35E
330
1F
100
AcDbEntity
  8
Ｓ_１_１
  6
CONTINUOUS
 62
     3
100
AcDbLine
 10
1417.499999999996
 20
1732.500000000001
 30
0.0
 11
1512.499999999996
 21
1732.500000000001
 31
0.0
  0
LINE
  5
35F
330
1F
100
AcDbEntity
  8
Ｓ_１_１
  6
CONTINUOUS
 62
     3
100
AcDbLine
 10
1412.499999999996
 20
1727.500000000001
 30
0.0
 11
1412.499999999996
 21
1672.500000000001
 31
0.0
  0
LINE
  5
360
330
1F
100
AcDbEntity
  8
Ｓ_１_１
  6
CONTINUOUS
 62
     3
100
AcDbLine
 10
1417.499999999996
 20
1727.500000000001
 30
0.0
 11
1512.499999999996
 21
1727.500000000001
 31
0.0
  0
LINE
  5
361
330
1F
100
AcDbEntity
  8
Ｓ_１_１
  6
CONTINUOUS
 62
     3
100
AcDbLine
 10
1517.499999999996
 20
1727.500000000001
 30
0.0
 11
1517.499999999996
 21
1672.500000000001
 31
0.0
  0
LINE
  5
362
330
1F
100
AcDbEntity
  8
Ｓ_１_１
  6
CONTINUOUS
 62
     3
100
AcDbLine
 10
1517.499999999996
 20
1732.500000000001
 30
0.0
 11
1564.999999999996
 21
1732.500000000001
 31
0.0
  0
LINE
  5
363
330
1F
100
AcDbEntity
  8
Ｓ_１_１
  6
CONTINUOUS
 62
     3
100
AcDbLine
 10
1512.499999999996
 20
1727.500000000001
 30
0.0
 11
1512.499999999996
 21
1672.500000000001
 31
0.0
  0
LINE
  5
364
330
1F
100
AcDbEntity
  8
Ｓ_１_１
  6
CONTINUOUS
 62
     3
100
AcDbLine
 10
1517.499999999996
 20
1727.500000000001
 30
0.0
 11
1564.999999999996
 21
1727.500000000001
 31
0.0
  0
LINE
  5
365
330
1F
100
AcDbEntity
  8
Ｓ_１_１
  6
CONTINUOUS
 62
     3
100
AcDbLine
 10
1517.499999999996
 20
1667.500000000001
 30
0.0
 11
1524.999999999996
 21
1667.500000000001
 31
0.0
  0
LINE
  5
366
330
1F
100
AcDbEntity
  8
Ｓ_１_１
  6
CONTINUOUS
 62
     3
100
AcDbLine
 10
1517.499999999996
 20
1667.500000000001
 30
0.0
 11
1517.499999999996
 21
1612.500000000001
 31
0.0
  0
LINE
  5
367
330
1F
100
AcDbEntity
  8
Ｓ_１_１
  6
CONTINUOUS
 62
     3
100
AcDbLine
 10
1517.499999999996
 20
1672.500000000001
 30
0.0
 11
1564.999999999996
 21
1672.500000000001
 31
0.0
  0
LINE
  5
368
330
1F
100
AcDbEntity
  8
Ｓ_１_１
  6
CONTINUOUS
 62
     3
100
AcDbLine
 10
1512.499999999996
 20
1667.500000000001
 30
0.0
 11
1512.499999999996
 21
1612.500000000001
 31
0.0
  0
LINE
  5
369
330
1F
100
AcDbEntity
  8
Ｓ_１_１
  6
CONTINUOUS
 62
     3
100
AcDbLine
 10
1544.999999999996
 20
1667.500000000001
 30
0.0
 11
1564.999999999996
 21
1667.500000000001
 31
0.0
  0
LINE
  5
36A
330
1F
100
AcDbEntity
  8
Ｓ_１_１
  6
CONTINUOUS
 62
     3
100
AcDbLine
 10
1417.499999999996
 20
1667.500000000001
 30
0.0
 11
1417.499999999996
 21
1612.500000000001
 31
0.0
  0
LINE
  5
36B
330
1F
100
AcDbEntity
  8
Ｓ_１_１
  6
CONTINUOUS
 62
     3
100
AcDbLine
 10
1417.499999999996
 20
1672.500000000001
 30
0.0
 11
1512.499999999996
 21
1672.500000000001
 31
0.0
  0
LINE
  5
36C
330
1F
100
AcDbEntity
  8
Ｓ_１_１
  6
CONTINUOUS
 62
     3
100
AcDbLine
 10
1412.499999999996
 20
1667.500000000001
 30
0.0
 11
1412.499999999996
 21
1612.500000000001
 31
0.0
  0
LINE
  5
36D
330
1F
100
AcDbEntity
  8
Ｓ_１_１
  6
CONTINUOUS
 62
     3
100
AcDbLine
 10
1417.499999999996
 20
1667.500000000001
 30
0.0
 11
1512.499999999996
 21
1667.500000000001
 31
0.0
  0
LINE
  5
36E
330
1F
100
AcDbEntity
  8
Ｓ_１_１
  6
CONTINUOUS
 62
     3
100
AcDbLine
 10
1412.499999999996
 20
1607.500000000001
 30
0.0
 11
1412.499999999996
 21
1602.247558000001
 31
0.0
  0
LINE
  5
36F
330
1F
100
AcDbEntity
  8
Ｓ_１_１
  6
CONTINUOUS
 62
     3
100
AcDbLine
 10
1417.499999999996
 20
1612.500000000001
 30
0.0
 11
1512.499999999996
 21
1612.500000000001
 31
0.0
  0
LINE
  5
370
330
1F
100
AcDbEntity
  8
Ｓ_１_１
  6
CONTINUOUS
 62
     3
100
AcDbLine
 10
1417.499999999996
 20
1607.500000000001
 30
0.0
 11
1417.499999999996
 21
1602.247558000001
 31
0.0
  0
LINE
  5
371
330
1F
100
AcDbEntity
  8
Ｓ_１_１
  6
CONTINUOUS
 62
     3
100
AcDbLine
 10
1417.499999999996
 20
1607.500000000001
 30
0.0
 11
1512.499999999996
 21
1607.500000000001
 31
0.0
  0
LINE
  5
372
330
1F
100
AcDbEntity
  8
Ｓ_１_１
  6
CONTINUOUS
 62
     3
100
AcDbLine
 10
1417.499999999996
 20
1577.752441000001
 30
0.0
 11
1417.499999999996
 21
1560.000000000001
 31
0.0
  0
LINE
  5
373
330
1F
100
AcDbEntity
  8
Ｓ_１_１
  6
CONTINUOUS
 62
     3
100
AcDbLine
 10
1412.499999999996
 20
1577.752441000001
 30
0.0
 11
1412.499999999996
 21
1560.000000000001
 31
0.0
  0
LINE
  5
374
330
1F
100
AcDbEntity
  8
Ｓ_１_１
  6
CONTINUOUS
 62
     3
100
AcDbLine
 10
1517.499999999996
 20
1607.500000000001
 30
0.0
 11
1517.499999999996
 21
1560.000000000001
 31
0.0
  0
LINE
  5
375
330
1F
100
AcDbEntity
  8
Ｓ_１_１
  6
CONTINUOUS
 62
     3
100
AcDbLine
 10
1517.499999999996
 20
1612.500000000001
 30
0.0
 11
1564.999999999996
 21
1612.500000000001
 31
0.0
  0
LINE
  5
376
330
1F
100
AcDbEntity
  8
Ｓ_１_１
  6
CONTINUOUS
 62
     3
100
AcDbLine
 10
1512.499999999996
 20
1607.500000000001
 30
0.0
 11
1512.499999999996
 21
1560.000000000001
 31
0.0
  0
LINE
  5
377
330
1F
100
AcDbEntity
  8
Ｓ_１_１
  6
CONTINUOUS
 62
     3
100
AcDbLine
 10
1517.499999999996
 20
1607.500000000001
 30
0.0
 11
1564.999999999996
 21
1607.500000000001
 31
0.0
  0
LINE
  5
378
330
1F
100
AcDbEntity
  8
Ｓ_１_１
  6
CONTINUOUS
 62
     3
100
AcDbLine
 10
1317.499999999996
 20
1607.500000000001
 30
0.0
 11
1317.499999999996
 21
1560.000000000001
 31
0.0
  0
LINE
  5
379
330
1F
100
AcDbEntity
  8
Ｓ_１_１
  6
CONTINUOUS
 62
     3
100
AcDbLine
 10
1317.499999999996
 20
1612.500000000001
 30
0.0
 11
1412.499999999996
 21
1612.500000000001
 31
0.0
  0
LINE
  5
37A
330
1F
100
AcDbEntity
  8
Ｓ_１_１
  6
CONTINUOUS
 62
     3
100
AcDbLine
 10
1312.499999999996
 20
1607.500000000001
 30
0.0
 11
1312.499999999996
 21
1560.000000000001
 31
0.0
  0
LINE
  5
37B
330
1F
100
AcDbEntity
  8
Ｓ_１_１
  6
CONTINUOUS
 62
     3
100
AcDbLine
 10
1317.499999999996
 20
1607.500000000001
 30
0.0
 11
1412.499999999996
 21
1607.500000000001
 31
0.0
  0
LINE
  5
37C
330
1F
100
AcDbEntity
  8
Ｓ_１_１
  6
CONTINUOUS
 62
     3
100
AcDbLine
 10
1317.499999999996
 20
1672.500000000001
 30
0.0
 11
1412.499999999996
 21
1672.500000000001
 31
0.0
  0
LINE
  5
37D
330
1F
100
AcDbEntity
  8
Ｓ_１_１
  6
CONTINUOUS
 62
     3
100
AcDbLine
 10
1312.499999999996
 20
1667.500000000001
 30
0.0
 11
1312.499999999996
 21
1612.500000000001
 31
0.0
  0
LINE
  5
37E
330
1F
100
AcDbEntity
  8
Ｓ_１_１
  6
CONTINUOUS
 62
     3
100
AcDbLine
 10
1317.499999999996
 20
1667.500000000001
 30
0.0
 11
1412.499999999996
 21
1667.500000000001
 31
0.0
  0
LINE
  5
37F
330
1F
100
AcDbEntity
  8
Ｓ_１_１
  6
CONTINUOUS
 62
     3
100
AcDbLine
 10
1317.499999999996
 20
1667.500000000001
 30
0.0
 11
1317.499999999996
 21
1612.500000000001
 31
0.0
  0
LINE
  5
380
330
1F
100
AcDbEntity
  8
Ｓ_１_１
  6
CONTINUOUS
 62
     3
100
AcDbLine
 10
1317.499999999996
 20
1847.499756
 30
0.0
 11
1317.499999999996
 21
1792.5
 31
0.0
  0
LINE
  5
381
330
1F
100
AcDbEntity
  8
Ｓ_１_１
  6
CONTINUOUS
 62
     3
100
AcDbLine
 10
1317.499999999996
 20
1852.499756
 30
0.0
 11
1412.499999999996
 21
1852.499756
 31
0.0
  0
LINE
  5
382
330
1F
100
AcDbEntity
  8
Ｓ_１_１
  6
CONTINUOUS
 62
     3
100
AcDbLine
 10
1312.499999999996
 20
1847.499756
 30
0.0
 11
1312.499999999996
 21
1792.5
 31
0.0
  0
LINE
  5
383
330
1F
100
AcDbEntity
  8
Ｓ_１_１
  6
CONTINUOUS
 62
     3
100
AcDbLine
 10
1317.499999999996
 20
1847.499756
 30
0.0
 11
1412.499999999996
 21
1847.499756
 31
0.0
  0
LINE
  5
384
330
1F
100
AcDbEntity
  8
Ｓ_１_１
  6
CONTINUOUS
 62
     3
100
AcDbLine
 10
1217.499999999996
 20
1667.500000000001
 30
0.0
 11
1217.499999999996
 21
1612.500000000001
 31
0.0
  0
LINE
  5
385
330
1F
100
AcDbEntity
  8
Ｓ_１_１
  6
CONTINUOUS
 62
     3
100
AcDbLine
 10
1217.499999999996
 20
1672.500000000001
 30
0.0
 11
1312.499999999996
 21
1672.500000000001
 31
0.0
  0
LINE
  5
386
330
1F
100
AcDbEntity
  8
Ｓ_１_１
  6
CONTINUOUS
 62
     3
100
AcDbLine
 10
1212.499999999996
 20
1667.500000000001
 30
0.0
 11
1212.499999999996
 21
1612.500000000001
 31
0.0
  0
LINE
  5
387
330
1F
100
AcDbEntity
  8
Ｓ_１_１
  6
CONTINUOUS
 62
     3
100
AcDbLine
 10
1217.499999999996
 20
1667.500000000001
 30
0.0
 11
1312.499999999996
 21
1667.500000000001
 31
0.0
  0
LINE
  5
388
330
1F
100
AcDbEntity
  8
Ｓ_１_１
  6
CONTINUOUS
 62
     3
100
AcDbLine
 10
1217.499999999996
 20
1607.500000000001
 30
0.0
 11
1217.499999999996
 21
1560.000000000001
 31
0.0
  0
LINE
  5
389
330
1F
100
AcDbEntity
  8
Ｓ_１_１
  6
CONTINUOUS
 62
     3
100
AcDbLine
 10
1217.499999999996
 20
1612.500000000001
 30
0.0
 11
1312.499999999996
 21
1612.500000000001
 31
0.0
  0
LINE
  5
38A
330
1F
100
AcDbEntity
  8
Ｓ_１_１
  6
CONTINUOUS
 62
     3
100
AcDbLine
 10
1212.499999999996
 20
1607.500000000001
 30
0.0
 11
1212.499999999996
 21
1560.000000000001
 31
0.0
  0
LINE
  5
38B
330
1F
100
AcDbEntity
  8
Ｓ_１_１
  6
CONTINUOUS
 62
     3
100
AcDbLine
 10
1217.499999999996
 20
1607.500000000001
 30
0.0
 11
1312.499999999996
 21
1607.500000000001
 31
0.0
  0
LINE
  5
38C
330
1F
100
AcDbEntity
  8
Ｓ_１_１
  6
CONTINUOUS
 62
     3
100
AcDbLine
 10
1254.999999999996
 20
2095.000244000001
 30
0.0
 11
1254.999999999996
 21
2025.000244000001
 31
0.0
  0
LINE
  5
38D
330
1F
100
AcDbEntity
  8
Ｓ_１_１
  6
CONTINUOUS
 62
     3
100
AcDbLine
 10
1274.999999999996
 20
2095.000244000001
 30
0.0
 11
1274.999999999996
 21
2025.000244000001
 31
0.0
  0
LINE
  5
38E
330
1F
100
AcDbEntity
  8
Ｓ_１_１
  6
CONTINUOUS
 62
     3
100
AcDbLine
 10
1254.999999999996
 20
2095.000244000001
 30
0.0
 11
1274.999999999996
 21
2095.000244000001
 31
0.0
  0
LINE
  5
38F
330
1F
100
AcDbEntity
  8
Ｓ_１_１
  6
CONTINUOUS
 62
     3
100
AcDbLine
 10
1254.999999999996
 20
2085.000244000001
 30
0.0
 11
1274.999999999996
 21
2085.000244000001
 31
0.0
  0
LINE
  5
390
330
1F
100
AcDbEntity
  8
Ｓ_１_１
  6
CONTINUOUS
 62
     3
100
AcDbLine
 10
1254.999999999996
 20
1425.000000000001
 30
0.0
 11
1274.999999999996
 21
1425.000000000001
 31
0.0
  0
LINE
  5
391
330
1F
100
AcDbEntity
  8
Ｓ_１_１
  6
CONTINUOUS
 62
     3
100
AcDbLine
 10
1254.999999999996
 20
1435.000000000001
 30
0.0
 11
1274.999999999996
 21
1435.000000000001
 31
0.0
  0
LINE
  5
392
330
1F
100
AcDbEntity
  8
Ｓ_１_１
  6
CONTINUOUS
 62
     3
100
AcDbLine
 10
1254.999999999996
 20
1485.000000000001
 30
0.0
 11
1274.999999999996
 21
1485.000000000001
 31
0.0
  0
LINE
  5
393
330
1F
100
AcDbEntity
  8
Ｓ_１_１
  6
CONTINUOUS
 62
     3
100
AcDbLine
 10
1254.999999999996
 20
1495.000000000001
 30
0.0
 11
1274.999999999996
 21
1495.000000000001
 31
0.0
  0
LINE
  5
394
330
1F
100
AcDbEntity
  8
Ｓ_１_１
  6
CONTINUOUS
 62
     3
100
AcDbLine
 10
1254.999999999996
 20
2035.000244000001
 30
0.0
 11
1274.999999999996
 21
2035.000244000001
 31
0.0
  0
LINE
  5
395
330
1F
100
AcDbEntity
  8
Ｓ_１_１
  6
CONTINUOUS
 62
     3
100
AcDbLine
 10
1254.999999999996
 20
2025.000244000001
 30
0.0
 11
1274.999999999996
 21
2025.000244000001
 31
0.0
  0
LINE
  5
396
330
1F
100
AcDbEntity
  8
Ｓ_１_１
  6
CONTINUOUS
 62
     3
100
AcDbLine
 10
1274.999999999996
 20
1495.000000000001
 30
0.0
 11
1274.999999999996
 21
1425.000000000001
 31
0.0
  0
LINE
  5
397
330
1F
100
AcDbEntity
  8
Ｓ_１_１
  6
CONTINUOUS
 62
     3
100
AcDbLine
 10
1254.999999999996
 20
1495.000000000001
 30
0.0
 11
1254.999999999996
 21
1425.000000000001
 31
0.0
  0
CIRCLE
  5
398
330
1F
100
AcDbEntity
  8
Ｓ_１_１
  6
CONTINUOUS
 62
     3
100
AcDbCircle
 10
1114.999999999996
 20
1930.000244000001
 30
0.0
 40
12.50000000000001
  0
CIRCLE
  5
399
330
1F
100
AcDbEntity
  8
Ｓ_１_１
  6
CONTINUOUS
 62
     3
100
AcDbCircle
 10
994.9999999999961
 20
1860.000244000001
 30
0.0
 40
12.50000000000001
  0
CIRCLE
  5
39A
330
1F
100
AcDbEntity
  8
Ｓ_１_１
  6
CONTINUOUS
 62
     3
100
AcDbCircle
 10
994.9999999999961
 20
1660.000000000001
 30
0.0
 40
12.50000000000001
  0
CIRCLE
  5
39B
330
1F
100
AcDbEntity
  8
Ｓ_１_１
  6
CONTINUOUS
 62
     3
100
AcDbCircle
 10
1114.999999999996
 20
1590.000000000001
 30
0.0
 40
12.50000000000001
  0
CIRCLE
  5
39C
330
1F
100
AcDbEntity
  8
Ｓ_１_１
  6
CONTINUOUS
 62
     3
100
AcDbCircle
 10
1414.999999999996
 20
1590.000000000001
 30
0.0
 40
12.50000000000001
  0
CIRCLE
  5
39D
330
1F
100
AcDbEntity
  8
Ｓ_１_１
  6
CONTINUOUS
 62
     3
100
AcDbCircle
 10
1534.999999999996
 20
1660.000000000001
 30
0.0
 40
12.50000000000001
  0
CIRCLE
  5
39E
330
1F
100
AcDbEntity
  8
Ｓ_１_１
  6
CONTINUOUS
 62
     3
100
AcDbCircle
 10
1534.999999999996
 20
1860.000244000001
 30
0.0
 40
12.50000000000001
  0
CIRCLE
  5
39F
330
1F
100
AcDbEntity
  8
Ｓ_１_１
  6
CONTINUOUS
 62
     3
100
AcDbCircle
 10
1414.999999999996
 20
1930.000244000001
 30
0.0
 40
12.50000000000001
  0
LINE
  5
3A0
330
1F
100
AcDbEntity
  8
Ｓ_１_１
  6
EXLTYPE2
 62
     1
100
AcDbLine
 10
1264.999999999996
 20
2129.25000000008
 30
0.0
 11
1264.999999999996
 21
1394.00000000008
 31
0.0
  0
LINE
  5
3A1
330
1F
100
AcDbEntity
  8
Ｓ_１_１
  6
EXLTYPE2
 62
     1
100
AcDbLine
 10
969.9999999999961
 20
1660.000000000001
 30
0.0
 11
1019.999999999996
 21
1660.000000000001
 31
0.0
  0
LINE
  5
3A2
330
1F
100
AcDbEntity
  8
Ｓ_１_１
  6
EXLTYPE2
 62
     1
100
AcDbLine
 10
994.9999999999961
 20
1885.000244000001
 30
0.0
 11
994.9999999999961
 21
1835.000244000001
 31
0.0
  0
LINE
  5
3A3
330
1F
100
AcDbEntity
  8
Ｓ_１_１
  6
EXLTYPE2
 62
     1
100
AcDbLine
 10
969.9999999999961
 20
1860.000244000001
 30
0.0
 11
1019.999999999996
 21
1860.000244000001
 31
0.0
  0
LINE
  5
3A4
330
1F
100
AcDbEntity
  8
Ｓ_１_１
  6
EXLTYPE2
 62
     1
100
AcDbLine
 10
994.9999999999961
 20
1685.000000000001
 30
0.0
 11
994.9999999999961
 21
1635.000000000001
 31
0.0
  0
LINE
  5
3A5
330
1F
100
AcDbEntity
  8
Ｓ_１_１
  6
EXLTYPE2
 62
     1
100
AcDbLine
 10
1534.999999999996
 20
1885.000244000001
 30
0.0
 11
1534.999999999996
 21
1835.000244000001
 31
0.0
  0
LINE
  5
3A6
330
1F
100
AcDbEntity
  8
Ｓ_１_１
  6
EXLTYPE2
 62
     1
100
AcDbLine
 10
1509.999999999996
 20
1660.000000000001
 30
0.0
 11
1559.999999999996
 21
1660.000000000001
 31
0.0
  0
LINE
  5
3A7
330
1F
100
AcDbEntity
  8
Ｓ_１_１
  6
EXLTYPE2
 62
     1
100
AcDbLine
 10
1509.999999999996
 20
1860.000244000001
 30
0.0
 11
1559.999999999996
 21
1860.000244000001
 31
0.0
  0
LINE
  5
3A8
330
1F
100
AcDbEntity
  8
Ｓ_１_１
  6
EXLTYPE2
 62
     1
100
AcDbLine
 10
1534.999999999996
 20
1685.000000000001
 30
0.0
 11
1534.999999999996
 21
1635.000000000001
 31
0.0
  0
LINE
  5
3A9
330
1F
100
AcDbEntity
  8
Ｓ_１_１
  6
EXLTYPE2
 62
     1
100
AcDbLine
 10
1414.999999999996
 20
1955.000244000001
 30
0.0
 11
1414.999999999996
 21
1905.000244000001
 31
0.0
  0
LINE
  5
3AA
330
1F
100
AcDbEntity
  8
Ｓ_１_１
  6
EXLTYPE2
 62
     1
100
AcDbLine
 10
1389.999999999996
 20
1930.000244000001
 30
0.0
 11
1439.999999999996
 21
1930.000244000001
 31
0.0
  0
LINE
  5
3AB
330
1F
100
AcDbEntity
  8
Ｓ_１_１
  6
EXLTYPE2
 62
     1
100
AcDbLine
 10
1414.999999999996
 20
1615.000000000001
 30
0.0
 11
1414.999999999996
 21
1565.000000000001
 31
0.0
  0
LINE
  5
3AC
330
1F
100
AcDbEntity
  8
Ｓ_１_１
  6
EXLTYPE2
 62
     1
100
AcDbLine
 10
1389.999999999996
 20
1590.000000000001
 30
0.0
 11
1439.999999999996
 21
1590.000000000001
 31
0.0
  0
LINE
  5
3AD
330
1F
100
AcDbEntity
  8
Ｓ_１_１
  6
EXLTYPE2
 62
     1
100
AcDbLine
 10
1114.999999999996
 20
1615.000000000001
 30
0.0
 11
1114.999999999996
 21
1565.000000000001
 31
0.0
  0
LINE
  5
3AE
330
1F
100
AcDbEntity
  8
Ｓ_１_１
  6
EXLTYPE2
 62
     1
100
AcDbLine
 10
1089.999999999996
 20
1590.000000000001
 30
0.0
 11
1139.999999999996
 21
1590.000000000001
 31
0.0
  0
LINE
  5
3AF
330
1F
100
AcDbEntity
  8
Ｓ_１_１
  6
EXLTYPE2
 62
     1
100
AcDbLine
 10
1114.999999999996
 20
1955.000244000001
 30
0.0
 11
1114.999999999996
 21
1905.000244000001
 31
0.0
  0
LINE
  5
3B0
330
1F
100
AcDbEntity
  8
Ｓ_１_１
  6
EXLTYPE2
 62
     1
100
AcDbLine
 10
1089.999999999996
 20
1930.000244000001
 30
0.0
 11
1139.999999999996
 21
1930.000244000001
 31
0.0
  0
LINE
  5
3B1
330
1F
100
AcDbEntity
  8
Ｓ_１_１
  6
EXLTYPE2
 62
     1
100
AcDbLine
 10
1414.999999999996
 20
1960.000244000001
 30
0.0
 11
1414.999999999996
 21
1907.499756
 31
0.0
  0
LINE
  5
3B2
330
1F
100
AcDbEntity
  8
Ｓ_１_１
  6
EXLTYPE2
 62
     1
100
AcDbLine
 10
1114.999999999996
 20
1960.000244000001
 30
0.0
 11
1114.999999999996
 21
1907.499756
 31
0.0
  0
LINE
  5
3B3
330
1F
100
AcDbEntity
  8
Ｓ_１_１
  6
EXLTYPE2
 62
     1
100
AcDbLine
 10
1114.999999999996
 20
1612.500000000001
 30
0.0
 11
1114.999999999996
 21
1560.000000000001
 31
0.0
  0
LINE
  5
3B4
330
1F
100
AcDbEntity
  8
Ｓ_１_１
  6
EXLTYPE2
 62
     1
100
AcDbLine
 10
1414.999999999996
 20
1612.500000000001
 30
0.0
 11
1414.999999999996
 21
1560.000000000001
 31
0.0
  0
LINE
  5
3B5
330
1F
100
AcDbEntity
  8
Ｓ_１_１
  6
CONTINUOUS
 62
     3
100
AcDbLine
 10
2619.999998807895
 20
1059.999906088681
 30
0.0
 11
2220.000001192099
 21
1059.999906088681
 31
0.0
  0
CIRCLE
  5
3B6
330
1F
100
AcDbEntity
  8
Ｓ_１_１
  6
CONTINUOUS
 62
     3
100
AcDbCircle
 10
1265.000000000006
 20
620.00003300607
 30
0.0
 40
16.0
  0
CIRCLE
  5
3B7
330
1F
100
AcDbEntity
  8
Ｓ_１_１
  6
CONTINUOUS
 62
     3
100
AcDbCircle
 10
1265.000000000006
 20
620.00003300607
 30
0.0
 40
14.58898671826498
  0
CIRCLE
  5
3B8
330
1F
100
AcDbEntity
  8
Ｓ_１_１
  6
CONTINUOUS
 62
     3
100
AcDbCircle
 10
1265.000000000006
 20
620.00003300607
 30
0.0
 40
10.62462489497569
  0
CIRCLE
  5
3B9
330
1F
100
AcDbEntity
  8
Ｓ_１_１
  6
CONTINUOUS
 62
     3
100
AcDbCircle
 10
1265.000000000006
 20
620.00003300607
 30
0.0
 40
4.983155732690521
  0
POLYLINE
  5
3BA
330
1F
100
AcDbEntity
  8
Ｓ_１_１
  6
CONTINUOUS
 62
     3
100
AcDb2dPolyline
 66
     1
 10
0.0
 20
0.0
 30
0.0
 70
   128
  0
VERTEX
  5
3BB
330
3BA
100
AcDbEntity
  8
Ｓ_１_１
  6
CONTINUOUS
 62
     3
100
AcDbVertex
100
AcDb2dVertex
 10
1265.000000000006
 20
833.8564364863819
 30
0.0
  0
VERTEX
  5
3BC
330
3BA
100
AcDbEntity
  8
Ｓ_１_１
  6
CONTINUOUS
 62
     3
100
AcDbVertex
100
AcDb2dVertex
 10
1277.000000000005
 20
826.9282332561056
 30
0.0
  0
VERTEX
  5
3BD
330
3BA
100
AcDbEntity
  8
Ｓ_１_１
  6
CONTINUOUS
 62
     3
100
AcDbVertex
100
AcDb2dVertex
 10
1277.000000000005
 20
813.0718267955549
 30
0.0
  0
VERTEX
  5
3BE
330
3BA
100
AcDbEntity
  8
Ｓ_１_１
  6
CONTINUOUS
 62
     3
100
AcDbVertex
100
AcDb2dVertex
 10
1265.000000000006
 20
806.1436235652786
 30
0.0
  0
VERTEX
  5
3BF
330
3BA
100
AcDbEntity
  8
Ｓ_１_１
  6
CONTINUOUS
 62
     3
100
AcDbVertex
100
AcDb2dVertex
 10
1253.000000000005
 20
813.0718267955549
 30
0.0
  0
VERTEX
  5
3C0
330
3BA
100
AcDbEntity
  8
Ｓ_１_１
  6
CONTINUOUS
 62
     3
100
AcDbVertex
100
AcDb2dVertex
 10
1253.000000000005
 20
826.9282332561056
 30
0.0
  0
VERTEX
  5
3C1
330
3BA
100
AcDbEntity
  8
Ｓ_１_１
  6
CONTINUOUS
 62
     3
100
AcDbVertex
100
AcDb2dVertex
 10
1265.000000000006
 20
833.8564364863819
 30
0.0
  0
SEQEND
  5
3C2
330
3BA
100
AcDbEntity
  8
Ｓ_１_１
  6
CONTINUOUS
 62
     3
  0
CIRCLE
  5
3C3
330
1F
100
AcDbEntity
  8
Ｓ_１_１
  6
CONTINUOUS
 62
     3
100
AcDbCircle
 10
1265.000000000006
 20
820.0000300258303
 30
0.0
 40
12.00000000000102
  0
CIRCLE
  5
3C4
330
1F
100
AcDbEntity
  8
Ｓ_１_１
  6
CONTINUOUS
 62
     3
100
AcDbCircle
 10
1265.000000000006
 20
820.0000300258303
 30
0.0
 40
10.72532284355114
  0
CIRCLE
  5
3C5
330
1F
100
AcDbEntity
  8
Ｓ_１_１
  6
CONTINUOUS
 62
     3
100
AcDbCircle
 10
1265.000000000006
 20
820.0000300258303
 30
0.0
 40
6.323600530683808
  0
CIRCLE
  5
3C6
330
1F
100
AcDbEntity
  8
Ｓ_１_１
  6
CONTINUOUS
 62
     3
100
AcDbCircle
 10
1265.000000000006
 20
820.0000300258303
 30
0.0
 40
4.217842489549019
  0
LINE
  5
3C7
330
1F
100
AcDbEntity
  8
Ｓ_１_１
  6
CONTINUOUS
 62
     3
100
AcDbLine
 10
1314.0
 20
824.2500300258297
 30
0.0
 11
1319.0
 21
824.2500300258297
 31
0.0
  0
LINE
  5
3C8
330
1F
100
AcDbEntity
  8
Ｓ_１_１
  6
CONTINUOUS
 62
     3
100
AcDbLine
 10
1314.0
 20
815.7500300258296
 30
0.0
 11
1319.0
 21
815.7500300258296
 31
0.0
  0
LINE
  5
3C9
330
1F
100
AcDbEntity
  8
Ｓ_１_１
  6
CONTINUOUS
 62
     3
100
AcDbLine
 10
1314.0
 20
815.0000300258296
 30
0.0
 11
1318.25
 21
815.0000300258296
 31
0.0
  0
LINE
  5
3CA
330
1F
100
AcDbEntity
  8
Ｓ_１_１
  6
CONTINUOUS
 62
     3
100
AcDbLine
 10
1314.0
 20
825.0000300258296
 30
0.0
 11
1318.25
 21
825.0000300258296
 31
0.0
  0
LINE
  5
3CB
330
1F
100
AcDbEntity
  8
Ｓ_１_１
  6
CONTINUOUS
 62
     3
100
AcDbLine
 10
1319.0
 20
815.7500300258296
 30
0.0
 11
1319.0
 21
824.2500300258297
 31
0.0
  0
LINE
  5
3CC
330
1F
100
AcDbEntity
  8
Ｓ_１_１
  6
CONTINUOUS
 62
     3
100
AcDbLine
 10
1318.25
 20
815.0000300258296
 30
0.0
 11
1318.25
 21
825.0000300258296
 31
0.0
  0
LINE
  5
3CD
330
1F
100
AcDbEntity
  8
Ｓ_１_１
  6
CONTINUOUS
 62
     3
100
AcDbLine
 10
1318.2500025577
 20
815.0000311508296
 30
0.0
 11
1319.0000006565
 21
815.7500293128294
 31
0.0
  0
LINE
  5
3CE
330
1F
100
AcDbEntity
  8
Ｓ_１_１
  6
CONTINUOUS
 62
     3
100
AcDbLine
 10
1319.000001646999
 20
824.2500319511294
 30
0.0
 11
1318.2500014619
 21
825.0000320729293
 31
0.0
  0
LINE
  5
3CF
330
1F
100
AcDbEntity
  8
Ｓ_１_１
  6
CONTINUOUS
 62
     3
100
AcDbLine
 10
1307.0
 20
820.0000300258296
 30
0.0
 11
1307.0
 21
830.0000300258296
 31
0.0
  0
LINE
  5
3D0
330
1F
100
AcDbEntity
  8
Ｓ_１_１
  6
CONTINUOUS
 62
     3
100
AcDbLine
 10
1307.0
 20
810.0000300258296
 30
0.0
 11
1307.0
 21
820.0000300258296
 31
0.0
  0
LINE
  5
3D1
330
1F
100
AcDbEntity
  8
Ｓ_１_１
  6
CONTINUOUS
 62
     3
100
AcDbLine
 10
1307.000000551
 20
830.0000294748295
 30
0.0
 11
1308.000000579999
 21
829.0000293615292
 31
0.0
  0
LINE
  5
3D2
330
1F
100
AcDbEntity
  8
Ｓ_１_１
  6
CONTINUOUS
 62
     3
100
AcDbLine
 10
1308.0000002849
 20
811.0000302264295
 30
0.0
 11
1307.0000004877
 21
810.0000305135293
 31
0.0
  0
LINE
  5
3D3
330
1F
100
AcDbEntity
  8
Ｓ_１_１
  6
CONTINUOUS
 62
     3
100
AcDbLine
 10
1308.0
 20
811.0000302264295
 30
0.0
 11
1308.0
 21
820.0000300258296
 31
0.0
  0
LINE
  5
3D4
330
1F
100
AcDbEntity
  8
Ｓ_１_１
  6
CONTINUOUS
 62
     3
100
AcDbLine
 10
1308.0
 20
820.0000300258296
 30
0.0
 11
1308.0
 21
829.0000293615292
 31
0.0
  0
LINE
  5
3D5
330
1F
100
AcDbEntity
  8
Ｓ_１_１
  6
CONTINUOUS
 62
     3
100
AcDbLine
 10
1277.499999999999
 20
830.0000300258296
 30
0.0
 11
1307.0
 21
830.0000300258296
 31
0.0
  0
LINE
  5
3D6
330
1F
100
AcDbEntity
  8
Ｓ_１_１
  6
CONTINUOUS
 62
     3
100
AcDbLine
 10
1313.9999981656
 20
827.4924426890295
 30
0.0
 11
1312.9999979724
 21
829.5000292787292
 31
0.0
  0
LINE
  5
3D7
330
1F
100
AcDbEntity
  8
Ｓ_１_１
  6
CONTINUOUS
 62
     3
100
AcDbLine
 10
1313.9999995145
 20
812.5076162698294
 30
0.0
 11
1312.9999993213
 21
810.5000296801293
 31
0.0
  0
LINE
  5
3D8
330
1F
100
AcDbEntity
  8
Ｓ_１_１
  6
CONTINUOUS
 62
     3
100
AcDbLine
 10
1307.999999976599
 20
827.4924433320296
 30
0.0
 11
1309.0000001698
 21
829.5000299217293
 31
0.0
  0
LINE
  5
3D9
330
1F
100
AcDbEntity
  8
Ｓ_１_１
  6
CONTINUOUS
 62
     3
100
AcDbLine
 10
1307.9999984859
 20
812.5076159115295
 30
0.0
 11
1308.9999985375
 21
810.5000296063292
 31
0.0
  0
LINE
  5
3DA
330
1F
100
AcDbEntity
  8
Ｓ_１_１
  6
CONTINUOUS
 62
     3
100
AcDbLine
 10
1309.0
 20
810.5000300258296
 30
0.0
 11
1313.0
 21
810.5000300258296
 31
0.0
  0
LINE
  5
3DB
330
1F
100
AcDbEntity
  8
Ｓ_１_１
  6
CONTINUOUS
 62
     3
100
AcDbLine
 10
1309.0
 20
829.5000300258296
 30
0.0
 11
1313.0
 21
829.5000300258296
 31
0.0
  0
LINE
  5
3DC
330
1F
100
AcDbEntity
  8
Ｓ_１_１
  6
CONTINUOUS
 62
     3
100
AcDbLine
 10
1314.0
 20
820.0000300258296
 30
0.0
 11
1314.0
 21
827.4924438645296
 31
0.0
  0
LINE
  5
3DD
330
1F
100
AcDbEntity
  8
Ｓ_１_１
  6
CONTINUOUS
 62
     3
100
AcDbLine
 10
1314.0
 20
812.5076161871295
 30
0.0
 11
1314.0
 21
820.0000300258296
 31
0.0
  0
ARC
  5
3DE
330
1F
100
AcDbEntity
  8
Ｓ_１_１
  6
CONTINUOUS
 62
     3
100
AcDbCircle
 10
1323.5416666667
 20
820.0000300258296
 30
0.0
 40
15.5416666667
100
AcDbArc
 50
159.3345163543002
 51
159.3345238904477
  0
ARC
  5
3DF
330
1F
100
AcDbEntity
  8
Ｓ_１_１
  6
CONTINUOUS
 62
     3
100
AcDbCircle
 10
1298.458333333299
 20
820.0000300258296
 30
0.0
 40
15.5416666667
100
AcDbArc
 50
20.66547610955293
 51
20.66547840939962
  0
ARC
  5
3E0
330
1F
100
AcDbEntity
  8
Ｓ_１_１
  6
CONTINUOUS
 62
     3
100
AcDbCircle
 10
1323.5416666667
 20
820.0000300258296
 30
0.0
 40
15.5416666667
100
AcDbArc
 50
162.8126324028145
 51
197.1873680951787
  0
ARC
  5
3E1
330
1F
100
AcDbEntity
  8
Ｓ_１_１
  6
CONTINUOUS
 62
     3
100
AcDbCircle
 10
1323.5416666667
 20
820.0000300258296
 30
0.0
 40
15.5416666667
100
AcDbArc
 50
200.6654786560356
 51
200.6654800033002
  0
ARC
  5
3E2
330
1F
100
AcDbEntity
  8
Ｓ_１_１
  6
CONTINUOUS
 62
     3
100
AcDbCircle
 10
1298.458333333299
 20
820.0000300258296
 30
0.0
 40
15.5416666667
100
AcDbArc
 50
342.8126319048212
 51
17.18736759718547
  0
LINE
  5
3E3
330
1F
100
AcDbEntity
  8
Ｓ_１_１
  6
CONTINUOUS
 62
     3
100
AcDbLine
 10
1313.305964117862
 20
824.5925525205096
 30
0.0
 11
1308.694035882138
 21
824.5925525205096
 31
0.0
  0
LINE
  5
3E4
330
1F
100
AcDbEntity
  8
Ｓ_１_１
  6
CONTINUOUS
 62
     3
100
AcDbLine
 10
1313.305964077945
 20
815.4075074020996
 30
0.0
 11
1308.694035922054
 21
815.4075074020996
 31
0.0
  0
ARC
  5
3E5
330
1F
100
AcDbEntity
  8
Ｓ_１_１
  6
CONTINUOUS
 62
     3
100
AcDbCircle
 10
1308.0
 20
812.5076128718395
 30
0.0
 40
6.000000000001596
100
AcDbArc
 50
0.0000417559226242
 51
28.90218407791362
  0
ARC
  5
3E6
330
1F
100
AcDbEntity
  8
Ｓ_１_１
  6
CONTINUOUS
 62
     3
100
AcDbCircle
 10
1314.0
 20
812.5076172445096
 30
0.0
 40
6.000000000001596
100
AcDbArc
 50
151.0978636188124
 51
180.0000417558857
  0
ARC
  5
3E7
330
1F
100
AcDbEntity
  8
Ｓ_１_１
  6
CONTINUOUS
 62
     3
100
AcDbCircle
 10
1314.0
 20
827.4924433790095
 30
0.0
 40
6.000000000000006
100
AcDbArc
 50
179.9999920172612
 51
208.9021440266621
  0
ARC
  5
3E8
330
1F
100
AcDbEntity
  8
Ｓ_１_１
  6
CONTINUOUS
 62
     3
100
AcDbCircle
 10
1308.0
 20
827.4924433790095
 30
0.0
 40
6.000000000001596
100
AcDbArc
 50
331.0978559733464
 51
0.0
  0
LINE
  5
3E9
330
1F
100
AcDbEntity
  8
Ｓ_１_１
  6
CONTINUOUS
 62
     3
100
AcDbLine
 10
1277.499999999999
 20
810.0000300258296
 30
0.0
 11
1307.0
 21
810.0000300258296
 31
0.0
  0
LINE
  5
3EA
330
1F
100
AcDbEntity
  8
Ｓ_１_１
  6
CONTINUOUS
 62
     3
100
AcDbLine
 10
1252.499999999999
 20
832.5000300258304
 30
0.0
 11
1252.499999999999
 21
807.5000300258305
 31
0.0
  0
LINE
  5
3EB
330
1F
100
AcDbEntity
  8
Ｓ_１_１
  6
CONTINUOUS
 62
     3
100
AcDbLine
 10
1277.499999999999
 20
832.5000300258304
 30
0.0
 11
1277.499999999999
 21
807.5000300258303
 31
0.0
  0
ARC
  5
3EC
330
1F
100
AcDbEntity
  8
Ｓ_１_１
  6
CONTINUOUS
 62
     3
100
AcDbCircle
 10
1265.000000000006
 20
820.0000300258303
 30
0.0
 40
15.0
100
AcDbArc
 50
56.44269023807936
 51
123.5573097619206
  0
ARC
  5
3ED
330
1F
100
AcDbEntity
  8
Ｓ_１_１
  6
CONTINUOUS
 62
     3
100
AcDbCircle
 10
1265.000000000006
 20
820.0000300258303
 30
0.0
 40
15.0
100
AcDbArc
 50
146.4426902381223
 51
213.5573097618778
  0
ARC
  5
3EE
330
1F
100
AcDbEntity
  8
Ｓ_１_１
  6
CONTINUOUS
 62
     3
100
AcDbCircle
 10
1265.000000000006
 20
820.0000300258303
 30
0.0
 40
15.0
100
AcDbArc
 50
236.4426902380792
 51
303.5573097619207
  0
ARC
  5
3EF
330
1F
100
AcDbEntity
  8
Ｓ_１_１
  6
CONTINUOUS
 62
     3
100
AcDbCircle
 10
1265.000000000006
 20
820.0000300258303
 30
0.0
 40
15.0
100
AcDbArc
 50
326.4426902380361
 51
33.55730976196409
  0
LINE
  5
3F0
330
1F
100
AcDbEntity
  8
Ｓ_１_１
  6
CONTINUOUS
 62
     3
100
AcDbLine
 10
1252.499999999999
 20
807.5000300258303
 30
0.0
 11
1262.650635094616
 21
807.5000300258303
 31
0.0
  0
LINE
  5
3F1
330
1F
100
AcDbEntity
  8
Ｓ_１_１
  6
CONTINUOUS
 62
     3
100
AcDbLine
 10
1267.349364905395
 20
807.5000300258303
 30
0.0
 11
1277.499999999999
 21
807.5000300258303
 31
0.0
  0
LINE
  5
3F2
330
1F
100
AcDbEntity
  8
Ｓ_１_１
  6
CONTINUOUS
 62
     3
100
AcDbLine
 10
1253.499999999999
 20
808.5000300258303
 30
0.0
 11
1260.918584287047
 21
808.5000300258303
 31
0.0
  0
LINE
  5
3F3
330
1F
100
AcDbEntity
  8
Ｓ_１_１
  6
CONTINUOUS
 62
     3
100
AcDbLine
 10
1269.081415712963
 20
808.5000300258303
 30
0.0
 11
1276.499999999999
 21
808.5000300258303
 31
0.0
  0
LINE
  5
3F4
330
1F
100
AcDbEntity
  8
Ｓ_１_１
  6
CONTINUOUS
 62
     3
100
AcDbLine
 10
1253.499999999999
 20
812.7831516609638
 30
0.0
 11
1253.499999999999
 21
808.5000300258303
 31
0.0
  0
LINE
  5
3F5
330
1F
100
AcDbEntity
  8
Ｓ_１_１
  6
CONTINUOUS
 62
     3
100
AcDbLine
 10
1253.499999999999
 20
831.5000300258303
 30
0.0
 11
1253.499999999999
 21
827.216908390697
 31
0.0
  0
LINE
  5
3F6
330
1F
100
AcDbEntity
  8
Ｓ_１_１
  6
CONTINUOUS
 62
     3
100
AcDbLine
 10
1276.499999999999
 20
831.5000300258303
 30
0.0
 11
1276.499999999999
 21
827.216908390704
 31
0.0
  0
LINE
  5
3F7
330
1F
100
AcDbEntity
  8
Ｓ_１_１
  6
CONTINUOUS
 62
     3
100
AcDbLine
 10
1276.499999999999
 20
812.7831516609566
 30
0.0
 11
1276.499999999999
 21
808.5000300258303
 31
0.0
  0
LINE
  5
3F8
330
1F
100
AcDbEntity
  8
Ｓ_１_１
  6
CONTINUOUS
 62
     3
100
AcDbLine
 10
1253.499999999999
 20
831.5000300258303
 30
0.0
 11
1260.918584287047
 21
831.5000300258303
 31
0.0
  0
LINE
  5
3F9
330
1F
100
AcDbEntity
  8
Ｓ_１_１
  6
CONTINUOUS
 62
     3
100
AcDbLine
 10
1252.499999999999
 20
832.5000300258304
 30
0.0
 11
1262.650635094616
 21
832.5000300258304
 31
0.0
  0
LINE
  5
3FA
330
1F
100
AcDbEntity
  8
Ｓ_１_１
  6
CONTINUOUS
 62
     3
100
AcDbLine
 10
1267.349364905395
 20
832.5000300258304
 30
0.0
 11
1277.499999999999
 21
832.5000300258304
 31
0.0
  0
LINE
  5
3FB
330
1F
100
AcDbEntity
  8
Ｓ_１_１
  6
CONTINUOUS
 62
     3
100
AcDbLine
 10
1269.081415712963
 20
831.5000300258303
 30
0.0
 11
1276.499999999999
 21
831.5000300258303
 31
0.0
  0
LINE
  5
3FC
330
1F
100
AcDbEntity
  8
Ｓ_１_１
  6
EXLTYPE8
 62
     1
100
AcDbLine
 10
1245.533106803893
 20
820.0000300258257
 30
0.0
 11
1322.479999999999
 21
820.0000300258257
 31
0.0
  0
LINE
  5
3FD
330
1F
100
AcDbEntity
  8
Ｓ_１_１
  6
CONTINUOUS
 62
     3
100
AcDbLine
 10
2253.63772638419
 20
808.5000300258301
 30
0.0
 11
2253.63772638419
 21
820.0000300258301
 31
0.0
  0
LINE
  5
3FE
330
1F
100
AcDbEntity
  8
Ｓ_１_１
  6
CONTINUOUS
 62
     3
100
AcDbLine
 10
2253.63772638419
 20
820.0000300258301
 30
0.0
 11
2253.63772638419
 21
831.5000300258301
 31
0.0
  0
LINE
  5
3FF
330
1F
100
AcDbEntity
  8
Ｓ_１_１
  6
CONTINUOUS
 62
     3
100
AcDbLine
 10
2252.63772638419
 20
832.5000300258301
 30
0.0
 11
2237.13772638419
 21
832.5000300258301
 31
0.0
  0
LINE
  5
400
330
1F
100
AcDbEntity
  8
Ｓ_１_１
  6
CONTINUOUS
 62
     3
100
AcDbLine
 10
2221.63772638419
 20
832.5000300258301
 30
0.0
 11
2237.13772638419
 21
832.5000300258301
 31
0.0
  0
LINE
  5
401
330
1F
100
AcDbEntity
  8
Ｓ_１_１
  6
CONTINUOUS
 62
     3
100
AcDbLine
 10
2220.63772638419
 20
808.5000300258301
 30
0.0
 11
2220.63772638419
 21
820.0000300258301
 31
0.0
  0
LINE
  5
402
330
1F
100
AcDbEntity
  8
Ｓ_１_１
  6
CONTINUOUS
 62
     3
100
AcDbLine
 10
2220.63772638419
 20
820.0000300258301
 30
0.0
 11
2220.63772638419
 21
831.5000300258301
 31
0.0
  0
LINE
  5
403
330
1F
100
AcDbEntity
  8
Ｓ_１_１
  6
CONTINUOUS
 62
     3
100
AcDbLine
 10
2220.637724825491
 20
831.5000313947302
 30
0.0
 11
2221.63772495989
 21
832.5000314447301
 31
0.0
  0
LINE
  5
404
330
1F
100
AcDbEntity
  8
Ｓ_１_１
  6
CONTINUOUS
 62
     3
100
AcDbLine
 10
2252.63772748129
 20
832.5000308125299
 30
0.0
 11
2253.63772719419
 21
831.50003101543
 31
0.0
  0
LINE
  5
405
330
1F
100
AcDbEntity
  8
Ｓ_１_１
  6
CONTINUOUS
 62
     3
100
AcDbLine
 10
2252.63772630839
 20
807.5000300739301
 30
0.0
 11
2253.63772635119
 21
808.5000302010302
 31
0.0
  0
LINE
  5
406
330
1F
100
AcDbEntity
  8
Ｓ_１_１
  6
CONTINUOUS
 62
     3
100
AcDbLine
 10
2252.63772638419
 20
807.5000300258301
 30
0.0
 11
2237.13772638419
 21
807.5000300258301
 31
0.0
  0
LINE
  5
407
330
1F
100
AcDbEntity
  8
Ｓ_１_１
  6
CONTINUOUS
 62
     3
100
AcDbLine
 10
2220.63772592139
 20
808.5000297374303
 30
0.0
 11
2221.637725718491
 21
807.50003002453
 31
0.0
  0
LINE
  5
408
330
1F
100
AcDbEntity
  8
Ｓ_１_１
  6
CONTINUOUS
 62
     3
100
AcDbLine
 10
2221.63772638419
 20
807.5000300258301
 30
0.0
 11
2237.13772638419
 21
807.5000300258301
 31
0.0
  0
LINE
  5
409
330
1F
100
AcDbEntity
  8
Ｓ_１_１
  6
CONTINUOUS
 62
     3
100
AcDbLine
 10
2221.63772638419
 20
807.5000300258301
 30
0.0
 11
2221.63772638419
 21
832.5000300258301
 31
0.0
  0
LINE
  5
40A
330
1F
100
AcDbEntity
  8
Ｓ_１_１
  6
CONTINUOUS
 62
     3
100
AcDbLine
 10
2252.63772638419
 20
807.5000300258301
 30
0.0
 11
2252.63772638419
 21
832.5000300258301
 31
0.0
  0
LINE
  5
40B
330
1F
100
AcDbEntity
  8
Ｓ_１_１
  6
CONTINUOUS
 62
     3
100
AcDbLine
 10
2219.275454384179
 20
828.2648920258301
 30
0.0
 11
2219.275454384179
 21
811.7351750258302
 31
0.0
  0
LINE
  5
40C
330
1F
100
AcDbEntity
  8
Ｓ_１_１
  6
CONTINUOUS
 62
     3
100
AcDbLine
 10
2213.137753384179
 20
812.8201490258302
 30
0.0
 11
2219.275466384179
 21
812.4365410258305
 31
0.0
  0
LINE
  5
40D
330
1F
100
AcDbEntity
  8
Ｓ_１_１
  6
CONTINUOUS
 62
     3
100
AcDbLine
 10
2213.137735384179
 20
812.1187790258303
 30
0.0
 11
2220.63774938418
 21
811.6500280258305
 31
0.0
  0
LINE
  5
40E
330
1F
100
AcDbEntity
  8
Ｓ_１_１
  6
CONTINUOUS
 62
     3
100
AcDbLine
 10
2219.275446384179
 20
812.4365560258304
 30
0.0
 11
2220.637729384179
 21
811.6500410258303
 31
0.0
  0
LINE
  5
40F
330
1F
100
AcDbEntity
  8
Ｓ_１_１
  6
CONTINUOUS
 62
     3
100
AcDbLine
 10
2213.137723384179
 20
827.88128002583
 30
0.0
 11
2220.637768384179
 21
828.3500330258302
 31
0.0
  0
LINE
  5
410
330
1F
100
AcDbEntity
  8
Ｓ_１_１
  6
CONTINUOUS
 62
     3
100
AcDbLine
 10
2220.637745384179
 20
828.3500190258304
 30
0.0
 11
2219.275475384179
 21
827.56351302583
 31
0.0
  0
LINE
  5
411
330
1F
100
AcDbEntity
  8
Ｓ_１_１
  6
CONTINUOUS
 62
     3
100
AcDbLine
 10
2213.137741384179
 20
827.1799180258304
 30
0.0
 11
2219.275484384179
 21
827.5635270258302
 31
0.0
  0
LINE
  5
412
330
1F
100
AcDbEntity
  8
Ｓ_１_１
  6
CONTINUOUS
 62
     3
100
AcDbLine
 10
2260.0000173842
 20
827.2510190258303
 30
0.0
 11
2255.000007384199
 21
827.5635200258301
 31
0.0
  0
LINE
  5
413
330
1F
100
AcDbEntity
  8
Ｓ_１_１
  6
CONTINUOUS
 62
     3
100
AcDbLine
 10
2260.000005384199
 20
827.9523830258303
 30
0.0
 11
2253.6377543842
 21
828.3500230258304
 31
0.0
  0
LINE
  5
414
330
1F
100
AcDbEntity
  8
Ｓ_１_１
  6
CONTINUOUS
 62
     3
100
AcDbLine
 10
2254.999998384199
 20
828.2648920258301
 30
0.0
 11
2254.999998384199
 21
811.7351750258302
 31
0.0
  0
LINE
  5
415
330
1F
100
AcDbEntity
  8
Ｓ_１_１
  6
CONTINUOUS
 62
     3
100
AcDbLine
 10
2253.637707384199
 20
828.3500420258305
 30
0.0
 11
2254.999990384199
 21
827.5635280258301
 31
0.0
  0
LINE
  5
416
330
1F
100
AcDbEntity
  8
Ｓ_１_１
  6
CONTINUOUS
 62
     3
100
AcDbLine
 10
2260.000005384199
 20
812.7490440258301
 30
0.0
 11
2254.999995384199
 21
812.4365430258302
 31
0.0
  0
LINE
  5
417
330
1F
100
AcDbEntity
  8
Ｓ_１_１
  6
CONTINUOUS
 62
     3
100
AcDbLine
 10
2259.999992384199
 20
812.0476800258303
 30
0.0
 11
2253.637742384199
 21
811.6500400258304
 31
0.0
  0
LINE
  5
418
330
1F
100
AcDbEntity
  8
Ｓ_１_１
  6
CONTINUOUS
 62
     3
100
AcDbLine
 10
2255.000006384199
 20
812.4365330258305
 30
0.0
 11
2253.637736384199
 21
811.6500260258302
 31
0.0
  0
ARC
  5
419
330
1F
100
AcDbEntity
  8
Ｓ_１_１
  6
CONTINUOUS
 62
     3
100
AcDbCircle
 10
2212.271560384181
 20
830.3923185258199
 30
0.0
 40
6.133925000000002
100
AcDbArc
 50
145.6154380000004
 51
214.3845830000003
  0
ARC
  5
41A
330
1F
100
AcDbEntity
  8
Ｓ_１_１
  6
CONTINUOUS
 62
     3
100
AcDbCircle
 10
2229.065872384181
 20
820.0000145258199
 30
0.0
 40
22.927938
100
AcDbArc
 50
162.411858
 51
197.5881660000002
  0
ARC
  5
41B
330
1F
100
AcDbEntity
  8
Ｓ_１_１
  6
CONTINUOUS
 62
     3
100
AcDbCircle
 10
2207.003860384181
 20
809.6076805258202
 30
0.0
 40
6.133925000000002
100
AcDbArc
 50
325.6154019999991
 51
34.38456099999978
  0
ARC
  5
41C
330
1F
100
AcDbEntity
  8
Ｓ_１_１
  6
CONTINUOUS
 62
     3
100
AcDbCircle
 10
2169.137893384181
 20
815.5000145258203
 30
0.0
 40
1.0
100
AcDbArc
 50
179.9999779999953
 51
269.9999749999977
  0
ARC
  5
41D
330
1F
100
AcDbEntity
  8
Ｓ_１_１
  6
CONTINUOUS
 62
     3
100
AcDbCircle
 10
2212.271560384181
 20
809.6076805258202
 30
0.0
 40
6.133925000000002
100
AcDbArc
 50
145.6153689999997
 51
214.384513999999
  0
ARC
  5
41E
330
1F
100
AcDbEntity
  8
Ｓ_１_１
  6
CONTINUOUS
 62
     3
100
AcDbCircle
 10
2190.20979338418
 20
820.0000145258199
 30
0.0
 40
22.927942
100
AcDbArc
 50
342.4118210000002
 51
17.58811500000014
  0
ARC
  5
41F
330
1F
100
AcDbEntity
  8
Ｓ_１_１
  6
CONTINUOUS
 62
     3
100
AcDbCircle
 10
2207.003860384181
 20
830.3923185258199
 30
0.0
 40
6.133925000000002
100
AcDbArc
 50
325.6154159999999
 51
34.38457399999984
  0
ARC
  5
420
330
1F
100
AcDbEntity
  8
Ｓ_１_１
  6
CONTINUOUS
 62
     3
100
AcDbCircle
 10
2169.137893384181
 20
824.4999845258199
 30
0.0
 40
1.0
100
AcDbArc
 50
89.99999700000235
 51
179.9999780000017
  0
LINE
  5
421
330
1F
100
AcDbEntity
  8
Ｓ_１_１
  6
CONTINUOUS
 62
     3
100
AcDbLine
 10
2166.137771384181
 20
818.5000455258199
 30
0.0
 11
2166.137771384181
 21
821.5000145258199
 31
0.0
  0
LINE
  5
422
330
1F
100
AcDbEntity
  8
Ｓ_１_１
  6
CONTINUOUS
 62
     3
100
AcDbLine
 10
2213.13764938418
 20
808.0000145258205
 30
0.0
 11
2213.13764938418
 21
831.9999845258197
 31
0.0
  0
LINE
  5
423
330
1F
100
AcDbEntity
  8
Ｓ_１_１
  6
CONTINUOUS
 62
     3
100
AcDbLine
 10
2169.137893384181
 20
814.4999845258202
 30
0.0
 11
2178.13764938418
 21
814.4999845258202
 31
0.0
  0
LINE
  5
424
330
1F
100
AcDbEntity
  8
Ｓ_１_１
  6
CONTINUOUS
 62
     3
100
AcDbLine
 10
2178.13764938418
 20
814.4999845258202
 30
0.0
 11
2178.13764938418
 21
825.5000145258199
 31
0.0
  0
LINE
  5
425
330
1F
100
AcDbEntity
  8
Ｓ_１_１
  6
CONTINUOUS
 62
     3
100
AcDbLine
 10
2181.637893384181
 20
811.0000455258204
 30
0.0
 11
2183.637771384181
 21
811.0000455258204
 31
0.0
  0
LINE
  5
426
330
1F
100
AcDbEntity
  8
Ｓ_１_１
  6
CONTINUOUS
 62
     3
100
AcDbLine
 10
2181.637893384181
 20
829.0000145258199
 30
0.0
 11
2183.637771384181
 21
829.0000145258199
 31
0.0
  0
LINE
  5
427
330
1F
100
AcDbEntity
  8
Ｓ_１_１
  6
CONTINUOUS
 62
     3
100
AcDbLine
 10
2197.137771384181
 20
808.7500145258203
 30
0.0
 11
2197.137771384181
 21
831.2500145258199
 31
0.0
  0
LINE
  5
428
330
1F
100
AcDbEntity
  8
Ｓ_１_１
  6
CONTINUOUS
 62
     3
100
AcDbLine
 10
2197.637771384181
 20
831.7500145258199
 30
0.0
 11
2206.137771384181
 21
831.7500145258199
 31
0.0
  0
LINE
  5
429
330
1F
100
AcDbEntity
  8
Ｓ_１_１
  6
CONTINUOUS
 62
     3
100
AcDbLine
 10
2197.637771384181
 20
808.2499845258202
 30
0.0
 11
2206.137771384181
 21
808.2499845258202
 31
0.0
  0
LINE
  5
42A
330
1F
100
AcDbEntity
  8
Ｓ_１_１
  6
CONTINUOUS
 62
     3
100
AcDbLine
 10
2212.065797384181
 20
806.1436465258201
 30
0.0
 11
2213.13757438418
 21
808.0000185258203
 31
0.0
  0
LINE
  5
42B
330
1F
100
AcDbEntity
  8
Ｓ_１_１
  6
CONTINUOUS
 62
     3
100
AcDbLine
 10
2206.137580384181
 20
831.9999415258197
 30
0.0
 11
2207.209419384181
 21
833.85641952582
 31
0.0
  0
LINE
  5
42C
330
1F
100
AcDbEntity
  8
Ｓ_１_１
  6
CONTINUOUS
 62
     3
100
AcDbLine
 10
2213.13761638418
 20
831.9999835258199
 30
0.0
 11
2212.065839384181
 21
833.8563565258199
 31
0.0
  0
LINE
  5
42D
330
1F
100
AcDbEntity
  8
Ｓ_１_１
  6
CONTINUOUS
 62
     3
100
AcDbLine
 10
2207.209279384181
 20
806.1436535258202
 30
0.0
 11
2206.137502384181
 21
808.0000265258204
 31
0.0
  0
LINE
  5
42E
330
1F
100
AcDbEntity
  8
Ｓ_１_１
  6
CONTINUOUS
 62
     3
100
AcDbLine
 10
2207.209549384181
 20
833.8564295258196
 30
0.0
 11
2212.065872384181
 21
833.8564295258196
 31
0.0
  0
LINE
  5
42F
330
1F
100
AcDbEntity
  8
Ｓ_１_１
  6
CONTINUOUS
 62
     3
100
AcDbLine
 10
2207.209549384181
 20
826.9282375258198
 30
0.0
 11
2212.065872384181
 21
826.9282375258198
 31
0.0
  0
LINE
  5
430
330
1F
100
AcDbEntity
  8
Ｓ_１_１
  6
CONTINUOUS
 62
     3
100
AcDbLine
 10
2207.209549384181
 20
813.0718835258203
 30
0.0
 11
2212.065872384181
 21
813.0718835258203
 31
0.0
  0
LINE
  5
431
330
1F
100
AcDbEntity
  8
Ｓ_１_１
  6
CONTINUOUS
 62
     3
100
AcDbLine
 10
2207.209549384181
 20
806.1436155258201
 30
0.0
 11
2212.065872384181
 21
806.1436155258201
 31
0.0
  0
LINE
  5
432
330
1F
100
AcDbEntity
  8
Ｓ_１_１
  6
CONTINUOUS
 62
     3
100
AcDbLine
 10
2206.137771384181
 20
808.0000145258205
 30
0.0
 11
2206.137771384181
 21
831.9999845258197
 31
0.0
  0
LINE
  5
433
330
1F
100
AcDbEntity
  8
Ｓ_１_１
  6
CONTINUOUS
 62
     3
100
AcDbLine
 10
2168.13764938418
 20
815.5000145258203
 30
0.0
 11
2168.13764938418
 21
824.4999845258199
 31
0.0
  0
LINE
  5
434
330
1F
100
AcDbEntity
  8
Ｓ_１_１
  6
CONTINUOUS
 62
     3
100
AcDbLine
 10
2166.13758438418
 20
821.4998735258199
 30
0.0
 11
2168.137629384181
 21
823.4999185258197
 31
0.0
  0
LINE
  5
435
330
1F
100
AcDbEntity
  8
Ｓ_１_１
  6
CONTINUOUS
 62
     3
100
AcDbLine
 10
2168.137586384181
 20
816.4998465258203
 30
0.0
 11
2166.13762738418
 21
818.4998055258196
 31
0.0
  0
LINE
  5
436
330
1F
100
AcDbEntity
  8
Ｓ_１_１
  6
CONTINUOUS
 62
     3
100
AcDbLine
 10
2186.637893384181
 20
812.5000145258205
 30
0.0
 11
2186.637893384181
 21
827.5000145258199
 31
0.0
  0
LINE
  5
437
330
1F
100
AcDbEntity
  8
Ｓ_１_１
  6
CONTINUOUS
 62
     3
100
AcDbLine
 10
2185.137771384181
 20
812.5000145258205
 30
0.0
 11
2185.137771384181
 21
827.5000145258199
 31
0.0
  0
LINE
  5
438
330
1F
100
AcDbEntity
  8
Ｓ_１_１
  6
CONTINUOUS
 62
     3
100
AcDbLine
 10
2181.637893384181
 20
811.0000455258204
 30
0.0
 11
2181.637893384181
 21
829.0000145258199
 31
0.0
  0
LINE
  5
439
330
1F
100
AcDbEntity
  8
Ｓ_１_１
  6
CONTINUOUS
 62
     3
100
AcDbLine
 10
2188.13764938418
 20
829.0000145258199
 30
0.0
 11
2197.137771384181
 21
829.0000145258199
 31
0.0
  0
LINE
  5
43A
330
1F
100
AcDbEntity
  8
Ｓ_１_１
  6
CONTINUOUS
 62
     3
100
AcDbLine
 10
2188.13764938418
 20
811.0000455258204
 30
0.0
 11
2197.137771384181
 21
811.0000455258204
 31
0.0
  0
LINE
  5
43B
330
1F
100
AcDbEntity
  8
Ｓ_１_１
  6
CONTINUOUS
 62
     3
100
AcDbLine
 10
2183.63775038418
 20
810.9999025258202
 30
0.0
 11
2185.137763384181
 21
812.4999145258201
 31
0.0
  0
LINE
  5
43C
330
1F
100
AcDbEntity
  8
Ｓ_１_１
  6
CONTINUOUS
 62
     3
100
AcDbLine
 10
2185.137764384181
 20
827.4999805258199
 30
0.0
 11
2183.637881384181
 21
828.9998635258198
 31
0.0
  0
LINE
  5
43D
330
1F
100
AcDbEntity
  8
Ｓ_１_１
  6
CONTINUOUS
 62
     3
100
AcDbLine
 10
2183.637771384181
 20
811.0000455258204
 30
0.0
 11
2183.637771384181
 21
829.0000145258199
 31
0.0
  0
LINE
  5
43E
330
1F
100
AcDbEntity
  8
Ｓ_１_１
  6
CONTINUOUS
 62
     3
100
AcDbLine
 10
2188.13761638418
 20
811.0000165258201
 30
0.0
 11
2186.637733384181
 21
812.4998995258201
 31
0.0
  0
LINE
  5
43F
330
1F
100
AcDbEntity
  8
Ｓ_１_１
  6
CONTINUOUS
 62
     3
100
AcDbLine
 10
2186.637775384181
 20
827.4998665258198
 30
0.0
 11
2188.137787384181
 21
828.9998795258197
 31
0.0
  0
LINE
  5
440
330
1F
100
AcDbEntity
  8
Ｓ_１_１
  6
CONTINUOUS
 62
     3
100
AcDbLine
 10
2197.637771384181
 20
808.2499845258202
 30
0.0
 11
2197.637771384181
 21
831.7500145258199
 31
0.0
  0
LINE
  5
441
330
1F
100
AcDbEntity
  8
Ｓ_１_１
  6
CONTINUOUS
 62
     3
100
AcDbLine
 10
2188.13764938418
 20
811.0000455258204
 30
0.0
 11
2188.13764938418
 21
829.0000145258199
 31
0.0
  0
LINE
  5
442
330
1F
100
AcDbEntity
  8
Ｓ_１_１
  6
CONTINUOUS
 62
     3
100
AcDbLine
 10
2185.137771384181
 20
812.5000145258205
 30
0.0
 11
2186.637893384181
 21
812.5000145258205
 31
0.0
  0
LINE
  5
443
330
1F
100
AcDbEntity
  8
Ｓ_１_１
  6
CONTINUOUS
 62
     3
100
AcDbLine
 10
2185.137771384181
 20
827.5000145258199
 30
0.0
 11
2186.637893384181
 21
827.5000145258199
 31
0.0
  0
LINE
  5
444
330
1F
100
AcDbEntity
  8
Ｓ_１_１
  6
CONTINUOUS
 62
     3
100
AcDbLine
 10
2197.137682384181
 20
831.2499105258197
 30
0.0
 11
2197.637628384181
 21
831.74985752582
 31
0.0
  0
LINE
  5
445
330
1F
100
AcDbEntity
  8
Ｓ_１_１
  6
CONTINUOUS
 62
     3
100
AcDbLine
 10
2197.637680384181
 20
808.2499395258204
 30
0.0
 11
2197.137771384181
 21
808.7498375258205
 31
0.0
  0
LINE
  5
446
330
1F
100
AcDbEntity
  8
Ｓ_１_１
  6
CONTINUOUS
 62
     3
100
AcDbLine
 10
2181.637662384181
 20
810.9999735258202
 30
0.0
 11
2178.13764838418
 21
814.4999875258203
 31
0.0
  0
LINE
  5
447
330
1F
100
AcDbEntity
  8
Ｓ_１_１
  6
CONTINUOUS
 62
     3
100
AcDbLine
 10
2178.137862384181
 20
825.49986452582
 30
0.0
 11
2181.637834384181
 21
828.9998355258198
 31
0.0
  0
LINE
  5
448
330
1F
100
AcDbEntity
  8
Ｓ_１_１
  6
CONTINUOUS
 62
     3
100
AcDbLine
 10
2169.137893384181
 20
825.5000145258199
 30
0.0
 11
2178.13764938418
 21
825.5000145258199
 31
0.0
  0
CIRCLE
  5
449
330
1F
100
AcDbEntity
  8
Ｓ_１_１
  6
CONTINUOUS
 62
     3
100
AcDbCircle
 10
2237.137726384189
 20
820.0000300258301
 30
0.0
 40
10.0
  0
POLYLINE
  5
44A
330
1F
100
AcDbEntity
  8
Ｓ_１_１
  6
CONTINUOUS
 62
     3
100
AcDb2dPolyline
 66
     1
 10
0.0
 20
0.0
 30
0.0
 70
   128
  0
VERTEX
  5
44B
330
44A
100
AcDbEntity
  8
Ｓ_１_１
  6
CONTINUOUS
 62
     3
100
AcDbVertex
100
AcDb2dVertex
 10
2227.637726384189
 20
820.0000300258301
 30
0.0
  0
VERTEX
  5
44C
330
44A
100
AcDbEntity
  8
Ｓ_１_１
  6
CONTINUOUS
 62
     3
100
AcDbVertex
100
AcDb2dVertex
 10
2232.387726384189
 20
811.7727886898782
 30
0.0
  0
VERTEX
  5
44D
330
44A
100
AcDbEntity
  8
Ｓ_１_１
  6
CONTINUOUS
 62
     3
100
AcDbVertex
100
AcDb2dVertex
 10
2241.887726384189
 20
811.7727886898782
 30
0.0
  0
VERTEX
  5
44E
330
44A
100
AcDbEntity
  8
Ｓ_１_１
  6
CONTINUOUS
 62
     3
100
AcDbVertex
100
AcDb2dVertex
 10
2246.637726384189
 20
820.0000300258301
 30
0.0
  0
VERTEX
  5
44F
330
44A
100
AcDbEntity
  8
Ｓ_１_１
  6
CONTINUOUS
 62
     3
100
AcDbVertex
100
AcDb2dVertex
 10
2241.887726384189
 20
828.2272713617825
 30
0.0
  0
VERTEX
  5
450
330
44A
100
AcDbEntity
  8
Ｓ_１_１
  6
CONTINUOUS
 62
     3
100
AcDbVertex
100
AcDb2dVertex
 10
2232.387726384189
 20
828.2272713617825
 30
0.0
  0
VERTEX
  5
451
330
44A
100
AcDbEntity
  8
Ｓ_１_１
  6
CONTINUOUS
 62
     3
100
AcDbVertex
100
AcDb2dVertex
 10
2227.637726384189
 20
820.0000300258301
 30
0.0
  0
SEQEND
  5
452
330
44A
100
AcDbEntity
  8
Ｓ_１_１
  6
CONTINUOUS
 62
     3
  0
CIRCLE
  5
453
330
1F
100
AcDbEntity
  8
Ｓ_１_１
  6
CONTINUOUS
 62
     3
100
AcDbCircle
 10
2237.137726384189
 20
820.0000300258301
 30
0.0
 40
8.227241335951572
  0
ARC
  5
454
330
1F
100
AcDbEntity
  8
Ｓ_１_１
  6
CONTINUOUS
 62
     3
100
AcDbCircle
 10
2237.137726384189
 20
820.0000300258301
 30
0.0
 40
8.999999915700016
100
AcDbArc
 50
186.0835974972829
 51
233.9164025027172
  0
ARC
  5
455
330
1F
100
AcDbEntity
  8
Ｓ_１_１
  6
CONTINUOUS
 62
     3
100
AcDbCircle
 10
2237.137726384189
 20
820.0000300258301
 30
0.0
 40
8.999999915700016
100
AcDbArc
 50
246.0835974972827
 51
293.9164025027173
  0
ARC
  5
456
330
1F
100
AcDbEntity
  8
Ｓ_１_１
  6
CONTINUOUS
 62
     3
100
AcDbCircle
 10
2237.137726384189
 20
820.0000300258301
 30
0.0
 40
8.999999915700016
100
AcDbArc
 50
306.0835974972829
 51
353.9164025027171
  0
ARC
  5
457
330
1F
100
AcDbEntity
  8
Ｓ_１_１
  6
CONTINUOUS
 62
     3
100
AcDbCircle
 10
2237.137726384189
 20
820.0000300258301
 30
0.0
 40
8.999999915700016
100
AcDbArc
 50
6.083597497282877
 51
53.91640250271725
  0
ARC
  5
458
330
1F
100
AcDbEntity
  8
Ｓ_１_１
  6
CONTINUOUS
 62
     3
100
AcDbCircle
 10
2237.137726384189
 20
820.0000300258301
 30
0.0
 40
8.999999915700016
100
AcDbArc
 50
66.08359749728265
 51
113.9164025027174
  0
ARC
  5
459
330
1F
100
AcDbEntity
  8
Ｓ_１_１
  6
CONTINUOUS
 62
     3
100
AcDbCircle
 10
2237.137726384189
 20
820.0000300258301
 30
0.0
 40
8.999999915700016
100
AcDbArc
 50
126.0835974972829
 51
173.9164025027172
  0
CIRCLE
  5
45A
330
1F
100
AcDbEntity
  8
Ｓ_１_１
  6
CONTINUOUS
 62
     3
100
AcDbCircle
 10
2237.137726384189
 20
820.0000300258301
 30
0.0
 40
5.000000000000001
  0
CIRCLE
  5
45B
330
1F
100
AcDbEntity
  8
Ｓ_１_１
  6
CONTINUOUS
 62
     3
100
AcDbCircle
 10
2237.137726384189
 20
820.0000300258301
 30
0.0
 40
4.25
  0
LINE
  5
45C
330
1F
100
AcDbEntity
  8
Ｓ_１_１
  6
EXLTYPE2
 62
     1
100
AcDbLine
 10
2237.13772638419
 20
833.0000300258303
 30
0.0
 11
2237.13772638419
 21
807.0000300258301
 31
0.0
  0
LINE
  5
45D
330
1F
100
AcDbEntity
  8
Ｓ_１_１
  6
EXLTYPE8
 62
     1
100
AcDbLine
 10
2160.979887943299
 20
820.0000300258257
 30
0.0
 11
2284.956591129329
 21
820.0000300258257
 31
0.0
  0
LINE
  5
45E
330
1F
100
AcDbEntity
  8
Ｓ_１_１
  6
EXLTYPE2
 62
     1
100
AcDbLine
 10
2171.175235641354
 20
620.0000330060666
 30
0.0
 11
2269.875185342485
 21
620.0000330060666
 31
0.0
  0
POLYLINE
  5
45F
330
1F
100
AcDbEntity
  8
Ｓ_１_１
  6
CONTINUOUS
 62
     3
100
AcDb2dPolyline
 66
     1
 10
0.0
 20
0.0
 30
0.0
 70
   128
  0
VERTEX
  5
460
330
45F
100
AcDbEntity
  8
Ｓ_１_１
  6
CONTINUOUS
 62
     3
100
AcDbVertex
100
AcDb2dVertex
 10
2234.250975038252
 20
820.0000300258301
 30
0.0
  0
VERTEX
  5
461
330
45F
100
AcDbEntity
  8
Ｓ_１_１
  6
CONTINUOUS
 62
     3
100
AcDbVertex
100
AcDb2dVertex
 10
2235.694350711226
 20
817.5000300258301
 30
0.0
  0
VERTEX
  5
462
330
45F
100
AcDbEntity
  8
Ｓ_１_１
  6
CONTINUOUS
 62
     3
100
AcDbVertex
100
AcDb2dVertex
 10
2238.581102057174
 20
817.5000300258301
 30
0.0
  0
VERTEX
  5
463
330
45F
100
AcDbEntity
  8
Ｓ_１_１
  6
CONTINUOUS
 62
     3
100
AcDbVertex
100
AcDb2dVertex
 10
2240.024477730148
 20
820.0000300258301
 30
0.0
  0
VERTEX
  5
464
330
45F
100
AcDbEntity
  8
Ｓ_１_１
  6
CONTINUOUS
 62
     3
100
AcDbVertex
100
AcDb2dVertex
 10
2238.581102057174
 20
822.5000300258301
 30
0.0
  0
VERTEX
  5
465
330
45F
100
AcDbEntity
  8
Ｓ_１_１
  6
CONTINUOUS
 62
     3
100
AcDbVertex
100
AcDb2dVertex
 10
2235.694350711226
 20
822.5000300258301
 30
0.0
  0
VERTEX
  5
466
330
45F
100
AcDbEntity
  8
Ｓ_１_１
  6
CONTINUOUS
 62
     3
100
AcDbVertex
100
AcDb2dVertex
 10
2234.250975038252
 20
820.0000300258301
 30
0.0
  0
SEQEND
  5
467
330
45F
100
AcDbEntity
  8
Ｓ_１_１
  6
CONTINUOUS
 62
     3
  0
LINE
  5
468
330
1F
100
AcDbEntity
  8
Ｓ_１_１
  6
CONTINUOUS
 62
     3
100
AcDbLine
 10
865.0000042915576
 20
1099.999949559565
 30
0.0
 11
1012.499999999999
 21
1099.999949559565
 31
0.0
  0
LINE
  5
469
330
1F
100
AcDbEntity
  8
Ｓ_１_１
  6
CONTINUOUS
 62
     3
100
AcDbLine
 10
865.0000042915576
 20
1059.999950155612
 30
0.0
 11
1265.000000000015
 21
1059.999950155612
 31
0.0
  0
LINE
  5
46A
330
1F
100
AcDbEntity
  8
Ｓ_１_１
  6
CONTINUOUS
 62
     3
100
AcDbLine
 10
1664.999972820306
 20
1099.999949559565
 30
0.0
 11
1517.499999999983
 21
1099.999949559565
 31
0.0
  0
LINE
  5
46B
330
1F
100
AcDbEntity
  8
Ｓ_１_１
  6
CONTINUOUS
 62
     3
100
AcDbLine
 10
1664.999972820306
 20
1059.999950155612
 30
0.0
 11
1265.000000000015
 21
1059.999950155612
 31
0.0
  0
LINE
  5
46C
330
1F
100
AcDbEntity
  8
Ｓ_１_１
  6
EXLTYPE2
 62
     1
100
AcDbLine
 10
1000.000003948823
 20
984.9999512731988
 30
0.0
 11
1050.000003203765
 21
984.9999512731988
 31
0.0
  0
LINE
  5
46D
330
1F
100
AcDbEntity
  8
Ｓ_１_１
  6
EXLTYPE2
 62
     1
100
AcDbLine
 10
980.0000042468462
 20
1067.239940282102
 30
0.0
 11
980.0000042468462
 21
1004.999950975176
 31
0.0
  0
ARC
  5
46E
330
1F
100
AcDbEntity
  8
Ｓ_１_１
  6
EXLTYPE2
 62
     1
100
AcDbCircle
 10
1000.000003948823
 20
1004.999950975176
 30
0.0
 40
19.99999970197679
100
AcDbArc
 50
179.999991348578
 51
270.0000006832453
  0
ARC
  5
46F
330
1F
100
AcDbEntity
  8
Ｓ_１_１
  6
EXLTYPE2
 62
     1
100
AcDbCircle
 10
1050.000003203765
 20
1004.999950975176
 30
0.0
 40
19.99999970197679
100
AcDbArc
 50
269.9999974955218
 51
0.0
  0
LINE
  5
470
330
1F
100
AcDbEntity
  8
Ｓ_１_１
  6
EXLTYPE2
 62
     1
100
AcDbLine
 10
1070.000002905742
 20
1067.940013513858
 30
0.0
 11
1070.000002905742
 21
1004.999950975176
 31
0.0
  0
CIRCLE
  5
471
330
1F
100
AcDbEntity
  8
Ｓ_１_１
  6
CONTINUOUS
 62
     3
100
AcDbCircle
 10
1265.000000000004
 20
1759.999999999996
 30
0.0
 40
14.99999955296518
  0
CIRCLE
  5
472
330
1F
100
AcDbEntity
  8
Ｓ_１_１
  6
CONTINUOUS
 62
     3
100
AcDbCircle
 10
1265.000000000004
 20
1759.999999999996
 30
0.0
 40
25.00000116229054
  0
LINE
  5
473
330
1F
100
AcDbEntity
  8
Ｓ_１_１
  6
CONTINUOUS
 62
     3
100
AcDbLine
 10
865.000004291538
 20
1960.000244000001
 30
0.0
 11
1664.999972820286
 21
1960.000244000001
 31
0.0
  0
LINE
  5
474
330
1F
100
AcDbEntity
  8
Ｓ_１_１
  6
CONTINUOUS
 62
     3
100
AcDbLine
 10
865.000004291538
 20
1560.000000000001
 30
0.0
 11
1664.999972820286
 21
1560.000000000001
 31
0.0
  0
LINE
  5
475
330
1F
100
AcDbEntity
  8
Ｓ_１_１
  6
EXLTYPE2
 62
     1
100
AcDbLine
 10
825.0
 20
1760.000000000001
 30
0.0
 11
1705.0
 21
1760.000000000001
 31
0.0
  0
LINE
  5
476
330
1F
100
AcDbEntity
  8
Ｓ_１_１
  6
CONTINUOUS
 62
     3
100
AcDbLine
 10
914.9999999999961
 20
2080.000244000001
 30
0.0
 11
914.9999999999961
 21
1960.000244000001
 31
0.0
  0
LINE
  5
477
330
1F
100
AcDbEntity
  8
Ｓ_１_１
  6
CONTINUOUS
 62
     3
100
AcDbLine
 10
914.9999999999961
 20
1560.000000000001
 30
0.0
 11
914.9999999999961
 21
1440.000000000001
 31
0.0
  0
LINE
  5
478
330
1F
100
AcDbEntity
  8
Ｓ_１_１
  6
CONTINUOUS
 62
     3
100
AcDbLine
 10
1615.000243999997
 20
1560.000000000001
 30
0.0
 11
1615.000243999997
 21
1439.999756000001
 31
0.0
  0
LINE
  5
479
330
1F
100
AcDbEntity
  8
Ｓ_１_１
  6
CONTINUOUS
 62
     3
100
AcDbLine
 10
1615.000243999997
 20
2079.999756
 30
0.0
 11
1615.000243999997
 21
1960.000244000001
 31
0.0
  0
DIMENSION
  5
47A
330
1F
100
AcDbEntity
  8
Ｓ_１_１
  6
CONTINUOUS
 62
     2
100
AcDbDimension
  2
*D16
 10
1815.0
 20
2110.000244
 30
0.0
 11
1790.25
 21
1760.000122
 31
0.0
 70
   160
  3
ISO-25
100
AcDbAlignedDimension
 13
1585.000369
 23
1410.0
 33
0.0
 14
1584.99984
 24
2110.000244
 34
0.0
 50
90.0
100
AcDbRotatedDimension
1001
ACAD
1000
DSTYLE
1002
{
1070
   270
1070
     2
1070
     6
1000
EX_NORM
1070
     7
1000
EX_NORM
1070
    41
1040
27.0
1070
    42
1040
13.5
1070
    44
1040
9.0
1070
    73
1070
     0
1070
    74
1070
     0
1070
    75
1070
     0
1070
    76
1070
     0
1070
    77
1070
     1
1070
    78
1070
     8
1070
   140
1040
31.16613741339492
1070
   147
1040
0.0
1070
   173
1070
     1
1070
   176
1070
     2
1070
   177
1070
     2
1070
   178
1070
     2
1070
   271
1070
     2
1070
   277
1070
     2
1070
   279
1070
     2
1070
   280
1070
     0
1070
   287
1070
     5
1070
   340
1005
11F
1002
}
  0
DIMENSION
  5
487
330
1F
100
AcDbEntity
  8
Ｓ_１_１
  6
CONTINUOUS
 62
     2
100
AcDbDimension
  2
*D17
 10
1615.000244
 20
1265.0
 30
0.0
 11
1265.000122
 21
1289.75
 31
0.0
 70
   160
  3
ISO-25
100
AcDbAlignedDimension
 13
915.0
 23
1440.000258
 33
0.0
 14
1615.000244
 24
1439.999875
 34
0.0
100
AcDbRotatedDimension
1001
ACAD
1000
DSTYLE
1002
{
1070
   270
1070
     2
1070
     6
1000
EX_NORM
1070
     7
1000
EX_NORM
1070
    41
1040
27.0
1070
    42
1040
13.5
1070
    44
1040
9.0
1070
    73
1070
     0
1070
    74
1070
     0
1070
    75
1070
     0
1070
    76
1070
     0
1070
    77
1070
     1
1070
    78
1070
     8
1070
   140
1040
31.16613741339492
1070
   147
1040
0.0
1070
   173
1070
     1
1070
   176
1070
     2
1070
   177
1070
     2
1070
   178
1070
     2
1070
   271
1070
     2
1070
   277
1070
     2
1070
   279
1070
     2
1070
   280
1070
     0
1070
   287
1070
     5
1070
   340
1005
11F
1002
}
  0
DIMENSION
  5
494
330
1F
100
AcDbEntity
  8
Ｓ_１_１
  6
CONTINUOUS
 62
     2
100
AcDbDimension
  2
*D18
 10
660.0000000000001
 20
735.0000312924301
 30
0.0
 11
635.2500000000001
 21
505.000015646215
 31
0.0
 70
   160
  3
ISO-25
100
AcDbAlignedDimension
 13
915.00000521542
 23
275.0
 33
0.0
 14
1080.000057981
 24
735.00003129243
 34
0.0
 50
90.0
100
AcDbRotatedDimension
1001
ACAD
1000
DSTYLE
1002
{
1070
   270
1070
     2
1070
     6
1000
EX_NORM
1070
     7
1000
EX_NORM
1070
    41
1040
27.0
1070
    42
1040
0.0
1070
    44
1040
0.0
1070
    73
1070
     0
1070
    74
1070
     0
1070
    75
1070
     1
1070
    76
1070
     1
1070
    77
1070
     1
1070
    78
1070
     8
1070
   140
1040
31.16613741339492
1070
   147
1040
0.0
1070
   173
1070
     1
1070
   176
1070
     2
1070
   177
1070
     2
1070
   178
1070
     2
1070
   271
1070
     2
1070
   277
1070
     2
1070
   279
1070
     2
1070
   280
1070
     0
1070
   287
1070
     5
1070
   340
1005
11F
1002
}
  0
DIMENSION
  5
49F
330
1F
100
AcDbEntity
  8
Ｓ_１_１
  6
CONTINUOUS
 62
     2
100
AcDbDimension
  2
*D19
 10
660.0
 20
950.0000280886801
 30
0.0
 11
635.25
 21
842.500029690555
 31
0.0
 70
   160
  3
ISO-25
100
AcDbAlignedDimension
 13
1080.000057981
 23
735.00003129243
 33
0.0
 14
1179.041549093
 24
950.00002808868
 34
0.0
 50
90.0
100
AcDbRotatedDimension
1001
ACAD
1000
DSTYLE
1002
{
1070
   270
1070
     2
1070
     6
1000
EX_NORM
1070
     7
1000
EX_NORM
1070
    41
1040
27.0
1070
    42
1040
13.5
1070
    44
1040
9.000000000000114
1070
    73
1070
     0
1070
    74
1070
     0
1070
    75
1070
     0
1070
    76
1070
     1
1070
    77
1070
     1
1070
    78
1070
     8
1070
   140
1040
31.16613741339492
1070
   147
1040
0.0
1070
   173
1070
     1
1070
   176
1070
     2
1070
   177
1070
     2
1070
   178
1070
     2
1070
   271
1070
     2
1070
   277
1070
     2
1070
   279
1070
     2
1070
   280
1070
     0
1070
   287
1070
     5
1070
   340
1005
11F
1002
}
  0
DIMENSION
  5
4AB
330
1F
100
AcDbEntity
  8
Ｓ_１_１
  6
CONTINUOUS
 62
     2
100
AcDbDimension
  2
*D20
 10
660.0
 20
1099.9999495596
 30
0.0
 11
635.25
 21
1024.99998882414
 31
0.0
 70
   160
  3
ISO-25
100
AcDbAlignedDimension
 13
1179.041549093
 23
950.00002808868
 33
0.0
 14
865.00000429156
 24
1099.9999495596
 34
0.0
 50
90.0
100
AcDbRotatedDimension
1001
ACAD
1000
DSTYLE
1002
{
1070
   270
1070
     2
1070
     6
1000
EX_NORM
1070
     7
1000
EX_NORM
1070
    41
1040
27.0
1070
    42
1040
13.5
1070
    44
1040
9.000000000000114
1070
    73
1070
     0
1070
    74
1070
     0
1070
    75
1070
     0
1070
    76
1070
     1
1070
    77
1070
     1
1070
    78
1070
     8
1070
   140
1040
31.16613741339492
1070
   147
1040
0.0
1070
   173
1070
     1
1070
   176
1070
     2
1070
   177
1070
     2
1070
   178
1070
     2
1070
   271
1070
     2
1070
   277
1070
     2
1070
   279
1070
     2
1070
   280
1070
     0
1070
   287
1070
     5
1070
   340
1005
11F
1002
}
  0
DIMENSION
  5
4B7
330
1F
100
AcDbEntity
  8
Ｓ_１_１
  6
CONTINUOUS
 62
     2
100
AcDbDimension
  2
*D21
 10
605.0
 20
1099.9999495596
 30
0.0
 11
580.25
 21
687.4999747798
 31
0.0
 70
   160
  3
ISO-25
100
AcDbAlignedDimension
 13
915.00000521542
 23
275.0
 33
0.0
 14
865.00000429156
 24
1099.9999495596
 34
0.0
 50
90.0
100
AcDbRotatedDimension
1001
ACAD
1000
DSTYLE
1002
{
1070
   270
1070
     2
1070
     6
1000
EX_NORM
1070
     7
1000
EX_NORM
1070
    41
1040
27.0
1070
    42
1040
13.5
1070
    44
1040
9.0
1070
    73
1070
     0
1070
    74
1070
     0
1070
    75
1070
     0
1070
    76
1070
     0
1070
    77
1070
     1
1070
    78
1070
     8
1070
   140
1040
31.16613741339492
1070
   147
1040
0.0
1070
   173
1070
     1
1070
   176
1070
     2
1070
   177
1070
     2
1070
   178
1070
     2
1070
   271
1070
     2
1070
   277
1070
     2
1070
   279
1070
     2
1070
   280
1070
     0
1070
   287
1070
     5
1070
   340
1005
11F
1002
}
  0
DIMENSION
  5
4C4
330
1F
100
AcDbEntity
  8
Ｓ_１_１
  6
CONTINUOUS
 62
     2
100
AcDbDimension
  2
*D22
 10
715.0
 20
314.99999940395
 30
0.0
 11
690.25
 21
227.7499999999998
 31
0.0
 70
   160
  3
ISO-25
100
AcDbAlignedDimension
 13
915.00000521542
 23
275.0
 33
0.0
 14
915.00000521542
 24
314.99999940395
 34
0.0
 50
90.0
100
AcDbRotatedDimension
1001
ACAD
1000
DSTYLE
1002
{
1070
   270
1070
     2
1070
     6
1000
EX_NORM
1070
     7
1000
EX_NONE
1070
    41
1040
27.0
1070
    42
1040
13.5
1070
    44
1040
9.0
1070
    73
1070
     0
1070
    74
1070
     0
1070
    75
1070
     0
1070
    76
1070
     0
1070
    77
1070
     1
1070
    78
1070
     8
1070
   140
1040
31.16613741339492
1070
   147
1040
0.0
1070
   173
1070
     1
1070
   176
1070
     2
1070
   177
1070
     2
1070
   178
1070
     2
1070
   271
1070
     2
1070
   277
1070
     2
1070
   279
1070
     2
1070
   280
1070
     1
1070
   287
1070
     5
1070
   340
1005
11F
1002
}
  0
DIMENSION
  5
4D3
330
1F
100
AcDbEntity
  8
Ｓ_１_１
  6
CONTINUOUS
 62
     2
100
AcDbDimension
  2
*D23
 10
715.0000000000001
 20
735.0000312924301
 30
0.0
 11
690.2500000000001
 21
525.00001534819
 31
0.0
 70
   160
  3
ISO-25
100
AcDbAlignedDimension
 13
915.00000521542
 23
314.99999940395
 33
0.0
 14
1080.000057981
 24
735.00003129243
 34
0.0
 50
90.0
100
AcDbRotatedDimension
1001
ACAD
1000
DSTYLE
1002
{
1070
   270
1070
     2
1070
     6
1000
EX_NORM
1070
     7
1000
EX_NORM
1070
    41
1040
27.0
1070
    42
1040
13.5
1070
    44
1040
9.0
1070
    73
1070
     0
1070
    74
1070
     0
1070
    75
1070
     1
1070
    76
1070
     0
1070
    77
1070
     1
1070
    78
1070
     8
1070
   140
1040
31.16613741339492
1070
   147
1040
0.0
1070
   173
1070
     1
1070
   176
1070
     2
1070
   177
1070
     2
1070
   178
1070
     2
1070
   271
1070
     2
1070
   277
1070
     2
1070
   279
1070
     2
1070
   280
1070
     0
1070
   287
1070
     5
1070
   340
1005
11F
1002
}
  0
DIMENSION
  5
4DF
330
1F
100
AcDbEntity
  8
Ｓ_１_１
  6
CONTINUOUS
 62
     2
100
AcDbDimension
  2
*D24
 10
715.0000000000001
 20
1060.000011786865
 30
0.0
 11
690.2500000000007
 21
1147.249949559617
 31
0.0
 70
   160
  3
ISO-25
100
AcDbAlignedDimension
 13
865.0000042915577
 23
1099.999949559617
 33
0.0
 14
865.0000042915577
 24
1060.000011786865
 34
0.0
 50
90.0
100
AcDbRotatedDimension
1001
ACAD
1000
DSTYLE
1002
{
1070
   270
1070
     2
1070
     6
1000
EX_NORM
1070
     7
1000
EX_NORM
1070
    41
1040
27.0
1070
    42
1040
13.5
1070
    44
1040
9.000000000000455
1070
    73
1070
     0
1070
    74
1070
     0
1070
    75
1070
     0
1070
    76
1070
     0
1070
    77
1070
     1
1070
    78
1070
     8
1070
   140
1040
31.16613741339492
1070
   147
1040
0.0
1070
   173
1070
     1
1070
   176
1070
     2
1070
   177
1070
     2
1070
   178
1070
     2
1070
   271
1070
     2
1070
   277
1070
     2
1070
   279
1070
     2
1070
   280
1070
     1
1070
   287
1070
     5
1070
   340
1005
11F
1002
}
  0
DIMENSION
  5
4EE
330
1F
100
AcDbEntity
  8
Ｓ_１_１
  6
CONTINUOUS
 62
     2
100
AcDbDimension
  2
*D25
 10
1504.999986887
 20
825.0
 30
0.0
 11
1582.624986887
 21
849.75
 31
0.0
 70
   160
  1
　480
  3
ISO-25
100
AcDbAlignedDimension
 13
1025.000013113
 23
730.00003136701
 33
0.0
 14
1504.999986887
 24
730.00003136701
 34
0.0
100
AcDbRotatedDimension
1001
ACAD
1000
DSTYLE
1002
{
1070
   270
1070
     2
1070
     6
1000
EX_NORM
1070
     7
1000
EX_NORM
1070
    41
1040
27.0
1070
    42
1040
13.5
1070
    44
1040
9.0
1070
    73
1070
     0
1070
    74
1070
     0
1070
    75
1070
     0
1070
    76
1070
     0
1070
    77
1070
     1
1070
    78
1070
     8
1070
   140
1040
31.16613741339492
1070
   147
1040
0.0
1070
   173
1070
     1
1070
   176
1070
     2
1070
   177
1070
     2
1070
   178
1070
     2
1070
   271
1070
     2
1070
   277
1070
     2
1070
   279
1070
     2
1070
   280
1070
     2
1070
   287
1070
     5
1070
   340
1005
11F
1002
}
  0
DIMENSION
  5
4FB
330
1F
100
AcDbEntity
  8
Ｓ_１_１
  6
CONTINUOUS
 62
     2
100
AcDbDimension
  2
*D26
 10
1554.999986142
 20
880.0
 30
0.0
 11
1612.374986142
 21
904.75
 31
0.0
 70
   160
  3
ISO-25
100
AcDbAlignedDimension
 13
975.00001385808
 23
710.00004591236
 33
0.0
 14
1554.999986142
 24
710.00004591236
 34
0.0
100
AcDbRotatedDimension
1001
ACAD
1000
DSTYLE
1002
{
1070
   270
1070
     2
1070
     6
1000
EX_NORM
1070
     7
1000
EX_NORM
1070
    41
1040
27.0
1070
    42
1040
13.5
1070
    44
1040
9.0
1070
    73
1070
     0
1070
    74
1070
     0
1070
    75
1070
     0
1070
    76
1070
     0
1070
    77
1070
     1
1070
    78
1070
     8
1070
   140
1040
31.16613741339492
1070
   147
1040
0.0
1070
   173
1070
     1
1070
   176
1070
     2
1070
   177
1070
     2
1070
   178
1070
     2
1070
   271
1070
     2
1070
   277
1070
     2
1070
   279
1070
     2
1070
   280
1070
     2
1070
   287
1070
     5
1070
   340
1005
11F
1002
}
  0
DIMENSION
  5
508
330
1F
100
AcDbEntity
  8
Ｓ_１_１
  6
CONTINUOUS
 62
     2
100
AcDbDimension
  2
*D27
 10
1483.097582099241
 20
688.0993209318112
 30
0.0
 11
1597.230566398675
 21
650.7834500480096
 31
0.0
 70
   163
  3
ISO-25
100
AcDbDiametricDimension
 15
1526.398851643225
 25
663.099321304342
 35
0.0
 40
0.0
1001
ACAD
1000
DSTYLE
1002
{
1070
   270
1070
     2
1070
     6
1000
EX_NORM
1070
     7
1000
EX_NORM
1070
    41
1040
27.0
1070
    73
1070
     0
1070
    74
1070
     0
1070
    77
1070
     1
1070
    78
1070
     8
1070
   140
1040
31.16613741339492
1070
   147
1040
0.0
1070
   173
1070
     1
1070
   176
1070
     2
1070
   177
1070
     2
1070
   178
1070
     2
1070
   271
1070
     2
1070
   277
1070
     2
1070
   279
1070
     2
1070
   280
1070
     1
1070
   287
1070
     5
1070
   340
1005
11F
1002
}
  0
TEXT
  5
514
330
1F
100
AcDbEntity
  8
Ｓ_１_１
  6
CONTINUOUS
 62
     4
100
AcDbText
 10
1421.99999999999
 20
1200.2671932702
 30
0.0
 40
27.70323325635104
  1
角ヘッド
 41
0.9992307692307693
  7
EXCADTTF1
 72
     5
 11
1565.99999999999
 21
1200.2671932702
 31
0.0
100
AcDbText
  0
LEADER
  5
515
330
1F
100
AcDbEntity
  8
Ｓ_１_１
  6
CONTINUOUS
 62
     2
100
AcDbLeader
  3
ISO-25
 76
     3
 10
1351.79999999999
 20
1099.9999495596
 30
0.0
 10
1404.16840819809
 20
1190.7046932702
 30
0.0
 10
1565.99999999999
 20
1190.7046932702
 30
0.0
1001
ACAD
1000
DSTYLE
1002
{
1070
     5
1000
EX_NORM
1070
    41
1040
27.0
1070
   341
1005
80
1002
}
  0
TEXT
  5
516
330
1F
100
AcDbEntity
  8
Ｓ_１_１
  6
CONTINUOUS
 62
     4
100
AcDbText
 10
1600.04649107369
 20
949.0628725220803
 30
0.0
 40
27.70323325635104
  1
球面回転ヘッド
 41
0.9992307692307691
  7
EXCADTTF1
 72
     5
 11
1852.04649107369
 21
949.0628725220803
 31
0.0
100
AcDbText
  0
LEADER
  5
517
330
1F
100
AcDbEntity
  8
Ｓ_１_１
  6
CONTINUOUS
 62
     2
100
AcDbLeader
  3
ISO-25
 76
     4
 10
1329.9999990314
 20
950.0000280886838
 30
0.0
 10
1422.74649107369
 20
806.6340353743702
 30
0.0
 10
1507.68015392599
 20
939.5003725220803
 30
0.0
 10
1852.04649107369
 20
939.5003725220803
 30
0.0
1001
ACAD
1000
DSTYLE
1002
{
1070
     5
1000
EX_NORM
1070
    41
1040
27.0
1070
   341
1005
80
1002
}
  0
TEXT
  5
518
330
1F
100
AcDbEntity
  8
Ｓ_１_１
  6
CONTINUOUS
 62
     4
100
AcDbText
 10
1656.89999999999
 20
525.45649808851
 30
0.0
 40
27.70323325635104
  1
安定架台
 41
0.9992307692307693
  7
EXCADTTF1
 72
     5
 11
1800.89999999999
 21
525.45649808851
 31
0.0
100
AcDbText
  0
LEADER
  5
519
330
1F
100
AcDbEntity
  8
Ｓ_１_１
  6
CONTINUOUS
 62
     2
100
AcDbLeader
  3
ISO-25
 76
     3
 10
1573.11057463259
 20
440.9668966459501
 30
0.0
 10
1616.36975682009
 20
515.89399808851
 30
0.0
 10
1800.89999999999
 20
515.89399808851
 30
0.0
1001
ACAD
1000
DSTYLE
1002
{
1070
     5
1000
EX_NORM
1070
    41
1040
27.0
1070
   341
1005
80
1002
}
  0
TEXT
  5
51A
330
1F
100
AcDbEntity
  8
Ｓ_１_１
  6
CONTINUOUS
 62
     4
100
AcDbText
 10
551.3298780000001
 20
2103.612500000001
 30
0.0
 40
27.70323325635104
  1
12-25キリ
 41
0.9992307692307693
  7
EXCADTTF1
 72
     5
 11
713.3298780000001
 21
2103.612500000001
 31
0.0
100
AcDbText
  0
LEADER
  5
51B
330
1F
100
AcDbEntity
  8
Ｓ_１_１
  6
CONTINUOUS
 62
     2
100
AcDbLeader
  3
ISO-25
 76
     3
 10
886.3979430349003
 20
1909.0694330567
 30
0.0
 10
710.9500000000003
 20
2094.050000000001
 30
0.0
 10
551.3298780000001
 20
2094.050000000001
 30
0.0
1001
ACAD
1000
DSTYLE
1002
{
1070
     5
1000
EX_NORM
1070
    41
1040
27.0
1070
   341
1005
80
1002
}
  0
LINE
  5
51C
330
1F
100
AcDbEntity
  8
Ｓ_１_１
  6
CONTINUOUS
 62
     3
100
AcDbLine
 10
965.0
 20
1099.999949559565
 30
0.0
 11
965.0
 21
1059.999950155612
 31
0.0
  0
LINE
  5
51D
330
1F
100
AcDbEntity
  8
Ｓ_１_１
  6
CONTINUOUS
 62
     3
100
AcDbLine
 10
1565.00000000003
 20
1099.999949559565
 30
0.0
 11
1565.00000000003
 21
1059.999950155612
 31
0.0
  0
LINE
  5
51E
330
1F
100
AcDbEntity
  8
Ｓ_１_１
  6
CONTINUOUS
 62
     3
100
AcDbLine
 10
965.0000018521669
 20
959.9999330464914
 30
0.0
 11
884.4999929921482
 21
1040.000010505922
 31
0.0
  0
LINE
  5
51F
330
1F
100
AcDbEntity
  8
Ｓ_１_１
  6
CONTINUOUS
 62
     3
100
AcDbLine
 10
884.5000037104123
 20
1060.000011786865
 30
0.0
 11
884.5000037104123
 21
1039.999997124123
 31
0.0
  0
LINE
  5
520
330
1F
100
AcDbEntity
  8
Ｓ_１_１
  6
CONTINUOUS
 62
     3
100
AcDbLine
 10
865.0000042915576
 20
1099.999949559617
 30
0.0
 11
865.0000042915576
 21
1060.000011786865
 31
0.0
  0
LINE
  5
521
330
1F
100
AcDbEntity
  8
Ｓ_１_１
  6
CONTINUOUS
 62
     3
100
AcDbLine
 10
964.9999860525368
 20
959.9999384731539
 30
0.0
 11
1132.500011578225
 21
959.9999384731539
 31
0.0
  0
LINE
  5
522
330
1F
100
AcDbEntity
  8
Ｓ_１_１
  6
CONTINUOUS
 62
     3
100
AcDbLine
 10
1132.500011578225
 20
965.8823845869058
 30
0.0
 11
1132.500011578225
 21
959.9999384731539
 31
0.0
  0
LINE
  5
523
330
1F
100
AcDbEntity
  8
Ｓ_１_１
  6
CONTINUOUS
 62
     3
100
AcDbLine
 10
1564.999998755215
 20
959.9999113850401
 30
0.0
 11
1645.500009644574
 21
1039.999990861208
 31
0.0
  0
LINE
  5
524
330
1F
100
AcDbEntity
  8
Ｓ_１_１
  6
CONTINUOUS
 62
     3
100
AcDbLine
 10
1397.49999700489
 20
965.8823845869058
 30
0.0
 11
1397.49999700489
 21
959.9999384731539
 31
0.0
  0
LINE
  5
525
330
1F
100
AcDbEntity
  8
Ｓ_１_１
  6
CONTINUOUS
 62
     3
100
AcDbLine
 10
1564.999991059327
 20
959.9999384731539
 30
0.0
 11
1397.49999700489
 21
959.9999384731539
 31
0.0
  0
LINE
  5
526
330
1F
100
AcDbEntity
  8
Ｓ_１_１
  6
CONTINUOUS
 62
     3
100
AcDbLine
 10
1645.499996289634
 20
1060.000011786865
 30
0.0
 11
1645.499996289634
 21
1039.999997124123
 31
0.0
  0
LINE
  5
527
330
1F
100
AcDbEntity
  8
Ｓ_１_１
  6
CONTINUOUS
 62
     3
100
AcDbLine
 10
1664.999972820306
 20
1099.999949559617
 30
0.0
 11
1664.999972820306
 21
1060.000011786865
 31
0.0
  0
LINE
  5
528
330
1F
100
AcDbEntity
  8
Ｓ_１_１
  6
CONTINUOUS
 62
     3
100
AcDbLine
 10
1564.999991059307
 20
1759.999999999996
 30
0.0
 11
1564.999991059307
 21
1560.000013589854
 31
0.0
  0
LINE
  5
529
330
1F
100
AcDbEntity
  8
Ｓ_１_１
  6
CONTINUOUS
 62
     3
100
AcDbLine
 10
865.000004291538
 20
1960.000244000001
 30
0.0
 11
865.000004291538
 21
1560.000013589854
 31
0.0
  0
LINE
  5
52A
330
1F
100
AcDbEntity
  8
Ｓ_１_１
  6
CONTINUOUS
 62
     3
100
AcDbLine
 10
1664.999972820286
 20
1960.000244000001
 30
0.0
 11
1664.999972820286
 21
1560.000013589854
 31
0.0
  0
CIRCLE
  5
52B
330
1F
100
AcDbEntity
  8
Ｓ_１_１
  6
CONTINUOUS
 62
     3
100
AcDbCircle
 10
894.9999999999999
 20
1900.0
 30
0.0
 40
12.5
  0
CIRCLE
  5
52C
330
1F
100
AcDbEntity
  8
Ｓ_１_１
  6
CONTINUOUS
 62
     3
100
AcDbCircle
 10
894.9999999999999
 20
1620.0
 30
0.0
 40
12.5
  0
CIRCLE
  5
52D
330
1F
100
AcDbEntity
  8
Ｓ_１_１
  6
CONTINUOUS
 62
     3
100
AcDbCircle
 10
1635.0
 20
1620.0
 30
0.0
 40
12.5
  0
CIRCLE
  5
52E
330
1F
100
AcDbEntity
  8
Ｓ_１_１
  6
CONTINUOUS
 62
     3
100
AcDbCircle
 10
1635.0
 20
1900.0
 30
0.0
 40
12.5
  0
LINE
  5
52F
330
1F
100
AcDbEntity
  8
Ｓ_１_１
  6
EXLTYPE2
 62
     1
100
AcDbLine
 10
869.9999999999961
 20
1620.000000000001
 30
0.0
 11
919.9999999999961
 21
1620.000000000001
 31
0.0
  0
LINE
  5
530
330
1F
100
AcDbEntity
  8
Ｓ_１_１
  6
EXLTYPE2
 62
     1
100
AcDbLine
 10
894.9999999999962
 20
1645.000000000001
 30
0.0
 11
894.9999999999962
 21
1595.000000000001
 31
0.0
  0
LINE
  5
531
330
1F
100
AcDbEntity
  8
Ｓ_１_１
  6
EXLTYPE2
 62
     1
100
AcDbLine
 10
869.9999999999961
 20
1900.0
 30
0.0
 11
919.9999999999961
 21
1900.0
 31
0.0
  0
LINE
  5
532
330
1F
100
AcDbEntity
  8
Ｓ_１_１
  6
EXLTYPE2
 62
     1
100
AcDbLine
 10
894.9999999999962
 20
1925.0
 30
0.0
 11
894.9999999999962
 21
1875.0
 31
0.0
  0
LINE
  5
533
330
1F
100
AcDbEntity
  8
Ｓ_１_１
  6
EXLTYPE2
 62
     1
100
AcDbLine
 10
1609.999999999996
 20
1900.0
 30
0.0
 11
1659.999999999996
 21
1900.0
 31
0.0
  0
LINE
  5
534
330
1F
100
AcDbEntity
  8
Ｓ_１_１
  6
EXLTYPE2
 62
     1
100
AcDbLine
 10
1634.999999999996
 20
1925.0
 30
0.0
 11
1634.999999999996
 21
1875.0
 31
0.0
  0
LINE
  5
535
330
1F
100
AcDbEntity
  8
Ｓ_１_１
  6
EXLTYPE2
 62
     1
100
AcDbLine
 10
1609.999999999996
 20
1620.000000000001
 30
0.0
 11
1659.999999999996
 21
1620.000000000001
 31
0.0
  0
LINE
  5
536
330
1F
100
AcDbEntity
  8
Ｓ_１_１
  6
EXLTYPE2
 62
     1
100
AcDbLine
 10
1634.999999999996
 20
1645.000000000001
 30
0.0
 11
1634.999999999996
 21
1595.000000000001
 31
0.0
  0
DIMENSION
  5
537
330
1F
100
AcDbEntity
  8
Ｓ_１_１
  6
CONTINUOUS
 62
     2
100
AcDbDimension
  2
*D28
 10
770.0000000000001
 20
1660.0
 30
0.0
 11
745.2500000000002
 21
1760.000122
 31
0.0
 70
   160
  3
ISO-25
100
AcDbAlignedDimension
 13
970.0
 23
1860.000244
 33
0.0
 14
970.0
 24
1660.0
 34
0.0
 50
90.0
100
AcDbRotatedDimension
1001
ACAD
1000
DSTYLE
1002
{
1070
   270
1070
     2
1070
     6
1000
EX_NORM
1070
     7
1000
EX_NORM
1070
    41
1040
27.0
1070
    42
1040
13.5
1070
    44
1040
9.000000000000114
1070
    73
1070
     0
1070
    74
1070
     0
1070
    75
1070
     0
1070
    76
1070
     0
1070
    77
1070
     1
1070
    78
1070
     8
1070
   140
1040
31.16613741339492
1070
   147
1040
0.0
1070
   173
1070
     1
1070
   176
1070
     2
1070
   177
1070
     2
1070
   178
1070
     2
1070
   271
1070
     2
1070
   277
1070
     2
1070
   279
1070
     2
1070
   280
1070
     0
1070
   287
1070
     5
1070
   340
1005
11F
1002
}
  0
DIMENSION
  5
544
330
1F
100
AcDbEntity
  8
Ｓ_１_１
  6
CONTINUOUS
 62
     2
100
AcDbDimension
  2
*D29
 10
715.0
 20
1620.0
 30
0.0
 11
690.2500000000001
 21
1760.0
 31
0.0
 70
   160
  3
ISO-25
100
AcDbAlignedDimension
 13
870.0
 23
1900.0
 33
0.0
 14
870.0
 24
1620.0
 34
0.0
 50
90.0
100
AcDbRotatedDimension
1001
ACAD
1000
DSTYLE
1002
{
1070
   270
1070
     2
1070
     6
1000
EX_NORM
1070
     7
1000
EX_NORM
1070
    41
1040
27.0
1070
    42
1040
13.5
1070
    44
1040
9.0
1070
    73
1070
     0
1070
    74
1070
     0
1070
    75
1070
     0
1070
    76
1070
     0
1070
    77
1070
     1
1070
    78
1070
     8
1070
   140
1040
31.16613741339492
1070
   147
1040
0.0
1070
   173
1070
     1
1070
   176
1070
     2
1070
   177
1070
     2
1070
   178
1070
     2
1070
   271
1070
     2
1070
   277
1070
     2
1070
   279
1070
     2
1070
   280
1070
     0
1070
   287
1070
     5
1070
   340
1005
11F
1002
}
  0
DIMENSION
  5
551
330
1F
100
AcDbEntity
  8
Ｓ_１_１
  6
CONTINUOUS
 62
     2
100
AcDbDimension
  2
*D30
 10
660.0
 20
1590.0
 30
0.0
 11
635.2500000000001
 21
1760.000122
 31
0.0
 70
   160
  3
ISO-25
100
AcDbAlignedDimension
 13
1090.0
 23
1930.000244
 33
0.0
 14
1090.0
 24
1590.0
 34
0.0
 50
90.0
100
AcDbRotatedDimension
1001
ACAD
1000
DSTYLE
1002
{
1070
   270
1070
     2
1070
     6
1000
EX_NORM
1070
     7
1000
EX_NORM
1070
    41
1040
27.0
1070
    42
1040
13.5
1070
    44
1040
9.0
1070
    73
1070
     0
1070
    74
1070
     0
1070
    75
1070
     0
1070
    76
1070
     0
1070
    77
1070
     1
1070
    78
1070
     8
1070
   140
1040
31.16613741339492
1070
   147
1040
0.0
1070
   173
1070
     1
1070
   176
1070
     2
1070
   177
1070
     2
1070
   178
1070
     2
1070
   271
1070
     2
1070
   277
1070
     2
1070
   279
1070
     2
1070
   280
1070
     0
1070
   287
1070
     5
1070
   340
1005
11F
1002
}
  0
DIMENSION
  5
55E
330
1F
100
AcDbEntity
  8
Ｓ_１_１
  6
CONTINUOUS
 62
     2
100
AcDbDimension
  2
*D31
 10
605.0
 20
1560.000013589854
 30
0.0
 11
580.2500000000001
 21
1760.000128794927
 31
0.0
 70
   160
  3
ISO-25
100
AcDbAlignedDimension
 13
865.0000042915381
 23
1960.000244000001
 33
0.0
 14
865.0000042915381
 24
1560.000013589854
 34
0.0
 50
90.0
100
AcDbRotatedDimension
1001
ACAD
1000
DSTYLE
1002
{
1070
   270
1070
     2
1070
     6
1000
EX_NORM
1070
     7
1000
EX_NORM
1070
    41
1040
27.0
1070
    42
1040
13.5
1070
    44
1040
9.0
1070
    73
1070
     0
1070
    74
1070
     0
1070
    75
1070
     0
1070
    76
1070
     0
1070
    77
1070
     1
1070
    78
1070
     8
1070
   140
1040
31.16613741339492
1070
   147
1040
0.0
1070
   173
1070
     1
1070
   176
1070
     2
1070
   177
1070
     2
1070
   178
1070
     2
1070
   271
1070
     2
1070
   277
1070
     2
1070
   279
1070
     2
1070
   280
1070
     0
1070
   287
1070
     5
1070
   340
1005
11F
1002
}
  0
DIMENSION
  5
56B
330
1F
100
AcDbEntity
  8
Ｓ_１_１
  6
CONTINUOUS
 62
     2
100
AcDbDimension
  2
*D32
 10
994.9999999999999
 20
2200.0
 30
0.0
 11
945.0000000000002
 21
2224.75
 31
0.0
 70
   160
  3
ISO-25
100
AcDbAlignedDimension
 13
895.0
 23
1925.0
 33
0.0
 14
994.9999999999999
 24
1885.000244
 34
0.0
100
AcDbRotatedDimension
1001
ACAD
1000
DSTYLE
1002
{
1070
   270
1070
     2
1070
     6
1000
EX_NORM
1070
     7
1000
EX_NORM
1070
    41
1040
27.0
1070
    42
1040
13.5
1070
    44
1040
9.0
1070
    73
1070
     0
1070
    74
1070
     0
1070
    75
1070
     0
1070
    76
1070
     0
1070
    77
1070
     1
1070
    78
1070
     8
1070
   140
1040
31.16613741339492
1070
   147
1040
0.0
1070
   173
1070
     1
1070
   176
1070
     2
1070
   177
1070
     2
1070
   178
1070
     2
1070
   271
1070
     2
1070
   277
1070
     2
1070
   279
1070
     2
1070
   280
1070
     0
1070
   287
1070
     5
1070
   340
1005
11F
1002
}
  0
DIMENSION
  5
578
330
1F
100
AcDbEntity
  8
Ｓ_１_１
  6
CONTINUOUS
 62
     2
100
AcDbDimension
  2
*D33
 10
1115.0
 20
2200.0
 30
0.0
 11
1055.0
 21
2224.75
 31
0.0
 70
   160
  3
ISO-25
100
AcDbAlignedDimension
 13
994.9999999999999
 23
1885.000244
 33
0.0
 14
1115.0
 24
1960.000244
 34
0.0
100
AcDbRotatedDimension
1001
ACAD
1000
DSTYLE
1002
{
1070
   270
1070
     2
1070
     6
1000
EX_NORM
1070
     7
1000
EX_NORM
1070
    41
1040
27.0
1070
    42
1040
13.5
1070
    44
1040
9.0
1070
    73
1070
     0
1070
    74
1070
     0
1070
    75
1070
     1
1070
    76
1070
     0
1070
    77
1070
     1
1070
    78
1070
     8
1070
   140
1040
31.16613741339492
1070
   147
1040
0.0
1070
   173
1070
     1
1070
   176
1070
     2
1070
   177
1070
     2
1070
   178
1070
     2
1070
   271
1070
     2
1070
   277
1070
     2
1070
   279
1070
     2
1070
   280
1070
     0
1070
   287
1070
     5
1070
   340
1005
11F
1002
}
  0
DIMENSION
  5
584
330
1F
100
AcDbEntity
  8
Ｓ_１_１
  6
CONTINUOUS
 62
     2
100
AcDbDimension
  2
*D34
 10
1415.0
 20
2200.0
 30
0.0
 11
1265.0
 21
2224.75
 31
0.0
 70
   160
  3
ISO-25
100
AcDbAlignedDimension
 13
1115.0
 23
1960.000244
 33
0.0
 14
1415.0
 24
1960.000244
 34
0.0
100
AcDbRotatedDimension
1001
ACAD
1000
DSTYLE
1002
{
1070
   270
1070
     2
1070
     6
1000
EX_NORM
1070
     7
1000
EX_NORM
1070
    41
1040
27.0
1070
    42
1040
13.5
1070
    44
1040
9.0
1070
    73
1070
     0
1070
    74
1070
     0
1070
    75
1070
     1
1070
    76
1070
     0
1070
    77
1070
     1
1070
    78
1070
     8
1070
   140
1040
31.16613741339492
1070
   147
1040
0.0
1070
   173
1070
     1
1070
   176
1070
     2
1070
   177
1070
     2
1070
   178
1070
     2
1070
   271
1070
     2
1070
   277
1070
     2
1070
   279
1070
     2
1070
   280
1070
     0
1070
   287
1070
     5
1070
   340
1005
11F
1002
}
  0
DIMENSION
  5
590
330
1F
100
AcDbEntity
  8
Ｓ_１_１
  6
CONTINUOUS
 62
     2
100
AcDbDimension
  2
*D35
 10
1535.0
 20
2200.0
 30
0.0
 11
1475.0
 21
2224.75
 31
0.0
 70
   160
  3
ISO-25
100
AcDbAlignedDimension
 13
1415.0
 23
1960.000244
 33
0.0
 14
1535.0
 24
1885.000244
 34
0.0
100
AcDbRotatedDimension
1001
ACAD
1000
DSTYLE
1002
{
1070
   270
1070
     2
1070
     6
1000
EX_NORM
1070
     7
1000
EX_NORM
1070
    41
1040
27.0
1070
    42
1040
13.5
1070
    44
1040
9.0
1070
    73
1070
     0
1070
    74
1070
     0
1070
    75
1070
     1
1070
    76
1070
     0
1070
    77
1070
     1
1070
    78
1070
     8
1070
   140
1040
31.16613741339492
1070
   147
1040
0.0
1070
   173
1070
     1
1070
   176
1070
     2
1070
   177
1070
     2
1070
   178
1070
     2
1070
   271
1070
     2
1070
   277
1070
     2
1070
   279
1070
     2
1070
   280
1070
     0
1070
   287
1070
     5
1070
   340
1005
11F
1002
}
  0
DIMENSION
  5
59C
330
1F
100
AcDbEntity
  8
Ｓ_１_１
  6
CONTINUOUS
 62
     2
100
AcDbDimension
  2
*D36
 10
1635.0
 20
2200.0
 30
0.0
 11
1585.0
 21
2224.75
 31
0.0
 70
   160
  3
ISO-25
100
AcDbAlignedDimension
 13
1535.0
 23
1885.000244
 33
0.0
 14
1635.0
 24
1925.0
 34
0.0
100
AcDbRotatedDimension
1001
ACAD
1000
DSTYLE
1002
{
1070
   270
1070
     2
1070
     6
1000
EX_NORM
1070
     7
1000
EX_NORM
1070
    41
1040
27.0
1070
    42
1040
13.5
1070
    44
1040
9.0
1070
    73
1070
     0
1070
    74
1070
     0
1070
    75
1070
     1
1070
    76
1070
     0
1070
    77
1070
     1
1070
    78
1070
     8
1070
   140
1040
31.16613741339492
1070
   147
1040
0.0
1070
   173
1070
     1
1070
   176
1070
     2
1070
   177
1070
     2
1070
   178
1070
     2
1070
   271
1070
     2
1070
   277
1070
     2
1070
   279
1070
     2
1070
   280
1070
     0
1070
   287
1070
     5
1070
   340
1005
11F
1002
}
  0
DIMENSION
  5
5A8
330
1F
100
AcDbEntity
  8
Ｓ_１_１
  6
CONTINUOUS
 62
     2
100
AcDbDimension
  2
*D37
 10
895.0
 20
2255.0
 30
0.0
 11
817.7500042915401
 21
2279.75
 31
0.0
 70
   160
  3
ISO-25
100
AcDbAlignedDimension
 13
865.00000429154
 23
1960.000244
 33
0.0
 14
895.0
 24
1925.0
 34
0.0
100
AcDbRotatedDimension
1001
ACAD
1000
DSTYLE
1002
{
1070
   270
1070
     2
1070
     6
1000
EX_NORM
1070
     7
1000
EX_NONE
1070
    41
1040
27.0
1070
    42
1040
13.5
1070
    44
1040
9.0
1070
    73
1070
     0
1070
    74
1070
     0
1070
    75
1070
     0
1070
    76
1070
     0
1070
    77
1070
     1
1070
    78
1070
     8
1070
   140
1040
31.16613741339492
1070
   147
1040
0.0
1070
   173
1070
     1
1070
   176
1070
     2
1070
   177
1070
     2
1070
   178
1070
     2
1070
   271
1070
     2
1070
   277
1070
     2
1070
   279
1070
     2
1070
   280
1070
     1
1070
   287
1070
     5
1070
   340
1005
11F
1002
}
  0
DIMENSION
  5
5B7
330
1F
100
AcDbEntity
  8
Ｓ_１_１
  6
CONTINUOUS
 62
     2
100
AcDbDimension
  2
*D38
 10
1635.0
 20
2255.0
 30
0.0
 11
1265.0
 21
2279.75
 31
0.0
 70
   160
  3
ISO-25
100
AcDbAlignedDimension
 13
895.0
 23
1925.0
 33
0.0
 14
1635.0
 24
1925.0
 34
0.0
100
AcDbRotatedDimension
1001
ACAD
1000
DSTYLE
1002
{
1070
   270
1070
     2
1070
     6
1000
EX_NORM
1070
     7
1000
EX_NORM
1070
    41
1040
27.0
1070
    42
1040
13.5
1070
    44
1040
9.0
1070
    73
1070
     0
1070
    74
1070
     0
1070
    75
1070
     1
1070
    76
1070
     0
1070
    77
1070
     1
1070
    78
1070
     8
1070
   140
1040
31.16613741339492
1070
   147
1040
0.0
1070
   173
1070
     1
1070
   176
1070
     2
1070
   177
1070
     2
1070
   178
1070
     2
1070
   271
1070
     2
1070
   277
1070
     2
1070
   279
1070
     2
1070
   280
1070
     0
1070
   287
1070
     5
1070
   340
1005
11F
1002
}
  0
DIMENSION
  5
5C3
330
1F
100
AcDbEntity
  8
Ｓ_１_１
  6
CONTINUOUS
 62
     2
100
AcDbDimension
  2
*D39
 10
1664.9999728203
 20
2255.0
 30
0.0
 11
1712.2499728203
 21
2279.75
 31
0.0
 70
   160
  3
ISO-25
100
AcDbAlignedDimension
 13
1635.0
 23
1925.0
 33
0.0
 14
1664.9999728203
 24
1960.000244
 34
0.0
100
AcDbRotatedDimension
1001
ACAD
1000
DSTYLE
1002
{
1070
   270
1070
     2
1070
     6
1000
EX_NONE
1070
     7
1000
EX_NORM
1070
    41
1040
27.0
1070
    42
1040
13.5
1070
    44
1040
9.0
1070
    73
1070
     0
1070
    74
1070
     0
1070
    75
1070
     1
1070
    76
1070
     0
1070
    77
1070
     1
1070
    78
1070
     8
1070
   140
1040
31.16613741339492
1070
   147
1040
0.0
1070
   173
1070
     1
1070
   176
1070
     2
1070
   177
1070
     2
1070
   178
1070
     2
1070
   271
1070
     2
1070
   277
1070
     2
1070
   279
1070
     2
1070
   280
1070
     2
1070
   287
1070
     5
1070
   340
1005
11F
1002
}
  0
DIMENSION
  5
5D1
330
1F
100
AcDbEntity
  8
Ｓ_１_１
  6
CONTINUOUS
 62
     2
100
AcDbDimension
  2
*D40
 10
1664.999972820286
 20
2310.0
 30
0.0
 11
1264.999988555913
 21
2334.75
 31
0.0
 70
   160
  3
ISO-25
100
AcDbAlignedDimension
 13
865.0000042915381
 23
1960.000244000001
 33
0.0
 14
1664.999972820286
 24
1960.000244000001
 34
0.0
100
AcDbRotatedDimension
1001
ACAD
1000
DSTYLE
1002
{
1070
   270
1070
     2
1070
     6
1000
EX_NORM
1070
     7
1000
EX_NORM
1070
    41
1040
27.0
1070
    42
1040
13.5
1070
    44
1040
9.0
1070
    73
1070
     0
1070
    74
1070
     0
1070
    75
1070
     0
1070
    76
1070
     0
1070
    77
1070
     1
1070
    78
1070
     8
1070
   140
1040
31.16613741339492
1070
   147
1040
0.0
1070
   173
1070
     1
1070
   176
1070
     2
1070
   177
1070
     2
1070
   178
1070
     2
1070
   271
1070
     2
1070
   277
1070
     2
1070
   279
1070
     2
1070
   280
1070
     0
1070
   287
1070
     5
1070
   340
1005
11F
1002
}
  0
LINE
  5
5DE
330
1F
100
AcDbEntity
  8
Ｓ_１_１
  6
EXLTYPE2
 62
     1
100
AcDbLine
 10
894.9999999999987
 20
1116.899973721798
 30
0.0
 11
894.9999999999987
 21
1050.399883159992
 31
0.0
  0
LINE
  5
5DF
330
1F
100
AcDbEntity
  8
Ｓ_１_１
  6
EXLTYPE2
 62
     1
100
AcDbLine
 10
1635.000000000032
 20
1116.899973721798
 30
0.0
 11
1635.000000000032
 21
1050.399883159992
 31
0.0
  0
ENDSEC
  0
SECTION
  2
OBJECTS
  0
DICTIONARY
  5
C
330
0
100
AcDbDictionary
  3
ACAD_GROUP
350
D
  3
ACAD_LAYOUT
350
1A
  3
ACAD_MATERIAL
350
43
  3
ACAD_MLEADERSTYLE
350
6B
  3
ACAD_MLINESTYLE
350
17
  3
ACAD_PLOTSETTINGS
350
19
  3
ACAD_SCALELIST
350
47
  3
ACAD_VISUALSTYLE
350
2A
  3
ACDBHEADERROUNDTRIPXREC
350
5E0
  3
ACDBVARIABLEDICTIONARY
350
601
  0
DICTIONARY
  5
60C
330
8
100
AcDbDictionary
280
     1
  3
ACAD_XREC_ROUNDTRIP
360
60D
  0
DICTIONARY
  5
D
102
{ACAD_REACTORS
330
C
102
}
330
C
100
AcDbDictionary
  0
DICTIONARY
  5
1A
102
{ACAD_REACTORS
330
C
102
}
330
C
100
AcDbDictionary
  0
DICTIONARY
  5
43
102
{ACAD_REACTORS
330
C
102
}
330
C
100
AcDbDictionary
  3
BYBLOCK
350
45
  3
BYLAYER
350
44
  3
GLOBAL
350
46
  0
DICTIONARY
  5
6B
102
{ACAD_REACTORS
330
C
102
}
330
C
100
AcDbDictionary
  3
STANDARD
350
6C
  0
DICTIONARY
  5
17
102
{ACAD_REACTORS
330
C
102
}
330
C
100
AcDbDictionary
  3
STANDARD
350
18
  0
DICTIONARY
  5
19
102
{ACAD_REACTORS
330
C
102
}
330
C
100
AcDbDictionary
  0
DICTIONARY
  5
47
102
{ACAD_REACTORS
330
C
102
}
330
C
100
AcDbDictionary
  3
A0
350
48
  3
A1
350
49
  3
A2
350
4A
  3
A3
350
4B
  3
A4
350
4C
  3
A5
350
4D
  3
A6
350
4E
  3
A7
350
4F
  3
A8
350
50
  3
A9
350
51
  3
B0
350
52
  3
B1
350
53
  3
B2
350
54
  3
B3
350
55
  3
B4
350
56
  3
B5
350
57
  3
B6
350
58
  3
B7
350
59
  3
B8
350
5A
  3
B9
350
5B
  3
C0
350
5C
  3
C1
350
5D
  3
C2
350
5E
  3
C3
350
5F
  3
C4
350
60
  3
C5
350
61
  3
C6
350
62
  3
C7
350
63
  3
C8
350
64
  3
C9
350
65
  3
D0
350
66
  3
D1
350
67
  3
D2
350
68
  0
DICTIONARY
  5
2A
102
{ACAD_REACTORS
330
C
102
}
330
C
100
AcDbDictionary
  3
2DWIREFRAME
350
2F
  3
BASIC
350
32
  3
BRIGHTEN
350
36
  3
COLORCHANGE
350
3A
  3
CONCEPTUAL
350
34
  3
DIM
350
35
  3
EDGECOLOROFF
350
3D
  3
FACEPATTERN
350
39
  3
FLAT
350
2B
  3
FLATWITHEDGES
350
2C
  3
GOURAUD
350
2D
  3
GOURAUDWITHEDGES
350
2E
  3
HIDDEN
350
31
  3
JITTEROFF
350
3B
  3
LINEPATTERN
350
38
  3
OVERHANGOFF
350
3C
  3
REALISTIC
350
33
  3
SHADED
350
42
  3
SHADED_WITH_EDGES
350
41
  3
SHADES_OF_GRAY
350
3E
  3
SKETCHY
350
3F
  3
THICKEN
350
37
  3
WIREFRAME
350
30
  3
X-RAY
350
40
  0
DICTIONARY
  5
5E0
102
{ACAD_REACTORS
330
C
102
}
330
C
100
AcDbDictionary
  3
CEPSNID
350
5EA
  3
CEPSNTYPE
350
5E9
  3
DIMSTYLEDATA
350
600
  3
FINGERPRINTGUID
350
5EB
  3
HYPERLINKBASE
350
5E3
  3
INSUNITS
350
5E8
  3
LAYOUTDICT
350
5E5
  3
LWETCUNION
350
5E7
  3
PLOTSETDICT
350
5E6
  3
PSVPSCALE
350
5ED
  3
PUCSBASE
350
5F0
  3
PUCSORGBACK
350
5F6
  3
PUCSORGBOTTOM
350
5F2
  3
PUCSORGFRONT
350
5F5
  3
PUCSORGLEFT
350
5F3
  3
PUCSORGRIGHT
350
5F4
  3
PUCSORGTOP
350
5F1
  3
PUCSORTHOREF
350
5EE
  3
PUCSORTHOVIEW
350
5EF
  3
STYLESHEET
350
5E4
  3
TSTACKALIGN
350
5E1
  3
TSTACKSIZE
350
5E2
  3
UCSBASE
350
5F9
  3
UCSORGBACK
350
5FF
  3
UCSORGBOTTOM
350
5FB
  3
UCSORGFRONT
350
5FE
  3
UCSORGLEFT
350
5FC
  3
UCSORGRIGHT
350
5FD
  3
UCSORGTOP
350
5FA
  3
UCSORTHOREF
350
5F7
  3
UCSORTHOVIEW
350
5F8
  3
VERSIONGUID
350
5EC
  0
DICTIONARY
  5
601
102
{ACAD_REACTORS
330
C
102
}
330
C
100
AcDbDictionary
  3
CANNOSCALE
350
60E
  3
CENTEREXE
350
608
  3
CENTERLTYPEFILE
350
609
  3
CMLEADERSTYLE
350
603
  3
CTABLESTYLE
350
602
  3
DIMASSOC
350
60A
  3
HIDETEXT
350
60B
  3
MSLTSCALE
350
60F
  3
PSOLHEIGHT
350
605
  3
PSOLWIDTH
350
604
  0
XRECORD
  5
60D
102
{ACAD_REACTORS
330
60C
102
}
330
60C
100
AcDbXrecord
102
VTR_0.000_0.000_1.000_1.000_VISUALSTYLE
340
2F
102
VTR_0.000_0.000_1.000_1.000_GRIDDISPLAY
 70
     3
102
VTR_0.000_0.000_1.000_1.000_GRIDMAJOR
 70
     5
102
VTR_0.000_0.000_1.000_1.000_DEFAULTLIGHTING
280
     1
102
VTR_0.000_0.000_1.000_1.000_DEFAULTLIGHTINGTYPE
 70
     1
102
VTR_0.000_0.000_1.000_1.000_BRIGHTNESS
141
0.0
102
VTR_0.000_0.000_1.000_1.000_CONTRAST
142
0.0
  0
MATERIAL
  5
45
102
{ACAD_REACTORS
330
43
102
}
102
{ACAD_XDICTIONARY
360
612
102
}
330
43
100
AcDbMaterial
  1
BYBLOCK
  0
MATERIAL
  5
44
102
{ACAD_REACTORS
330
43
102
}
102
{ACAD_XDICTIONARY
360
610
102
}
330
43
100
AcDbMaterial
  1
BYLAYER
  0
MATERIAL
  5
46
102
{ACAD_REACTORS
330
43
102
}
102
{ACAD_XDICTIONARY
360
614
102
}
330
43
100
AcDbMaterial
  1
GLOBAL
  0
ACAD_PROXY_OBJECT
  5
6C
102
{ACAD_REACTORS
330
6B
102
}
330
6B
100
AcDbProxyObject
 90
      499
 91
      505
 93
      610
310
40901902A4063FBFFFFFE0000000000000020400000000000020404214DD185B99185C990000000000000104090141901A00000000000004100000000000000041025764000000000000039000
340
14
340
0
340
11
340
0
 94
        0
1001
ACAD_MLEADERVER
1070
     2
  0
MLINESTYLE
  5
18
102
{ACAD_REACTORS
330
17
102
}
330
17
100
AcDbMlineStyle
  2
Standard
 70
     0
  3

 62
   256
 51
90.0
 52
90.0
 71
     2
 49
0.5
 62
   256
  6
BYLAYER
 49
-0.5
 62
   256
  6
BYLAYER
  0
ACAD_PROXY_OBJECT
  5
48
102
{ACAD_REACTORS
330
47
102
}
330
47
100
AcDbProxyObject
 90
      499
 91
      503
 93
       41
310
903313A31580
  0
ACAD_PROXY_OBJECT
  5
49
102
{ACAD_REACTORS
330
47
102
}
330
47
100
AcDbProxyObject
 90
      499
 91
      503
 93
      105
310
903313A324000000000000004000
  0
ACAD_PROXY_OBJECT
  5
4A
102
{ACAD_REACTORS
330
47
102
}
330
47
100
AcDbProxyObject
 90
      499
 91
      503
 93
      105
310
903313A344000000000000104000
  0
ACAD_PROXY_OBJECT
  5
4B
102
{ACAD_REACTORS
330
47
102
}
330
47
100
AcDbProxyObject
 90
      499
 91
      503
 93
      105
310
903313A354000000000000144000
  0
ACAD_PROXY_OBJECT
  5
4C
102
{ACAD_REACTORS
330
47
102
}
330
47
100
AcDbProxyObject
 90
      499
 91
      503
 93
      105
310
903313A384000000000000204000
  0
ACAD_PROXY_OBJECT
  5
4D
102
{ACAD_REACTORS
330
47
102
}
330
47
100
AcDbProxyObject
 90
      499
 91
      503
 93
      113
310
904313A31304000000000000244000
  0
ACAD_PROXY_OBJECT
  5
4E
102
{ACAD_REACTORS
330
47
102
}
330
47
100
AcDbProxyObject
 90
      499
 91
      503
 93
      113
310
904313A31364000000000000304000
  0
ACAD_PROXY_OBJECT
  5
4F
102
{ACAD_REACTORS
330
47
102
}
330
47
100
AcDbProxyObject
 90
      499
 91
      503
 93
      113
310
904313A32304000000000000344000
  0
ACAD_PROXY_OBJECT
  5
50
102
{ACAD_REACTORS
330
47
102
}
330
47
100
AcDbProxyObject
 90
      499
 91
      503
 93
      113
310
904313A333040000000000003E4000
  0
ACAD_PROXY_OBJECT
  5
51
102
{ACAD_REACTORS
330
47
102
}
330
47
100
AcDbProxyObject
 90
      499
 91
      503
 93
      113
310
904313A34304000000000000444000
  0
ACAD_PROXY_OBJECT
  5
52
102
{ACAD_REACTORS
330
47
102
}
330
47
100
AcDbProxyObject
 90
      499
 91
      503
 93
      113
310
904313A35304000000000000494000
  0
ACAD_PROXY_OBJECT
  5
53
102
{ACAD_REACTORS
330
47
102
}
330
47
100
AcDbProxyObject
 90
      499
 91
      503
 93
      121
310
905313A3130304000000000000594000
  0
ACAD_PROXY_OBJECT
  5
54
102
{ACAD_REACTORS
330
47
102
}
330
47
100
AcDbProxyObject
 90
      499
 91
      503
 93
      105
310
903323A310000000000000010100
  0
ACAD_PROXY_OBJECT
  5
55
102
{ACAD_REACTORS
330
47
102
}
330
47
100
AcDbProxyObject
 90
      499
 91
      503
 93
      105
310
903343A310000000000000410100
  0
ACAD_PROXY_OBJECT
  5
56
102
{ACAD_REACTORS
330
47
102
}
330
47
100
AcDbProxyObject
 90
      499
 91
      503
 93
      105
310
903383A310000000000000810100
  0
ACAD_PROXY_OBJECT
  5
57
102
{ACAD_REACTORS
330
47
102
}
330
47
100
AcDbProxyObject
 90
      499
 91
      503
 93
      113
310
90431303A310000000000000910100
  0
ACAD_PROXY_OBJECT
  5
58
102
{ACAD_REACTORS
330
47
102
}
330
47
100
AcDbProxyObject
 90
      499
 91
      503
 93
      121
310
9053130303A310000000000001650100
  0
ACAD_PROXY_OBJECT
  5
59
102
{ACAD_REACTORS
330
47
102
}
330
47
100
AcDbProxyObject
 90
      499
 91
      503
 93
      257
310
90E312F31323822203D2031272D3022000000000000200FC000000000000284000
  0
ACAD_PROXY_OBJECT
  5
5A
102
{ACAD_REACTORS
330
47
102
}
330
47
100
AcDbProxyObject
 90
      499
 91
      503
 93
      249
310
90D312F363422203D2031272D3022000000000000240FC000000000000284000
  0
ACAD_PROXY_OBJECT
  5
5B
102
{ACAD_REACTORS
330
47
102
}
330
47
100
AcDbProxyObject
 90
      499
 91
      503
 93
      249
310
90D312F333222203D2031272D3022000000000000280FC000000000000284000
  0
ACAD_PROXY_OBJECT
  5
5C
102
{ACAD_REACTORS
330
47
102
}
330
47
100
AcDbProxyObject
 90
      499
 91
      503
 93
      249
310
90D312F313622203D2031272D30220000000000002C0FC000000000000284000
  0
ACAD_PROXY_OBJECT
  5
5D
102
{ACAD_REACTORS
330
47
102
}
330
47
100
AcDbProxyObject
 90
      499
 91
      503
 93
      249
310
90D332F333222203D2031272D30220000000000002E0FC000000000000284000
  0
ACAD_PROXY_OBJECT
  5
5E
102
{ACAD_REACTORS
330
47
102
}
330
47
100
AcDbProxyObject
 90
      499
 91
      503
 93
      241
310
90C312F3822203D2031272D3022000000000000300FC000000000000284000
  0
ACAD_PROXY_OBJECT
  5
5F
102
{ACAD_REACTORS
330
47
102
}
330
47
100
AcDbProxyObject
 90
      499
 91
      503
 93
      249
310
90D332F313622203D2031272D3022000000000000320FC000000000000284000
  0
ACAD_PROXY_OBJECT
  5
60
102
{ACAD_REACTORS
330
47
102
}
330
47
100
AcDbProxyObject
 90
      499
 91
      503
 93
      241
310
90C312F3422203D2031272D3022000000000000340FC000000000000284000
  0
ACAD_PROXY_OBJECT
  5
61
102
{ACAD_REACTORS
330
47
102
}
330
47
100
AcDbProxyObject
 90
      499
 91
      503
 93
      241
310
90C332F3822203D2031272D3022000000000000360FC000000000000284000
  0
ACAD_PROXY_OBJECT
  5
62
102
{ACAD_REACTORS
330
47
102
}
330
47
100
AcDbProxyObject
 90
      499
 91
      503
 93
      241
310
90C312F3222203D2031272D3022000000000000380FC000000000000284000
  0
ACAD_PROXY_OBJECT
  5
63
102
{ACAD_REACTORS
330
47
102
}
330
47
100
AcDbProxyObject
 90
      499
 91
      503
 93
      241
310
90C332F3422203D2031272D30220000000000003A0FC000000000000284000
  0
ACAD_PROXY_OBJECT
  5
64
102
{ACAD_REACTORS
330
47
102
}
330
47
100
AcDbProxyObject
 90
      499
 91
      503
 93
      161
310
90A3122203D2031272D30224000000000000284000
  0
ACAD_PROXY_OBJECT
  5
65
102
{ACAD_REACTORS
330
47
102
}
330
47
100
AcDbProxyObject
 90
      499
 91
      503
 93
      257
310
90E312D312F3222203D2031272D30220000000000003E0FC000000000000284000
  0
ACAD_PROXY_OBJECT
  5
66
102
{ACAD_REACTORS
330
47
102
}
330
47
100
AcDbProxyObject
 90
      499
 91
      503
 93
      225
310
90A3322203D2031272D302200000000000002100000000000000284000
  0
ACAD_PROXY_OBJECT
  5
67
102
{ACAD_REACTORS
330
47
102
}
330
47
100
AcDbProxyObject
 90
      499
 91
      503
 93
      225
310
90A3622203D2031272D302200000000000006100000000000000284000
  0
ACAD_PROXY_OBJECT
  5
68
102
{ACAD_REACTORS
330
47
102
}
330
47
100
AcDbProxyObject
 90
      499
 91
      503
 93
      249
310
90D31272D3022203D2031272D30220000000000000A100000000000000284000
  0
ACAD_PROXY_OBJECT
  5
2F
102
{ACAD_REACTORS
330
2A
102
}
330
2A
100
AcDbProxyObject
 90
      499
 91
      501
 93
      436
310
42CC9915DA5C99599C985B595049028333333333333E33F0000000000000F90107901411070040501600405405064090741402480A0340
1001
ACAD
1000
AcDbSavedByObjectVersion
1070
     0
  0
ACAD_PROXY_OBJECT
  5
32
102
{ACAD_REACTORS
330
2A
102
}
330
2A
100
AcDbProxyObject
 90
      499
 91
      501
 93
      388
310
4150985CDA58D07406404333333333333E33F0000000000000F90107A41107004050150841D405064090741402480A0350
1001
ACAD
1000
AcDbSavedByObjectVersion
1070
     0
  0
ACAD_PROXY_OBJECT
  5
36
102
{ACAD_REACTORS
330
2A
102
}
330
2A
100
AcDbProxyObject
 90
      499
 91
      501
 93
      428
310
42109C9A59DA1D195B90C409028333333333333E33F0000000000000F9010790141107004050150841D405064090741402480A029950
1001
ACAD
1000
AcDbSavedByObjectVersion
1070
     0
  0
ACAD_PROXY_OBJECT
  5
3A
102
{ACAD_REACTORS
330
2A
102
}
330
2A
100
AcDbProxyObject
 90
      499
 91
      501
 93
      452
310
42D0DBDB1BDC90DA185B99D95104090240C333333333333E33F0000000000000F90108901411070040501508421405064090741402480A0350
1001
ACAD
1000
AcDbSavedByObjectVersion
1070
     0
  0
ACAD_PROXY_OBJECT
  5
34
102
{ACAD_REACTORS
330
2A
102
}
330
2A
100
AcDbProxyObject
 90
      499
 91
      501
 93
      500
310
4290DBDB98D95C1D1D585B10940D028333333333333E33F0000000000000F90107902409070040501000000000018199010841D405064090740C02480A0340
1001
ACAD
1000
AcDbSavedByObjectVersion
1070
     0
  0
ACAD_PROXY_OBJECT
  5
35
102
{ACAD_REACTORS
330
2A
102
}
330
2A
100
AcDbProxyObject
 90
      499
 91
      501
 93
      412
310
40D11A5B50B409028333333333333E33F0000000000000F9010790141107004050150841D405064090741402480A02677FFFFFD0
1001
ACAD
1000
AcDbSavedByObjectVersion
1070
     0
  0
ACAD_PROXY_OBJECT
  5
3D
102
{ACAD_REACTORS
330
2A
102
}
330
2A
100
AcDbProxyObject
 90
      499
 91
      501
 93
      452
310
43115919D950DBDB1BDC93D999916409028333333333333E33F0000000000000F9010790141107004050150841D405064090741402480A0350
1001
ACAD
1000
AcDbSavedByObjectVersion
1070
     0
  0
ACAD_PROXY_OBJECT
  5
39
102
{ACAD_REACTORS
330
2A
102
}
330
2A
100
AcDbProxyObject
 90
      499
 91
      501
 93
      444
310
42D19858D95C185D1D195C9B90F409028333333333333E33F0000000000000F9010790141107004050150841D405064090741402480A0350
1001
ACAD
1000
AcDbSavedByObjectVersion
1070
     0
  0
ACAD_PROXY_OBJECT
  5
2B
102
{ACAD_REACTORS
330
2A
102
}
330
2A
100
AcDbProxyObject
 90
      499
 91
      501
 93
      380
310
41119B185D240901404333333333333E33F0000000000000F9010740A907004050150841D405064090741402480A1B50
1001
ACAD
1000
AcDbSavedByObjectVersion
1070
     0
  0
ACAD_PROXY_OBJECT
  5
2C
102
{ACAD_REACTORS
330
2A
102
}
330
2A
100
AcDbProxyObject
 90
      499
 91
      501
 93
      468
310
43519B185D15DA5D1A115919D95CD0140901404333333333333E33F0000000000000F90107409019070040501600405405064090741402480A1B50
1001
ACAD
1000
AcDbSavedByObjectVersion
1070
     0
  0
ACAD_PROXY_OBJECT
  5
2D
102
{ACAD_REACTORS
330
2A
102
}
330
2A
100
AcDbProxyObject
 90
      499
 91
      501
 93
      404
310
41D1DBDD5C985D5910240902404333333333333E33F0000000000000F9010740A9070040501641D405064090741402480A1B50
1001
ACAD
1000
AcDbSavedByObjectVersion
1070
     0
  0
ACAD_PROXY_OBJECT
  5
2E
102
{ACAD_REACTORS
330
2A
102
}
330
2A
100
AcDbProxyObject
 90
      499
 91
      501
 93
      492
310
4411DBDD5C985D5915DA5D1A115919D95CD0340902404333333333333E33F0000000000000F90107409019070040501600405405064090741402480A1B50
1001
ACAD
1000
AcDbSavedByObjectVersion
1070
     0
  0
ACAD_PROXY_OBJECT
  5
31
102
{ACAD_REACTORS
330
2A
102
}
330
2A
100
AcDbProxyObject
 90
      499
 91
      501
 93
      476
310
41921A5919195B90640502408333333333333E33F0000000000000F901079024090700405020000000000001110200405405064090740C02480A0340
1001
ACAD
1000
AcDbSavedByObjectVersion
1070
     0
  0
ACAD_PROXY_OBJECT
  5
3B
102
{ACAD_REACTORS
330
2A
102
}
330
2A
100
AcDbProxyObject
 90
      499
 91
      501
 93
      428
310
42529A5D1D195C93D999914409028333333333333E33F0000000000000F9010790141107004050150A41D405064090741402480A0350
1001
ACAD
1000
AcDbSavedByObjectVersion
1070
     0
  0
ACAD_PROXY_OBJECT
  5
38
102
{ACAD_REACTORS
330
2A
102
}
330
2A
100
AcDbProxyObject
 90
      499
 91
      501
 93
      444
310
42D31A5B995C185D1D195C9B90E409028333333333333E33F0000000000000F9010790141107004050750841D405064090741402483A0350
1001
ACAD
1000
AcDbSavedByObjectVersion
1070
     0
  0
ACAD_PROXY_OBJECT
  5
3C
102
{ACAD_REACTORS
330
2A
102
}
330
2A
100
AcDbProxyObject
 90
      499
 91
      501
 93
      444
310
42D3DD995C9A185B99D3D999915409028333333333333E33F0000000000000F9010790141107004050150941D405064090741402480A0350
1001
ACAD
1000
AcDbSavedByObjectVersion
1070
     0
  0
ACAD_PROXY_OBJECT
  5
33
102
{ACAD_REACTORS
330
2A
102
}
330
2A
100
AcDbProxyObject
 90
      499
 91
      501
 93
      428
310
425499585B1A5CDD1A58D08409038333333333333E33F0000000000000F9010740A907004050150800405405064090740C02480A1B40
1001
ACAD
1000
AcDbSavedByObjectVersion
1070
     0
  0
ACAD_PROXY_OBJECT
  5
42
102
{ACAD_REACTORS
330
2A
102
}
330
2A
100
AcDbProxyObject
 90
      499
 91
      501
 93
      420
310
4194DA1859195911B40902404333333333333E33F0000000000000F9010740A41107004050150800405405064090840C02480A0B40
1001
ACAD
1000
AcDbSavedByObjectVersion
1070
     0
  0
ACAD_PROXY_OBJECT
  5
41
102
{ACAD_REACTORS
330
2A
102
}
330
2A
100
AcDbProxyObject
 90
      499
 91
      501
 93
      516
310
4454DA18591959081DDA5D1A08195919D95CD1A40902404333333333333E33F0000000000000F901074090142907004050250800405405064090740C02480A0B40
1001
ACAD
1000
AcDbSavedByObjectVersion
1070
     0
  0
ACAD_PROXY_OBJECT
  5
3E
102
{ACAD_REACTORS
330
2A
102
}
330
2A
100
AcDbProxyObject
 90
      499
 91
      501
 93
      532
310
4394DA1859195CC81BD98811DC985E5174090240C333333333333E33F0000000000000F901079024090741D01000000000000111010841D405064090740C02480A0340
1001
ACAD
1000
AcDbSavedByObjectVersion
1070
     0
  0
ACAD_PROXY_OBJECT
  5
3F
102
{ACAD_REACTORS
330
2A
102
}
330
2A
100
AcDbProxyObject
 90
      499
 91
      501
 93
      476
310
41D4DAD95D18DA1E51840502408333333333333E33F0000000000000F901079024090741D01000000000000111010B41D405064090741802480A0340
1001
ACAD
1000
AcDbSavedByObjectVersion
1070
     0
  0
ACAD_PROXY_OBJECT
  5
37
102
{ACAD_REACTORS
330
2A
102
}
330
2A
100
AcDbProxyObject
 90
      499
 91
      501
 93
      412
310
41D51A1A58DAD95B90D409028333333333333E33F0000000000000F9010790141107004050150C41D405064090741402480A0350
1001
ACAD
1000
AcDbSavedByObjectVersion
1070
     0
  0
ACAD_PROXY_OBJECT
  5
30
102
{ACAD_REACTORS
330
2A
102
}
330
2A
100
AcDbProxyObject
 90
      499
 91
      501
 93
      420
310
4255DA5C99599C985B595059028333333333333E33F0000000000000F90107901411070040501600405405064090740C02480A0340
1001
ACAD
1000
AcDbSavedByObjectVersion
1070
     0
  0
ACAD_PROXY_OBJECT
  5
40
102
{ACAD_REACTORS
330
2A
102
}
330
2A
100
AcDbProxyObject
 90
      499
 91
      501
 93
      404
310
41560B54985E51940902404000000000000E03F0000000000000F9010740501907004050150841D405064090740C02480A1B40
1001
ACAD
1000
AcDbSavedByObjectVersion
1070
     0
  0
XRECORD
  5
5EA
102
{ACAD_REACTORS
330
5E0
102
}
330
5E0
100
AcDbXrecord
340
0
  0
XRECORD
  5
5E9
102
{ACAD_REACTORS
330
5E0
102
}
330
5E0
100
AcDbXrecord
 90
        0
  0
XRECORD
  5
600
102
{ACAD_REACTORS
330
5E0
102
}
330
5E0
100
AcDbXrecord
1000
DSTYLE
1002
{
1070
   340
340
11
1002
}
  0
XRECORD
  5
5EB
102
{ACAD_REACTORS
330
5E0
102
}
330
5E0
100
AcDbXrecord
  1
{e46b61a0-963e-439a-bdac-9aa644abf292}
  0
XRECORD
  5
5E3
102
{ACAD_REACTORS
330
5E0
102
}
330
5E0
100
AcDbXrecord
  1

  0
XRECORD
  5
5E8
102
{ACAD_REACTORS
330
5E0
102
}
330
5E0
100
AcDbXrecord
 90
        4
  0
XRECORD
  5
5E5
102
{ACAD_REACTORS
330
5E0
102
}
330
5E0
100
AcDbXrecord
340
1A
  0
XRECORD
  5
5E7
102
{ACAD_REACTORS
330
5E0
102
}
330
5E0
100
AcDbXrecord
 90
    10781
  0
XRECORD
  5
5E6
102
{ACAD_REACTORS
330
5E0
102
}
330
5E0
100
AcDbXrecord
340
19
  0
XRECORD
  5
5ED
102
{ACAD_REACTORS
330
5E0
102
}
330
5E0
100
AcDbXrecord
 40
0.0
  0
XRECORD
  5
5F0
102
{ACAD_REACTORS
330
5E0
102
}
330
5E0
100
AcDbXrecord
340
0
  0
XRECORD
  5
5F6
102
{ACAD_REACTORS
330
5E0
102
}
330
5E0
100
AcDbXrecord
 10
0.0
 20
0.0
 30
0.0
  0
XRECORD
  5
5F2
102
{ACAD_REACTORS
330
5E0
102
}
330
5E0
100
AcDbXrecord
 10
0.0
 20
0.0
 30
0.0
  0
XRECORD
  5
5F5
102
{ACAD_REACTORS
330
5E0
102
}
330
5E0
100
AcDbXrecord
 10
0.0
 20
0.0
 30
0.0
  0
XRECORD
  5
5F3
102
{ACAD_REACTORS
330
5E0
102
}
330
5E0
100
AcDbXrecord
 10
0.0
 20
0.0
 30
0.0
  0
XRECORD
  5
5F4
102
{ACAD_REACTORS
330
5E0
102
}
330
5E0
100
AcDbXrecord
 10
0.0
 20
0.0
 30
0.0
  0
XRECORD
  5
5F1
102
{ACAD_REACTORS
330
5E0
102
}
330
5E0
100
AcDbXrecord
 10
0.0
 20
0.0
 30
0.0
  0
XRECORD
  5
5EE
102
{ACAD_REACTORS
330
5E0
102
}
330
5E0
100
AcDbXrecord
340
0
  0
XRECORD
  5
5EF
102
{ACAD_REACTORS
330
5E0
102
}
330
5E0
100
AcDbXrecord
 70
     0
  0
XRECORD
  5
5E4
102
{ACAD_REACTORS
330
5E0
102
}
330
5E0
100
AcDbXrecord
  1

  0
XRECORD
  5
5E1
102
{ACAD_REACTORS
330
5E0
102
}
330
5E0
100
AcDbXrecord
 90
        1
  0
XRECORD
  5
5E2
102
{ACAD_REACTORS
330
5E0
102
}
330
5E0
100
AcDbXrecord
 90
       70
  0
XRECORD
  5
5F9
102
{ACAD_REACTORS
330
5E0
102
}
330
5E0
100
AcDbXrecord
340
0
  0
XRECORD
  5
5FF
102
{ACAD_REACTORS
330
5E0
102
}
330
5E0
100
AcDbXrecord
 10
0.0
 20
0.0
 30
0.0
  0
XRECORD
  5
5FB
102
{ACAD_REACTORS
330
5E0
102
}
330
5E0
100
AcDbXrecord
 10
0.0
 20
0.0
 30
0.0
  0
XRECORD
  5
5FE
102
{ACAD_REACTORS
330
5E0
102
}
330
5E0
100
AcDbXrecord
 10
0.0
 20
0.0
 30
0.0
  0
XRECORD
  5
5FC
102
{ACAD_REACTORS
330
5E0
102
}
330
5E0
100
AcDbXrecord
 10
0.0
 20
0.0
 30
0.0
  0
XRECORD
  5
5FD
102
{ACAD_REACTORS
330
5E0
102
}
330
5E0
100
AcDbXrecord
 10
0.0
 20
0.0
 30
0.0
  0
XRECORD
  5
5FA
102
{ACAD_REACTORS
330
5E0
102
}
330
5E0
100
AcDbXrecord
 10
0.0
 20
0.0
 30
0.0
  0
XRECORD
  5
5F7
102
{ACAD_REACTORS
330
5E0
102
}
330
5E0
100
AcDbXrecord
340
0
  0
XRECORD
  5
5F8
102
{ACAD_REACTORS
330
5E0
102
}
330
5E0
100
AcDbXrecord
 70
     0
  0
XRECORD
  5
5EC
102
{ACAD_REACTORS
330
5E0
102
}
330
5E0
100
AcDbXrecord
  1
{FAEB1C32-E019-11D5-929B-00C0DF256EC4}
  0
DICTIONARYVAR
  5
60E
102
{ACAD_REACTORS
330
601
102
}
330
601
100
DictionaryVariables
280
     0
  1
1:1
  0
DICTIONARYVAR
  5
608
102
{ACAD_REACTORS
330
601
102
}
330
601
100
DictionaryVariables
280
     0
  1
3.500000
  0
DICTIONARYVAR
  5
609
102
{ACAD_REACTORS
330
601
102
}
330
601
100
DictionaryVariables
280
     0
  1
acadiso.lin
  0
DICTIONARYVAR
  5
603
102
{ACAD_REACTORS
330
601
102
}
330
601
100
DictionaryVariables
280
     0
  1
Standard
  0
DICTIONARYVAR
  5
602
102
{ACAD_REACTORS
330
601
102
}
330
601
100
DictionaryVariables
280
     0
  1
Standard
  0
DICTIONARYVAR
  5
60A
102
{ACAD_REACTORS
330
601
102
}
330
601
100
DictionaryVariables
280
     0
  1
2
  0
DICTIONARYVAR
  5
60B
102
{ACAD_REACTORS
330
601
102
}
330
601
100
DictionaryVariables
280
     0
  1
1
  0
DICTIONARYVAR
  5
60F
102
{ACAD_REACTORS
330
601
102
}
330
601
100
DictionaryVariables
280
     0
  1
1
  0
DICTIONARYVAR
  5
605
102
{ACAD_REACTORS
330
601
102
}
330
601
100
DictionaryVariables
280
     0
  1
80.000000
  0
DICTIONARYVAR
  5
604
102
{ACAD_REACTORS
330
601
102
}
330
601
100
DictionaryVariables
280
     0
  1
5.000000
  0
DICTIONARY
  5
612
330
45
100
AcDbDictionary
280
     1
  3
ACAD_XREC_ROUNDTRIP
360
613
  0
DICTIONARY
  5
610
330
44
100
AcDbDictionary
280
     1
  3
ACAD_XREC_ROUNDTRIP
360
611
  0
DICTIONARY
  5
614
330
46
100
AcDbDictionary
280
     1
  3
ACAD_XREC_ROUNDTRIP
360
615
  0
XRECORD
  5
613
102
{ACAD_REACTORS
330
612
102
}
330
612
100
AcDbXrecord
102
MATERIAL
148
0.0
149
0.0
149
0.0
 93
        0
 94
      127
282
     0
 72
     1
 77
     1
171
     1
175
     1
179
     1
273
     0
  0
XRECORD
  5
611
102
{ACAD_REACTORS
330
610
102
}
330
610
100
AcDbXrecord
102
MATERIAL
148
0.0
149
0.0
149
0.0
 93
        0
 94
      127
282
     0
 72
     1
 77
     1
171
     1
175
     1
179
     1
273
     0
  0
XRECORD
  5
615
102
{ACAD_REACTORS
330
614
102
}
330
614
100
AcDbXrecord
102
MATERIAL
148
0.0
149
0.0
149
0.0
 93
        0
 94
      127
282
     0
 72
     1
 77
     1
171
     1
175
     1
179
     1
273
     0
  0
ENDSEC
  0
EOF
