  0
SECTION
  2
HEADER
  9
$ACADVER
  1
AC1014
  9
$ACADMAINTVER
 70
     9
  9
$DWGCODEPAGE
  3
ANSI_932
  9
$INSBASE
 10
0.0
 20
0.0
 30
0.0
  9
$EXTMIN
 10
90.0
 20
90.0
 30
0.0
  9
$EXTMAX
 10
3690.0
 20
2583.0
 30
0.0
  9
$LIMMIN
 10
0.0
 20
0.0
  9
$LIMMAX
 10
420.0
 20
297.0
  9
$ORTHOMODE
 70
     0
  9
$REGENMODE
 70
     1
  9
$FILLMODE
 70
     1
  9
$QTEXTMODE
 70
     0
  9
$MIRRTEXT
 70
     1
  9
$DRAGMODE
 70
     2
  9
$LTSCALE
 40
1.0
  9
$OSMODE
 70
    37
  9
$ATTMODE
 70
     1
  9
$TEXTSIZE
 40
2.5
  9
$TRACEWID
 40
1.0
  9
$TEXTSTYLE
  7
STANDARD
  9
$CLAYER
  8
Ｓ_１_１
  9
$CELTYPE
  6
BYLAYER
  9
$CECOLOR
 62
   256
  9
$CELTSCALE
 40
1.0
  9
$DELOBJ
 70
     1
  9
$DISPSILH
 70
     0
  9
$DIMSCALE
 40
1.0
  9
$DIMASZ
 40
2.5
  9
$DIMEXO
 40
0.625
  9
$DIMDLI
 40
3.75
  9
$DIMRND
 40
0.0
  9
$DIMDLE
 40
0.0
  9
$DIMEXE
 40
1.25
  9
$DIMTP
 40
0.0
  9
$DIMTM
 40
0.0
  9
$DIMTXT
 40
2.5
  9
$DIMCEN
 40
2.5
  9
$DIMTSZ
 40
0.0
  9
$DIMTOL
 70
     0
  9
$DIMLIM
 70
     0
  9
$DIMTIH
 70
     0
  9
$DIMTOH
 70
     0
  9
$DIMSE1
 70
     0
  9
$DIMSE2
 70
     0
  9
$DIMTAD
 70
     1
  9
$DIMZIN
 70
     8
  9
$DIMBLK
  1

  9
$DIMASO
 70
     1
  9
$DIMSHO
 70
     1
  9
$DIMPOST
  1

  9
$DIMAPOST
  1

  9
$DIMALT
 70
     0
  9
$DIMALTD
 70
     3
  9
$DIMALTF
 40
0.03937007874016
  9
$DIMLFAC
 40
1.0
  9
$DIMTOFL
 70
     1
  9
$DIMTVP
 40
0.0
  9
$DIMTIX
 70
     0
  9
$DIMSOXD
 70
     0
  9
$DIMSAH
 70
     0
  9
$DIMBLK1
  1

  9
$DIMBLK2
  1

  9
$DIMSTYLE
  2
ISO-25
  9
$DIMCLRD
 70
     0
  9
$DIMCLRE
 70
     0
  9
$DIMCLRT
 70
     0
  9
$DIMTFAC
 40
1.0
  9
$DIMGAP
 40
0.625
  9
$DIMJUST
 70
     0
  9
$DIMSD1
 70
     0
  9
$DIMSD2
 70
     0
  9
$DIMTOLJ
 70
     0
  9
$DIMTZIN
 70
     8
  9
$DIMALTZ
 70
     0
  9
$DIMALTTZ
 70
     0
  9
$DIMFIT
 70
     3
  9
$DIMUPT
 70
     0
  9
$DIMUNIT
 70
     2
  9
$DIMDEC
 70
     2
  9
$DIMTDEC
 70
     2
  9
$DIMALTU
 70
     2
  9
$DIMALTTD
 70
     3
  9
$DIMTXSTY
  7
STANDARD
  9
$DIMAUNIT
 70
     0
  9
$LUNITS
 70
     2
  9
$LUPREC
 70
     4
  9
$SKETCHINC
 40
1.0
  9
$FILLETRAD
 40
10.0
  9
$AUNITS
 70
     0
  9
$AUPREC
 70
     0
  9
$MENU
  1
.
  9
$ELEVATION
 40
0.0
  9
$PELEVATION
 40
0.0
  9
$THICKNESS
 40
0.0
  9
$LIMCHECK
 70
     0
  9
$CHAMFERA
 40
0.0
  9
$CHAMFERB
 40
0.0
  9
$CHAMFERC
 40
0.0
  9
$CHAMFERD
 40
0.0
  9
$SKPOLY
 70
     0
  9
$TDCREATE
 40
2459586.418490463
  9
$TDUPDATE
 40
2459586.418492489
  9
$TDINDWG
 40
0.0000000116
  9
$TDUSRTIMER
 40
0.0000000116
  9
$USRTIMER
 70
     1
  9
$ANGBASE
 50
0.0
  9
$ANGDIR
 70
     0
  9
$PDMODE
 70
     0
  9
$PDSIZE
 40
0.0
  9
$PLINEWID
 40
0.0
  9
$COORDS
 70
     1
  9
$SPLFRAME
 70
     0
  9
$SPLINETYPE
 70
     6
  9
$SPLINESEGS
 70
     8
  9
$ATTDIA
 70
     0
  9
$ATTREQ
 70
     1
  9
$HANDLING
 70
     1
  9
$HANDSEED
  5
6EF
  9
$SURFTAB1
 70
     6
  9
$SURFTAB2
 70
     6
  9
$SURFTYPE
 70
     6
  9
$SURFU
 70
     6
  9
$SURFV
 70
     6
  9
$UCSNAME
  2

  9
$UCSORG
 10
0.0
 20
0.0
 30
0.0
  9
$UCSXDIR
 10
1.0
 20
0.0
 30
0.0
  9
$UCSYDIR
 10
0.0
 20
1.0
 30
0.0
  9
$PUCSNAME
  2

  9
$PUCSORG
 10
0.0
 20
0.0
 30
0.0
  9
$PUCSXDIR
 10
1.0
 20
0.0
 30
0.0
  9
$PUCSYDIR
 10
0.0
 20
1.0
 30
0.0
  9
$USERI1
 70
     0
  9
$USERI2
 70
     0
  9
$USERI3
 70
     0
  9
$USERI4
 70
     0
  9
$USERI5
 70
     0
  9
$USERR1
 40
0.0
  9
$USERR2
 40
0.0
  9
$USERR3
 40
0.0
  9
$USERR4
 40
0.0
  9
$USERR5
 40
0.0
  9
$WORLDVIEW
 70
     1
  9
$SHADEDGE
 70
     3
  9
$SHADEDIF
 70
    70
  9
$TILEMODE
 70
     1
  9
$MAXACTVP
 70
    64
  9
$PINSBASE
 10
0.0
 20
0.0
 30
0.0
  9
$PLIMCHECK
 70
     0
  9
$PEXTMIN
 10
1.000000000000000E+20
 20
1.000000000000000E+20
 30
1.000000000000000E+20
  9
$PEXTMAX
 10
-1.000000000000000E+20
 20
-1.000000000000000E+20
 30
-1.000000000000000E+20
  9
$PLIMMIN
 10
0.0
 20
0.0
  9
$PLIMMAX
 10
420.0
 20
297.0
  9
$UNITMODE
 70
     0
  9
$VISRETAIN
 70
     1
  9
$PLINEGEN
 70
     0
  9
$PSLTSCALE
 70
     1
  9
$TREEDEPTH
 70
  3020
  9
$PICKSTYLE
 70
     1
  9
$CMLSTYLE
  2
STANDARD
  9
$CMLJUST
 70
     0
  9
$CMLSCALE
 40
20.0
  9
$PROXYGRAPHICS
 70
     1
  9
$MEASUREMENT
 70
     1
  0
ENDSEC
  0
SECTION
  2
CLASSES
  0
CLASS
  1
ACDBDICTIONARYWDFLT
  2
AcDbDictionaryWithDefault
  3
ObjectDBX Classes
 90
        0
280
     0
281
     0
  0
CLASS
  1
VISUALSTYLE
  2
AcDbVisualStyle
  3
ObjectDBX Classes
 90
     4095
280
     0
281
     0
  0
CLASS
  1
MATERIAL
  2
AcDbMaterial
  3
ObjectDBX Classes
 90
     1153
280
     0
281
     0
  0
CLASS
  1
SCALE
  2
AcDbScale
  3
ObjectDBX Classes
 90
     1153
280
     0
281
     0
  0
CLASS
  1
TABLESTYLE
  2
AcDbTableStyle
  3
ObjectDBX Classes
 90
     4095
280
     0
281
     0
  0
CLASS
  1
MLEADERSTYLE
  2
AcDbMLeaderStyle
  3
ACDB_MLEADERSTYLE_CLASS
 90
     4095
280
     0
281
     0
  0
CLASS
  1
SUN
  2
AcDbSun
  3
SCENEOE
 90
     1153
280
     0
281
     0
  0
CLASS
  1
DICTIONARYVAR
  2
AcDbDictionaryVar
  3
ObjectDBX Classes
 90
        0
280
     0
281
     0
  0
CLASS
  1
XRECORD
  2
AcDbXrecord
  3
ObjectDBX Classes
 90
        0
280
     0
281
     0
  0
CLASS
  1
LWPOLYLINE
  2
AcDbPolyline
  3
ObjectDBX Classes
 90
        0
280
     0
281
     1
  0
CLASS
  1
HATCH
  2
AcDbHatch
  3
ObjectDBX Classes
 90
        0
280
     0
281
     1
  0
CLASS
  1
ACDBPLACEHOLDER
  2
AcDbPlaceHolder
  3
ObjectDBX Classes
 90
        0
280
     0
281
     0
  0
CLASS
  1
LAYOUT
  2
AcDbLayout
  3
ObjectDBX Classes
 90
        0
280
     0
281
     0
  0
ENDSEC
  0
SECTION
  2
TABLES
  0
TABLE
  2
VPORT
  5
8
102
{ACAD_XDICTIONARY
360
6E4
102
}
330
0
100
AcDbSymbolTable
 70
     1
  0
VPORT
  5
29
330
8
100
AcDbSymbolTableRecord
100
AcDbViewportTableRecord
  2
*ACTIVE
 70
     0
 10
0.0
 20
0.0
 11
1.0
 21
1.0
 12
1890.0
 22
1336.5
 13
0.0
 23
0.0
 14
10.0
 24
10.0
 15
10.0
 25
10.0
 16
0.0
 26
0.0
 36
1.0
 17
0.0
 27
0.0
 37
0.0
 40
2493.0
 41
1.444043321299639
 42
50.0
 43
0.0
 44
0.0
 50
0.0
 51
0.0
 71
     0
 72
  1000
 73
     1
 74
     3
 75
     0
 76
     0
 77
     0
 78
     0
  0
ENDTAB
  0
TABLE
  2
LTYPE
  5
5
330
0
100
AcDbSymbolTable
 70
    15
  0
LTYPE
  5
14
330
5
100
AcDbSymbolTableRecord
100
AcDbLinetypeTableRecord
  2
BYBLOCK
 70
     0
  3

 72
    65
 73
     0
 40
0.0
  0
LTYPE
  5
15
330
5
100
AcDbSymbolTableRecord
100
AcDbLinetypeTableRecord
  2
BYLAYER
 70
     0
  3

 72
    65
 73
     0
 40
0.0
  0
LTYPE
  5
16
330
5
100
AcDbSymbolTableRecord
100
AcDbLinetypeTableRecord
  2
CONTINUOUS
 70
     0
  3
Solid line
 72
    65
 73
     0
 40
0.0
  0
LTYPE
  5
6E
330
5
100
AcDbSymbolTableRecord
100
AcDbLinetypeTableRecord
  2
EXLTYPE0
 70
     0
  3
破線
 72
    65
 73
     2
 40
4.0
 49
3.0
 74
     0
 49
-1.0
 74
     0
  0
LTYPE
  5
6F
330
5
100
AcDbSymbolTableRecord
100
AcDbLinetypeTableRecord
  2
EXLTYPE1
 70
     0
  3
点線
 72
    65
 73
     2
 40
2.0
 49
1.0
 74
     0
 49
-1.0
 74
     0
  0
LTYPE
  5
70
330
5
100
AcDbSymbolTableRecord
100
AcDbLinetypeTableRecord
  2
EXLTYPE2
 70
     0
  3
一点鎖線
 72
    65
 73
     4
 40
13.0
 49
10.0
 74
     0
 49
-1.0
 74
     0
 49
1.0
 74
     0
 49
-1.0
 74
     0
  0
LTYPE
  5
71
330
5
100
AcDbSymbolTableRecord
100
AcDbLinetypeTableRecord
  2
EXLTYPE3
 70
     0
  3
二点鎖線
 72
    65
 73
     6
 40
15.0
 49
10.0
 74
     0
 49
-1.0
 74
     0
 49
1.0
 74
     0
 49
-1.0
 74
     0
 49
1.0
 74
     0
 49
-1.0
 74
     0
  0
LTYPE
  5
72
330
5
100
AcDbSymbolTableRecord
100
AcDbLinetypeTableRecord
  2
EXLTYPE4
 70
     0
  3
一点鎖線2
 72
    65
 73
     4
 40
3.5
 49
2.0
 74
     0
 49
-0.5
 74
     0
 49
0.5
 74
     0
 49
-0.5
 74
     0
  0
LTYPE
  5
73
330
5
100
AcDbSymbolTableRecord
100
AcDbLinetypeTableRecord
  2
EXLTYPE5
 70
     0
  3
二点鎖線2
 72
    65
 73
     6
 40
4.5
 49
2.0
 74
     0
 49
-0.5
 74
     0
 49
0.5
 74
     0
 49
-0.5
 74
     0
 49
0.5
 74
     0
 49
-0.5
 74
     0
  0
LTYPE
  5
74
330
5
100
AcDbSymbolTableRecord
100
AcDbLinetypeTableRecord
  2
EXLTYPE6
 70
     0
  3
一点鎖線5
 72
    65
 73
     4
 40
13.0
 49
10.0
 74
     0
 49
-1.0
 74
     0
 49
1.0
 74
     0
 49
-1.0
 74
     0
  0
LTYPE
  5
75
330
5
100
AcDbSymbolTableRecord
100
AcDbLinetypeTableRecord
  2
EXLTYPE7
 70
     0
  3
破線7
 72
    65
 73
     2
 40
2.5
 49
1.5
 74
     0
 49
-1.0
 74
     0
  0
LTYPE
  5
76
330
5
100
AcDbSymbolTableRecord
100
AcDbLinetypeTableRecord
  2
EXLTYPE8
 70
     0
  3
一点鎖線4
 72
    65
 73
     4
 40
13.0
 49
10.0
 74
     0
 49
-1.0
 74
     0
 49
1.0
 74
     0
 49
-1.0
 74
     0
  0
LTYPE
  5
77
330
5
100
AcDbSymbolTableRecord
100
AcDbLinetypeTableRecord
  2
EXLTYPE9
 70
     0
  3
破線2
 72
    65
 73
     2
 40
2.5
 49
1.5
 74
     0
 49
-1.0
 74
     0
  0
LTYPE
  5
78
330
5
100
AcDbSymbolTableRecord
100
AcDbLinetypeTableRecord
  2
EXLTYPE10
 70
     0
  3
一点鎖線3
 72
    65
 73
     4
 40
13.0
 49
10.0
 74
     0
 49
-1.0
 74
     0
 49
1.0
 74
     0
 49
-1.0
 74
     0
  0
LTYPE
  5
79
330
5
100
AcDbSymbolTableRecord
100
AcDbLinetypeTableRecord
  2
EXLTYPE11
 70
     0
  3
破線5
 72
    65
 73
     2
 40
2.5
 49
1.5
 74
     0
 49
-1.0
 74
     0
  0
LTYPE
  5
7A
330
5
100
AcDbSymbolTableRecord
100
AcDbLinetypeTableRecord
  2
EXLTYPE12
 70
     0
  3
破線3
 72
    65
 73
     2
 40
2.5
 49
1.5
 74
     0
 49
-1.0
 74
     0
  0
LTYPE
  5
7B
330
5
100
AcDbSymbolTableRecord
100
AcDbLinetypeTableRecord
  2
EXLTYPE13
 70
     0
  3
二点鎖線3
 72
    65
 73
     6
 40
15.0
 49
10.0
 74
     0
 49
-1.0
 74
     0
 49
1.0
 74
     0
 49
-1.0
 74
     0
 49
1.0
 74
     0
 49
-1.0
 74
     0
  0
ENDTAB
  0
TABLE
  2
LAYER
  5
2
330
0
100
AcDbSymbolTable
 70
     4
  0
LAYER
  5
10
330
2
100
AcDbSymbolTableRecord
100
AcDbLayerTableRecord
  2
0
 70
     0
 62
     7
  6
CONTINUOUS
  0
LAYER
  5
7E
330
2
100
AcDbSymbolTableRecord
100
AcDbLayerTableRecord
  2
図面枠
 70
     4
 62
     7
  6
CONTINUOUS
  0
LAYER
  5
7F
330
2
100
AcDbSymbolTableRecord
100
AcDbLayerTableRecord
  2
Ｓ_１_１
 70
     0
 62
     7
  6
CONTINUOUS
  0
LAYER
  5
225
330
2
100
AcDbSymbolTableRecord
100
AcDbLayerTableRecord
  2
DEFPOINTS
 70
     0
 62
     7
  6
CONTINUOUS
  0
ENDTAB
  0
TABLE
  2
STYLE
  5
3
330
0
100
AcDbSymbolTable
 70
     5
  0
STYLE
  5
11
330
3
100
AcDbSymbolTableRecord
100
AcDbTextStyleTableRecord
  2
STANDARD
 70
     0
 40
0.0
 41
1.0
 50
0.0
 71
     0
 42
2.5
  3
monotxt
  4
extfont
  0
STYLE
  5
7C
330
3
100
AcDbSymbolTableRecord
100
AcDbTextStyleTableRecord
  2
EXCADSTD
 70
     0
 40
0.0
 41
1.0
 50
0.0
 71
     0
 42
2.5
  3
monotxt
  4
extfont
  0
STYLE
  5
7D
330
3
100
AcDbSymbolTableRecord
100
AcDbTextStyleTableRecord
  2
EXCADVERT
 70
     4
 40
0.0
 41
1.0
 50
0.0
 71
     0
 42
2.5
  3
monotxt
  4
extfont
  0
STYLE
  5
E2
330
3
100
AcDbSymbolTableRecord
100
AcDbTextStyleTableRecord
  2
EXCADTTF1
 70
     0
 40
0.0
 41
1.0
 50
0.0
 71
     0
 42
2.5
  3
msgothic.ttc
  4

1001
ACAD
1000
MS Gothic
1071
    32817
  0
STYLE
  5
223
330
3
100
AcDbSymbolTableRecord
100
AcDbTextStyleTableRecord
  2
EXCADDIM1
 70
     0
 40
0.0
 41
1.0
 50
0.0
 71
     0
 42
2.5
  3
msgothic.ttc
  4

1001
ACAD
1000
MS Gothic
1071
    32817
  0
ENDTAB
  0
TABLE
  2
VIEW
  5
6
330
0
100
AcDbSymbolTable
 70
     0
  0
ENDTAB
  0
TABLE
  2
UCS
  5
7
330
0
100
AcDbSymbolTable
 70
     0
  0
ENDTAB
  0
TABLE
  2
APPID
  5
9
330
0
100
AcDbSymbolTable
 70
     2
  0
APPID
  5
12
330
9
100
AcDbSymbolTableRecord
100
AcDbRegAppTableRecord
  2
ACAD
 70
     0
  0
APPID
  5
6EE
330
9
100
AcDbSymbolTableRecord
100
AcDbRegAppTableRecord
  2
ACAD_MLEADERVER
 70
     0
  0
ENDTAB
  0
TABLE
  2
DIMSTYLE
  5
A
330
0
100
AcDbSymbolTable
 70
     1
  0
DIMSTYLE
105
27
102
{ACAD_REACTORS
330
224
330
234
330
241
330
24E
330
25B
330
268
330
277
330
284
330
291
330
29E
330
2AA
330
538
330
613
330
620
330
62D
330
63A
330
647
330
654
330
660
330
66C
330
678
330
684
330
691
330
69D
330
6AB
102
}
330
A
100
AcDbSymbolTableRecord
100
AcDbDimStyleTableRecord
  2
ISO-25
 70
     0
  3

  4

  5

  6

  7

 40
1.0
 41
2.5
 42
0.625
 43
3.75
 44
1.25
 45
0.0
 46
0.0
 47
0.0
 48
0.0
140
2.5
141
2.5
142
0.0
143
0.03937007874016
144
1.0
145
0.0
146
1.0
147
0.625
 71
     0
 72
     0
 73
     0
 74
     0
 75
     0
 76
     0
 77
     1
 78
     8
170
     0
171
     3
172
     1
173
     0
174
     0
175
     0
176
     0
177
     0
178
     0
270
     2
271
     2
272
     2
273
     2
274
     3
340
11
275
     0
280
     0
281
     0
282
     0
283
     0
284
     8
285
     0
286
     0
287
     5
288
     0
  0
ENDTAB
  0
TABLE
  2
BLOCK_RECORD
  5
1
330
0
100
AcDbSymbolTable
 70
    39
  0
BLOCK_RECORD
  5
1F
330
1
100
AcDbSymbolTableRecord
100
AcDbBlockTableRecord
  2
*MODEL_SPACE
  0
BLOCK_RECORD
  5
1B
330
1
100
AcDbSymbolTableRecord
100
AcDbBlockTableRecord
  2
*PAPER_SPACE
  0
BLOCK_RECORD
  5
80
330
1
100
AcDbSymbolTableRecord
100
AcDbBlockTableRecord
  2
EX_NORM
  0
BLOCK_RECORD
  5
83
330
1
100
AcDbSymbolTableRecord
100
AcDbBlockTableRecord
  2
EX_BNORM
  0
BLOCK_RECORD
  5
86
330
1
100
AcDbSymbolTableRecord
100
AcDbBlockTableRecord
  2
EX_BCIR
  0
BLOCK_RECORD
  5
89
330
1
100
AcDbSymbolTableRecord
100
AcDbBlockTableRecord
  2
EX_RCIVIL
  0
BLOCK_RECORD
  5
8C
330
1
100
AcDbSymbolTableRecord
100
AcDbBlockTableRecord
  2
EX_SLANT
  0
BLOCK_RECORD
  5
8F
330
1
100
AcDbSymbolTableRecord
100
AcDbBlockTableRecord
  2
EX_NONE
  0
BLOCK_RECORD
  5
92
330
1
100
AcDbSymbolTableRecord
100
AcDbBlockTableRecord
  2
EX_CIVIL
  0
BLOCK_RECORD
  5
95
330
1
100
AcDbSymbolTableRecord
100
AcDbBlockTableRecord
  2
EX_WCIR
  0
BLOCK_RECORD
  5
98
330
1
100
AcDbSymbolTableRecord
100
AcDbBlockTableRecord
  2
EX_WCIR2
  0
BLOCK_RECORD
  5
9B
330
1
100
AcDbSymbolTableRecord
100
AcDbBlockTableRecord
  2
EX_WNORM
  0
BLOCK_RECORD
  5
9E
330
1
100
AcDbSymbolTableRecord
100
AcDbBlockTableRecord
  2
EX_NNORM
  0
BLOCK_RECORD
  5
A1
330
1
100
AcDbSymbolTableRecord
100
AcDbBlockTableRecord
  2
EX_BBOX
  0
BLOCK_RECORD
  5
A4
330
1
100
AcDbSymbolTableRecord
100
AcDbBlockTableRecord
  2
EX_WBOX
  0
BLOCK_RECORD
  5
A7
330
1
100
AcDbSymbolTableRecord
100
AcDbBlockTableRecord
  2
EX_INTEGRAL
  0
BLOCK_RECORD
  5
226
330
1
100
AcDbSymbolTableRecord
100
AcDbBlockTableRecord
  2
*D15
  0
BLOCK_RECORD
  5
235
330
1
100
AcDbSymbolTableRecord
100
AcDbBlockTableRecord
  2
*D16
  0
BLOCK_RECORD
  5
242
330
1
100
AcDbSymbolTableRecord
100
AcDbBlockTableRecord
  2
*D17
  0
BLOCK_RECORD
  5
24F
330
1
100
AcDbSymbolTableRecord
100
AcDbBlockTableRecord
  2
*D18
  0
BLOCK_RECORD
  5
25C
330
1
100
AcDbSymbolTableRecord
100
AcDbBlockTableRecord
  2
*D19
  0
BLOCK_RECORD
  5
269
330
1
100
AcDbSymbolTableRecord
100
AcDbBlockTableRecord
  2
*D20
  0
BLOCK_RECORD
  5
278
330
1
100
AcDbSymbolTableRecord
100
AcDbBlockTableRecord
  2
*D21
  0
BLOCK_RECORD
  5
285
330
1
100
AcDbSymbolTableRecord
100
AcDbBlockTableRecord
  2
*D22
  0
BLOCK_RECORD
  5
292
330
1
100
AcDbSymbolTableRecord
100
AcDbBlockTableRecord
  2
*D23
  0
BLOCK_RECORD
  5
29F
330
1
100
AcDbSymbolTableRecord
100
AcDbBlockTableRecord
  2
*D24
  0
BLOCK_RECORD
  5
2AB
330
1
100
AcDbSymbolTableRecord
100
AcDbBlockTableRecord
  2
*D25
  0
BLOCK_RECORD
  5
539
330
1
100
AcDbSymbolTableRecord
100
AcDbBlockTableRecord
  2
*D26
  0
BLOCK_RECORD
  5
614
330
1
100
AcDbSymbolTableRecord
100
AcDbBlockTableRecord
  2
*D27
  0
BLOCK_RECORD
  5
621
330
1
100
AcDbSymbolTableRecord
100
AcDbBlockTableRecord
  2
*D28
  0
BLOCK_RECORD
  5
62E
330
1
100
AcDbSymbolTableRecord
100
AcDbBlockTableRecord
  2
*D29
  0
BLOCK_RECORD
  5
63B
330
1
100
AcDbSymbolTableRecord
100
AcDbBlockTableRecord
  2
*D30
  0
BLOCK_RECORD
  5
648
330
1
100
AcDbSymbolTableRecord
100
AcDbBlockTableRecord
  2
*D31
  0
BLOCK_RECORD
  5
655
330
1
100
AcDbSymbolTableRecord
100
AcDbBlockTableRecord
  2
*D32
  0
BLOCK_RECORD
  5
661
330
1
100
AcDbSymbolTableRecord
100
AcDbBlockTableRecord
  2
*D33
  0
BLOCK_RECORD
  5
66D
330
1
100
AcDbSymbolTableRecord
100
AcDbBlockTableRecord
  2
*D34
  0
BLOCK_RECORD
  5
679
330
1
100
AcDbSymbolTableRecord
100
AcDbBlockTableRecord
  2
*D35
  0
BLOCK_RECORD
  5
685
330
1
100
AcDbSymbolTableRecord
100
AcDbBlockTableRecord
  2
*D36
  0
BLOCK_RECORD
  5
692
330
1
100
AcDbSymbolTableRecord
100
AcDbBlockTableRecord
  2
*D37
  0
BLOCK_RECORD
  5
69E
330
1
100
AcDbSymbolTableRecord
100
AcDbBlockTableRecord
  2
*D38
  0
BLOCK_RECORD
  5
6AC
330
1
100
AcDbSymbolTableRecord
100
AcDbBlockTableRecord
  2
*D39
  0
ENDTAB
  0
ENDSEC
  0
SECTION
  2
BLOCKS
  0
BLOCK
  5
20
330
1F
100
AcDbEntity
  8
0
100
AcDbBlockBegin
  2
*MODEL_SPACE
 70
     0
 10
0.0
 20
0.0
 30
0.0
  3
*MODEL_SPACE
  1

  0
ENDBLK
  5
21
330
1F
100
AcDbEntity
  8
0
100
AcDbBlockEnd
  0
BLOCK
  5
1C
330
1B
100
AcDbEntity
 67
     1
  8
0
100
AcDbBlockBegin
  2
*PAPER_SPACE
 70
     0
 10
0.0
 20
0.0
 30
0.0
  3
*PAPER_SPACE
  1

  0
ENDBLK
  5
1D
330
1B
100
AcDbEntity
 67
     1
  8
0
100
AcDbBlockEnd
  0
BLOCK
  5
81
330
80
100
AcDbEntity
  8
0
100
AcDbBlockBegin
  2
EX_NORM
 70
     0
 10
0.0
 20
0.0
 30
0.0
  3
EX_NORM
  1

  0
LINE
  5
AA
330
80
100
AcDbEntity
  8
0
  6
CONTINUOUS
 62
     0
100
AcDbLine
 10
0.0
 20
0.0
 30
0.0
 11
-1.0
 21
0.0
 31
0.0
  0
LINE
  5
AB
330
80
100
AcDbEntity
  8
0
  6
CONTINUOUS
 62
     0
100
AcDbLine
 10
0.0
 20
0.0
 30
0.0
 11
-1.0
 21
0.166666667
 31
0.0
  0
LINE
  5
AC
330
80
100
AcDbEntity
  8
0
  6
CONTINUOUS
 62
     0
100
AcDbLine
 10
0.0
 20
0.0
 30
0.0
 11
-1.0
 21
-0.166666667
 31
0.0
  0
ENDBLK
  5
82
330
80
100
AcDbEntity
  8
0
100
AcDbBlockEnd
  0
BLOCK
  5
84
330
83
100
AcDbEntity
  8
0
100
AcDbBlockBegin
  2
EX_BNORM
 70
     0
 10
0.0
 20
0.0
 30
0.0
  3
EX_BNORM
  1

  0
LINE
  5
AD
330
83
100
AcDbEntity
  8
0
  6
CONTINUOUS
 62
     0
100
AcDbLine
 10
0.0
 20
0.0
 30
0.0
 11
-1.0
 21
0.0
 31
0.0
  0
LINE
  5
AE
330
83
100
AcDbEntity
  8
0
  6
CONTINUOUS
 62
     0
100
AcDbLine
 10
0.0
 20
0.0
 30
0.0
 11
-1.0
 21
0.166666667
 31
0.0
  0
LINE
  5
AF
330
83
100
AcDbEntity
  8
0
  6
CONTINUOUS
 62
     0
100
AcDbLine
 10
0.0
 20
0.0
 30
0.0
 11
-1.0
 21
-0.166666667
 31
0.0
  0
LINE
  5
B0
330
83
100
AcDbEntity
  8
0
  6
CONTINUOUS
 62
     0
100
AcDbLine
 10
0.0
 20
0.0
 30
0.0
 11
-1.0
 21
0.083333333
 31
0.0
  0
LINE
  5
B1
330
83
100
AcDbEntity
  8
0
  6
CONTINUOUS
 62
     0
100
AcDbLine
 10
0.0
 20
0.0
 30
0.0
 11
-1.0
 21
-0.083333333
 31
0.0
  0
LINE
  5
B2
330
83
100
AcDbEntity
  8
0
  6
CONTINUOUS
 62
     0
100
AcDbLine
 10
-1.0
 20
0.166666667
 30
0.0
 11
-1.0
 21
-0.166666667
 31
0.0
  0
ENDBLK
  5
85
330
83
100
AcDbEntity
  8
0
100
AcDbBlockEnd
  0
BLOCK
  5
87
330
86
100
AcDbEntity
  8
0
100
AcDbBlockBegin
  2
EX_BCIR
 70
     0
 10
0.0
 20
0.0
 30
0.0
  3
EX_BCIR
  1

  0
LINE
  5
B3
330
86
100
AcDbEntity
  8
0
  6
CONTINUOUS
 62
     0
100
AcDbLine
 10
0.0
 20
0.0
 30
0.0
 11
-1.0
 21
0.0
 31
0.0
  0
CIRCLE
  5
B4
330
86
100
AcDbEntity
  8
0
  6
CONTINUOUS
 62
     0
100
AcDbCircle
 10
0.0
 20
0.0
 30
0.0
 40
0.5
  0
CIRCLE
  5
B5
330
86
100
AcDbEntity
  8
0
  6
CONTINUOUS
 62
     0
100
AcDbCircle
 10
0.0
 20
0.0
 30
0.0
 40
0.25
  0
ENDBLK
  5
88
330
86
100
AcDbEntity
  8
0
100
AcDbBlockEnd
  0
BLOCK
  5
8A
330
89
100
AcDbEntity
  8
0
100
AcDbBlockBegin
  2
EX_RCIVIL
 70
     0
 10
0.0
 20
0.0
 30
0.0
  3
EX_RCIVIL
  1

  0
LINE
  5
B6
330
89
100
AcDbEntity
  8
0
  6
CONTINUOUS
 62
     0
100
AcDbLine
 10
0.0
 20
0.0
 30
0.0
 11
-1.0
 21
0.0
 31
0.0
  0
LINE
  5
B7
330
89
100
AcDbEntity
  8
0
  6
CONTINUOUS
 62
     0
100
AcDbLine
 10
-1.0
 20
-0.25
 30
0.0
 11
0.0
 21
-0.25
 31
0.0
  0
LINE
  5
B8
330
89
100
AcDbEntity
  8
0
  6
CONTINUOUS
 62
     0
100
AcDbLine
 10
-1.0
 20
-0.125
 30
0.0
 11
0.0
 21
-0.125
 31
0.0
  0
ENDBLK
  5
8B
330
89
100
AcDbEntity
  8
0
100
AcDbBlockEnd
  0
BLOCK
  5
8D
330
8C
100
AcDbEntity
  8
0
100
AcDbBlockBegin
  2
EX_SLANT
 70
     0
 10
0.0
 20
0.0
 30
0.0
  3
EX_SLANT
  1

  0
LINE
  5
B9
330
8C
100
AcDbEntity
  8
0
  6
CONTINUOUS
 62
     0
100
AcDbLine
 10
0.0
 20
0.0
 30
0.0
 11
-1.0
 21
0.0
 31
0.0
  0
LINE
  5
BA
330
8C
100
AcDbEntity
  8
0
  6
CONTINUOUS
 62
     0
100
AcDbLine
 10
0.707106781
 20
0.707106781
 30
0.0
 11
-0.707106781
 21
-0.707106781
 31
0.0
  0
ENDBLK
  5
8E
330
8C
100
AcDbEntity
  8
0
100
AcDbBlockEnd
  0
BLOCK
  5
90
330
8F
100
AcDbEntity
  8
0
100
AcDbBlockBegin
  2
EX_NONE
 70
     0
 10
0.0
 20
0.0
 30
0.0
  3
EX_NONE
  1

  0
LINE
  5
BB
330
8F
100
AcDbEntity
  8
0
  6
CONTINUOUS
 62
     0
100
AcDbLine
 10
0.0
 20
0.0
 30
0.0
 11
-1.0
 21
0.0
 31
0.0
  0
ENDBLK
  5
91
330
8F
100
AcDbEntity
  8
0
100
AcDbBlockEnd
  0
BLOCK
  5
93
330
92
100
AcDbEntity
  8
0
100
AcDbBlockBegin
  2
EX_CIVIL
 70
     0
 10
0.0
 20
0.0
 30
0.0
  3
EX_CIVIL
  1

  0
LINE
  5
BC
330
92
100
AcDbEntity
  8
0
  6
CONTINUOUS
 62
     0
100
AcDbLine
 10
0.0
 20
0.0
 30
0.0
 11
-1.0
 21
0.0
 31
0.0
  0
LINE
  5
BD
330
92
100
AcDbEntity
  8
0
  6
CONTINUOUS
 62
     0
100
AcDbLine
 10
-1.0
 20
0.25
 30
0.0
 11
0.0
 21
0.25
 31
0.0
  0
LINE
  5
BE
330
92
100
AcDbEntity
  8
0
  6
CONTINUOUS
 62
     0
100
AcDbLine
 10
-1.0
 20
0.125
 30
0.0
 11
0.0
 21
0.125
 31
0.0
  0
ENDBLK
  5
94
330
92
100
AcDbEntity
  8
0
100
AcDbBlockEnd
  0
BLOCK
  5
96
330
95
100
AcDbEntity
  8
0
100
AcDbBlockBegin
  2
EX_WCIR
 70
     0
 10
0.0
 20
0.0
 30
0.0
  3
EX_WCIR
  1

  0
LINE
  5
BF
330
95
100
AcDbEntity
  8
0
  6
CONTINUOUS
 62
     0
100
AcDbLine
 10
0.0
 20
0.0
 30
0.0
 11
-1.0
 21
0.0
 31
0.0
  0
CIRCLE
  5
C0
330
95
100
AcDbEntity
  8
0
  6
CONTINUOUS
 62
     0
100
AcDbCircle
 10
0.0
 20
0.0
 30
0.0
 40
0.5
  0
ENDBLK
  5
97
330
95
100
AcDbEntity
  8
0
100
AcDbBlockEnd
  0
BLOCK
  5
99
330
98
100
AcDbEntity
  8
0
100
AcDbBlockBegin
  2
EX_WCIR2
 70
     0
 10
0.0
 20
0.0
 30
0.0
  3
EX_WCIR2
  1

  0
LINE
  5
C1
330
98
100
AcDbEntity
  8
0
  6
CONTINUOUS
 62
     0
100
AcDbLine
 10
-0.5
 20
0.0
 30
0.0
 11
-1.0
 21
0.0
 31
0.0
  0
CIRCLE
  5
C2
330
98
100
AcDbEntity
  8
0
  6
CONTINUOUS
 62
     0
100
AcDbCircle
 10
0.0
 20
0.0
 30
0.0
 40
0.5
  0
ENDBLK
  5
9A
330
98
100
AcDbEntity
  8
0
100
AcDbBlockEnd
  0
BLOCK
  5
9C
330
9B
100
AcDbEntity
  8
0
100
AcDbBlockBegin
  2
EX_WNORM
 70
     0
 10
0.0
 20
0.0
 30
0.0
  3
EX_WNORM
  1

  0
LINE
  5
C3
330
9B
100
AcDbEntity
  8
0
  6
CONTINUOUS
 62
     0
100
AcDbLine
 10
-1.0
 20
0.0
 30
0.0
 11
-1.0
 21
0.0
 31
0.0
  0
LINE
  5
C4
330
9B
100
AcDbEntity
  8
0
  6
CONTINUOUS
 62
     0
100
AcDbLine
 10
0.0
 20
0.0
 30
0.0
 11
-1.0
 21
0.166666667
 31
0.0
  0
LINE
  5
C5
330
9B
100
AcDbEntity
  8
0
  6
CONTINUOUS
 62
     0
100
AcDbLine
 10
0.0
 20
0.0
 30
0.0
 11
-1.0
 21
-0.166666667
 31
0.0
  0
LINE
  5
C6
330
9B
100
AcDbEntity
  8
0
  6
CONTINUOUS
 62
     0
100
AcDbLine
 10
-1.0
 20
0.166666667
 30
0.0
 11
-1.0
 21
-0.166666667
 31
0.0
  0
ENDBLK
  5
9D
330
9B
100
AcDbEntity
  8
0
100
AcDbBlockEnd
  0
BLOCK
  5
9F
330
9E
100
AcDbEntity
  8
0
100
AcDbBlockBegin
  2
EX_NNORM
 70
     0
 10
0.0
 20
0.0
 30
0.0
  3
EX_NNORM
  1

  0
LINE
  5
C7
330
9E
100
AcDbEntity
  8
0
  6
CONTINUOUS
 62
     0
100
AcDbLine
 10
0.0
 20
0.0
 30
0.0
 11
-1.0
 21
0.0
 31
0.0
  0
LINE
  5
C8
330
9E
100
AcDbEntity
  8
0
  6
CONTINUOUS
 62
     0
100
AcDbLine
 10
0.0
 20
0.0
 30
0.0
 11
-1.0
 21
0.166666667
 31
0.0
  0
LINE
  5
C9
330
9E
100
AcDbEntity
  8
0
  6
CONTINUOUS
 62
     0
100
AcDbLine
 10
0.0
 20
0.0
 30
0.0
 11
-1.0
 21
-0.166666667
 31
0.0
  0
LINE
  5
CA
330
9E
100
AcDbEntity
  8
0
  6
CONTINUOUS
 62
     0
100
AcDbLine
 10
-1.0
 20
0.166666667
 30
0.0
 11
-1.0
 21
-0.166666667
 31
0.0
  0
ENDBLK
  5
A0
330
9E
100
AcDbEntity
  8
0
100
AcDbBlockEnd
  0
BLOCK
  5
A2
330
A1
100
AcDbEntity
  8
0
100
AcDbBlockBegin
  2
EX_BBOX
 70
     0
 10
0.0
 20
0.0
 30
0.0
  3
EX_BBOX
  1

  0
LINE
  5
CB
330
A1
100
AcDbEntity
  8
0
  6
CONTINUOUS
 62
     0
100
AcDbLine
 10
0.0
 20
0.0
 30
0.0
 11
-1.0
 21
0.0
 31
0.0
  0
LINE
  5
CC
330
A1
100
AcDbEntity
  8
0
  6
CONTINUOUS
 62
     0
100
AcDbLine
 10
-0.5
 20
0.5
 30
0.0
 11
0.5
 21
0.5
 31
0.0
  0
LINE
  5
CD
330
A1
100
AcDbEntity
  8
0
  6
CONTINUOUS
 62
     0
100
AcDbLine
 10
0.5
 20
0.5
 30
0.0
 11
0.5
 21
-0.5
 31
0.0
  0
LINE
  5
CE
330
A1
100
AcDbEntity
  8
0
  6
CONTINUOUS
 62
     0
100
AcDbLine
 10
0.5
 20
-0.5
 30
0.0
 11
-0.5
 21
-0.5
 31
0.0
  0
LINE
  5
CF
330
A1
100
AcDbEntity
  8
0
  6
CONTINUOUS
 62
     0
100
AcDbLine
 10
-0.5
 20
-0.5
 30
0.0
 11
-0.5
 21
0.5
 31
0.0
  0
LINE
  5
D0
330
A1
100
AcDbEntity
  8
0
  6
CONTINUOUS
 62
     0
100
AcDbLine
 10
-0.25
 20
0.25
 30
0.0
 11
0.25
 21
0.25
 31
0.0
  0
LINE
  5
D1
330
A1
100
AcDbEntity
  8
0
  6
CONTINUOUS
 62
     0
100
AcDbLine
 10
0.25
 20
0.25
 30
0.0
 11
0.25
 21
-0.25
 31
0.0
  0
LINE
  5
D2
330
A1
100
AcDbEntity
  8
0
  6
CONTINUOUS
 62
     0
100
AcDbLine
 10
0.25
 20
-0.25
 30
0.0
 11
-0.25
 21
-0.25
 31
0.0
  0
LINE
  5
D3
330
A1
100
AcDbEntity
  8
0
  6
CONTINUOUS
 62
     0
100
AcDbLine
 10
-0.25
 20
-0.25
 30
0.0
 11
-0.25
 21
0.25
 31
0.0
  0
ENDBLK
  5
A3
330
A1
100
AcDbEntity
  8
0
100
AcDbBlockEnd
  0
BLOCK
  5
A5
330
A4
100
AcDbEntity
  8
0
100
AcDbBlockBegin
  2
EX_WBOX
 70
     0
 10
0.0
 20
0.0
 30
0.0
  3
EX_WBOX
  1

  0
LINE
  5
D4
330
A4
100
AcDbEntity
  8
0
  6
CONTINUOUS
 62
     0
100
AcDbLine
 10
-0.5
 20
0.0
 30
0.0
 11
-1.0
 21
0.0
 31
0.0
  0
LINE
  5
D5
330
A4
100
AcDbEntity
  8
0
  6
CONTINUOUS
 62
     0
100
AcDbLine
 10
-0.5
 20
0.5
 30
0.0
 11
0.5
 21
0.5
 31
0.0
  0
LINE
  5
D6
330
A4
100
AcDbEntity
  8
0
  6
CONTINUOUS
 62
     0
100
AcDbLine
 10
0.5
 20
0.5
 30
0.0
 11
0.5
 21
-0.5
 31
0.0
  0
LINE
  5
D7
330
A4
100
AcDbEntity
  8
0
  6
CONTINUOUS
 62
     0
100
AcDbLine
 10
0.5
 20
-0.5
 30
0.0
 11
-0.5
 21
-0.5
 31
0.0
  0
LINE
  5
D8
330
A4
100
AcDbEntity
  8
0
  6
CONTINUOUS
 62
     0
100
AcDbLine
 10
-0.5
 20
-0.5
 30
0.0
 11
-0.5
 21
0.5
 31
0.0
  0
ENDBLK
  5
A6
330
A4
100
AcDbEntity
  8
0
100
AcDbBlockEnd
  0
BLOCK
  5
A8
330
A7
100
AcDbEntity
  8
0
100
AcDbBlockBegin
  2
EX_INTEGRAL
 70
     0
 10
0.0
 20
0.0
 30
0.0
  3
EX_INTEGRAL
  1

  0
LINE
  5
D9
330
A7
100
AcDbEntity
  8
0
  6
CONTINUOUS
 62
     0
100
AcDbLine
 10
0.0
 20
0.0
 30
0.0
 11
-1.0
 21
0.0
 31
0.0
  0
ARC
  5
DA
330
A7
100
AcDbEntity
  8
0
  6
CONTINUOUS
 62
     0
100
AcDbCircle
 10
0.542115
 20
0.164992
 30
0.0
 40
0.56667
100
AcDbArc
 50
73.07249033629006
 51
196.9275130221199
  0
ARC
  5
DB
330
A7
100
AcDbEntity
  8
0
  6
CONTINUOUS
 62
     0
100
AcDbCircle
 10
-0.542115
 20
-0.164992
 30
0.0
 40
0.56667
100
AcDbArc
 50
253.0724869220464
 51
16.9275130559125
  0
ENDBLK
  5
A9
330
A7
100
AcDbEntity
  8
0
100
AcDbBlockEnd
  0
BLOCK
  5
227
330
226
100
AcDbEntity
  8
0
100
AcDbBlockBegin
  2
*D15
 70
     1
 10
0.0
 20
0.0
 30
0.0
  3
*D15
  1

  0
LINE
  5
229
330
226
100
AcDbEntity
  8
Ｓ_１_１
  6
CONTINUOUS
 62
     2
100
AcDbLine
 10
851.5000060000002
 20
259.9999989999997
 30
0.0
 11
706.0
 21
259.9999989999997
 31
0.0
  0
LINE
  5
22A
330
226
100
AcDbEntity
  8
Ｓ_１_１
  6
CONTINUOUS
 62
     2
100
AcDbLine
 10
851.5000060000002
 20
220.0
 30
0.0
 11
706.0
 21
220.0
 31
0.0
  0
LINE
  5
22B
330
226
100
AcDbEntity
  8
Ｓ_１_１
  6
CONTINUOUS
 62
     2
100
AcDbLine
 10
715.0
 20
259.9999989999997
 30
0.0
 11
715.0
 21
220.0
 31
0.0
  0
LINE
  5
22C
330
226
100
AcDbEntity
  8
Ｓ_１_１
  6
CONTINUOUS
 62
     2
100
AcDbLine
 10
715.0
 20
286.9999989999997
 30
0.0
 11
715.0
 21
313.9999989999997
 31
0.0
  0
LINE
  5
22D
330
226
100
AcDbEntity
  8
Ｓ_１_１
  6
CONTINUOUS
 62
     2
100
AcDbLine
 10
715.0
 20
193.0
 30
0.0
 11
715.0
 21
166.0
 31
0.0
  0
INSERT
  5
22E
330
226
100
AcDbEntity
  8
Ｓ_１_１
 62
     2
100
AcDbBlockReference
  2
EX_NORM
 10
715.0
 20
259.9999989999997
 30
0.0
 41
27.0
 42
27.0
 43
27.0
 50
270.0
  0
INSERT
  5
22F
330
226
100
AcDbEntity
  8
Ｓ_１_１
 62
     2
100
AcDbBlockReference
  2
EX_NORM
 10
715.0
 20
220.0
 30
0.0
 41
27.0
 42
27.0
 43
27.0
 50
90.0
  0
MTEXT
  5
230
330
226
100
AcDbEntity
  8
Ｓ_１_１
 62
     2
100
AcDbMText
 10
690.25
 20
172.7499999999998
 30
0.0
 40
31.16613741339492
 41
0.0
 71
     5
 72
     1
  1
40
  7
EXCADDIM1
 11
0.0
 21
1.0
 31
0.0
  0
POINT
  5
231
330
226
100
AcDbEntity
  8
DEFPOINTS
 62
     0
100
AcDbPoint
 10
865.0000060000002
 20
259.9999989999997
 30
0.0
  0
POINT
  5
232
330
226
100
AcDbEntity
  8
DEFPOINTS
 62
     0
100
AcDbPoint
 10
865.0000060000002
 20
220.0
 30
0.0
  0
POINT
  5
233
330
226
100
AcDbEntity
  8
DEFPOINTS
 62
     0
100
AcDbPoint
 10
715.0
 20
220.0
 30
0.0
  0
ENDBLK
  5
228
330
226
100
AcDbEntity
  8
0
100
AcDbBlockEnd
  0
BLOCK
  5
236
330
235
100
AcDbEntity
  8
0
100
AcDbBlockBegin
  2
*D16
 70
     1
 10
0.0
 20
0.0
 30
0.0
  3
*D16
  1

  0
LINE
  5
238
330
235
100
AcDbEntity
  8
Ｓ_１_１
  6
CONTINUOUS
 62
     2
100
AcDbLine
 10
851.500006
 20
259.999999
 30
0.0
 11
706.0
 21
259.999999
 31
0.0
  0
LINE
  5
239
330
235
100
AcDbEntity
  8
Ｓ_１_１
  6
CONTINUOUS
 62
     2
100
AcDbLine
 10
1044.500515
 20
790.000029
 30
0.0
 11
706.0
 21
790.0000290000002
 31
0.0
  0
LINE
  5
23A
330
235
100
AcDbEntity
  8
Ｓ_１_１
  6
CONTINUOUS
 62
     2
100
AcDbLine
 10
715.0
 20
286.999999
 30
0.0
 11
715.0
 21
763.0000290000002
 31
0.0
  0
INSERT
  5
23B
330
235
100
AcDbEntity
  8
Ｓ_１_１
 62
     2
100
AcDbBlockReference
  2
EX_NORM
 10
715.0
 20
259.999999
 30
0.0
 41
27.0
 42
27.0
 43
27.0
 50
270.0
  0
INSERT
  5
23C
330
235
100
AcDbEntity
  8
Ｓ_１_１
 62
     2
100
AcDbBlockReference
  2
EX_NORM
 10
715.0
 20
790.0000290000002
 30
0.0
 41
27.0
 42
27.0
 43
27.0
 50
90.0
  0
MTEXT
  5
23D
330
235
100
AcDbEntity
  8
Ｓ_１_１
 62
     2
100
AcDbMText
 10
690.25
 20
525.0000140000001
 30
0.0
 40
31.16613741339492
 41
0.0
 71
     5
 72
     1
  1
530
  7
EXCADDIM1
 11
0.0
 21
1.0
 31
0.0
  0
POINT
  5
23E
330
235
100
AcDbEntity
  8
DEFPOINTS
 62
     0
100
AcDbPoint
 10
865.000006
 20
259.999999
 30
0.0
  0
POINT
  5
23F
330
235
100
AcDbEntity
  8
DEFPOINTS
 62
     0
100
AcDbPoint
 10
1058.000515
 20
790.000029
 30
0.0
  0
POINT
  5
240
330
235
100
AcDbEntity
  8
DEFPOINTS
 62
     0
100
AcDbPoint
 10
715.0
 20
790.0000290000002
 30
0.0
  0
ENDBLK
  5
237
330
235
100
AcDbEntity
  8
0
100
AcDbBlockEnd
  0
BLOCK
  5
243
330
242
100
AcDbEntity
  8
0
100
AcDbBlockBegin
  2
*D17
 70
     1
 10
0.0
 20
0.0
 30
0.0
  3
*D17
  1

  0
LINE
  5
245
330
242
100
AcDbEntity
  8
Ｓ_１_１
  6
CONTINUOUS
 62
     2
100
AcDbLine
 10
851.500006
 20
220.0
 30
0.0
 11
651.0
 21
220.0000000000001
 31
0.0
  0
LINE
  5
246
330
242
100
AcDbEntity
  8
Ｓ_１_１
  6
CONTINUOUS
 62
     2
100
AcDbLine
 10
1044.500515
 20
790.000029
 30
0.0
 11
651.0
 21
790.0000290000002
 31
0.0
  0
LINE
  5
247
330
242
100
AcDbEntity
  8
Ｓ_１_１
  6
CONTINUOUS
 62
     2
100
AcDbLine
 10
660.0
 20
247.0000000000001
 30
0.0
 11
660.0
 21
763.0000290000002
 31
0.0
  0
INSERT
  5
248
330
242
100
AcDbEntity
  8
Ｓ_１_１
 62
     2
100
AcDbBlockReference
  2
EX_NORM
 10
660.0
 20
220.0000000000001
 30
0.0
 41
27.0
 42
27.0
 43
27.0
 50
270.0
  0
INSERT
  5
249
330
242
100
AcDbEntity
  8
Ｓ_１_１
 62
     2
100
AcDbBlockReference
  2
EX_NORM
 10
660.0
 20
790.0000290000002
 30
0.0
 41
27.0
 42
27.0
 43
27.0
 50
90.0
  0
MTEXT
  5
24A
330
242
100
AcDbEntity
  8
Ｓ_１_１
 62
     2
100
AcDbMText
 10
635.25
 20
505.0000145
 30
0.0
 40
31.16613741339492
 41
0.0
 71
     5
 72
     1
  1
570
  7
EXCADDIM1
 11
0.0
 21
1.0
 31
0.0
  0
POINT
  5
24B
330
242
100
AcDbEntity
  8
DEFPOINTS
 62
     0
100
AcDbPoint
 10
865.000006
 20
220.0
 30
0.0
  0
POINT
  5
24C
330
242
100
AcDbEntity
  8
DEFPOINTS
 62
     0
100
AcDbPoint
 10
1058.000515
 20
790.000029
 30
0.0
  0
POINT
  5
24D
330
242
100
AcDbEntity
  8
DEFPOINTS
 62
     0
100
AcDbPoint
 10
660.0
 20
790.0000290000002
 30
0.0
  0
ENDBLK
  5
244
330
242
100
AcDbEntity
  8
0
100
AcDbBlockEnd
  0
BLOCK
  5
250
330
24F
100
AcDbEntity
  8
0
100
AcDbBlockBegin
  2
*D18
 70
     1
 10
0.0
 20
0.0
 30
0.0
  3
*D18
  1

  0
LINE
  5
252
330
24F
100
AcDbEntity
  8
Ｓ_１_１
  6
CONTINUOUS
 62
     2
100
AcDbLine
 10
1044.500515
 20
790.000029
 30
0.0
 11
651.0
 21
790.0000290000002
 31
0.0
  0
LINE
  5
253
330
24F
100
AcDbEntity
  8
Ｓ_１_１
  6
CONTINUOUS
 62
     2
100
AcDbLine
 10
1143.2321640445
 20
990.000026
 30
0.0
 11
651.0
 21
990.0000260000002
 31
0.0
  0
LINE
  5
254
330
24F
100
AcDbEntity
  8
Ｓ_１_１
  6
CONTINUOUS
 62
     2
100
AcDbLine
 10
660.0
 20
817.0000290000002
 30
0.0
 11
660.0
 21
963.0000260000002
 31
0.0
  0
INSERT
  5
255
330
24F
100
AcDbEntity
  8
Ｓ_１_１
 62
     2
100
AcDbBlockReference
  2
EX_NORM
 10
660.0
 20
790.0000290000002
 30
0.0
 41
27.0
 42
27.0
 43
27.0
 50
270.0
  0
INSERT
  5
256
330
24F
100
AcDbEntity
  8
Ｓ_１_１
 62
     2
100
AcDbBlockReference
  2
EX_NORM
 10
660.0
 20
990.0000260000002
 30
0.0
 41
27.0
 42
27.0
 43
27.0
 50
90.0
  0
MTEXT
  5
257
330
24F
100
AcDbEntity
  8
Ｓ_１_１
 62
     2
100
AcDbMText
 10
635.25
 20
890.0000275000001
 30
0.0
 40
31.16613741339492
 41
0.0
 71
     5
 72
     1
  1
200
  7
EXCADDIM1
 11
0.0
 21
1.0
 31
0.0
  0
POINT
  5
258
330
24F
100
AcDbEntity
  8
DEFPOINTS
 62
     0
100
AcDbPoint
 10
1058.000515
 20
790.000029
 30
0.0
  0
POINT
  5
259
330
24F
100
AcDbEntity
  8
DEFPOINTS
 62
     0
100
AcDbPoint
 10
1156.7321640445
 20
990.000026
 30
0.0
  0
POINT
  5
25A
330
24F
100
AcDbEntity
  8
DEFPOINTS
 62
     0
100
AcDbPoint
 10
660.0
 20
990.0000260000002
 30
0.0
  0
ENDBLK
  5
251
330
24F
100
AcDbEntity
  8
0
100
AcDbBlockEnd
  0
BLOCK
  5
25D
330
25C
100
AcDbEntity
  8
0
100
AcDbBlockBegin
  2
*D19
 70
     1
 10
0.0
 20
0.0
 30
0.0
  3
*D19
  1

  0
LINE
  5
25F
330
25C
100
AcDbEntity
  8
Ｓ_１_１
  6
CONTINUOUS
 62
     2
100
AcDbLine
 10
1143.2321640445
 20
990.000026
 30
0.0
 11
651.0
 21
990.0000260000002
 31
0.0
  0
LINE
  5
260
330
25C
100
AcDbEntity
  8
Ｓ_１_１
  6
CONTINUOUS
 62
     2
100
AcDbLine
 10
851.49998140334
 20
1189.9999469999
 30
0.0
 11
651.0
 21
1189.9999469999
 31
0.0
  0
LINE
  5
261
330
25C
100
AcDbEntity
  8
Ｓ_１_１
  6
CONTINUOUS
 62
     2
100
AcDbLine
 10
660.0
 20
1017.000026
 30
0.0
 11
660.0
 21
1162.9999469999
 31
0.0
  0
INSERT
  5
262
330
25C
100
AcDbEntity
  8
Ｓ_１_１
 62
     2
100
AcDbBlockReference
  2
EX_NORM
 10
660.0
 20
990.0000260000002
 30
0.0
 41
27.0
 42
27.0
 43
27.0
 50
270.0
  0
INSERT
  5
263
330
25C
100
AcDbEntity
  8
Ｓ_１_１
 62
     2
100
AcDbBlockReference
  2
EX_NORM
 10
660.0
 20
1189.9999469999
 30
0.0
 41
27.0
 42
27.0
 43
27.0
 50
90.0
  0
MTEXT
  5
264
330
25C
100
AcDbEntity
  8
Ｓ_１_１
 62
     2
100
AcDbMText
 10
635.2500000000001
 20
1089.99998649995
 30
0.0
 40
31.16613741339492
 41
0.0
 71
     5
 72
     1
  1
200
  7
EXCADDIM1
 11
0.0
 21
1.0
 31
0.0
  0
POINT
  5
265
330
25C
100
AcDbEntity
  8
DEFPOINTS
 62
     0
100
AcDbPoint
 10
1156.7321640445
 20
990.000026
 30
0.0
  0
POINT
  5
266
330
25C
100
AcDbEntity
  8
DEFPOINTS
 62
     0
100
AcDbPoint
 10
864.99998140334
 20
1189.9999469999
 30
0.0
  0
POINT
  5
267
330
25C
100
AcDbEntity
  8
DEFPOINTS
 62
     0
100
AcDbPoint
 10
660.0
 20
1189.9999469999
 30
0.0
  0
ENDBLK
  5
25E
330
25C
100
AcDbEntity
  8
0
100
AcDbBlockEnd
  0
BLOCK
  5
26A
330
269
100
AcDbEntity
  8
0
100
AcDbBlockBegin
  2
*D20
 70
     1
 10
0.0
 20
0.0
 30
0.0
  3
*D20
  1

  0
LINE
  5
26C
330
269
100
AcDbEntity
  8
Ｓ_１_１
  6
CONTINUOUS
 62
     2
100
AcDbLine
 10
851.4999814033437
 20
1189.999946999942
 30
0.0
 11
706.0
 21
1189.999946999942
 31
0.0
  0
LINE
  5
26D
330
269
100
AcDbEntity
  8
Ｓ_１_１
  6
CONTINUOUS
 62
     2
100
AcDbLine
 10
851.4999814033437
 20
1149.999917674457
 30
0.0
 11
706.0
 21
1149.999917674457
 31
0.0
  0
LINE
  5
26E
330
269
100
AcDbEntity
  8
Ｓ_１_１
  6
CONTINUOUS
 62
     2
100
AcDbLine
 10
715.0
 20
1189.999946999942
 30
0.0
 11
715.0
 21
1149.999917674457
 31
0.0
  0
LINE
  5
26F
330
269
100
AcDbEntity
  8
Ｓ_１_１
  6
CONTINUOUS
 62
     2
100
AcDbLine
 10
715.0
 20
1216.999946999942
 30
0.0
 11
715.0
 21
1243.999946999942
 31
0.0
  0
LINE
  5
270
330
269
100
AcDbEntity
  8
Ｓ_１_１
  6
CONTINUOUS
 62
     2
100
AcDbLine
 10
715.0
 20
1122.999917674457
 30
0.0
 11
715.0
 21
1095.999917674457
 31
0.0
  0
INSERT
  5
271
330
269
100
AcDbEntity
  8
Ｓ_１_１
 62
     2
100
AcDbBlockReference
  2
EX_NORM
 10
715.0
 20
1189.999946999942
 30
0.0
 41
27.0
 42
27.0
 43
27.0
 50
270.0
  0
INSERT
  5
272
330
269
100
AcDbEntity
  8
Ｓ_１_１
 62
     2
100
AcDbBlockReference
  2
EX_NORM
 10
715.0
 20
1149.999917674457
 30
0.0
 41
27.0
 42
27.0
 43
27.0
 50
90.0
  0
MTEXT
  5
273
330
269
100
AcDbEntity
  8
Ｓ_１_１
 62
     2
100
AcDbMText
 10
690.2500000000006
 20
1237.249946999942
 30
0.0
 40
31.16613741339492
 41
0.0
 71
     5
 72
     1
  1
40
  7
EXCADDIM1
 11
0.0
 21
1.0
 31
0.0
  0
POINT
  5
274
330
269
100
AcDbEntity
  8
DEFPOINTS
 62
     0
100
AcDbPoint
 10
864.9999814033437
 20
1189.999946999942
 30
0.0
  0
POINT
  5
275
330
269
100
AcDbEntity
  8
DEFPOINTS
 62
     0
100
AcDbPoint
 10
864.9999814033437
 20
1149.999917674457
 30
0.0
  0
POINT
  5
276
330
269
100
AcDbEntity
  8
DEFPOINTS
 62
     0
100
AcDbPoint
 10
715.0
 20
1149.999917674457
 30
0.0
  0
ENDBLK
  5
26B
330
269
100
AcDbEntity
  8
0
100
AcDbBlockEnd
  0
BLOCK
  5
279
330
278
100
AcDbEntity
  8
0
100
AcDbBlockBegin
  2
*D21
 70
     1
 10
0.0
 20
0.0
 30
0.0
  3
*D21
  1

  0
LINE
  5
27B
330
278
100
AcDbEntity
  8
Ｓ_１_１
  6
CONTINUOUS
 62
     2
100
AcDbLine
 10
851.49998140334
 20
1189.9999469999
 30
0.0
 11
596.0000000000001
 21
1189.9999469999
 31
0.0
  0
LINE
  5
27C
330
278
100
AcDbEntity
  8
Ｓ_１_１
  6
CONTINUOUS
 62
     2
100
AcDbLine
 10
851.500006
 20
220.0
 30
0.0
 11
596.0
 21
220.0
 31
0.0
  0
LINE
  5
27D
330
278
100
AcDbEntity
  8
Ｓ_１_１
  6
CONTINUOUS
 62
     2
100
AcDbLine
 10
605.0000000000001
 20
1162.9999469999
 30
0.0
 11
605.0
 21
247.0
 31
0.0
  0
INSERT
  5
27E
330
278
100
AcDbEntity
  8
Ｓ_１_１
 62
     2
100
AcDbBlockReference
  2
EX_NORM
 10
605.0000000000001
 20
1189.9999469999
 30
0.0
 41
27.0
 42
27.0
 43
27.0
 50
90.0
  0
INSERT
  5
27F
330
278
100
AcDbEntity
  8
Ｓ_１_１
 62
     2
100
AcDbBlockReference
  2
EX_NORM
 10
605.0
 20
220.0
 30
0.0
 41
27.0
 42
27.0
 43
27.0
 50
270.0
  0
MTEXT
  5
280
330
278
100
AcDbEntity
  8
Ｓ_１_１
 62
     2
100
AcDbMText
 10
580.2500000000001
 20
704.99997349995
 30
0.0
 40
31.16613741339492
 41
0.0
 71
     5
 72
     1
  1
970
  7
EXCADDIM1
 11
1.172029318900857E-16
 21
1.0
 31
0.0
  0
POINT
  5
281
330
278
100
AcDbEntity
  8
DEFPOINTS
 62
     0
100
AcDbPoint
 10
864.99998140334
 20
1189.9999469999
 30
0.0
  0
POINT
  5
282
330
278
100
AcDbEntity
  8
DEFPOINTS
 62
     0
100
AcDbPoint
 10
865.000006
 20
220.0
 30
0.0
  0
POINT
  5
283
330
278
100
AcDbEntity
  8
DEFPOINTS
 62
     0
100
AcDbPoint
 10
605.0
 20
220.0
 30
0.0
  0
ENDBLK
  5
27A
330
278
100
AcDbEntity
  8
0
100
AcDbBlockEnd
  0
BLOCK
  5
286
330
285
100
AcDbEntity
  8
0
100
AcDbBlockBegin
  2
*D22
 70
     1
 10
0.0
 20
0.0
 30
0.0
  3
*D22
  1

  0
LINE
  5
288
330
285
100
AcDbEntity
  8
Ｓ_１_１
  6
CONTINUOUS
 62
     2
100
AcDbLine
 10
1005.000003
 20
796.999938
 30
0.0
 11
1005.000003
 21
917.1
 31
0.0
  0
LINE
  5
289
330
285
100
AcDbEntity
  8
Ｓ_１_１
  6
CONTINUOUS
 62
     2
100
AcDbLine
 10
1524.999996
 20
796.999938
 30
0.0
 11
1524.999996
 21
917.1
 31
0.0
  0
LINE
  5
28A
330
285
100
AcDbEntity
  8
Ｓ_１_１
  6
CONTINUOUS
 62
     2
100
AcDbLine
 10
1032.000003
 20
908.1
 30
0.0
 11
1497.999996
 21
908.1
 31
0.0
  0
INSERT
  5
28B
330
285
100
AcDbEntity
  8
Ｓ_１_１
 62
     2
100
AcDbBlockReference
  2
EX_NORM
 10
1005.000003
 20
908.1
 30
0.0
 41
27.0
 42
27.0
 43
27.0
 50
180.0
  0
INSERT
  5
28C
330
285
100
AcDbEntity
  8
Ｓ_１_１
 62
     2
100
AcDbBlockReference
  2
EX_NORM
 10
1524.999996
 20
908.1
 30
0.0
 41
27.0
 42
27.0
 43
27.0
  0
MTEXT
  5
28D
330
285
100
AcDbEntity
  8
Ｓ_１_１
 62
     2
100
AcDbMText
 10
1602.624996
 20
932.85
 30
0.0
 40
31.16613741339492
 41
0.0
 71
     5
 72
     1
  1
　520
  7
EXCADDIM1
  0
POINT
  5
28E
330
285
100
AcDbEntity
  8
DEFPOINTS
 62
     0
100
AcDbPoint
 10
1005.000003
 20
783.499938
 30
0.0
  0
POINT
  5
28F
330
285
100
AcDbEntity
  8
DEFPOINTS
 62
     0
100
AcDbPoint
 10
1524.999996
 20
783.499938
 30
0.0
  0
POINT
  5
290
330
285
100
AcDbEntity
  8
DEFPOINTS
 62
     0
100
AcDbPoint
 10
1524.999996
 20
908.1
 30
0.0
  0
ENDBLK
  5
287
330
285
100
AcDbEntity
  8
0
100
AcDbBlockEnd
  0
BLOCK
  5
293
330
292
100
AcDbEntity
  8
0
100
AcDbBlockBegin
  2
*D23
 70
     1
 10
0.0
 20
0.0
 30
0.0
  3
*D23
  1

  0
LINE
  5
295
330
292
100
AcDbEntity
  8
Ｓ_１_１
  6
CONTINUOUS
 62
     2
100
AcDbLine
 10
955.000004
 20
778.49964500003
 30
0.0
 11
955.000004
 21
977.4
 31
0.0
  0
LINE
  5
296
330
292
100
AcDbEntity
  8
Ｓ_１_１
  6
CONTINUOUS
 62
     2
100
AcDbLine
 10
1574.999995
 20
778.49975700003
 30
0.0
 11
1574.999995
 21
977.4
 31
0.0
  0
LINE
  5
297
330
292
100
AcDbEntity
  8
Ｓ_１_１
  6
CONTINUOUS
 62
     2
100
AcDbLine
 10
982.000004
 20
968.4
 30
0.0
 11
1547.999995
 21
968.4
 31
0.0
  0
INSERT
  5
298
330
292
100
AcDbEntity
  8
Ｓ_１_１
 62
     2
100
AcDbBlockReference
  2
EX_NORM
 10
955.000004
 20
968.4
 30
0.0
 41
27.0
 42
27.0
 43
27.0
 50
180.0
  0
INSERT
  5
299
330
292
100
AcDbEntity
  8
Ｓ_１_１
 62
     2
100
AcDbBlockReference
  2
EX_NORM
 10
1574.999995
 20
968.4
 30
0.0
 41
27.0
 42
27.0
 43
27.0
  0
MTEXT
  5
29A
330
292
100
AcDbEntity
  8
Ｓ_１_１
 62
     2
100
AcDbMText
 10
1632.374995
 20
993.15
 30
0.0
 40
31.16613741339492
 41
0.0
 71
     5
 72
     1
  1
620
  7
EXCADDIM1
  0
POINT
  5
29B
330
292
100
AcDbEntity
  8
DEFPOINTS
 62
     0
100
AcDbPoint
 10
955.000004
 20
764.99964500003
 30
0.0
  0
POINT
  5
29C
330
292
100
AcDbEntity
  8
DEFPOINTS
 62
     0
100
AcDbPoint
 10
1574.999995
 20
764.99975700003
 30
0.0
  0
POINT
  5
29D
330
292
100
AcDbEntity
  8
DEFPOINTS
 62
     0
100
AcDbPoint
 10
1574.999995
 20
968.4
 30
0.0
  0
ENDBLK
  5
294
330
292
100
AcDbEntity
  8
0
100
AcDbBlockEnd
  0
BLOCK
  5
2A0
330
29F
100
AcDbEntity
  8
0
100
AcDbBlockBegin
  2
*D24
 70
     1
 10
0.0
 20
0.0
 30
0.0
  3
*D24
  1

  0
LINE
  5
2A2
330
29F
100
AcDbEntity
  8
Ｓ_１_１
  6
CONTINUOUS
 62
     2
100
AcDbLine
 10
1570.033316996792
 20
704.0000300000019
 30
0.0
 11
1593.416002898972
 21
690.5000300000023
 31
0.0
  0
LINE
  5
2A3
330
29F
100
AcDbEntity
  8
Ｓ_１_１
  6
CONTINUOUS
 62
     2
100
AcDbLine
 10
1479.966675003209
 20
756.0000300000002
 30
0.0
 11
1456.583989101029
 21
769.5000299999997
 31
0.0
  0
MTEXT
  5
2A4
330
29F
100
AcDbEntity
  8
Ｓ_１_１
 62
     2
100
AcDbMText
 10
1617.482345850062
 20
705.1841587436672
 30
0.0
 40
31.16613741339492
 41
0.0
 71
     5
 72
     1
  1
%%c50
  7
EXCADDIM1
 11
0.8660254037844477
 21
-0.4999999999999845
 31
0.0
  0
LINE
  5
2A5
330
29F
100
AcDbEntity
  8
Ｓ_１_１
  6
CONTINUOUS
 62
     2
100
AcDbLine
 10
1503.349360905389
 20
742.5000300000006
 30
0.0
 11
1546.650631094612
 21
717.5000300000014
 31
0.0
  0
INSERT
  5
2A6
330
29F
100
AcDbEntity
  8
Ｓ_１_１
 62
     2
100
AcDbBlockReference
  2
EX_NORM
 10
1503.349360905389
 20
742.5000300000006
 30
0.0
 41
27.0
 42
27.0
 43
27.0
 50
330.0000000000011
  0
INSERT
  5
2A7
330
29F
100
AcDbEntity
  8
Ｓ_１_１
 62
     2
100
AcDbBlockReference
  2
EX_NORM
 10
1546.650631094612
 20
717.5000300000014
 30
0.0
 41
27.0
 42
27.0
 43
27.0
 50
150.000000000001
  0
POINT
  5
2A8
330
29F
100
AcDbEntity
  8
DEFPOINTS
 62
     0
100
AcDbPoint
 10
1546.650631094612
 20
717.5000300000014
 30
0.0
  0
POINT
  5
2A9
330
29F
100
AcDbEntity
  8
DEFPOINTS
 62
     0
100
AcDbPoint
 10
1503.349360905389
 20
742.5000300000006
 30
0.0
  0
ENDBLK
  5
2A1
330
29F
100
AcDbEntity
  8
0
100
AcDbBlockEnd
  0
BLOCK
  5
2AC
330
2AB
100
AcDbEntity
  8
0
100
AcDbBlockBegin
  2
*D25
 70
     1
 10
0.0
 20
0.0
 30
0.0
  3
*D25
  1

  0
LINE
  5
2AE
330
2AB
100
AcDbEntity
  8
Ｓ_１_１
  6
CONTINUOUS
 62
     2
100
AcDbLine
 10
1648.499994
 20
2159.999842
 30
0.0
 11
1824.0
 21
2159.999842
 31
0.0
  0
LINE
  5
2AF
330
2AB
100
AcDbEntity
  8
Ｓ_１_１
  6
CONTINUOUS
 62
     2
100
AcDbLine
 10
1648.500042
 20
1360.000159
 30
0.0
 11
1824.0
 21
1360.000159
 31
0.0
  0
LINE
  5
2B0
330
2AB
100
AcDbEntity
  8
Ｓ_１_１
  6
CONTINUOUS
 62
     2
100
AcDbLine
 10
1815.0
 20
2132.999842
 30
0.0
 11
1815.0
 21
1387.000159
 31
0.0
  0
INSERT
  5
2B1
330
2AB
100
AcDbEntity
  8
Ｓ_１_１
 62
     2
100
AcDbBlockReference
  2
EX_NORM
 10
1815.0
 20
2159.999842
 30
0.0
 41
27.0
 42
27.0
 43
27.0
 50
90.0
  0
INSERT
  5
2B2
330
2AB
100
AcDbEntity
  8
Ｓ_１_１
 62
     2
100
AcDbBlockReference
  2
EX_NORM
 10
1815.0
 20
1360.000159
 30
0.0
 41
27.0
 42
27.0
 43
27.0
 50
270.0
  0
MTEXT
  5
2B3
330
2AB
100
AcDbEntity
  8
Ｓ_１_１
 62
     2
100
AcDbMText
 10
1790.25
 20
1760.0000005
 30
0.0
 40
31.16613741339492
 41
0.0
 71
     5
 72
     1
  1
800
  7
EXCADDIM1
 11
0.0
 21
1.0
 31
0.0
  0
POINT
  5
2B4
330
2AB
100
AcDbEntity
  8
DEFPOINTS
 62
     0
100
AcDbPoint
 10
1634.999994
 20
2159.999842
 30
0.0
  0
POINT
  5
2B5
330
2AB
100
AcDbEntity
  8
DEFPOINTS
 62
     0
100
AcDbPoint
 10
1635.000042
 20
1360.000159
 30
0.0
  0
POINT
  5
2B6
330
2AB
100
AcDbEntity
  8
DEFPOINTS
 62
     0
100
AcDbPoint
 10
1815.0
 20
1360.000159
 30
0.0
  0
ENDBLK
  5
2AD
330
2AB
100
AcDbEntity
  8
0
100
AcDbBlockEnd
  0
BLOCK
  5
53A
330
539
100
AcDbEntity
  8
0
100
AcDbBlockBegin
  2
*D26
 70
     1
 10
0.0
 20
0.0
 30
0.0
  3
*D26
  1

  0
LINE
  5
53C
330
539
100
AcDbEntity
  8
Ｓ_１_１
  6
CONTINUOUS
 62
     2
100
AcDbLine
 10
2434.488886428411
 20
878.8823134177093
 30
0.0
 11
2405.511113571591
 21
871.1177425822705
 31
0.0
  0
MTEXT
  5
53D
330
539
100
AcDbEntity
  8
Ｓ_１_１
 62
     2
100
AcDbMText
 10
2519.363105646439
 20
927.2473773805546
 30
0.0
 40
31.16613741339492
 41
0.0
 71
     5
 72
     1
  1
%%c84
  7
EXCADDIM1
 11
0.9659258262890591
 21
0.2588190451025554
 31
0.0
  0
LINE
  5
53E
330
539
100
AcDbEntity
  8
Ｓ_１_１
  6
CONTINUOUS
 62
     2
100
AcDbLine
 10
2379.431116261786
 20
864.1296283645015
 30
0.0
 11
2460.568883738216
 21
885.8704276354782
 31
0.0
  0
INSERT
  5
53F
330
539
100
AcDbEntity
  8
Ｓ_１_１
 62
     2
100
AcDbBlockReference
  2
EX_NORM
 10
2379.431116261786
 20
864.1296283645015
 30
0.0
 41
27.0
 42
27.0
 43
27.0
 50
195.000000000002
  0
INSERT
  5
540
330
539
100
AcDbEntity
  8
Ｓ_１_１
 62
     2
100
AcDbBlockReference
  2
EX_NORM
 10
2460.568883738216
 20
885.8704276354782
 30
0.0
 41
27.0
 42
27.0
 43
27.0
 50
15.00000000000205
  0
POINT
  5
541
330
539
100
AcDbEntity
  8
DEFPOINTS
 62
     0
100
AcDbPoint
 10
2460.568883738216
 20
885.8704276354782
 30
0.0
  0
POINT
  5
542
330
539
100
AcDbEntity
  8
DEFPOINTS
 62
     0
100
AcDbPoint
 10
2379.431116261786
 20
864.1296283645015
 30
0.0
  0
ENDBLK
  5
53B
330
539
100
AcDbEntity
  8
0
100
AcDbBlockEnd
  0
BLOCK
  5
615
330
614
100
AcDbEntity
  8
0
100
AcDbBlockBegin
  2
*D27
 70
     1
 10
0.0
 20
0.0
 30
0.0
  3
*D27
  1

  0
LINE
  5
617
330
614
100
AcDbEntity
  8
Ｓ_１_１
  6
CONTINUOUS
 62
     2
100
AcDbLine
 10
962.9836939378
 20
1860.0000046491
 30
0.0
 11
706.0000000000001
 21
1860.0000046491
 31
0.0
  0
LINE
  5
618
330
614
100
AcDbEntity
  8
Ｓ_１_１
  6
CONTINUOUS
 62
     2
100
AcDbLine
 10
961.6836939378
 20
1659.9999953508
 30
0.0
 11
706.0000000000001
 21
1659.9999953508
 31
0.0
  0
LINE
  5
619
330
614
100
AcDbEntity
  8
Ｓ_１_１
  6
CONTINUOUS
 62
     2
100
AcDbLine
 10
715.0000000000001
 20
1833.0000046491
 30
0.0
 11
715.0000000000001
 21
1686.9999953508
 31
0.0
  0
INSERT
  5
61A
330
614
100
AcDbEntity
  8
Ｓ_１_１
 62
     2
100
AcDbBlockReference
  2
EX_NORM
 10
715.0000000000001
 20
1860.0000046491
 30
0.0
 41
27.0
 42
27.0
 43
27.0
 50
90.0
  0
INSERT
  5
61B
330
614
100
AcDbEntity
  8
Ｓ_１_１
 62
     2
100
AcDbBlockReference
  2
EX_NORM
 10
715.0000000000001
 20
1659.9999953508
 30
0.0
 41
27.0
 42
27.0
 43
27.0
 50
270.0
  0
MTEXT
  5
61C
330
614
100
AcDbEntity
  8
Ｓ_１_１
 62
     2
100
AcDbMText
 10
690.2500000000002
 20
1759.99999999995
 30
0.0
 40
31.16613741339492
 41
0.0
 71
     5
 72
     1
  1
200
  7
EXCADDIM1
 11
0.0
 21
1.0
 31
0.0
  0
POINT
  5
61D
330
614
100
AcDbEntity
  8
DEFPOINTS
 62
     0
100
AcDbPoint
 10
976.4836939378
 20
1860.0000046491
 30
0.0
  0
POINT
  5
61E
330
614
100
AcDbEntity
  8
DEFPOINTS
 62
     0
100
AcDbPoint
 10
975.1836939378
 20
1659.9999953508
 30
0.0
  0
POINT
  5
61F
330
614
100
AcDbEntity
  8
DEFPOINTS
 62
     0
100
AcDbPoint
 10
715.0000000000001
 20
1659.9999953508
 30
0.0
  0
ENDBLK
  5
616
330
614
100
AcDbEntity
  8
0
100
AcDbBlockEnd
  0
BLOCK
  5
622
330
621
100
AcDbEntity
  8
0
100
AcDbBlockBegin
  2
*D28
 70
     1
 10
0.0
 20
0.0
 30
0.0
  3
*D28
  1

  0
LINE
  5
624
330
621
100
AcDbEntity
  8
Ｓ_１_１
  6
CONTINUOUS
 62
     2
100
AcDbLine
 10
861.68368589119
 20
1899.9999999999
 30
0.0
 11
651.0
 21
1899.9999999999
 31
0.0
  0
LINE
  5
625
330
621
100
AcDbEntity
  8
Ｓ_１_１
  6
CONTINUOUS
 62
     2
100
AcDbLine
 10
861.68368589119
 20
1620.0
 30
0.0
 11
651.0
 21
1620.0
 31
0.0
  0
LINE
  5
626
330
621
100
AcDbEntity
  8
Ｓ_１_１
  6
CONTINUOUS
 62
     2
100
AcDbLine
 10
660.0
 20
1872.9999999999
 30
0.0
 11
660.0
 21
1647.0
 31
0.0
  0
INSERT
  5
627
330
621
100
AcDbEntity
  8
Ｓ_１_１
 62
     2
100
AcDbBlockReference
  2
EX_NORM
 10
660.0
 20
1899.9999999999
 30
0.0
 41
27.0
 42
27.0
 43
27.0
 50
90.0
  0
INSERT
  5
628
330
621
100
AcDbEntity
  8
Ｓ_１_１
 62
     2
100
AcDbBlockReference
  2
EX_NORM
 10
660.0
 20
1620.0
 30
0.0
 41
27.0
 42
27.0
 43
27.0
 50
270.0
  0
MTEXT
  5
629
330
621
100
AcDbEntity
  8
Ｓ_１_１
 62
     2
100
AcDbMText
 10
635.2500000000001
 20
1759.99999999995
 30
0.0
 40
31.16613741339492
 41
0.0
 71
     5
 72
     1
  1
280
  7
EXCADDIM1
 11
0.0
 21
1.0
 31
0.0
  0
POINT
  5
62A
330
621
100
AcDbEntity
  8
DEFPOINTS
 62
     0
100
AcDbPoint
 10
875.18368589119
 20
1899.9999999999
 30
0.0
  0
POINT
  5
62B
330
621
100
AcDbEntity
  8
DEFPOINTS
 62
     0
100
AcDbPoint
 10
875.18368589119
 20
1620.0
 30
0.0
  0
POINT
  5
62C
330
621
100
AcDbEntity
  8
DEFPOINTS
 62
     0
100
AcDbPoint
 10
660.0
 20
1620.0
 30
0.0
  0
ENDBLK
  5
623
330
621
100
AcDbEntity
  8
0
100
AcDbBlockEnd
  0
BLOCK
  5
62F
330
62E
100
AcDbEntity
  8
0
100
AcDbBlockBegin
  2
*D29
 70
     1
 10
0.0
 20
0.0
 30
0.0
  3
*D29
  1

  0
LINE
  5
631
330
62E
100
AcDbEntity
  8
Ｓ_１_１
  6
CONTINUOUS
 62
     2
100
AcDbLine
 10
1083.8336939378
 20
1929.9999873042
 30
0.0
 11
596.0
 21
1929.9999873042
 31
0.0
  0
LINE
  5
632
330
62E
100
AcDbEntity
  8
Ｓ_１_１
  6
CONTINUOUS
 62
     2
100
AcDbLine
 10
1082.7336939378
 20
1590.0000126958
 30
0.0
 11
596.0
 21
1590.0000126958
 31
0.0
  0
LINE
  5
633
330
62E
100
AcDbEntity
  8
Ｓ_１_１
  6
CONTINUOUS
 62
     2
100
AcDbLine
 10
605.0
 20
1902.9999873042
 30
0.0
 11
605.0
 21
1617.0000126958
 31
0.0
  0
INSERT
  5
634
330
62E
100
AcDbEntity
  8
Ｓ_１_１
 62
     2
100
AcDbBlockReference
  2
EX_NORM
 10
605.0
 20
1929.9999873042
 30
0.0
 41
27.0
 42
27.0
 43
27.0
 50
90.0
  0
INSERT
  5
635
330
62E
100
AcDbEntity
  8
Ｓ_１_１
 62
     2
100
AcDbBlockReference
  2
EX_NORM
 10
605.0
 20
1590.0000126958
 30
0.0
 41
27.0
 42
27.0
 43
27.0
 50
270.0
  0
MTEXT
  5
636
330
62E
100
AcDbEntity
  8
Ｓ_１_１
 62
     2
100
AcDbMText
 10
580.2500000000001
 20
1760.0
 30
0.0
 40
31.16613741339492
 41
0.0
 71
     5
 72
     1
  1
340
  7
EXCADDIM1
 11
0.0
 21
1.0
 31
0.0
  0
POINT
  5
637
330
62E
100
AcDbEntity
  8
DEFPOINTS
 62
     0
100
AcDbPoint
 10
1097.3336939378
 20
1929.9999873042
 30
0.0
  0
POINT
  5
638
330
62E
100
AcDbEntity
  8
DEFPOINTS
 62
     0
100
AcDbPoint
 10
1096.2336939378
 20
1590.0000126958
 30
0.0
  0
POINT
  5
639
330
62E
100
AcDbEntity
  8
DEFPOINTS
 62
     0
100
AcDbPoint
 10
605.0
 20
1590.0000126958
 30
0.0
  0
ENDBLK
  5
630
330
62E
100
AcDbEntity
  8
0
100
AcDbBlockEnd
  0
BLOCK
  5
63C
330
63B
100
AcDbEntity
  8
0
100
AcDbBlockBegin
  2
*D30
 70
     1
 10
0.0
 20
0.0
 30
0.0
  3
*D30
  1

  0
LINE
  5
63E
330
63B
100
AcDbEntity
  8
Ｓ_１_１
  6
CONTINUOUS
 62
     2
100
AcDbLine
 10
851.4999814033437
 20
1984.999993294456
 30
0.0
 11
541.0
 21
1984.999993294456
 31
0.0
  0
LINE
  5
63F
330
63B
100
AcDbEntity
  8
Ｓ_１_１
  6
CONTINUOUS
 62
     2
100
AcDbLine
 10
851.4999814033437
 20
1535.0000067055
 30
0.0
 11
541.0
 21
1535.0000067055
 31
0.0
  0
LINE
  5
640
330
63B
100
AcDbEntity
  8
Ｓ_１_１
  6
CONTINUOUS
 62
     2
100
AcDbLine
 10
550.0
 20
1957.999993294456
 30
0.0
 11
550.0
 21
1562.0000067055
 31
0.0
  0
INSERT
  5
641
330
63B
100
AcDbEntity
  8
Ｓ_１_１
 62
     2
100
AcDbBlockReference
  2
EX_NORM
 10
550.0
 20
1984.999993294456
 30
0.0
 41
27.0
 42
27.0
 43
27.0
 50
90.0
  0
INSERT
  5
642
330
63B
100
AcDbEntity
  8
Ｓ_１_１
 62
     2
100
AcDbBlockReference
  2
EX_NORM
 10
550.0
 20
1535.0000067055
 30
0.0
 41
27.0
 42
27.0
 43
27.0
 50
270.0
  0
MTEXT
  5
643
330
63B
100
AcDbEntity
  8
Ｓ_１_１
 62
     2
100
AcDbMText
 10
525.2500000000001
 20
1759.999999999978
 30
0.0
 40
31.16613741339492
 41
0.0
 71
     5
 72
     1
  1
450
  7
EXCADDIM1
 11
0.0
 21
1.0
 31
0.0
  0
POINT
  5
644
330
63B
100
AcDbEntity
  8
DEFPOINTS
 62
     0
100
AcDbPoint
 10
864.9999814033437
 20
1984.999993294456
 30
0.0
  0
POINT
  5
645
330
63B
100
AcDbEntity
  8
DEFPOINTS
 62
     0
100
AcDbPoint
 10
864.9999814033437
 20
1535.0000067055
 30
0.0
  0
POINT
  5
646
330
63B
100
AcDbEntity
  8
DEFPOINTS
 62
     0
100
AcDbPoint
 10
550.0
 20
1535.0000067055
 30
0.0
  0
ENDBLK
  5
63D
330
63B
100
AcDbEntity
  8
0
100
AcDbBlockEnd
  0
BLOCK
  5
649
330
648
100
AcDbEntity
  8
0
100
AcDbBlockBegin
  2
*D31
 70
     1
 10
0.0
 20
0.0
 30
0.0
  3
*D31
  1

  0
LINE
  5
64B
330
648
100
AcDbEntity
  8
Ｓ_１_１
  6
CONTINUOUS
 62
     2
100
AcDbLine
 10
895.00000000001
 20
1932.8096418194
 30
0.0
 11
895.00000000001
 21
2264.0
 31
0.0
  0
LINE
  5
64C
330
648
100
AcDbEntity
  8
Ｓ_１_１
  6
CONTINUOUS
 62
     2
100
AcDbLine
 10
995.00000804662
 20
1892.1903535313
 30
0.0
 11
995.00000804662
 21
2264.0
 31
0.0
  0
LINE
  5
64D
330
648
100
AcDbEntity
  8
Ｓ_１_１
  6
CONTINUOUS
 62
     2
100
AcDbLine
 10
922.00000000001
 20
2255.0
 30
0.0
 11
968.00000804662
 21
2255.0
 31
0.0
  0
INSERT
  5
64E
330
648
100
AcDbEntity
  8
Ｓ_１_１
 62
     2
100
AcDbBlockReference
  2
EX_NORM
 10
895.00000000001
 20
2255.0
 30
0.0
 41
27.0
 42
27.0
 43
27.0
 50
180.0
  0
INSERT
  5
64F
330
648
100
AcDbEntity
  8
Ｓ_１_１
 62
     2
100
AcDbBlockReference
  2
EX_NORM
 10
995.00000804662
 20
2255.0
 30
0.0
 41
27.0
 42
27.0
 43
27.0
  0
MTEXT
  5
650
330
648
100
AcDbEntity
  8
Ｓ_１_１
 62
     2
100
AcDbMText
 10
945.0000040233151
 20
2279.75
 30
0.0
 40
31.16613741339492
 41
0.0
 71
     5
 72
     1
  1
100
  7
EXCADDIM1
  0
POINT
  5
651
330
648
100
AcDbEntity
  8
DEFPOINTS
 62
     0
100
AcDbPoint
 10
895.00000000001
 20
1919.3096418194
 30
0.0
  0
POINT
  5
652
330
648
100
AcDbEntity
  8
DEFPOINTS
 62
     0
100
AcDbPoint
 10
995.00000804662
 20
1878.6903535313
 30
0.0
  0
POINT
  5
653
330
648
100
AcDbEntity
  8
DEFPOINTS
 62
     0
100
AcDbPoint
 10
995.00000804662
 20
2255.0
 30
0.0
  0
ENDBLK
  5
64A
330
648
100
AcDbEntity
  8
0
100
AcDbBlockEnd
  0
BLOCK
  5
656
330
655
100
AcDbEntity
  8
0
100
AcDbBlockBegin
  2
*D32
 70
     1
 10
0.0
 20
0.0
 30
0.0
  3
*D32
  1

  0
LINE
  5
658
330
655
100
AcDbEntity
  8
Ｓ_１_１
  6
CONTINUOUS
 62
     2
100
AcDbLine
 10
1115.0000273585
 20
2001.4999932945
 30
0.0
 11
1115.0000273585
 21
2264.0
 31
0.0
  0
LINE
  5
659
330
655
100
AcDbEntity
  8
Ｓ_１_１
  6
CONTINUOUS
 62
     2
100
AcDbLine
 10
1022.00000804662
 20
2255.0
 30
0.0
 11
1088.0000273585
 21
2255.0
 31
0.0
  0
INSERT
  5
65A
330
655
100
AcDbEntity
  8
Ｓ_１_１
 62
     2
100
AcDbBlockReference
  2
EX_NORM
 10
995.00000804662
 20
2255.0
 30
0.0
 41
27.0
 42
27.0
 43
27.0
 50
180.0
  0
INSERT
  5
65B
330
655
100
AcDbEntity
  8
Ｓ_１_１
 62
     2
100
AcDbBlockReference
  2
EX_NORM
 10
1115.0000273585
 20
2255.0
 30
0.0
 41
27.0
 42
27.0
 43
27.0
  0
MTEXT
  5
65C
330
655
100
AcDbEntity
  8
Ｓ_１_１
 62
     2
100
AcDbMText
 10
1055.00001770256
 20
2279.75
 30
0.0
 40
31.16613741339492
 41
0.0
 71
     5
 72
     1
  1
120
  7
EXCADDIM1
  0
POINT
  5
65D
330
655
100
AcDbEntity
  8
DEFPOINTS
 62
     0
100
AcDbPoint
 10
995.00000804662
 20
1878.6903535313
 30
0.0
  0
POINT
  5
65E
330
655
100
AcDbEntity
  8
DEFPOINTS
 62
     0
100
AcDbPoint
 10
1115.0000273585
 20
1987.9999932945
 30
0.0
  0
POINT
  5
65F
330
655
100
AcDbEntity
  8
DEFPOINTS
 62
     0
100
AcDbPoint
 10
1115.0000273585
 20
2255.0
 30
0.0
  0
ENDBLK
  5
657
330
655
100
AcDbEntity
  8
0
100
AcDbBlockEnd
  0
BLOCK
  5
662
330
661
100
AcDbEntity
  8
0
100
AcDbBlockBegin
  2
*D33
 70
     1
 10
0.0
 20
0.0
 30
0.0
  3
*D33
  1

  0
LINE
  5
664
330
661
100
AcDbEntity
  8
Ｓ_１_１
  6
CONTINUOUS
 62
     2
100
AcDbLine
 10
1414.9999926686
 20
2001.4999932945
 30
0.0
 11
1414.9999926686
 21
2264.0
 31
0.0
  0
LINE
  5
665
330
661
100
AcDbEntity
  8
Ｓ_１_１
  6
CONTINUOUS
 62
     2
100
AcDbLine
 10
1142.0000273585
 20
2255.0
 30
0.0
 11
1387.9999926686
 21
2255.0
 31
0.0
  0
INSERT
  5
666
330
661
100
AcDbEntity
  8
Ｓ_１_１
 62
     2
100
AcDbBlockReference
  2
EX_NORM
 10
1115.0000273585
 20
2255.0
 30
0.0
 41
27.0
 42
27.0
 43
27.0
 50
180.0
  0
INSERT
  5
667
330
661
100
AcDbEntity
  8
Ｓ_１_１
 62
     2
100
AcDbBlockReference
  2
EX_NORM
 10
1414.9999926686
 20
2255.0
 30
0.0
 41
27.0
 42
27.0
 43
27.0
  0
MTEXT
  5
668
330
661
100
AcDbEntity
  8
Ｓ_１_１
 62
     2
100
AcDbMText
 10
1265.00001001355
 20
2279.75
 30
0.0
 40
31.16613741339492
 41
0.0
 71
     5
 72
     1
  1
300
  7
EXCADDIM1
  0
POINT
  5
669
330
661
100
AcDbEntity
  8
DEFPOINTS
 62
     0
100
AcDbPoint
 10
1115.0000273585
 20
1987.9999932945
 30
0.0
  0
POINT
  5
66A
330
661
100
AcDbEntity
  8
DEFPOINTS
 62
     0
100
AcDbPoint
 10
1414.9999926686
 20
1987.9999932945
 30
0.0
  0
POINT
  5
66B
330
661
100
AcDbEntity
  8
DEFPOINTS
 62
     0
100
AcDbPoint
 10
1414.9999926686
 20
2255.0
 30
0.0
  0
ENDBLK
  5
663
330
661
100
AcDbEntity
  8
0
100
AcDbBlockEnd
  0
BLOCK
  5
66E
330
66D
100
AcDbEntity
  8
0
100
AcDbBlockBegin
  2
*D34
 70
     1
 10
0.0
 20
0.0
 30
0.0
  3
*D34
  1

  0
LINE
  5
670
330
66D
100
AcDbEntity
  8
Ｓ_１_１
  6
CONTINUOUS
 62
     2
100
AcDbLine
 10
1534.9999862313
 20
1892.7403535313
 30
0.0
 11
1534.9999862313
 21
2264.0
 31
0.0
  0
LINE
  5
671
330
66D
100
AcDbEntity
  8
Ｓ_１_１
  6
CONTINUOUS
 62
     2
100
AcDbLine
 10
1441.9999926686
 20
2255.0
 30
0.0
 11
1507.9999862313
 21
2255.0
 31
0.0
  0
INSERT
  5
672
330
66D
100
AcDbEntity
  8
Ｓ_１_１
 62
     2
100
AcDbBlockReference
  2
EX_NORM
 10
1414.9999926686
 20
2255.0
 30
0.0
 41
27.0
 42
27.0
 43
27.0
 50
180.0
  0
INSERT
  5
673
330
66D
100
AcDbEntity
  8
Ｓ_１_１
 62
     2
100
AcDbBlockReference
  2
EX_NORM
 10
1534.9999862313
 20
2255.0
 30
0.0
 41
27.0
 42
27.0
 43
27.0
  0
MTEXT
  5
674
330
66D
100
AcDbEntity
  8
Ｓ_１_１
 62
     2
100
AcDbMText
 10
1474.99998944995
 20
2279.75
 30
0.0
 40
31.16613741339492
 41
0.0
 71
     5
 72
     1
  1
120
  7
EXCADDIM1
  0
POINT
  5
675
330
66D
100
AcDbEntity
  8
DEFPOINTS
 62
     0
100
AcDbPoint
 10
1414.9999926686
 20
1987.9999932945
 30
0.0
  0
POINT
  5
676
330
66D
100
AcDbEntity
  8
DEFPOINTS
 62
     0
100
AcDbPoint
 10
1534.9999862313
 20
1879.2403535313
 30
0.0
  0
POINT
  5
677
330
66D
100
AcDbEntity
  8
DEFPOINTS
 62
     0
100
AcDbPoint
 10
1534.9999862313
 20
2255.0
 30
0.0
  0
ENDBLK
  5
66F
330
66D
100
AcDbEntity
  8
0
100
AcDbBlockEnd
  0
BLOCK
  5
67A
330
679
100
AcDbEntity
  8
0
100
AcDbBlockBegin
  2
*D35
 70
     1
 10
0.0
 20
0.0
 30
0.0
  3
*D35
  1

  0
LINE
  5
67C
330
679
100
AcDbEntity
  8
Ｓ_１_１
  6
CONTINUOUS
 62
     2
100
AcDbLine
 10
1635.0
 20
1932.8096418194
 30
0.0
 11
1635.0
 21
2264.0
 31
0.0
  0
LINE
  5
67D
330
679
100
AcDbEntity
  8
Ｓ_１_１
  6
CONTINUOUS
 62
     2
100
AcDbLine
 10
1561.9999862313
 20
2255.0
 30
0.0
 11
1608.0
 21
2255.0
 31
0.0
  0
INSERT
  5
67E
330
679
100
AcDbEntity
  8
Ｓ_１_１
 62
     2
100
AcDbBlockReference
  2
EX_NORM
 10
1534.9999862313
 20
2255.0
 30
0.0
 41
27.0
 42
27.0
 43
27.0
 50
180.0
  0
INSERT
  5
67F
330
679
100
AcDbEntity
  8
Ｓ_１_１
 62
     2
100
AcDbBlockReference
  2
EX_NORM
 10
1635.0
 20
2255.0
 30
0.0
 41
27.0
 42
27.0
 43
27.0
  0
MTEXT
  5
680
330
679
100
AcDbEntity
  8
Ｓ_１_１
 62
     2
100
AcDbMText
 10
1584.99999311565
 20
2279.75
 30
0.0
 40
31.16613741339492
 41
0.0
 71
     5
 72
     1
  1
100
  7
EXCADDIM1
  0
POINT
  5
681
330
679
100
AcDbEntity
  8
DEFPOINTS
 62
     0
100
AcDbPoint
 10
1534.9999862313
 20
1879.2403535313
 30
0.0
  0
POINT
  5
682
330
679
100
AcDbEntity
  8
DEFPOINTS
 62
     0
100
AcDbPoint
 10
1635.0
 20
1919.3096418194
 30
0.0
  0
POINT
  5
683
330
679
100
AcDbEntity
  8
DEFPOINTS
 62
     0
100
AcDbPoint
 10
1635.0
 20
2255.0
 30
0.0
  0
ENDBLK
  5
67B
330
679
100
AcDbEntity
  8
0
100
AcDbBlockEnd
  0
BLOCK
  5
686
330
685
100
AcDbEntity
  8
0
100
AcDbBlockBegin
  2
*D36
 70
     1
 10
0.0
 20
0.0
 30
0.0
  3
*D36
  1

  0
LINE
  5
688
330
685
100
AcDbEntity
  8
Ｓ_１_１
  6
CONTINUOUS
 62
     2
100
AcDbLine
 10
865.000006
 20
2310.0
 30
0.0
 11
895.00000000001
 21
2310.0
 31
0.0
  0
LINE
  5
689
330
685
100
AcDbEntity
  8
Ｓ_１_１
  6
CONTINUOUS
 62
     2
100
AcDbLine
 10
838.000006
 20
2310.0
 30
0.0
 11
811.000006
 21
2310.0
 31
0.0
  0
LINE
  5
68A
330
685
100
AcDbEntity
  8
Ｓ_１_１
  6
CONTINUOUS
 62
     2
100
AcDbLine
 10
922.00000000001
 20
2310.0
 30
0.0
 11
949.00000000001
 21
2310.0
 31
0.0
  0
INSERT
  5
68B
330
685
100
AcDbEntity
  8
Ｓ_１_１
 62
     2
100
AcDbBlockReference
  2
EX_NORM
 10
865.000006
 20
2310.0
 30
0.0
 41
27.0
 42
27.0
 43
27.0
  0
INSERT
  5
68C
330
685
100
AcDbEntity
  8
Ｓ_１_１
 62
     2
100
AcDbBlockReference
  2
EX_NONE
 10
895.00000000001
 20
2310.0
 30
0.0
 41
27.0
 42
27.0
 43
27.0
 50
180.0
  0
MTEXT
  5
68D
330
685
100
AcDbEntity
  8
Ｓ_１_１
 62
     2
100
AcDbMText
 10
817.7500060000001
 20
2334.75
 30
0.0
 40
31.16613741339492
 41
0.0
 71
     5
 72
     1
  1
30
  7
EXCADDIM1
  0
POINT
  5
68E
330
685
100
AcDbEntity
  8
DEFPOINTS
 62
     0
100
AcDbPoint
 10
865.000006
 20
2130.000035
 30
0.0
  0
POINT
  5
68F
330
685
100
AcDbEntity
  8
DEFPOINTS
 62
     0
100
AcDbPoint
 10
895.00000000001
 20
1919.3096418194
 30
0.0
  0
POINT
  5
690
330
685
100
AcDbEntity
  8
DEFPOINTS
 62
     0
100
AcDbPoint
 10
895.00000000001
 20
2310.0
 30
0.0
  0
ENDBLK
  5
687
330
685
100
AcDbEntity
  8
0
100
AcDbBlockEnd
  0
BLOCK
  5
693
330
692
100
AcDbEntity
  8
0
100
AcDbBlockBegin
  2
*D37
 70
     1
 10
0.0
 20
0.0
 30
0.0
  3
*D37
  1

  0
LINE
  5
695
330
692
100
AcDbEntity
  8
Ｓ_１_１
  6
CONTINUOUS
 62
     2
100
AcDbLine
 10
895.00000000001
 20
1932.8096418194
 30
0.0
 11
895.00000000001
 21
2319.0
 31
0.0
  0
LINE
  5
696
330
692
100
AcDbEntity
  8
Ｓ_１_１
  6
CONTINUOUS
 62
     2
100
AcDbLine
 10
922.00000000001
 20
2310.0
 30
0.0
 11
1608.0
 21
2310.0
 31
0.0
  0
INSERT
  5
697
330
692
100
AcDbEntity
  8
Ｓ_１_１
 62
     2
100
AcDbBlockReference
  2
EX_NORM
 10
895.00000000001
 20
2310.0
 30
0.0
 41
27.0
 42
27.0
 43
27.0
 50
180.0
  0
INSERT
  5
698
330
692
100
AcDbEntity
  8
Ｓ_１_１
 62
     2
100
AcDbBlockReference
  2
EX_NORM
 10
1635.0
 20
2310.0
 30
0.0
 41
27.0
 42
27.0
 43
27.0
  0
MTEXT
  5
699
330
692
100
AcDbEntity
  8
Ｓ_１_１
 62
     2
100
AcDbMText
 10
1265.000000000005
 20
2334.75
 30
0.0
 40
31.16613741339492
 41
0.0
 71
     5
 72
     1
  1
740
  7
EXCADDIM1
  0
POINT
  5
69A
330
692
100
AcDbEntity
  8
DEFPOINTS
 62
     0
100
AcDbPoint
 10
895.00000000001
 20
1919.3096418194
 30
0.0
  0
POINT
  5
69B
330
692
100
AcDbEntity
  8
DEFPOINTS
 62
     0
100
AcDbPoint
 10
1635.0
 20
1919.3096418194
 30
0.0
  0
POINT
  5
69C
330
692
100
AcDbEntity
  8
DEFPOINTS
 62
     0
100
AcDbPoint
 10
1635.0
 20
2310.0
 30
0.0
  0
ENDBLK
  5
694
330
692
100
AcDbEntity
  8
0
100
AcDbBlockEnd
  0
BLOCK
  5
69F
330
69E
100
AcDbEntity
  8
0
100
AcDbBlockBegin
  2
*D38
 70
     1
 10
0.0
 20
0.0
 30
0.0
  3
*D38
  1

  0
LINE
  5
6A1
330
69E
100
AcDbEntity
  8
Ｓ_１_１
  6
CONTINUOUS
 62
     2
100
AcDbLine
 10
1635.0
 20
1932.8096418194
 30
0.0
 11
1635.0
 21
2319.0
 31
0.0
  0
LINE
  5
6A2
330
69E
100
AcDbEntity
  8
Ｓ_１_１
  6
CONTINUOUS
 62
     2
100
AcDbLine
 10
1635.0
 20
2310.0
 30
0.0
 11
1665.000023
 21
2310.0
 31
0.0
  0
LINE
  5
6A3
330
69E
100
AcDbEntity
  8
Ｓ_１_１
  6
CONTINUOUS
 62
     2
100
AcDbLine
 10
1608.0
 20
2310.0
 30
0.0
 11
1581.0
 21
2310.0
 31
0.0
  0
LINE
  5
6A4
330
69E
100
AcDbEntity
  8
Ｓ_１_１
  6
CONTINUOUS
 62
     2
100
AcDbLine
 10
1692.000023
 20
2310.0
 30
0.0
 11
1719.000023
 21
2310.0
 31
0.0
  0
INSERT
  5
6A5
330
69E
100
AcDbEntity
  8
Ｓ_１_１
 62
     2
100
AcDbBlockReference
  2
EX_NONE
 10
1635.0
 20
2310.0
 30
0.0
 41
27.0
 42
27.0
 43
27.0
  0
INSERT
  5
6A6
330
69E
100
AcDbEntity
  8
Ｓ_１_１
 62
     2
100
AcDbBlockReference
  2
EX_NORM
 10
1665.000023
 20
2310.0
 30
0.0
 41
27.0
 42
27.0
 43
27.0
 50
180.0
  0
MTEXT
  5
6A7
330
69E
100
AcDbEntity
  8
Ｓ_１_１
 62
     2
100
AcDbMText
 10
1712.250023
 20
2334.75
 30
0.0
 40
31.16613741339492
 41
0.0
 71
     5
 72
     1
  1
30
  7
EXCADDIM1
  0
POINT
  5
6A8
330
69E
100
AcDbEntity
  8
DEFPOINTS
 62
     0
100
AcDbPoint
 10
1635.0
 20
1919.3096418194
 30
0.0
  0
POINT
  5
6A9
330
69E
100
AcDbEntity
  8
DEFPOINTS
 62
     0
100
AcDbPoint
 10
1665.000023
 20
2130.000064
 30
0.0
  0
POINT
  5
6AA
330
69E
100
AcDbEntity
  8
DEFPOINTS
 62
     0
100
AcDbPoint
 10
1665.000023
 20
2310.0
 30
0.0
  0
ENDBLK
  5
6A0
330
69E
100
AcDbEntity
  8
0
100
AcDbBlockEnd
  0
BLOCK
  5
6AD
330
6AC
100
AcDbEntity
  8
0
100
AcDbBlockBegin
  2
*D39
 70
     1
 10
0.0
 20
0.0
 30
0.0
  3
*D39
  1

  0
LINE
  5
6AF
330
6AC
100
AcDbEntity
  8
Ｓ_１_１
  6
CONTINUOUS
 62
     2
100
AcDbLine
 10
865.000006
 20
2143.500035
 30
0.0
 11
865.000006
 21
2374.0
 31
0.0
  0
LINE
  5
6B0
330
6AC
100
AcDbEntity
  8
Ｓ_１_１
  6
CONTINUOUS
 62
     2
100
AcDbLine
 10
1665.000023
 20
2143.500064
 30
0.0
 11
1665.000023
 21
2374.0
 31
0.0
  0
LINE
  5
6B1
330
6AC
100
AcDbEntity
  8
Ｓ_１_１
  6
CONTINUOUS
 62
     2
100
AcDbLine
 10
892.000006
 20
2365.0
 30
0.0
 11
1638.000023
 21
2365.0
 31
0.0
  0
INSERT
  5
6B2
330
6AC
100
AcDbEntity
  8
Ｓ_１_１
 62
     2
100
AcDbBlockReference
  2
EX_NORM
 10
865.000006
 20
2365.0
 30
0.0
 41
27.0
 42
27.0
 43
27.0
 50
180.0
  0
INSERT
  5
6B3
330
6AC
100
AcDbEntity
  8
Ｓ_１_１
 62
     2
100
AcDbBlockReference
  2
EX_NORM
 10
1665.000023
 20
2365.0
 30
0.0
 41
27.0
 42
27.0
 43
27.0
  0
MTEXT
  5
6B4
330
6AC
100
AcDbEntity
  8
Ｓ_１_１
 62
     2
100
AcDbMText
 10
1265.0000145
 20
2389.75
 30
0.0
 40
31.16613741339492
 41
0.0
 71
     5
 72
     1
  1
800
  7
EXCADDIM1
  0
POINT
  5
6B5
330
6AC
100
AcDbEntity
  8
DEFPOINTS
 62
     0
100
AcDbPoint
 10
865.000006
 20
2130.000035
 30
0.0
  0
POINT
  5
6B6
330
6AC
100
AcDbEntity
  8
DEFPOINTS
 62
     0
100
AcDbPoint
 10
1665.000023
 20
2130.000064
 30
0.0
  0
POINT
  5
6B7
330
6AC
100
AcDbEntity
  8
DEFPOINTS
 62
     0
100
AcDbPoint
 10
1665.000023
 20
2365.0
 30
0.0
  0
ENDBLK
  5
6AE
330
6AC
100
AcDbEntity
  8
0
100
AcDbBlockEnd
  0
ENDSEC
  0
SECTION
  2
ENTITIES
  0
LINE
  5
DC
330
1F
100
AcDbEntity
  8
図面枠
  6
CONTINUOUS
 62
     5
100
AcDbLine
 10
90.0
 20
90.0
 30
0.0
 11
3690.0
 21
90.0
 31
0.0
  0
LINE
  5
DD
330
1F
100
AcDbEntity
  8
図面枠
  6
CONTINUOUS
 62
     5
100
AcDbLine
 10
3690.0
 20
90.0
 30
0.0
 11
3690.0
 21
2583.0
 31
0.0
  0
LINE
  5
DE
330
1F
100
AcDbEntity
  8
図面枠
  6
CONTINUOUS
 62
     5
100
AcDbLine
 10
3690.0
 20
2583.0
 30
0.0
 11
90.00000000000047
 21
2583.0
 31
0.0
  0
LINE
  5
DF
330
1F
100
AcDbEntity
  8
図面枠
  6
CONTINUOUS
 62
     5
100
AcDbLine
 10
90.00000000000047
 20
2583.0
 30
0.0
 11
90.0
 21
90.0
 31
0.0
  0
LINE
  5
E0
330
1F
100
AcDbEntity
  8
図面枠
  6
CONTINUOUS
 62
     3
100
AcDbLine
 10
3645.0
 20
216.0
 30
0.0
 11
3645.0
 21
135.0
 31
0.0
  0
LINE
  5
E1
330
1F
100
AcDbEntity
  8
図面枠
  6
CONTINUOUS
 62
     3
100
AcDbLine
 10
135.0000000000001
 20
2538.0
 30
0.0
 11
135.0000000000001
 21
2457.0
 31
0.0
  0
TEXT
  5
E3
330
1F
100
AcDbEntity
  8
図面枠
  6
CONTINUOUS
 62
     4
100
AcDbText
 10
3483.0
 20
2442.4453125
 30
0.0
 40
31.16613741339492
  1
kN
 41
0.9992307692307693
  7
EXCADTTF1
 72
     5
 11
3523.5
 21
2442.4453125
 31
0.0
100
AcDbText
  0
TEXT
  5
E4
330
1F
100
AcDbEntity
  8
図面枠
  6
CONTINUOUS
 62
     4
100
AcDbText
 10
2943.0
 20
2442.4453125
 30
0.0
 40
31.16613741339492
  1
能力
 41
0.9992307692307693
  7
EXCADTTF1
 72
     5
 11
3024.0
 21
2442.4453125
 31
0.0
100
AcDbText
  0
TEXT
  5
E5
330
1F
100
AcDbEntity
  8
図面枠
  6
CONTINUOUS
 62
     4
100
AcDbText
 10
3183.75
 20
2496.4453125
 30
0.0
 40
31.16613741339492
  1
仕　　　様
 41
0.9992307692307693
  7
EXCADTTF1
 72
     5
 11
3386.25
 21
2496.4453125
 31
0.0
100
AcDbText
  0
LINE
  5
E6
330
1F
100
AcDbEntity
  8
図面枠
  6
CONTINUOUS
 62
     3
100
AcDbLine
 10
2925.0
 20
2538.0
 30
0.0
 11
3645.0
 21
2538.0
 31
0.0
  0
LINE
  5
E7
330
1F
100
AcDbEntity
  8
図面枠
  6
CONTINUOUS
 62
     3
100
AcDbLine
 10
2925.0
 20
2484.0
 30
0.0
 11
3645.0
 21
2484.0
 31
0.0
  0
TEXT
  5
E8
330
1F
100
AcDbEntity
  8
図面枠
  6
CONTINUOUS
 62
     4
100
AcDbText
 10
3483.0
 20
2388.4453125
 30
0.0
 40
31.16613741339492
  1
mm
 41
0.9992307692307693
  7
EXCADTTF1
 72
     5
 11
3523.5
 21
2388.4453125
 31
0.0
100
AcDbText
  0
TEXT
  5
E9
330
1F
100
AcDbEntity
  8
図面枠
  6
CONTINUOUS
 62
     4
100
AcDbText
 10
3483.0
 20
2334.4453125
 30
0.0
 40
31.16613741339492
  1
mm
 41
0.9992307692307693
  7
EXCADTTF1
 72
     5
 11
3523.5
 21
2334.4453125
 31
0.0
100
AcDbText
  0
TEXT
  5
EA
330
1F
100
AcDbEntity
  8
図面枠
  6
CONTINUOUS
 62
     4
100
AcDbText
 10
3483.0
 20
2280.4453125
 30
0.0
 40
31.16613741339492
  1
mm
 41
0.9992307692307693
  7
EXCADTTF1
 72
     5
 11
3523.5
 21
2280.4453125
 31
0.0
100
AcDbText
  0
TEXT
  5
EB
330
1F
100
AcDbEntity
  8
図面枠
  6
CONTINUOUS
 62
     4
100
AcDbText
 10
2943.0
 20
2388.4453125
 30
0.0
 40
31.16613741339492
  1
ストローク
 41
0.9992307692307693
  7
EXCADTTF1
 72
     5
 11
3145.5
 21
2388.4453125
 31
0.0
100
AcDbText
  0
TEXT
  5
EC
330
1F
100
AcDbEntity
  8
図面枠
  6
CONTINUOUS
 62
     4
100
AcDbText
 10
2943.0
 20
2334.4453125
 30
0.0
 40
31.16613741339492
  1
最低機械高
 41
0.9992307692307693
  7
EXCADTTF1
 72
     5
 11
3145.5
 21
2334.4453125
 31
0.0
100
AcDbText
  0
TEXT
  5
ED
330
1F
100
AcDbEntity
  8
図面枠
  6
CONTINUOUS
 62
     4
100
AcDbText
 10
2943.0
 20
2280.4453125
 30
0.0
 40
31.16613741339492
  1
シリンダー外径
 41
0.9992307692307693
  7
EXCADTTF1
 72
     5
 11
3226.5
 21
2280.4453125
 31
0.0
100
AcDbText
  0
LINE
  5
EE
330
1F
100
AcDbEntity
  8
図面枠
  6
CONTINUOUS
 62
     2
100
AcDbLine
 10
2925.0
 20
2430.0
 30
0.0
 11
3645.0
 21
2430.0
 31
0.0
  0
LINE
  5
EF
330
1F
100
AcDbEntity
  8
図面枠
  6
CONTINUOUS
 62
     2
100
AcDbLine
 10
2925.0
 20
2376.0
 30
0.0
 11
3645.0
 21
2376.0
 31
0.0
  0
LINE
  5
F0
330
1F
100
AcDbEntity
  8
図面枠
  6
CONTINUOUS
 62
     2
100
AcDbLine
 10
2925.0
 20
2322.0
 30
0.0
 11
3645.0
 21
2322.0
 31
0.0
  0
LINE
  5
F1
330
1F
100
AcDbEntity
  8
図面枠
  6
CONTINUOUS
 62
     2
100
AcDbLine
 10
2925.0
 20
2268.0
 30
0.0
 11
3645.0
 21
2268.0
 31
0.0
  0
TEXT
  5
F2
330
1F
100
AcDbEntity
  8
図面枠
  6
CONTINUOUS
 62
     4
100
AcDbText
 10
3483.000000000001
 20
2226.4453125
 30
0.0
 40
31.16613741339492
  1
cm
 41
0.9992307692307693
  7
EXCADTTF1
 72
     5
 11
3523.500000000001
 21
2226.4453125
 31
0.0
100
AcDbText
  0
TEXT
  5
F3
330
1F
100
AcDbEntity
  8
図面枠
  6
CONTINUOUS
 62
     4
100
AcDbText
 10
3511.350000000001
 20
2245.587890893221
 30
0.0
 40
14.02476066181162
  1
2
 41
0.9992308528908869
  7
EXCADTTF1
 72
     5
 11
3520.462500000001
 21
2245.587890893221
 31
0.0
100
AcDbText
  0
LINE
  5
F4
330
1F
100
AcDbEntity
  8
図面枠
  6
CONTINUOUS
 62
     3
100
AcDbLine
 10
1746.000000000001
 20
2538.0
 30
0.0
 11
1746.000000000001
 21
2457.0
 31
0.0
  0
LINE
  5
F5
330
1F
100
AcDbEntity
  8
図面枠
  6
CONTINUOUS
 62
     3
100
AcDbLine
 10
135.0000000000001
 20
2538.0
 30
0.0
 11
1746.0
 21
2538.0
 31
0.0
  0
LINE
  5
F6
330
1F
100
AcDbEntity
  8
図面枠
  6
CONTINUOUS
 62
     3
100
AcDbLine
 10
135.0000000000001
 20
2457.0
 30
0.0
 11
1746.000000000001
 21
2457.0
 31
0.0
  0
TEXT
  5
F7
330
1F
100
AcDbEntity
  8
図面枠
  6
CONTINUOUS
 62
     4
100
AcDbText
 10
3483.0
 20
2172.4453125
 30
0.0
 40
31.16613741339492
  1
MPa
 41
0.9992307692307693
  7
EXCADTTF1
 72
     5
 11
3543.75
 21
2172.4453125
 31
0.0
100
AcDbText
  0
TEXT
  5
F8
330
1F
100
AcDbEntity
  8
図面枠
  6
CONTINUOUS
 62
     4
100
AcDbText
 10
2943.0
 20
2226.4453125
 30
0.0
 40
31.16613741339492
  1
受圧面積
 41
0.9992307692307693
  7
EXCADTTF1
 72
     5
 11
3105.0
 21
2226.4453125
 31
0.0
100
AcDbText
  0
TEXT
  5
F9
330
1F
100
AcDbEntity
  8
図面枠
  6
CONTINUOUS
 62
     4
100
AcDbText
 10
2943.0
 20
2172.4453125
 30
0.0
 40
31.16613741339492
  1
最高使用圧力
 41
0.9992307692307693
  7
EXCADTTF1
 72
     5
 11
3186.0
 21
2172.4453125
 31
0.0
100
AcDbText
  0
LINE
  5
FA
330
1F
100
AcDbEntity
  8
図面枠
  6
CONTINUOUS
 62
     2
100
AcDbLine
 10
2925.0
 20
2214.0
 30
0.0
 11
3645.0
 21
2214.0
 31
0.0
  0
TEXT
  5
FB
330
1F
100
AcDbEntity
  8
図面枠
  6
CONTINUOUS
 62
     4
100
AcDbText
 10
3483.0
 20
2064.4453125
 30
0.0
 40
31.16613741339492
  1
kg
 41
0.9992307692307693
  7
EXCADTTF1
 72
     5
 11
3523.5
 21
2064.4453125
 31
0.0
100
AcDbText
  0
TEXT
  5
FC
330
1F
100
AcDbEntity
  8
図面枠
  6
CONTINUOUS
 62
     4
100
AcDbText
 10
2943.0
 20
2118.4453125
 30
0.0
 40
31.16613741339492
  1
所要油量
 41
0.9992307692307693
  7
EXCADTTF1
 72
     5
 11
3105.0
 21
2118.4453125
 31
0.0
100
AcDbText
  0
LINE
  5
FD
330
1F
100
AcDbEntity
  8
図面枠
  6
CONTINUOUS
 62
     2
100
AcDbLine
 10
2925.0
 20
2160.0
 30
0.0
 11
3645.0
 21
2160.0
 31
0.0
  0
LINE
  5
FE
330
1F
100
AcDbEntity
  8
図面枠
  6
CONTINUOUS
 62
     2
100
AcDbLine
 10
2925.0
 20
2106.0
 30
0.0
 11
3645.0
 21
2106.0
 31
0.0
  0
TEXT
  5
FF
330
1F
100
AcDbEntity
  8
図面枠
  6
CONTINUOUS
 62
     4
100
AcDbText
 10
2943.0
 20
2064.4453125
 30
0.0
 40
31.16613741339492
  1
重量
 41
0.9992307692307693
  7
EXCADTTF1
 72
     5
 11
3024.0
 21
2064.4453125
 31
0.0
100
AcDbText
  0
TEXT
  5
100
330
1F
100
AcDbEntity
  8
図面枠
  6
CONTINUOUS
 62
     4
100
AcDbText
 10
2943.0
 20
2010.4453125
 30
0.0
 40
31.16613741339492
  1
ユニバーサル
 41
0.9992307692307693
  7
EXCADTTF1
 72
     5
 11
3186.0
 21
2010.4453125
 31
0.0
100
AcDbText
  0
TEXT
  5
101
330
1F
100
AcDbEntity
  8
図面枠
  6
CONTINUOUS
 62
     4
100
AcDbText
 10
2943.0
 20
1969.9453125
 30
0.0
 40
31.16613741339492
  1
振り角
 41
0.9992307692307693
  7
EXCADTTF1
 72
     5
 11
3064.5
 21
1969.9453125
 31
0.0
100
AcDbText
  0
TEXT
  5
102
330
1F
100
AcDbEntity
  8
図面枠
  6
CONTINUOUS
 62
     4
100
AcDbText
 10
3386.25
 20
2010.4453125
 30
0.0
 40
31.16613741339492
  1
±3
 41
0.9992307692307693
  7
EXCADTTF1
 72
     5
 11
3447.0
 21
2010.4453125
 31
0.0
100
AcDbText
  0
TEXT
  5
103
330
1F
100
AcDbEntity
  8
図面枠
  6
CONTINUOUS
 62
     4
100
AcDbText
 10
3483.0
 20
2010.4453125
 30
0.0
 40
31.16613741339492
  1
°
 41
0.9992307692307693
  7
EXCADTTF1
 72
     5
 11
3523.5
 21
2010.4453125
 31
0.0
100
AcDbText
  0
TEXT
  5
104
330
1F
100
AcDbEntity
  8
図面枠
  6
CONTINUOUS
 62
     4
100
AcDbText
 10
3483.0
 20
1956.4453125
 30
0.0
 40
31.16613741339492
  1
%%%
 41
0.9992307692307693
  7
EXCADTTF1
 72
     5
 11
3503.25
 21
1956.4453125
 31
0.0
100
AcDbText
  0
TEXT
  5
105
330
1F
100
AcDbEntity
  8
図面枠
  6
CONTINUOUS
 62
     4
100
AcDbText
 10
3386.25
 20
1956.4453125
 30
0.0
 40
31.16613741339492
  1
±5
 41
0.9992307692307693
  7
EXCADTTF1
 72
     5
 11
3447.0
 21
1956.4453125
 31
0.0
100
AcDbText
  0
LINE
  5
106
330
1F
100
AcDbEntity
  8
図面枠
  6
CONTINUOUS
 62
     2
100
AcDbLine
 10
3285.0
 20
1998.0
 30
0.0
 11
3645.0
 21
1998.0
 31
0.0
  0
LINE
  5
107
330
1F
100
AcDbEntity
  8
図面枠
  6
CONTINUOUS
 62
     3
100
AcDbLine
 10
2925.0
 20
1944.0
 30
0.0
 11
3645.0
 21
1944.0
 31
0.0
  0
LINE
  5
108
330
1F
100
AcDbEntity
  8
図面枠
  6
CONTINUOUS
 62
     2
100
AcDbLine
 10
2925.0
 20
2052.0
 30
0.0
 11
3645.0
 21
2052.0
 31
0.0
  0
TEXT
  5
109
330
1F
100
AcDbEntity
  8
図面枠
  6
CONTINUOUS
 62
     4
100
AcDbText
 10
3483.0
 20
2118.4453125
 30
0.0
 40
31.16613741339492
  1
L
 41
0.9992307692307693
  7
EXCADTTF1
 72
     5
 11
3503.25
 21
2118.4453125
 31
0.0
100
AcDbText
  0
LINE
  5
10A
330
1F
100
AcDbEntity
  8
図面枠
  6
CONTINUOUS
 62
     3
100
AcDbLine
 10
2925.0
 20
2538.0
 30
0.0
 11
2925.0
 21
1944.0
 31
0.0
  0
LINE
  5
10B
330
1F
100
AcDbEntity
  8
図面枠
  6
CONTINUOUS
 62
     2
100
AcDbLine
 10
3285.0
 20
2484.0
 30
0.0
 11
3285.0
 21
1944.0
 31
0.0
  0
LINE
  5
10C
330
1F
100
AcDbEntity
  8
図面枠
  6
CONTINUOUS
 62
     2
100
AcDbLine
 10
3465.0
 20
2484.0
 30
0.0
 11
3465.0
 21
1944.0
 31
0.0
  0
LINE
  5
10D
330
1F
100
AcDbEntity
  8
図面枠
  6
CONTINUOUS
 62
     3
100
AcDbLine
 10
3645.0
 20
2538.0
 30
0.0
 11
3645.0
 21
1944.0
 31
0.0
  0
TEXT
  5
10E
330
1F
100
AcDbEntity
  8
図面枠
  6
CONTINUOUS
 62
     4
100
AcDbText
 10
3386.25
 20
2388.4453125
 30
0.0
 40
31.16613741339492
  1
220
 41
0.9992307692307693
  7
EXCADTTF1
 72
     5
 11
3447.0
 21
2388.4453125
 31
0.0
100
AcDbText
  0
TEXT
  5
10F
330
1F
100
AcDbEntity
  8
図面枠
  6
CONTINUOUS
 62
     4
100
AcDbText
 10
2872.799999999998
 20
1840.795312499995
 30
0.0
 40
31.16613741339492
  1
※）球面回転ヘッドの為、無負荷ジャッキ
 41
0.9992307692307693
  7
EXCADTTF1
 72
     5
 11
3642.299999999998
 21
1840.795312499995
 31
0.0
100
AcDbText
  0
TEXT
  5
110
330
1F
100
AcDbEntity
  8
図面枠
  6
CONTINUOUS
 62
     4
100
AcDbText
 10
2872.799999999998
 20
1800.295312499995
 30
0.0
 40
31.16613741339492
  1
　　作動時にヘッドが急に傾く場合があり
 41
0.9992307692307693
  7
EXCADTTF1
 72
     5
 11
3642.299999999998
 21
1800.295312499995
 31
0.0
100
AcDbText
  0
TEXT
  5
111
330
1F
100
AcDbEntity
  8
図面枠
  6
CONTINUOUS
 62
     4
100
AcDbText
 10
2872.799999999998
 20
1759.795312499995
 30
0.0
 40
31.16613741339492
  1
　　ます。必要に応じて搭載物の転倒防止
 41
0.9992307692307693
  7
EXCADTTF1
 72
     5
 11
3642.299999999998
 21
1759.795312499995
 31
0.0
100
AcDbText
  0
TEXT
  5
112
330
1F
100
AcDbEntity
  8
図面枠
  6
CONTINUOUS
 62
     4
100
AcDbText
 10
2872.799999999998
 20
1719.295312499995
 30
0.0
 40
31.16613741339492
  1
　　を行ってください。
 41
0.9992307692307693
  7
EXCADTTF1
 72
     5
 11
3318.299999999998
 21
1719.295312499995
 31
0.0
100
AcDbText
  0
TEXT
  5
113
330
1F
100
AcDbEntity
  8
図面枠
  6
CONTINUOUS
 62
     4
100
AcDbText
 10
171.0
 20
2478.09375
 30
0.0
 40
41.55484988452656
  1
4250kN220ストローク仮受け用油圧ジャッキ　球面回転ヘッド型
 41
0.9992307692307693
  7
EXCADTTF1
 72
     5
 11
1710.0
 21
2478.09375
 31
0.0
100
AcDbText
  0
TEXT
  5
114
330
1F
100
AcDbEntity
  8
図面枠
  6
CONTINUOUS
 62
     4
100
AcDbText
 10
3366.0
 20
2442.4453125
 30
0.0
 40
31.16613741339492
  1
4250
 41
0.9992307692307693
  7
EXCADTTF1
 72
     5
 11
3447.0
 21
2442.4453125
 31
0.0
100
AcDbText
  0
TEXT
  5
115
330
1F
100
AcDbEntity
  8
図面枠
  6
CONTINUOUS
 62
     4
100
AcDbText
 10
3386.25
 20
2334.4453125
 30
0.0
 40
31.16613741339492
  1
970
 41
0.9992307692307693
  7
EXCADTTF1
 72
     5
 11
3447.0
 21
2334.4453125
 31
0.0
100
AcDbText
  0
TEXT
  5
116
330
1F
100
AcDbEntity
  8
図面枠
  6
CONTINUOUS
 62
     4
100
AcDbText
 10
3325.5
 20
2064.4453125
 30
0.0
 40
31.16613741339492
  1
約1000
 41
0.9992307692307693
  7
EXCADTTF1
 72
     5
 11
3447.0
 21
2064.4453125
 31
0.0
100
AcDbText
  0
TEXT
  5
117
330
1F
100
AcDbEntity
  8
図面枠
  6
CONTINUOUS
 62
     4
100
AcDbText
 10
3386.25
 20
2280.4453125
 30
0.0
 40
31.16613741339492
  1
360
 41
0.9992307692307693
  7
EXCADTTF1
 72
     5
 11
3447.0
 21
2280.4453125
 31
0.0
100
AcDbText
  0
TEXT
  5
118
330
1F
100
AcDbEntity
  8
図面枠
  6
CONTINUOUS
 62
     4
100
AcDbText
 10
3386.25
 20
2226.4453125
 30
0.0
 40
31.16613741339492
  1
594
 41
0.9992307692307693
  7
EXCADTTF1
 72
     5
 11
3447.0
 21
2226.4453125
 31
0.0
100
AcDbText
  0
TEXT
  5
119
330
1F
100
AcDbEntity
  8
図面枠
  6
CONTINUOUS
 62
     4
100
AcDbText
 10
3366.0
 20
2172.4453125
 30
0.0
 40
31.16613741339492
  1
71.6
 41
0.9992307692307693
  7
EXCADTTF1
 72
     5
 11
3447.0
 21
2172.4453125
 31
0.0
100
AcDbText
  0
TEXT
  5
11A
330
1F
100
AcDbEntity
  8
図面枠
  6
CONTINUOUS
 62
     4
100
AcDbText
 10
3366.0
 20
2118.4453125
 30
0.0
 40
31.16613741339492
  1
13.1
 41
0.9992307692307693
  7
EXCADTTF1
 72
     5
 11
3447.0
 21
2118.4453125
 31
0.0
100
AcDbText
  0
LINE
  5
11B
330
1F
100
AcDbEntity
  8
図面枠
  6
CONTINUOUS
 62
     3
100
AcDbLine
 10
3321.0
 20
216.0
 30
0.0
 11
3321.0
 21
135.0
 31
0.0
  0
TEXT
  5
11C
330
1F
100
AcDbEntity
  8
図面枠
  6
CONTINUOUS
 62
     4
100
AcDbText
 10
3348.0
 20
156.09375
 30
0.0
 40
41.55484988452656
  1
RJ-42522-A
 41
0.9992307692307688
  7
EXCADTTF1
 72
     5
 11
3618.0
 21
156.09375
 31
0.0
100
AcDbText
  0
LINE
  5
11D
330
1F
100
AcDbEntity
  8
図面枠
  6
CONTINUOUS
 62
     3
100
AcDbLine
 10
3321.0
 20
216.0
 30
0.0
 11
3645.0
 21
216.0
 31
0.0
  0
LINE
  5
11E
330
1F
100
AcDbEntity
  8
図面枠
  6
CONTINUOUS
 62
     3
100
AcDbLine
 10
3321.0
 20
135.0
 30
0.0
 11
3645.0
 21
135.0
 31
0.0
  0
ARC
  5
11F
330
1F
100
AcDbEntity
  8
Ｓ_１_１
  6
CONTINUOUS
 62
     3
100
AcDbCircle
 10
1179.499979659908
 20
1003.999906766808
 30
0.0
 40
1.0
100
AcDbArc
 50
0.0
 51
90.00000250447819
  0
LINE
  5
120
330
1F
100
AcDbEntity
  8
Ｓ_１_１
  6
CONTINUOUS
 62
     3
100
AcDbLine
 10
979.9999881831864
 20
1019.999907806777
 30
0.0
 11
880.0000029538716
 21
1134.999912166947
 31
0.0
  0
LINE
  5
121
330
1F
100
AcDbEntity
  8
Ｓ_１_１
  6
CONTINUOUS
 62
     3
100
AcDbLine
 10
980.0000084936546
 20
1019.999913919365
 30
0.0
 11
1130.000049799672
 21
1019.999913919365
 31
0.0
  0
LINE
  5
122
330
1F
100
AcDbEntity
  8
Ｓ_１_１
  6
CONTINUOUS
 62
     3
100
AcDbLine
 10
879.9999809563096
 20
1149.999917674457
 30
0.0
 11
879.9999809563096
 21
1134.999918121492
 31
0.0
  0
LINE
  5
123
330
1F
100
AcDbEntity
  8
Ｓ_１_１
  6
CONTINUOUS
 62
     3
100
AcDbLine
 10
912.5000105053114
 20
1186.999947089349
 30
0.0
 11
917.4999798387215
 21
1186.999947089349
 31
0.0
  0
LINE
  5
124
330
1F
100
AcDbEntity
  8
Ｓ_１_１
  6
CONTINUOUS
 62
     3
100
AcDbLine
 10
1612.499962940805
 20
1186.999947089349
 30
0.0
 11
1617.499955162401
 21
1186.999947089349
 31
0.0
  0
LINE
  5
125
330
1F
100
AcDbEntity
  8
Ｓ_１_１
  6
CONTINUOUS
 62
     3
100
AcDbLine
 10
1612.499962940805
 20
1189.999946999942
 30
0.0
 11
1612.499962940805
 21
1186.999947089349
 31
0.0
  0
LINE
  5
126
330
1F
100
AcDbEntity
  8
Ｓ_１_１
  6
CONTINUOUS
 62
     3
100
AcDbLine
 10
1617.499955162401
 20
1189.999946999942
 30
0.0
 11
1617.499955162401
 21
1186.999947089349
 31
0.0
  0
LINE
  5
127
330
1F
100
AcDbEntity
  8
Ｓ_１_１
  6
CONTINUOUS
 62
     3
100
AcDbLine
 10
917.4999798387215
 20
1189.999946999942
 30
0.0
 11
917.4999798387215
 21
1186.999947089349
 31
0.0
  0
LINE
  5
128
330
1F
100
AcDbEntity
  8
Ｓ_１_１
  6
CONTINUOUS
 62
     3
100
AcDbLine
 10
912.5000105053114
 20
1189.999946999942
 30
0.0
 11
912.5000105053114
 21
1186.999947089349
 31
0.0
  0
LINE
  5
129
330
1F
100
AcDbEntity
  8
Ｓ_１_１
  6
CONTINUOUS
 62
     3
100
AcDbLine
 10
1664.999949932093
 20
1189.999946999942
 30
0.0
 11
1664.999949932093
 21
1149.999917674457
 31
0.0
  0
LINE
  5
12A
330
1F
100
AcDbEntity
  8
Ｓ_１_１
  6
CONTINUOUS
 62
     3
100
AcDbLine
 10
864.9999814033436
 20
1189.999946999942
 30
0.0
 11
864.9999814033436
 21
1149.999917674457
 31
0.0
  0
LINE
  5
12B
330
1F
100
AcDbEntity
  8
Ｓ_１_１
  6
CONTINUOUS
 62
     3
100
AcDbLine
 10
1255.538345618887
 20
1149.999917674457
 30
0.0
 11
1255.538345618887
 21
1019.999936807548
 31
0.0
  0
LINE
  5
12C
330
1F
100
AcDbEntity
  8
Ｓ_１_１
  6
CONTINUOUS
 62
     3
100
AcDbLine
 10
1208.798455959597
 20
1050.055691527051
 30
0.0
 11
1208.798455959597
 21
1019.999936807548
 31
0.0
  0
LINE
  5
12D
330
1F
100
AcDbEntity
  8
Ｓ_１_１
  6
CONTINUOUS
 62
     3
100
AcDbLine
 10
1264.999999999993
 20
1189.999946999942
 30
0.0
 11
1289.999983996146
 21
1189.999946999942
 31
0.0
  0
LINE
  5
12E
330
1F
100
AcDbEntity
  8
Ｓ_１_１
  6
CONTINUOUS
 62
     3
100
AcDbLine
 10
1289.999983996146
 20
1149.999917674457
 30
0.0
 11
1664.999949932093
 21
1149.999917674457
 31
0.0
  0
LINE
  5
12F
330
1F
100
AcDbEntity
  8
Ｓ_１_１
  6
CONTINUOUS
 62
     3
100
AcDbLine
 10
1264.999999999993
 20
1189.999946999942
 30
0.0
 11
1289.999983996146
 21
1189.999946999942
 31
0.0
  0
LINE
  5
130
330
1F
100
AcDbEntity
  8
Ｓ_１_１
  6
CONTINUOUS
 62
     3
100
AcDbLine
 10
1264.999999999993
 20
1149.999917674457
 30
0.0
 11
1289.999983996146
 21
1149.999917674457
 31
0.0
  0
LINE
  5
131
330
1F
100
AcDbEntity
  8
Ｓ_１_１
  6
CONTINUOUS
 62
     3
100
AcDbLine
 10
1117.50001202523
 20
1189.999946999942
 30
0.0
 11
1212.500001564615
 21
1189.999946999942
 31
0.0
  0
LINE
  5
132
330
1F
100
AcDbEntity
  8
Ｓ_１_１
  6
CONTINUOUS
 62
     3
100
AcDbLine
 10
1217.499993786209
 20
1189.999946999942
 30
0.0
 11
1312.499994769685
 21
1189.999946999942
 31
0.0
  0
LINE
  5
133
330
1F
100
AcDbEntity
  8
Ｓ_１_１
  6
CONTINUOUS
 62
     3
100
AcDbLine
 10
1077.999997450068
 20
1098.704681683495
 30
0.0
 11
1185.855398676309
 21
1019.999964262479
 31
0.0
  0
LINE
  5
134
330
1F
100
AcDbEntity
  8
Ｓ_１_１
  6
CONTINUOUS
 62
     3
100
AcDbLine
 10
1217.950639219556
 20
1019.999936807548
 30
0.0
 11
1255.538345618887
 21
1019.999936807548
 31
0.0
  0
LINE
  5
135
330
1F
100
AcDbEntity
  8
Ｓ_１_１
  6
CONTINUOUS
 62
     3
100
AcDbLine
 10
1017.500007376068
 20
1189.999946999942
 30
0.0
 11
1112.499996915452
 21
1189.999946999942
 31
0.0
  0
LINE
  5
136
330
1F
100
AcDbEntity
  8
Ｓ_１_１
  6
CONTINUOUS
 62
     3
100
AcDbLine
 10
1417.499988779418
 20
1189.999946999942
 30
0.0
 11
1512.499986901872
 21
1189.999946999942
 31
0.0
  0
LINE
  5
137
330
1F
100
AcDbEntity
  8
Ｓ_１_１
  6
CONTINUOUS
 62
     3
100
AcDbLine
 10
1317.499998435371
 20
1189.999946999942
 30
0.0
 11
1412.499987974755
 21
1189.999946999942
 31
0.0
  0
LINE
  5
138
330
1F
100
AcDbEntity
  8
Ｓ_１_１
  6
CONTINUOUS
 62
     3
100
AcDbLine
 10
1062.00000615448
 20
1127.122388797972
 30
0.0
 11
1051.204735778418
 21
1134.999960943378
 31
0.0
  0
LINE
  5
139
330
1F
100
AcDbEntity
  8
Ｓ_１_１
  6
CONTINUOUS
 62
     3
100
AcDbLine
 10
1185.855387185347
 20
1019.999936807548
 30
0.0
 11
1208.798455959597
 21
1019.999936807548
 31
0.0
  0
LINE
  5
13A
330
1F
100
AcDbEntity
  8
Ｓ_１_１
  6
CONTINUOUS
 62
     3
100
AcDbLine
 10
1028.26166528957
 20
1134.999956033949
 30
0.0
 11
1062.000014463532
 21
1110.38025959039
 31
0.0
  0
LINE
  5
13B
330
1F
100
AcDbEntity
  8
Ｓ_１_１
  6
CONTINUOUS
 62
     3
100
AcDbLine
 10
1208.798466854041
 20
1019.999970858385
 30
0.0
 11
1077.999998385474
 21
1115.44680414517
 31
0.0
  0
LINE
  5
13C
330
1F
100
AcDbEntity
  8
Ｓ_１_１
  6
CONTINUOUS
 62
     3
100
AcDbLine
 10
1182.932394360625
 20
1134.999957063666
 30
0.0
 11
1217.950627078328
 21
1019.999913967954
 31
0.0
  0
LINE
  5
13D
330
1F
100
AcDbEntity
  8
Ｓ_１_１
  6
CONTINUOUS
 62
     3
100
AcDbLine
 10
1220.520096328655
 20
1134.999964119934
 30
0.0
 11
1255.538332628998
 21
1019.999921024222
 31
0.0
  0
LINE
  5
13E
330
1F
100
AcDbEntity
  8
Ｓ_１_１
  6
CONTINUOUS
 62
     3
100
AcDbLine
 10
1182.932428898434
 20
1134.999918121492
 30
0.0
 11
1220.520135297764
 21
1134.999918121492
 31
0.0
  0
LINE
  5
13F
330
1F
100
AcDbEntity
  8
Ｓ_１_１
  6
CONTINUOUS
 62
     3
100
AcDbLine
 10
1220.520135297764
 20
1149.999917674457
 30
0.0
 11
1220.520135297764
 21
1134.999918121492
 31
0.0
  0
LINE
  5
140
330
1F
100
AcDbEntity
  8
Ｓ_１_１
  6
CONTINUOUS
 62
     3
100
AcDbLine
 10
1028.261664770189
 20
1134.999918121492
 30
0.0
 11
1051.20473354444
 21
1134.999918121492
 31
0.0
  0
LINE
  5
141
330
1F
100
AcDbEntity
  8
Ｓ_１_１
  6
CONTINUOUS
 62
     3
100
AcDbLine
 10
1051.20473354444
 20
1149.999917674457
 30
0.0
 11
1051.20473354444
 21
1134.999918121492
 31
0.0
  0
LINE
  5
142
330
1F
100
AcDbEntity
  8
Ｓ_１_１
  6
CONTINUOUS
 62
     3
100
AcDbLine
 10
1044.481247256359
 20
1083.449343824002
 30
0.0
 11
988.0000007396737
 21
1125.354786951579
 31
0.0
  0
LINE
  5
143
330
1F
100
AcDbEntity
  8
Ｓ_１_１
  6
CONTINUOUS
 62
     3
100
AcDbLine
 10
1182.932428898434
 20
1149.999917674457
 30
0.0
 11
1182.932428898434
 21
1134.999918121492
 31
0.0
  0
LINE
  5
144
330
1F
100
AcDbEntity
  8
Ｓ_１_１
  6
CONTINUOUS
 62
     3
100
AcDbLine
 10
1028.261664770189
 20
1149.999917674457
 30
0.0
 11
1028.261664770189
 21
1134.999918121492
 31
0.0
  0
LINE
  5
145
330
1F
100
AcDbEntity
  8
Ｓ_１_１
  6
CONTINUOUS
 62
     3
100
AcDbLine
 10
971.9999934732841
 20
1143.999917853274
 30
0.0
 11
988.0000235140233
 21
1143.999917853274
 31
0.0
  0
LINE
  5
146
330
1F
100
AcDbEntity
  8
Ｓ_１_１
  6
CONTINUOUS
 62
     3
100
AcDbLine
 10
988.000015752008
 20
1143.999959338386
 30
0.0
 11
994.0000219427311
 21
1149.999965529108
 31
0.0
  0
LINE
  5
147
330
1F
100
AcDbEntity
  8
Ｓ_１_１
  6
CONTINUOUS
 62
     3
100
AcDbLine
 10
966.0000092370792
 20
1149.999949344719
 30
0.0
 11
972.0000154278023
 21
1143.999943153997
 31
0.0
  0
LINE
  5
148
330
1F
100
AcDbEntity
  8
Ｓ_１_１
  6
CONTINUOUS
 62
     3
100
AcDbLine
 10
1061.999990791075
 20
1143.99991785327
 30
0.0
 11
1077.999997943632
 21
1143.99991785327
 31
0.0
  0
LINE
  5
149
330
1F
100
AcDbEntity
  8
Ｓ_１_１
  6
CONTINUOUS
 62
     3
100
AcDbLine
 10
1055.999980715005
 20
1149.999908883746
 30
0.0
 11
1061.999986905728
 21
1143.999902693024
 31
0.0
  0
LINE
  5
14A
330
1F
100
AcDbEntity
  8
Ｓ_１_１
  6
CONTINUOUS
 62
     3
100
AcDbLine
 10
1077.999979137738
 20
1143.999926969607
 30
0.0
 11
1083.999985328461
 21
1149.99993316033
 31
0.0
  0
LINE
  5
14B
330
1F
100
AcDbEntity
  8
Ｓ_１_１
  6
CONTINUOUS
 62
     3
100
AcDbLine
 10
1112.499996915452
 20
1186.999947089349
 30
0.0
 11
1117.50001202523
 21
1186.999947089349
 31
0.0
  0
LINE
  5
14C
330
1F
100
AcDbEntity
  8
Ｓ_１_１
  6
CONTINUOUS
 62
     3
100
AcDbLine
 10
1212.500001564615
 20
1186.999947089349
 30
0.0
 11
1217.499993786209
 21
1186.999947089349
 31
0.0
  0
LINE
  5
14D
330
1F
100
AcDbEntity
  8
Ｓ_１_１
  6
CONTINUOUS
 62
     3
100
AcDbLine
 10
1312.499994769685
 20
1186.999947089349
 30
0.0
 11
1317.499998435371
 21
1186.999947089349
 31
0.0
  0
LINE
  5
14E
330
1F
100
AcDbEntity
  8
Ｓ_１_１
  6
CONTINUOUS
 62
     3
100
AcDbLine
 10
1412.499987974755
 20
1186.999947089349
 30
0.0
 11
1417.499988779418
 21
1186.999947089349
 31
0.0
  0
LINE
  5
14F
330
1F
100
AcDbEntity
  8
Ｓ_１_１
  6
CONTINUOUS
 62
     3
100
AcDbLine
 10
1512.499986901872
 20
1186.999947089349
 30
0.0
 11
1517.499979123466
 21
1186.999947089349
 31
0.0
  0
LINE
  5
150
330
1F
100
AcDbEntity
  8
Ｓ_１_１
  6
CONTINUOUS
 62
     3
100
AcDbLine
 10
1517.499979123466
 20
1189.999946999942
 30
0.0
 11
1517.499979123466
 21
1186.999947089349
 31
0.0
  0
LINE
  5
151
330
1F
100
AcDbEntity
  8
Ｓ_１_１
  6
CONTINUOUS
 62
     3
100
AcDbLine
 10
1512.499986901872
 20
1189.999946999942
 30
0.0
 11
1512.499986901872
 21
1186.999947089349
 31
0.0
  0
LINE
  5
152
330
1F
100
AcDbEntity
  8
Ｓ_１_１
  6
CONTINUOUS
 62
     3
100
AcDbLine
 10
1412.499987974755
 20
1189.999946999942
 30
0.0
 11
1412.499987974755
 21
1186.999947089349
 31
0.0
  0
LINE
  5
153
330
1F
100
AcDbEntity
  8
Ｓ_１_１
  6
CONTINUOUS
 62
     3
100
AcDbLine
 10
1417.499988779418
 20
1189.999946999942
 30
0.0
 11
1417.499988779418
 21
1186.999947089349
 31
0.0
  0
LINE
  5
154
330
1F
100
AcDbEntity
  8
Ｓ_１_１
  6
CONTINUOUS
 62
     3
100
AcDbLine
 10
1312.499994769685
 20
1189.999946999942
 30
0.0
 11
1312.499994769685
 21
1186.999947089349
 31
0.0
  0
LINE
  5
155
330
1F
100
AcDbEntity
  8
Ｓ_１_１
  6
CONTINUOUS
 62
     3
100
AcDbLine
 10
1317.499998435371
 20
1189.999946999942
 30
0.0
 11
1317.499998435371
 21
1186.999947089349
 31
0.0
  0
LINE
  5
156
330
1F
100
AcDbEntity
  8
Ｓ_１_１
  6
CONTINUOUS
 62
     3
100
AcDbLine
 10
1212.500001564615
 20
1189.999946999942
 30
0.0
 11
1212.500001564615
 21
1186.999947089349
 31
0.0
  0
LINE
  5
157
330
1F
100
AcDbEntity
  8
Ｓ_１_１
  6
CONTINUOUS
 62
     3
100
AcDbLine
 10
1217.499993786209
 20
1189.999946999942
 30
0.0
 11
1217.499993786209
 21
1186.999947089349
 31
0.0
  0
LINE
  5
158
330
1F
100
AcDbEntity
  8
Ｓ_１_１
  6
CONTINUOUS
 62
     3
100
AcDbLine
 10
1112.499996915452
 20
1189.999946999942
 30
0.0
 11
1112.499996915452
 21
1186.999947089349
 31
0.0
  0
LINE
  5
159
330
1F
100
AcDbEntity
  8
Ｓ_１_１
  6
CONTINUOUS
 62
     3
100
AcDbLine
 10
1117.50001202523
 20
1189.999946999942
 30
0.0
 11
1117.50001202523
 21
1186.999947089349
 31
0.0
  0
LINE
  5
15A
330
1F
100
AcDbEntity
  8
Ｓ_１_１
  6
CONTINUOUS
 62
     3
100
AcDbLine
 10
1012.500038042657
 20
1189.999946999942
 30
0.0
 11
1012.500038042657
 21
1186.999947089349
 31
0.0
  0
LINE
  5
15B
330
1F
100
AcDbEntity
  8
Ｓ_１_１
  6
CONTINUOUS
 62
     3
100
AcDbLine
 10
1017.500007376068
 20
1189.999946999942
 30
0.0
 11
1017.500007376068
 21
1186.999947089349
 31
0.0
  0
LINE
  5
15C
330
1F
100
AcDbEntity
  8
Ｓ_１_１
  6
CONTINUOUS
 62
     3
100
AcDbLine
 10
1012.500038042657
 20
1186.999947089349
 30
0.0
 11
1017.500007376068
 21
1186.999947089349
 31
0.0
  0
LINE
  5
15D
330
1F
100
AcDbEntity
  8
Ｓ_１_１
  6
CONTINUOUS
 62
     3
100
AcDbLine
 10
1180.500010147683
 20
1003.999906766808
 30
0.0
 11
1180.500010147683
 21
989.8624941632331
 31
0.0
  0
LINE
  5
15E
330
1F
100
AcDbEntity
  8
Ｓ_１_１
  6
CONTINUOUS
 62
     3
100
AcDbLine
 10
1349.500001296394
 20
1003.999906766808
 30
0.0
 11
1349.500001296394
 21
989.8624941632331
 31
0.0
  0
LINE
  5
15F
330
1F
100
AcDbEntity
  8
Ｓ_１_１
  6
CONTINUOUS
 62
     3
100
AcDbLine
 10
1129.999976058392
 20
1019.999961114331
 30
0.0
 11
1065.975784826125
 21
1067.501782868218
 31
0.0
  0
LINE
  5
160
330
1F
100
AcDbEntity
  8
Ｓ_１_１
  6
CONTINUOUS
 62
     3
100
AcDbLine
 10
1149.99997513364
 20
1004.999934603242
 30
0.0
 11
1144.999986159093
 21
1009.999923999256
 31
0.0
  0
LINE
  5
161
330
1F
100
AcDbEntity
  8
Ｓ_１_１
  6
CONTINUOUS
 62
     3
100
AcDbLine
 10
1145.000026464455
 20
1019.999913919365
 30
0.0
 11
1130.00002691149
 21
1019.999913919365
 31
0.0
  0
LINE
  5
162
330
1F
100
AcDbEntity
  8
Ｓ_１_１
  6
CONTINUOUS
 62
     3
100
AcDbLine
 10
1145.000026464455
 20
1049.813122564554
 30
0.0
 11
1145.000026464455
 21
1009.999906587994
 31
0.0
  0
LINE
  5
163
330
1F
100
AcDbEntity
  8
Ｓ_１_１
  6
CONTINUOUS
 62
     3
100
AcDbLine
 10
965.0000089406894
 20
1189.999946999942
 30
0.0
 11
965.0000089406894
 21
1149.999917674457
 31
0.0
  0
LINE
  5
164
330
1F
100
AcDbEntity
  8
Ｓ_１_１
  6
CONTINUOUS
 62
     3
100
AcDbLine
 10
864.9999814033436
 20
1149.999917674457
 30
0.0
 11
1564.999979615204
 21
1149.999917674457
 31
0.0
  0
LINE
  5
165
330
1F
100
AcDbEntity
  8
Ｓ_１_１
  6
CONTINUOUS
 62
     3
100
AcDbLine
 10
1617.499955162401
 20
1189.999946999942
 30
0.0
 11
1664.999949932093
 21
1189.999946999942
 31
0.0
  0
LINE
  5
166
330
1F
100
AcDbEntity
  8
Ｓ_１_１
  6
CONTINUOUS
 62
     3
100
AcDbLine
 10
1517.499979123466
 20
1189.999946999942
 30
0.0
 11
1612.499962940805
 21
1189.999946999942
 31
0.0
  0
LINE
  5
167
330
1F
100
AcDbEntity
  8
Ｓ_１_１
  6
CONTINUOUS
 62
     3
100
AcDbLine
 10
917.4999798387215
 20
1189.999946999942
 30
0.0
 11
1012.500038042657
 21
1189.999946999942
 31
0.0
  0
LINE
  5
168
330
1F
100
AcDbEntity
  8
Ｓ_１_１
  6
CONTINUOUS
 62
     3
100
AcDbLine
 10
864.9999814033436
 20
1189.999946999942
 30
0.0
 11
912.5000105053114
 21
1189.999946999942
 31
0.0
  0
LINE
  5
169
330
1F
100
AcDbEntity
  8
Ｓ_１_１
  6
CONTINUOUS
 62
     3
100
AcDbLine
 10
988.000023514025
 20
1143.999917853271
 30
0.0
 11
988.000023514025
 21
1090.999889153636
 31
0.0
  0
ARC
  5
16A
330
1F
100
AcDbEntity
  8
Ｓ_１_１
  6
CONTINUOUS
 62
     3
100
AcDbCircle
 10
996.0000235140251
 20
1090.999889153636
 30
0.0
 40
8.0
100
AcDbArc
 50
180.0
 51
270.0
  0
LINE
  5
16B
330
1F
100
AcDbEntity
  8
Ｓ_１_１
  6
CONTINUOUS
 62
     3
100
AcDbLine
 10
1061.999990791075
 20
1143.999917853271
 30
0.0
 11
1061.999990791075
 21
1090.999889153636
 31
0.0
  0
LINE
  5
16C
330
1F
100
AcDbEntity
  8
Ｓ_１_１
  6
CONTINUOUS
 62
     3
100
AcDbLine
 10
996.0000235140251
 20
1082.999889153636
 30
0.0
 11
1053.999990791075
 21
1082.999889153636
 31
0.0
  0
ARC
  5
16D
330
1F
100
AcDbEntity
  8
Ｓ_１_１
  6
CONTINUOUS
 62
     3
100
AcDbCircle
 10
1053.999990791075
 20
1090.999889153636
 30
0.0
 40
8.0
100
AcDbArc
 50
270.0
 51
0.0
  0
LINE
  5
16E
330
1F
100
AcDbEntity
  8
Ｓ_１_１
  6
CONTINUOUS
 62
     3
100
AcDbLine
 10
971.9999934732841
 20
1143.999917853271
 30
0.0
 11
971.9999934732841
 21
1090.999904889262
 31
0.0
  0
ARC
  5
16F
330
1F
100
AcDbEntity
  8
Ｓ_１_１
  6
CONTINUOUS
 62
     3
100
AcDbCircle
 10
995.9999934732841
 20
1090.999904889262
 30
0.0
 40
24.0
100
AcDbArc
 50
180.0
 51
270.0
  0
LINE
  5
170
330
1F
100
AcDbEntity
  8
Ｓ_１_１
  6
CONTINUOUS
 62
     3
100
AcDbLine
 10
995.9999934732841
 20
1066.999904889262
 30
0.0
 11
1053.999997943632
 21
1066.999904889262
 31
0.0
  0
LINE
  5
171
330
1F
100
AcDbEntity
  8
Ｓ_１_１
  6
CONTINUOUS
 62
     3
100
AcDbLine
 10
1077.999997943632
 20
1143.999917853271
 30
0.0
 11
1077.999997943632
 21
1090.999904889262
 31
0.0
  0
ARC
  5
172
330
1F
100
AcDbEntity
  8
Ｓ_１_１
  6
CONTINUOUS
 62
     3
100
AcDbCircle
 10
1053.999997943632
 20
1090.999904889262
 30
0.0
 40
24.0
100
AcDbArc
 50
270.0
 51
0.0
  0
LINE
  5
173
330
1F
100
AcDbEntity
  8
Ｓ_１_１
  6
CONTINUOUS
 62
     3
100
AcDbLine
 10
1564.999979615204
 20
1189.999946999942
 30
0.0
 11
1564.999979615204
 21
1149.999917674457
 31
0.0
  0
ARC
  5
174
330
1F
100
AcDbEntity
  8
Ｓ_１_１
  6
CONTINUOUS
 62
     3
100
AcDbCircle
 10
1350.500020340092
 20
1003.999906766808
 30
0.0
 40
1.0
100
AcDbArc
 50
89.9999974955313
 51
180.0
  0
LINE
  5
175
330
1F
100
AcDbEntity
  8
Ｓ_１_１
  6
CONTINUOUS
 62
     3
100
AcDbLine
 10
1550.000011816814
 20
1019.999907806777
 30
0.0
 11
1649.999997046129
 21
1134.999912166947
 31
0.0
  0
LINE
  5
176
330
1F
100
AcDbEntity
  8
Ｓ_１_１
  6
CONTINUOUS
 62
     3
100
AcDbLine
 10
1549.999991506345
 20
1019.999913919365
 30
0.0
 11
1399.999950200328
 21
1019.999913919365
 31
0.0
  0
LINE
  5
177
330
1F
100
AcDbEntity
  8
Ｓ_１_１
  6
CONTINUOUS
 62
     3
100
AcDbLine
 10
1650.000019043691
 20
1149.999917674457
 30
0.0
 11
1650.000019043691
 21
1134.999918121492
 31
0.0
  0
LINE
  5
178
330
1F
100
AcDbEntity
  8
Ｓ_１_１
  6
CONTINUOUS
 62
     3
100
AcDbLine
 10
1274.461654381114
 20
1149.999917674457
 30
0.0
 11
1274.461654381114
 21
1019.999936807548
 31
0.0
  0
LINE
  5
179
330
1F
100
AcDbEntity
  8
Ｓ_１_１
  6
CONTINUOUS
 62
     3
100
AcDbLine
 10
1321.201544040403
 20
1050.055691527051
 30
0.0
 11
1321.201544040403
 21
1019.999936807548
 31
0.0
  0
LINE
  5
17A
330
1F
100
AcDbEntity
  8
Ｓ_１_１
  6
CONTINUOUS
 62
     3
100
AcDbLine
 10
1265.000000000007
 20
1149.999917674457
 30
0.0
 11
1240.000016003854
 21
1149.999917674457
 31
0.0
  0
LINE
  5
17B
330
1F
100
AcDbEntity
  8
Ｓ_１_１
  6
CONTINUOUS
 62
     3
100
AcDbLine
 10
1452.000002549932
 20
1098.704681683495
 30
0.0
 11
1344.144601323691
 21
1019.999964262479
 31
0.0
  0
LINE
  5
17C
330
1F
100
AcDbEntity
  8
Ｓ_１_１
  6
CONTINUOUS
 62
     3
100
AcDbLine
 10
1312.049360780444
 20
1019.999936807548
 30
0.0
 11
1274.461654381114
 21
1019.999936807548
 31
0.0
  0
LINE
  5
17D
330
1F
100
AcDbEntity
  8
Ｓ_１_１
  6
CONTINUOUS
 62
     3
100
AcDbLine
 10
1467.99999384552
 20
1127.122388797972
 30
0.0
 11
1478.795264221582
 21
1134.999960943378
 31
0.0
  0
LINE
  5
17E
330
1F
100
AcDbEntity
  8
Ｓ_１_１
  6
CONTINUOUS
 62
     3
100
AcDbLine
 10
1344.144612814653
 20
1019.999936807548
 30
0.0
 11
1321.201544040403
 21
1019.999936807548
 31
0.0
  0
LINE
  5
17F
330
1F
100
AcDbEntity
  8
Ｓ_１_１
  6
CONTINUOUS
 62
     3
100
AcDbLine
 10
1501.73833471043
 20
1134.999956033949
 30
0.0
 11
1467.999985536467
 21
1110.38025959039
 31
0.0
  0
LINE
  5
180
330
1F
100
AcDbEntity
  8
Ｓ_１_１
  6
CONTINUOUS
 62
     3
100
AcDbLine
 10
1321.201533145959
 20
1019.999970858385
 30
0.0
 11
1452.000001614526
 21
1115.44680414517
 31
0.0
  0
LINE
  5
181
330
1F
100
AcDbEntity
  8
Ｓ_１_１
  6
CONTINUOUS
 62
     3
100
AcDbLine
 10
1347.067605639375
 20
1134.999957063666
 30
0.0
 11
1312.049372921672
 21
1019.999913967954
 31
0.0
  0
LINE
  5
182
330
1F
100
AcDbEntity
  8
Ｓ_１_１
  6
CONTINUOUS
 62
     3
100
AcDbLine
 10
1309.479903671345
 20
1134.999964119934
 30
0.0
 11
1274.461667371002
 21
1019.999921024222
 31
0.0
  0
LINE
  5
183
330
1F
100
AcDbEntity
  8
Ｓ_１_１
  6
CONTINUOUS
 62
     3
100
AcDbLine
 10
1347.067571101567
 20
1134.999918121492
 30
0.0
 11
1309.479864702236
 21
1134.999918121492
 31
0.0
  0
LINE
  5
184
330
1F
100
AcDbEntity
  8
Ｓ_１_１
  6
CONTINUOUS
 62
     3
100
AcDbLine
 10
1309.479864702236
 20
1149.999917674457
 30
0.0
 11
1309.479864702236
 21
1134.999918121492
 31
0.0
  0
LINE
  5
185
330
1F
100
AcDbEntity
  8
Ｓ_１_１
  6
CONTINUOUS
 62
     3
100
AcDbLine
 10
1501.738335229811
 20
1134.999918121492
 30
0.0
 11
1478.795266455559
 21
1134.999918121492
 31
0.0
  0
LINE
  5
186
330
1F
100
AcDbEntity
  8
Ｓ_１_１
  6
CONTINUOUS
 62
     3
100
AcDbLine
 10
1478.795266455559
 20
1149.999917674457
 30
0.0
 11
1478.795266455559
 21
1134.999918121492
 31
0.0
  0
LINE
  5
187
330
1F
100
AcDbEntity
  8
Ｓ_１_１
  6
CONTINUOUS
 62
     3
100
AcDbLine
 10
1485.518752743641
 20
1083.449343824002
 30
0.0
 11
1541.999999260326
 21
1125.354786951579
 31
0.0
  0
LINE
  5
188
330
1F
100
AcDbEntity
  8
Ｓ_１_１
  6
CONTINUOUS
 62
     3
100
AcDbLine
 10
1347.067571101567
 20
1149.999917674457
 30
0.0
 11
1347.067571101567
 21
1134.999918121492
 31
0.0
  0
LINE
  5
189
330
1F
100
AcDbEntity
  8
Ｓ_１_１
  6
CONTINUOUS
 62
     3
100
AcDbLine
 10
1501.738335229811
 20
1149.999917674457
 30
0.0
 11
1501.738335229811
 21
1134.999918121492
 31
0.0
  0
LINE
  5
18A
330
1F
100
AcDbEntity
  8
Ｓ_１_１
  6
CONTINUOUS
 62
     3
100
AcDbLine
 10
1558.000006526716
 20
1143.999917853274
 30
0.0
 11
1541.999976485977
 21
1143.999917853274
 31
0.0
  0
LINE
  5
18B
330
1F
100
AcDbEntity
  8
Ｓ_１_１
  6
CONTINUOUS
 62
     3
100
AcDbLine
 10
1541.999984247992
 20
1143.999959338386
 30
0.0
 11
1535.999978057269
 21
1149.999965529108
 31
0.0
  0
LINE
  5
18C
330
1F
100
AcDbEntity
  8
Ｓ_１_１
  6
CONTINUOUS
 62
     3
100
AcDbLine
 10
1563.999990762921
 20
1149.999949344719
 30
0.0
 11
1557.999984572198
 21
1143.999943153997
 31
0.0
  0
LINE
  5
18D
330
1F
100
AcDbEntity
  8
Ｓ_１_１
  6
CONTINUOUS
 62
     3
100
AcDbLine
 10
1468.000009208925
 20
1143.99991785327
 30
0.0
 11
1452.000002056367
 21
1143.99991785327
 31
0.0
  0
LINE
  5
18E
330
1F
100
AcDbEntity
  8
Ｓ_１_１
  6
CONTINUOUS
 62
     3
100
AcDbLine
 10
1474.000019284995
 20
1149.999908883746
 30
0.0
 11
1468.000013094272
 21
1143.999902693024
 31
0.0
  0
LINE
  5
18F
330
1F
100
AcDbEntity
  8
Ｓ_１_１
  6
CONTINUOUS
 62
     3
100
AcDbLine
 10
1452.000020862262
 20
1143.999926969607
 30
0.0
 11
1446.000014671539
 21
1149.99993316033
 31
0.0
  0
LINE
  5
190
330
1F
100
AcDbEntity
  8
Ｓ_１_１
  6
CONTINUOUS
 62
     3
100
AcDbLine
 10
1400.000023941608
 20
1019.999961114331
 30
0.0
 11
1464.024215173875
 21
1067.501782868218
 31
0.0
  0
LINE
  5
191
330
1F
100
AcDbEntity
  8
Ｓ_１_１
  6
CONTINUOUS
 62
     3
100
AcDbLine
 10
1380.00002486636
 20
1004.999934603242
 30
0.0
 11
1385.000013840907
 21
1009.999923999256
 31
0.0
  0
LINE
  5
192
330
1F
100
AcDbEntity
  8
Ｓ_１_１
  6
CONTINUOUS
 62
     3
100
AcDbLine
 10
1384.999973535545
 20
1019.999913919365
 30
0.0
 11
1399.99997308851
 21
1019.999913919365
 31
0.0
  0
LINE
  5
193
330
1F
100
AcDbEntity
  8
Ｓ_１_１
  6
CONTINUOUS
 62
     3
100
AcDbLine
 10
1384.999973535545
 20
1049.813122564554
 30
0.0
 11
1384.999973535545
 21
1009.999906587994
 31
0.0
  0
LINE
  5
194
330
1F
100
AcDbEntity
  8
Ｓ_１_１
  6
CONTINUOUS
 62
     3
100
AcDbLine
 10
1541.999976485975
 20
1143.999917853271
 30
0.0
 11
1541.999976485975
 21
1090.999889153636
 31
0.0
  0
ARC
  5
195
330
1F
100
AcDbEntity
  8
Ｓ_１_１
  6
CONTINUOUS
 62
     3
100
AcDbCircle
 10
1533.999976485975
 20
1090.999889153636
 30
0.0
 40
8.0
100
AcDbArc
 50
270.0
 51
0.0
  0
LINE
  5
196
330
1F
100
AcDbEntity
  8
Ｓ_１_１
  6
CONTINUOUS
 62
     3
100
AcDbLine
 10
1468.000009208925
 20
1143.999917853271
 30
0.0
 11
1468.000009208925
 21
1090.999889153636
 31
0.0
  0
LINE
  5
197
330
1F
100
AcDbEntity
  8
Ｓ_１_１
  6
CONTINUOUS
 62
     3
100
AcDbLine
 10
1533.999976485975
 20
1082.999889153636
 30
0.0
 11
1476.000009208925
 21
1082.999889153636
 31
0.0
  0
ARC
  5
198
330
1F
100
AcDbEntity
  8
Ｓ_１_１
  6
CONTINUOUS
 62
     3
100
AcDbCircle
 10
1476.000009208925
 20
1090.999889153636
 30
0.0
 40
8.0
100
AcDbArc
 50
180.0
 51
270.0
  0
LINE
  5
199
330
1F
100
AcDbEntity
  8
Ｓ_１_１
  6
CONTINUOUS
 62
     3
100
AcDbLine
 10
1558.000006526716
 20
1143.999917853271
 30
0.0
 11
1558.000006526716
 21
1090.999904889262
 31
0.0
  0
ARC
  5
19A
330
1F
100
AcDbEntity
  8
Ｓ_１_１
  6
CONTINUOUS
 62
     3
100
AcDbCircle
 10
1534.000006526716
 20
1090.999904889262
 30
0.0
 40
24.0
100
AcDbArc
 50
270.0
 51
0.0
  0
LINE
  5
19B
330
1F
100
AcDbEntity
  8
Ｓ_１_１
  6
CONTINUOUS
 62
     3
100
AcDbLine
 10
1534.000006526716
 20
1066.999904889262
 30
0.0
 11
1476.000002056368
 21
1066.999904889262
 31
0.0
  0
LINE
  5
19C
330
1F
100
AcDbEntity
  8
Ｓ_１_１
  6
CONTINUOUS
 62
     3
100
AcDbLine
 10
1452.000002056367
 20
1143.999917853271
 30
0.0
 11
1452.000002056367
 21
1090.999904889262
 31
0.0
  0
ARC
  5
19D
330
1F
100
AcDbEntity
  8
Ｓ_１_１
  6
CONTINUOUS
 62
     3
100
AcDbCircle
 10
1476.000002056368
 20
1090.999904889262
 30
0.0
 40
24.0
100
AcDbArc
 50
180.0
 51
270.0
  0
LINE
  5
19E
330
1F
100
AcDbEntity
  8
Ｓ_１_１
  6
CONTINUOUS
 62
     3
100
AcDbLine
 10
1274.999999999998
 20
339.9999990000005
 30
0.0
 11
1274.999999999998
 21
259.9999990000005
 31
0.0
  0
LINE
  5
19F
330
1F
100
AcDbEntity
  8
Ｓ_１_１
  6
CONTINUOUS
 62
     3
100
AcDbLine
 10
1254.999999999998
 20
296.9978620000005
 30
0.0
 11
1254.999999999998
 21
259.9999990000005
 31
0.0
  0
LINE
  5
1A0
330
1F
100
AcDbEntity
  8
Ｓ_１_１
  6
CONTINUOUS
 62
     3
100
AcDbLine
 10
1254.999999999998
 20
339.9999990000005
 30
0.0
 11
1274.999999999998
 21
339.9999990000005
 31
0.0
  0
LINE
  5
1A1
330
1F
100
AcDbEntity
  8
Ｓ_１_１
  6
CONTINUOUS
 62
     3
100
AcDbLine
 10
1254.999999999998
 20
329.9999990000004
 30
0.0
 11
1274.999999999998
 21
329.9999990000004
 31
0.0
  0
LINE
  5
1A2
330
1F
100
AcDbEntity
  8
Ｓ_１_１
  6
CONTINUOUS
 62
     3
100
AcDbLine
 10
1254.999999999998
 20
339.9999990000005
 30
0.0
 11
1254.999999999998
 21
287.3742050000009
 31
0.0
  0
CIRCLE
  5
1A3
330
1F
100
AcDbEntity
  8
Ｓ_１_１
  6
CONTINUOUS
 62
     3
100
AcDbCircle
 10
1524.999996
 20
730.0000300000011
 30
0.0
 40
25.00000000000002
  0
ARC
  5
1A4
330
1F
100
AcDbEntity
  8
Ｓ_１_１
  6
CONTINUOUS
 62
     3
100
AcDbCircle
 10
1464.999997000001
 20
925.000027
 30
0.0
 40
10.0
100
AcDbArc
 50
323.1301030000004
 51
216.8698990000001
  0
ARC
  5
1A5
330
1F
100
AcDbEntity
  8
Ｓ_１_１
  6
CONTINUOUS
 62
     3
100
AcDbCircle
 10
1464.999997000001
 20
825.0000290000007
 30
0.0
 40
8.0
100
AcDbArc
 50
179.999995
 51
0.0
  0
ARC
  5
1A6
330
1F
100
AcDbEntity
  8
Ｓ_１_１
  6
CONTINUOUS
 62
     3
100
AcDbCircle
 10
1464.999997000001
 20
925.000027
 30
0.0
 40
8.0
100
AcDbArc
 50
359.9999950000001
 51
180.000005
  0
CIRCLE
  5
1A7
330
1F
100
AcDbEntity
  8
Ｓ_１_１
  6
CONTINUOUS
 62
     3
100
AcDbCircle
 10
1005.000003000001
 20
730.0000300000011
 30
0.0
 40
25.00000000000002
  0
ARC
  5
1A8
330
1F
100
AcDbEntity
  8
Ｓ_１_１
  6
CONTINUOUS
 62
     3
100
AcDbCircle
 10
1065.000003000001
 20
925.000027
 30
0.0
 40
10.0
100
AcDbArc
 50
323.1301030000004
 51
216.8698990000001
  0
ARC
  5
1A9
330
1F
100
AcDbEntity
  8
Ｓ_１_１
  6
CONTINUOUS
 62
     3
100
AcDbCircle
 10
1065.000003000001
 20
825.0000290000007
 30
0.0
 40
8.0
100
AcDbArc
 50
179.999991
 51
0.0
  0
ARC
  5
1AA
330
1F
100
AcDbEntity
  8
Ｓ_１_１
  6
CONTINUOUS
 62
     3
100
AcDbCircle
 10
1065.000003000001
 20
925.000027
 30
0.0
 40
8.0
100
AcDbArc
 50
0.0
 51
180.000005
  0
LINE
  5
1AB
330
1F
100
AcDbEntity
  8
Ｓ_１_１
  6
CONTINUOUS
 62
     3
100
AcDbLine
 10
1471.999693
 20
789.9999320000006
 30
0.0
 11
1474.999847999999
 21
786.9997780000003
 31
0.0
  0
LINE
  5
1AC
330
1F
100
AcDbEntity
  8
Ｓ_１_１
  6
CONTINUOUS
 62
     3
100
AcDbLine
 10
1635.000018000001
 20
359.9999060000009
 30
0.0
 11
1649.999926
 21
344.9999980000002
 31
0.0
  0
LINE
  5
1AD
330
1F
100
AcDbEntity
  8
Ｓ_１_１
  6
CONTINUOUS
 62
     3
100
AcDbLine
 10
1613.550408999999
 20
359.9999590000007
 30
0.0
 11
1634.999994
 21
359.9999590000007
 31
0.0
  0
LINE
  5
1AE
330
1F
100
AcDbEntity
  8
Ｓ_１_１
  6
CONTINUOUS
 62
     3
100
AcDbLine
 10
1649.999994
 20
344.9999980000002
 30
0.0
 11
1649.999994
 21
259.9999989999997
 31
0.0
  0
LINE
  5
1AF
330
1F
100
AcDbEntity
  8
Ｓ_１_１
  6
CONTINUOUS
 62
     3
100
AcDbLine
 10
1484.999857999999
 20
774.9998080000005
 30
0.0
 11
1474.999847999999
 21
784.9998190000006
 31
0.0
  0
LINE
  5
1B0
330
1F
100
AcDbEntity
  8
Ｓ_１_１
  6
CONTINUOUS
 62
     3
100
AcDbLine
 10
1484.999996
 20
775.0000290000007
 30
0.0
 11
1484.999996
 21
760.0000300000011
 31
0.0
  0
LINE
  5
1B1
330
1F
100
AcDbEntity
  8
Ｓ_１_１
  6
CONTINUOUS
 62
     3
100
AcDbLine
 10
1564.999943000001
 20
684.9999280000011
 30
0.0
 11
1574.999846000001
 21
694.999831000001
 31
0.0
  0
LINE
  5
1B2
330
1F
100
AcDbEntity
  8
Ｓ_１_１
  6
CONTINUOUS
 62
     3
100
AcDbLine
 10
1564.999727
 20
775.000024000001
 30
0.0
 11
1574.999738
 21
765.0000140000011
 31
0.0
  0
LINE
  5
1B3
330
1F
100
AcDbEntity
  8
Ｓ_１_１
  6
CONTINUOUS
 62
     3
100
AcDbLine
 10
1574.999995
 20
765.0000300000011
 30
0.0
 11
1574.999995
 21
695.0000310000005
 31
0.0
  0
LINE
  5
1B4
330
1F
100
AcDbEntity
  8
Ｓ_１_１
  6
CONTINUOUS
 62
     3
100
AcDbLine
 10
1513.463436
 20
685.0000310000005
 30
0.0
 11
1564.999995
 21
685.0000310000005
 31
0.0
  0
LINE
  5
1B5
330
1F
100
AcDbEntity
  8
Ｓ_１_１
  6
CONTINUOUS
 62
     3
100
AcDbLine
 10
1484.999996
 20
775.0000290000007
 30
0.0
 11
1564.999995
 21
775.0000290000007
 31
0.0
  0
LINE
  5
1B6
330
1F
100
AcDbEntity
  8
Ｓ_１_１
  6
CONTINUOUS
 62
     3
100
AcDbLine
 10
1621.677546000001
 20
309.9999980000002
 30
0.0
 11
1628.948358
 21
309.9999980000002
 31
0.0
  0
LINE
  5
1B7
330
1F
100
AcDbEntity
  8
Ｓ_１_１
  6
CONTINUOUS
 62
     3
100
AcDbLine
 10
1423.023374
 20
309.9999980000002
 30
0.0
 11
1405.469663
 21
309.9999980000002
 31
0.0
  0
LINE
  5
1B8
330
1F
100
AcDbEntity
  8
Ｓ_１_１
  6
CONTINUOUS
 62
     3
100
AcDbLine
 10
1490.366478
 20
759.9998830000004
 30
0.0
 11
1628.948364
 21
310.0000280000004
 31
0.0
  0
LINE
  5
1B9
330
1F
100
AcDbEntity
  8
Ｓ_１_１
  6
CONTINUOUS
 62
     3
100
AcDbLine
 10
1621.677439000001
 20
310.000102
 30
0.0
 11
1483.095552999999
 21
759.999957
 31
0.0
  0
LINE
  5
1BA
330
1F
100
AcDbEntity
  8
Ｓ_１_１
  6
CONTINUOUS
 62
     3
100
AcDbLine
 10
1348.06719
 20
759.9999530000005
 30
0.0
 11
1405.469708
 21
309.9999589999998
 31
0.0
  0
LINE
  5
1BB
330
1F
100
AcDbEntity
  8
Ｓ_１_１
  6
CONTINUOUS
 62
     3
100
AcDbLine
 10
1423.023216000001
 20
309.9999610000004
 30
0.0
 11
1365.620688999999
 21
760.0000310000005
 31
0.0
  0
LINE
  5
1BC
330
1F
100
AcDbEntity
  8
Ｓ_１_１
  6
CONTINUOUS
 62
     3
100
AcDbLine
 10
1455.379025
 20
760.0000300000011
 30
0.0
 11
1490.366512000001
 21
760.0000300000011
 31
0.0
  0
LINE
  5
1BD
330
1F
100
AcDbEntity
  8
Ｓ_１_１
  6
CONTINUOUS
 62
     3
100
AcDbLine
 10
1336.586607000001
 20
760.0000300000011
 30
0.0
 11
1365.620726000001
 21
760.0000300000011
 31
0.0
  0
LINE
  5
1BE
330
1F
100
AcDbEntity
  8
Ｓ_１_１
  6
CONTINUOUS
 62
     3
100
AcDbLine
 10
1455.379025
 20
760.0000300000011
 30
0.0
 11
1455.379025
 21
259.9999989999997
 31
0.0
  0
LINE
  5
1BF
330
1F
100
AcDbEntity
  8
Ｓ_１_１
  6
CONTINUOUS
 62
     3
100
AcDbLine
 10
1336.586607000001
 20
760.0000300000011
 30
0.0
 11
1336.586607000001
 21
259.9999989999997
 31
0.0
  0
LINE
  5
1C0
330
1F
100
AcDbEntity
  8
Ｓ_１_１
  6
CONTINUOUS
 62
     3
100
AcDbLine
 10
1405.469663
 20
309.9999980000002
 30
0.0
 11
1405.469663
 21
259.9999989999997
 31
0.0
  0
LINE
  5
1C1
330
1F
100
AcDbEntity
  8
Ｓ_１_１
  6
CONTINUOUS
 62
     3
100
AcDbLine
 10
1423.023374
 20
309.9999980000002
 30
0.0
 11
1423.023374
 21
259.9999989999997
 31
0.0
  0
LINE
  5
1C2
330
1F
100
AcDbEntity
  8
Ｓ_１_１
  6
CONTINUOUS
 62
     3
100
AcDbLine
 10
1621.677546000001
 20
309.9999980000002
 30
0.0
 11
1621.677546000001
 21
259.9999989999997
 31
0.0
  0
LINE
  5
1C3
330
1F
100
AcDbEntity
  8
Ｓ_１_１
  6
CONTINUOUS
 62
     3
100
AcDbLine
 10
1628.948358
 20
309.9999980000002
 30
0.0
 11
1628.948358
 21
259.9999989999997
 31
0.0
  0
LINE
  5
1C4
330
1F
100
AcDbEntity
  8
Ｓ_１_１
  6
CONTINUOUS
 62
     3
100
AcDbLine
 10
1474.999996
 20
786.9999990000006
 30
0.0
 11
1474.999996
 21
760.0000300000011
 31
0.0
  0
LINE
  5
1C5
330
1F
100
AcDbEntity
  8
Ｓ_１_１
  6
CONTINUOUS
 62
     3
100
AcDbLine
 10
1456.999814000001
 20
900.0000280000003
 30
0.0
 11
1451.999814000001
 21
900.0000280000003
 31
0.0
  0
LINE
  5
1C6
330
1F
100
AcDbEntity
  8
Ｓ_１_１
  6
CONTINUOUS
 62
     3
100
AcDbLine
 10
1451.99978
 20
949.9997789999998
 30
0.0
 11
1444.999707999999
 21
956.9998510000005
 31
0.0
  0
LINE
  5
1C7
330
1F
100
AcDbEntity
  8
Ｓ_１_１
  6
CONTINUOUS
 62
     3
100
AcDbLine
 10
1484.999857999999
 20
902.9997720000009
 30
0.0
 11
1481.99992
 21
899.9998329999997
 31
0.0
  0
LINE
  5
1C8
330
1F
100
AcDbEntity
  8
Ｓ_１_１
  6
CONTINUOUS
 62
     3
100
AcDbLine
 10
1484.999642000001
 20
946.9999480000006
 30
0.0
 11
1481.999704
 21
949.999887
 31
0.0
  0
LINE
  5
1C9
330
1F
100
AcDbEntity
  8
Ｓ_１_１
  6
CONTINUOUS
 62
     3
100
AcDbLine
 10
1451.99978
 20
899.999941
 30
0.0
 11
1444.999816
 21
892.9999770000004
 31
0.0
  0
LINE
  5
1CA
330
1F
100
AcDbEntity
  8
Ｓ_１_１
  6
CONTINUOUS
 62
     3
100
AcDbLine
 10
1451.999814000001
 20
950.000027
 30
0.0
 11
1451.999814000001
 21
900.0000280000003
 31
0.0
  0
LINE
  5
1CB
330
1F
100
AcDbEntity
  8
Ｓ_１_１
  6
CONTINUOUS
 62
     3
100
AcDbLine
 10
1484.999996
 20
946.9999960000005
 30
0.0
 11
1484.999996
 21
902.9999820000012
 31
0.0
  0
LINE
  5
1CC
330
1F
100
AcDbEntity
  8
Ｓ_１_１
  6
CONTINUOUS
 62
     3
100
AcDbLine
 10
1481.999813
 20
900.0000280000003
 30
0.0
 11
1472.999874000001
 21
900.0000280000003
 31
0.0
  0
LINE
  5
1CD
330
1F
100
AcDbEntity
  8
Ｓ_１_１
  6
CONTINUOUS
 62
     3
100
AcDbLine
 10
1481.999813
 20
950.000027
 30
0.0
 11
1451.999814000001
 21
950.000027
 31
0.0
  0
LINE
  5
1CE
330
1F
100
AcDbEntity
  8
Ｓ_１_１
  6
CONTINUOUS
 62
     3
100
AcDbLine
 10
1472.999874000001
 20
925.000027
 30
0.0
 11
1472.999874000001
 21
825.0000290000007
 31
0.0
  0
LINE
  5
1CF
330
1F
100
AcDbEntity
  8
Ｓ_１_１
  6
CONTINUOUS
 62
     3
100
AcDbLine
 10
1456.999814000001
 20
925.000027
 30
0.0
 11
1456.999814000001
 21
825.0000290000007
 31
0.0
  0
LINE
  5
1D0
330
1F
100
AcDbEntity
  8
Ｓ_１_１
  6
CONTINUOUS
 62
     3
100
AcDbLine
 10
1441.999985
 20
984.9999239999997
 30
0.0
 11
1444.999922999999
 21
981.9999850000004
 31
0.0
  0
LINE
  5
1D1
330
1F
100
AcDbEntity
  8
Ｓ_１_１
  6
CONTINUOUS
 62
     3
100
AcDbLine
 10
1374.999978
 20
986.9998560000004
 30
0.0
 11
1373.2678
 21
990.0000749999998
 31
0.0
  0
LINE
  5
1D2
330
1F
100
AcDbEntity
  8
Ｓ_１_１
  6
CONTINUOUS
 62
     3
100
AcDbLine
 10
1374.999997999999
 20
986.9999960000004
 30
0.0
 11
1374.999997999999
 21
985.0000259999997
 31
0.0
  0
LINE
  5
1D3
330
1F
100
AcDbEntity
  8
Ｓ_１_１
  6
CONTINUOUS
 62
     3
100
AcDbLine
 10
1444.999997000001
 20
981.9999960000005
 30
0.0
 11
1444.999997000001
 21
790.0000290000007
 31
0.0
  0
LINE
  5
1D4
330
1F
100
AcDbEntity
  8
Ｓ_１_１
  6
CONTINUOUS
 62
     3
100
AcDbLine
 10
1441.999814000001
 20
985.0000259999997
 30
0.0
 11
1265.0
 21
985.0000259999997
 31
0.0
  0
LINE
  5
1D5
330
1F
100
AcDbEntity
  8
Ｓ_１_１
  6
CONTINUOUS
 62
     3
100
AcDbLine
 10
1058.000309999999
 20
789.9998240000004
 30
0.0
 11
1055.000264
 21
786.9997780000003
 31
0.0
  0
LINE
  5
1D6
330
1F
100
AcDbEntity
  8
Ｓ_１_１
  6
CONTINUOUS
 62
     3
100
AcDbLine
 10
895.0000940000009
 20
359.9999060000009
 30
0.0
 11
880.0000780000009
 21
344.99989
 31
0.0
  0
LINE
  5
1D7
330
1F
100
AcDbEntity
  8
Ｓ_１_１
  6
CONTINUOUS
 62
     3
100
AcDbLine
 10
916.4495900000002
 20
359.9999590000007
 30
0.0
 11
895.000005
 21
359.9999590000007
 31
0.0
  0
LINE
  5
1D8
330
1F
100
AcDbEntity
  8
Ｓ_１_１
  6
CONTINUOUS
 62
     3
100
AcDbLine
 10
880.0000049999999
 20
344.9999980000002
 30
0.0
 11
880.0000049999999
 21
259.9999989999997
 31
0.0
  0
LINE
  5
1D9
330
1F
100
AcDbEntity
  8
Ｓ_１_１
  6
CONTINUOUS
 62
     3
100
AcDbLine
 10
1045.000253
 20
774.9998080000005
 30
0.0
 11
1055.000264
 21
784.9998190000006
 31
0.0
  0
LINE
  5
1DA
330
1F
100
AcDbEntity
  8
Ｓ_１_１
  6
CONTINUOUS
 62
     3
100
AcDbLine
 10
1045.000003000001
 20
775.0000290000007
 30
0.0
 11
1045.000003000001
 21
760.0000300000011
 31
0.0
  0
LINE
  5
1DB
330
1F
100
AcDbEntity
  8
Ｓ_１_１
  6
CONTINUOUS
 62
     3
100
AcDbLine
 10
965.0001680000005
 20
684.9999280000011
 30
0.0
 11
955.0001580000007
 21
694.9999390000003
 31
0.0
  0
LINE
  5
1DC
330
1F
100
AcDbEntity
  8
Ｓ_１_１
  6
CONTINUOUS
 62
     3
100
AcDbLine
 10
965.0002760000007
 20
774.9999160000007
 30
0.0
 11
955.0002650000005
 21
764.9999060000009
 31
0.0
  0
LINE
  5
1DD
330
1F
100
AcDbEntity
  8
Ｓ_１_１
  6
CONTINUOUS
 62
     3
100
AcDbLine
 10
955.0000040000014
 20
765.0000300000011
 30
0.0
 11
955.0000040000014
 21
695.0000310000005
 31
0.0
  0
LINE
  5
1DE
330
1F
100
AcDbEntity
  8
Ｓ_１_１
  6
CONTINUOUS
 62
     3
100
AcDbLine
 10
1016.536563
 20
685.0000310000005
 30
0.0
 11
965.0000040000014
 21
685.0000310000005
 31
0.0
  0
LINE
  5
1DF
330
1F
100
AcDbEntity
  8
Ｓ_１_１
  6
CONTINUOUS
 62
     3
100
AcDbLine
 10
1045.000003000001
 20
775.0000290000007
 30
0.0
 11
965.0000040000014
 21
775.0000290000007
 31
0.0
  0
LINE
  5
1E0
330
1F
100
AcDbEntity
  8
Ｓ_１_１
  6
CONTINUOUS
 62
     3
100
AcDbLine
 10
908.322454000001
 20
309.9999980000002
 30
0.0
 11
901.051641
 21
309.9999980000002
 31
0.0
  0
LINE
  5
1E1
330
1F
100
AcDbEntity
  8
Ｓ_１_１
  6
CONTINUOUS
 62
     3
100
AcDbLine
 10
1106.976624999999
 20
309.9999980000002
 30
0.0
 11
1124.530336
 21
309.9999980000002
 31
0.0
  0
LINE
  5
1E2
330
1F
100
AcDbEntity
  8
Ｓ_１_１
  6
CONTINUOUS
 62
     3
100
AcDbLine
 10
1039.633558000001
 20
759.9999459999999
 30
0.0
 11
901.0516500000012
 21
310.0000190000001
 31
0.0
  0
LINE
  5
1E3
330
1F
100
AcDbEntity
  8
Ｓ_１_１
  6
CONTINUOUS
 62
     3
100
AcDbLine
 10
908.3225519999996
 20
310.0000200000004
 30
0.0
 11
1046.904469000001
 21
759.9999750000006
 31
0.0
  0
LINE
  5
1E4
330
1F
100
AcDbEntity
  8
Ｓ_１_１
  6
CONTINUOUS
 62
     3
100
AcDbLine
 10
1181.932919000001
 20
759.9999980000011
 30
0.0
 11
1124.530397
 21
309.9999760000001
 31
0.0
  0
LINE
  5
1E5
330
1F
100
AcDbEntity
  8
Ｓ_１_１
  6
CONTINUOUS
 62
     3
100
AcDbLine
 10
1106.976583
 20
309.9999980000002
 30
0.0
 11
1164.379102999999
 21
760.0000010000003
 31
0.0
  0
LINE
  5
1E6
330
1F
100
AcDbEntity
  8
Ｓ_１_１
  6
CONTINUOUS
 62
     3
100
AcDbLine
 10
1074.620974000001
 20
760.0000300000011
 30
0.0
 11
1039.633486999999
 21
760.0000300000011
 31
0.0
  0
LINE
  5
1E7
330
1F
100
AcDbEntity
  8
Ｓ_１_１
  6
CONTINUOUS
 62
     3
100
AcDbLine
 10
1193.413392
 20
760.0000300000011
 30
0.0
 11
1164.379274000001
 21
760.0000300000011
 31
0.0
  0
LINE
  5
1E8
330
1F
100
AcDbEntity
  8
Ｓ_１_１
  6
CONTINUOUS
 62
     3
100
AcDbLine
 10
1074.620974000001
 20
760.0000300000011
 30
0.0
 11
1074.620974000001
 21
259.9999989999997
 31
0.0
  0
LINE
  5
1E9
330
1F
100
AcDbEntity
  8
Ｓ_１_１
  6
CONTINUOUS
 62
     3
100
AcDbLine
 10
1193.413392
 20
760.0000300000011
 30
0.0
 11
1193.413392
 21
259.9999989999997
 31
0.0
  0
LINE
  5
1EA
330
1F
100
AcDbEntity
  8
Ｓ_１_１
  6
CONTINUOUS
 62
     3
100
AcDbLine
 10
1124.530336
 20
309.9999980000002
 30
0.0
 11
1124.530336
 21
259.9999989999997
 31
0.0
  0
LINE
  5
1EB
330
1F
100
AcDbEntity
  8
Ｓ_１_１
  6
CONTINUOUS
 62
     3
100
AcDbLine
 10
1106.976624999999
 20
309.9999980000002
 30
0.0
 11
1106.976624999999
 21
259.9999989999997
 31
0.0
  0
LINE
  5
1EC
330
1F
100
AcDbEntity
  8
Ｓ_１_１
  6
CONTINUOUS
 62
     3
100
AcDbLine
 10
908.322454000001
 20
309.9999980000002
 30
0.0
 11
908.322454000001
 21
259.9999989999997
 31
0.0
  0
LINE
  5
1ED
330
1F
100
AcDbEntity
  8
Ｓ_１_１
  6
CONTINUOUS
 62
     3
100
AcDbLine
 10
901.051641
 20
309.9999980000002
 30
0.0
 11
901.051641
 21
259.9999989999997
 31
0.0
  0
LINE
  5
1EE
330
1F
100
AcDbEntity
  8
Ｓ_１_１
  6
CONTINUOUS
 62
     3
100
AcDbLine
 10
865.0000060000002
 20
259.9999989999997
 30
0.0
 11
865.0000060000002
 21
220.0
 31
0.0
  0
LINE
  5
1EF
330
1F
100
AcDbEntity
  8
Ｓ_１_１
  6
CONTINUOUS
 62
     3
100
AcDbLine
 10
865.0000060000002
 20
220.0
 30
0.0
 11
1664.999994
 21
220.0
 31
0.0
  0
LINE
  5
1F0
330
1F
100
AcDbEntity
  8
Ｓ_１_１
  6
CONTINUOUS
 62
     3
100
AcDbLine
 10
865.0000060000002
 20
259.9999989999997
 30
0.0
 11
1664.999994
 21
259.9999989999997
 31
0.0
  0
LINE
  5
1F1
330
1F
100
AcDbEntity
  8
Ｓ_１_１
  6
CONTINUOUS
 62
     3
100
AcDbLine
 10
1055.000003000001
 20
786.9999990000006
 30
0.0
 11
1055.000003000001
 21
760.0000300000011
 31
0.0
  0
LINE
  5
1F2
330
1F
100
AcDbEntity
  8
Ｓ_１_１
  6
CONTINUOUS
 62
     3
100
AcDbLine
 10
1073.000186000001
 20
900.0000280000003
 30
0.0
 11
1078.000185000001
 21
900.0000280000003
 31
0.0
  0
LINE
  5
1F3
330
1F
100
AcDbEntity
  8
Ｓ_１_１
  6
CONTINUOUS
 62
     3
100
AcDbLine
 10
1078.000115999999
 20
899.999941
 30
0.0
 11
1085.000188
 21
892.9998690000011
 31
0.0
  0
LINE
  5
1F4
330
1F
100
AcDbEntity
  8
Ｓ_１_１
  6
CONTINUOUS
 62
     3
100
AcDbLine
 10
1078.000223999999
 20
949.999887
 30
0.0
 11
1085.000188
 21
956.9998510000005
 31
0.0
  0
LINE
  5
1F5
330
1F
100
AcDbEntity
  8
Ｓ_１_１
  6
CONTINUOUS
 62
     3
100
AcDbLine
 10
1078.000185000001
 20
950.000027
 30
0.0
 11
1078.000185000001
 21
900.0000280000003
 31
0.0
  0
LINE
  5
1F6
330
1F
100
AcDbEntity
  8
Ｓ_１_１
  6
CONTINUOUS
 62
     3
100
AcDbLine
 10
1045.000253
 20
902.9997720000009
 30
0.0
 11
1048.000192
 21
899.9998329999997
 31
0.0
  0
LINE
  5
1F7
330
1F
100
AcDbEntity
  8
Ｓ_１_１
  6
CONTINUOUS
 62
     3
100
AcDbLine
 10
1045.000361
 20
946.9998400000004
 30
0.0
 11
1048.0003
 21
949.9997789999998
 31
0.0
  0
LINE
  5
1F8
330
1F
100
AcDbEntity
  8
Ｓ_１_１
  6
CONTINUOUS
 62
     3
100
AcDbLine
 10
1045.000003000001
 20
946.9999960000005
 30
0.0
 11
1045.000003000001
 21
902.9999820000012
 31
0.0
  0
LINE
  5
1F9
330
1F
100
AcDbEntity
  8
Ｓ_１_１
  6
CONTINUOUS
 62
     3
100
AcDbLine
 10
1048.000186000001
 20
900.0000280000003
 30
0.0
 11
1057.000125
 21
900.0000280000003
 31
0.0
  0
LINE
  5
1FA
330
1F
100
AcDbEntity
  8
Ｓ_１_１
  6
CONTINUOUS
 62
     3
100
AcDbLine
 10
1048.000186000001
 20
950.000027
 30
0.0
 11
1078.000185000001
 21
950.000027
 31
0.0
  0
LINE
  5
1FB
330
1F
100
AcDbEntity
  8
Ｓ_１_１
  6
CONTINUOUS
 62
     3
100
AcDbLine
 10
1057.000125
 20
925.000027
 30
0.0
 11
1057.000125
 21
825.0000290000007
 31
0.0
  0
LINE
  5
1FC
330
1F
100
AcDbEntity
  8
Ｓ_１_１
  6
CONTINUOUS
 62
     3
100
AcDbLine
 10
1073.000186000001
 20
925.000027
 30
0.0
 11
1073.000186000001
 21
825.0000290000007
 31
0.0
  0
LINE
  5
1FD
330
1F
100
AcDbEntity
  8
Ｓ_１_１
  6
CONTINUOUS
 62
     3
100
AcDbLine
 10
1088.000018000001
 20
985.0000319999999
 30
0.0
 11
1084.999972
 21
981.9999850000004
 31
0.0
  0
LINE
  5
1FE
330
1F
100
AcDbEntity
  8
Ｓ_１_１
  6
CONTINUOUS
 62
     3
100
AcDbLine
 10
1664.999994
 20
259.9999989999997
 30
0.0
 11
1664.999994
 21
220.0
 31
0.0
  0
LINE
  5
1FF
330
1F
100
AcDbEntity
  8
Ｓ_１_１
  6
CONTINUOUS
 62
     3
100
AcDbLine
 10
1155.000078000001
 20
986.9999669999997
 30
0.0
 11
1156.732104000001
 21
989.9999220000009
 31
0.0
  0
LINE
  5
200
330
1F
100
AcDbEntity
  8
Ｓ_１_１
  6
CONTINUOUS
 62
     3
100
AcDbLine
 10
1155.000001
 20
986.9999960000004
 30
0.0
 11
1155.000001
 21
985.0000259999997
 31
0.0
  0
LINE
  5
201
330
1F
100
AcDbEntity
  8
Ｓ_１_１
  6
CONTINUOUS
 62
     3
100
AcDbLine
 10
1085.000002000001
 20
981.9999960000005
 30
0.0
 11
1085.000002000001
 21
790.0000290000007
 31
0.0
  0
LINE
  5
202
330
1F
100
AcDbEntity
  8
Ｓ_１_１
  6
CONTINUOUS
 62
     3
100
AcDbLine
 10
1664.999994
 20
259.9993890000005
 30
0.0
 11
1664.999994
 21
219.9993890000005
 31
0.0
  0
LINE
  5
203
330
1F
100
AcDbEntity
  8
Ｓ_１_１
  6
EXLTYPE2
 62
     1
100
AcDbLine
 10
1317.009887
 20
600.0000319999999
 30
0.0
 11
1257.30011
 21
600.0000319999999
 31
0.0
  0
LINE
  5
204
330
1F
100
AcDbEntity
  8
Ｓ_１_１
  6
EXLTYPE2
 62
     1
100
AcDbLine
 10
1524.999996
 20
783.4999380000008
 30
0.0
 11
1524.999996
 21
678.500016
 31
0.0
  0
LINE
  5
205
330
1F
100
AcDbEntity
  8
Ｓ_１_１
  6
EXLTYPE2
 62
     1
100
AcDbLine
 10
1466.249997000001
 20
730.0000300000011
 30
0.0
 11
1582.449946000001
 21
730.0000300000011
 31
0.0
  0
LINE
  5
206
330
1F
100
AcDbEntity
  8
Ｓ_１_１
  6
EXLTYPE2
 62
     1
100
AcDbLine
 10
1474.999996
 20
825.0000290000007
 30
0.0
 11
1454.999997000001
 21
825.0000290000007
 31
0.0
  0
LINE
  5
207
330
1F
100
AcDbEntity
  8
Ｓ_１_１
  6
EXLTYPE2
 62
     1
100
AcDbLine
 10
1464.999997000001
 20
956.4000210000004
 30
0.0
 11
1464.999997000001
 21
810.7999710000004
 31
0.0
  0
LINE
  5
208
330
1F
100
AcDbEntity
  8
Ｓ_１_１
  6
EXLTYPE2
 62
     1
100
AcDbLine
 10
1491.799923
 20
925.000027
 30
0.0
 11
1426.000058
 21
925.000027
 31
0.0
  0
LINE
  5
209
330
1F
100
AcDbEntity
  8
Ｓ_１_１
  6
EXLTYPE2
 62
     1
100
AcDbLine
 10
1212.990113
 20
600.0000319999999
 30
0.0
 11
1272.69989
 21
600.0000319999999
 31
0.0
  0
LINE
  5
20A
330
1F
100
AcDbEntity
  8
Ｓ_１_１
  6
EXLTYPE2
 62
     1
100
AcDbLine
 10
1005.000003000001
 20
783.4999380000008
 30
0.0
 11
1005.000003000001
 21
678.500016
 31
0.0
  0
LINE
  5
20B
330
1F
100
AcDbEntity
  8
Ｓ_１_１
  6
EXLTYPE2
 62
     1
100
AcDbLine
 10
1063.750003000001
 20
730.0000300000011
 30
0.0
 11
947.5500530000008
 21
730.0000300000011
 31
0.0
  0
LINE
  5
20C
330
1F
100
AcDbEntity
  8
Ｓ_１_１
  6
EXLTYPE2
 62
     1
100
AcDbLine
 10
1055.000003000001
 20
825.0000290000007
 30
0.0
 11
1075.000002000001
 21
825.0000290000007
 31
0.0
  0
LINE
  5
20D
330
1F
100
AcDbEntity
  8
Ｓ_１_１
  6
EXLTYPE2
 62
     1
100
AcDbLine
 10
1065.000003000001
 20
956.4000210000004
 30
0.0
 11
1065.000003000001
 21
810.7999710000004
 31
0.0
  0
LINE
  5
20E
330
1F
100
AcDbEntity
  8
Ｓ_１_１
  6
EXLTYPE2
 62
     1
100
AcDbLine
 10
1038.200076000001
 20
925.000027
 30
0.0
 11
1103.999941
 21
925.000027
 31
0.0
  0
LINE
  5
20F
330
1F
100
AcDbEntity
  8
Ｓ_１_１
  6
EXLTYPE2
 62
     1
100
AcDbLine
 10
1265.0
 20
1220.716652
 30
0.0
 11
1265.0
 21
199.7000120000002
 31
0.0
  0
LINE
  5
210
330
1F
100
AcDbEntity
  8
Ｓ_１_１
  6
EXLTYPE2
 62
     1
100
AcDbLine
 10
914.9999951720165
 20
1191.871227614339
 30
0.0
 11
914.9999951720165
 21
1184.983761388938
 31
0.0
  0
LINE
  5
211
330
1F
100
AcDbEntity
  8
Ｓ_１_１
  6
EXLTYPE2
 62
     1
100
AcDbLine
 10
1015.000022709362
 20
1191.999962199126
 30
0.0
 11
1015.000022709362
 21
1184.999931890165
 31
0.0
  0
LINE
  5
212
330
1F
100
AcDbEntity
  8
Ｓ_１_１
  6
EXLTYPE2
 62
     1
100
AcDbLine
 10
1115.000027358525
 20
1191.999962199126
 30
0.0
 11
1115.000027358525
 21
1184.999931890165
 31
0.0
  0
LINE
  5
213
330
1F
100
AcDbEntity
  8
Ｓ_１_１
  6
EXLTYPE2
 62
     1
100
AcDbLine
 10
1215.000009119503
 20
1191.999962199126
 30
0.0
 11
1215.000009119503
 21
1184.999931890165
 31
0.0
  0
LINE
  5
214
330
1F
100
AcDbEntity
  8
Ｓ_１_１
  6
EXLTYPE2
 62
     1
100
AcDbLine
 10
1315.000002324574
 20
1191.999962199126
 30
0.0
 11
1315.000002324574
 21
1184.999931890165
 31
0.0
  0
LINE
  5
215
330
1F
100
AcDbEntity
  8
Ｓ_１_１
  6
EXLTYPE2
 62
     1
100
AcDbLine
 10
1414.999992668621
 20
1191.999962199126
 30
0.0
 11
1414.999992668621
 21
1184.999931890165
 31
0.0
  0
LINE
  5
216
330
1F
100
AcDbEntity
  8
Ｓ_１_１
  6
EXLTYPE2
 62
     1
100
AcDbLine
 10
1514.999994456761
 20
1191.999962199126
 30
0.0
 11
1514.999994456761
 21
1184.999931890165
 31
0.0
  0
LINE
  5
217
330
1F
100
AcDbEntity
  8
Ｓ_１_１
  6
EXLTYPE2
 62
     1
100
AcDbLine
 10
1614.999959051604
 20
1192.73923906308
 30
0.0
 11
1614.999959051604
 21
1185.145180298922
 31
0.0
  0
ARC
  5
218
330
1F
100
AcDbEntity
  8
Ｓ_１_１
  6
EXLTYPE2
 62
     1
100
AcDbCircle
 10
996.0000084936546
 20
1090.999919909632
 30
0.0
 40
16.0
100
AcDbArc
 50
180.0
 51
270.0
  0
ARC
  5
219
330
1F
100
AcDbEntity
  8
Ｓ_１_１
  6
EXLTYPE2
 62
     1
100
AcDbCircle
 10
1053.999982923262
 20
1090.999919909632
 30
0.0
 40
16.0
100
AcDbArc
 50
270.0
 51
0.0
  0
LINE
  5
21A
330
1F
100
AcDbEntity
  8
Ｓ_１_１
  6
EXLTYPE2
 62
     1
100
AcDbLine
 10
980.0000084936546
 20
1154.567575009034
 30
0.0
 11
980.0000084936546
 21
1090.999919909632
 31
0.0
  0
LINE
  5
21B
330
1F
100
AcDbEntity
  8
Ｓ_１_１
  6
EXLTYPE2
 62
     1
100
AcDbLine
 10
996.0000084936546
 20
1074.999919909632
 30
0.0
 11
1053.999982923262
 21
1074.999919909632
 31
0.0
  0
LINE
  5
21C
330
1F
100
AcDbEntity
  8
Ｓ_１_１
  6
EXLTYPE2
 62
     1
100
AcDbLine
 10
1069.999982923262
 20
1154.248513739246
 30
0.0
 11
1069.999982923262
 21
1090.999919909632
 31
0.0
  0
ARC
  5
21D
330
1F
100
AcDbEntity
  8
Ｓ_１_１
  6
EXLTYPE2
 62
     1
100
AcDbCircle
 10
1533.999991506345
 20
1090.999919909632
 30
0.0
 40
16.0
100
AcDbArc
 50
270.0
 51
0.0
  0
ARC
  5
21E
330
1F
100
AcDbEntity
  8
Ｓ_１_１
  6
EXLTYPE2
 62
     1
100
AcDbCircle
 10
1476.000017076738
 20
1090.999919909632
 30
0.0
 40
16.0
100
AcDbArc
 50
180.0
 51
270.0
  0
LINE
  5
21F
330
1F
100
AcDbEntity
  8
Ｓ_１_１
  6
EXLTYPE2
 62
     1
100
AcDbLine
 10
1549.999991506345
 20
1154.567575009034
 30
0.0
 11
1549.999991506345
 21
1090.999919909632
 31
0.0
  0
LINE
  5
220
330
1F
100
AcDbEntity
  8
Ｓ_１_１
  6
EXLTYPE2
 62
     1
100
AcDbLine
 10
1533.999991506345
 20
1074.999919909632
 30
0.0
 11
1476.000017076738
 21
1074.999919909632
 31
0.0
  0
LINE
  5
221
330
1F
100
AcDbEntity
  8
Ｓ_１_１
  6
EXLTYPE2
 62
     1
100
AcDbLine
 10
1460.000017076738
 20
1154.248513739246
 30
0.0
 11
1460.000017076738
 21
1090.999919909632
 31
0.0
  0
LINE
  5
222
330
1F
100
AcDbEntity
  8
Ｓ_１_１
  6
EXLTYPE2
 62
     1
100
AcDbLine
 10
1292.184000000001
 20
865.0
 30
0.0
 11
1233.184000000001
 21
865.0
 31
0.0
  0
DIMENSION
  5
224
330
1F
100
AcDbEntity
  8
Ｓ_１_１
  6
CONTINUOUS
 62
     2
100
AcDbDimension
  2
*D15
 10
715.0
 20
220.0
 30
0.0
 11
690.25
 21
172.7499999999998
 31
0.0
 70
   160
  3
ISO-25
100
AcDbAlignedDimension
 13
865.0000060000002
 23
259.9999989999997
 33
0.0
 14
865.0000060000002
 24
220.0
 34
0.0
 50
90.0
100
AcDbRotatedDimension
1001
ACAD
1000
DSTYLE
1002
{
1070
   270
1070
     2
1070
     6
1000
EX_NORM
1070
     7
1000
EX_NORM
1070
    41
1040
27.0
1070
    42
1040
13.5
1070
    44
1040
9.0
1070
    73
1070
     0
1070
    74
1070
     0
1070
    75
1070
     0
1070
    76
1070
     0
1070
    77
1070
     1
1070
    78
1070
     8
1070
   140
1040
31.16613741339492
1070
   147
1040
0.0
1070
   173
1070
     1
1070
   176
1070
     2
1070
   177
1070
     2
1070
   178
1070
     2
1070
   271
1070
     2
1070
   277
1070
     2
1070
   279
1070
     2
1070
   280
1070
     2
1070
   287
1070
     5
1070
   340
1005
223
1002
}
  0
DIMENSION
  5
234
330
1F
100
AcDbEntity
  8
Ｓ_１_１
  6
CONTINUOUS
 62
     2
100
AcDbDimension
  2
*D16
 10
715.0
 20
790.0000290000002
 30
0.0
 11
690.25
 21
525.0000140000001
 31
0.0
 70
   160
  3
ISO-25
100
AcDbAlignedDimension
 13
865.000006
 23
259.999999
 33
0.0
 14
1058.000515
 24
790.000029
 34
0.0
 50
90.0
100
AcDbRotatedDimension
1001
ACAD
1000
DSTYLE
1002
{
1070
   270
1070
     2
1070
     6
1000
EX_NORM
1070
     7
1000
EX_NORM
1070
    41
1040
27.0
1070
    42
1040
13.5
1070
    44
1040
9.0
1070
    73
1070
     0
1070
    74
1070
     0
1070
    75
1070
     0
1070
    76
1070
     0
1070
    77
1070
     1
1070
    78
1070
     8
1070
   140
1040
31.16613741339492
1070
   147
1040
0.0
1070
   173
1070
     1
1070
   176
1070
     2
1070
   177
1070
     2
1070
   178
1070
     2
1070
   271
1070
     2
1070
   277
1070
     2
1070
   279
1070
     2
1070
   280
1070
     0
1070
   287
1070
     5
1070
   340
1005
223
1002
}
  0
DIMENSION
  5
241
330
1F
100
AcDbEntity
  8
Ｓ_１_１
  6
CONTINUOUS
 62
     2
100
AcDbDimension
  2
*D17
 10
660.0
 20
790.0000290000002
 30
0.0
 11
635.25
 21
505.0000145
 31
0.0
 70
   160
  3
ISO-25
100
AcDbAlignedDimension
 13
865.000006
 23
220.0
 33
0.0
 14
1058.000515
 24
790.000029
 34
0.0
 50
90.0
100
AcDbRotatedDimension
1001
ACAD
1000
DSTYLE
1002
{
1070
   270
1070
     2
1070
     6
1000
EX_NORM
1070
     7
1000
EX_NORM
1070
    41
1040
27.0
1070
    42
1040
13.5
1070
    44
1040
9.0
1070
    73
1070
     0
1070
    74
1070
     0
1070
    75
1070
     0
1070
    76
1070
     0
1070
    77
1070
     1
1070
    78
1070
     8
1070
   140
1040
31.16613741339492
1070
   147
1040
0.0
1070
   173
1070
     1
1070
   176
1070
     2
1070
   177
1070
     2
1070
   178
1070
     2
1070
   271
1070
     2
1070
   277
1070
     2
1070
   279
1070
     2
1070
   280
1070
     0
1070
   287
1070
     5
1070
   340
1005
223
1002
}
  0
DIMENSION
  5
24E
330
1F
100
AcDbEntity
  8
Ｓ_１_１
  6
CONTINUOUS
 62
     2
100
AcDbDimension
  2
*D18
 10
660.0
 20
990.0000260000002
 30
0.0
 11
635.25
 21
890.0000275000001
 31
0.0
 70
   160
  3
ISO-25
100
AcDbAlignedDimension
 13
1058.000515
 23
790.000029
 33
0.0
 14
1156.7321640445
 24
990.000026
 34
0.0
 50
90.0
100
AcDbRotatedDimension
1001
ACAD
1000
DSTYLE
1002
{
1070
   270
1070
     2
1070
     6
1000
EX_NORM
1070
     7
1000
EX_NORM
1070
    41
1040
27.0
1070
    42
1040
13.5
1070
    44
1040
9.0
1070
    73
1070
     0
1070
    74
1070
     0
1070
    75
1070
     0
1070
    76
1070
     0
1070
    77
1070
     1
1070
    78
1070
     8
1070
   140
1040
31.16613741339492
1070
   147
1040
0.0
1070
   173
1070
     1
1070
   176
1070
     2
1070
   177
1070
     2
1070
   178
1070
     2
1070
   271
1070
     2
1070
   277
1070
     2
1070
   279
1070
     2
1070
   280
1070
     0
1070
   287
1070
     5
1070
   340
1005
223
1002
}
  0
DIMENSION
  5
25B
330
1F
100
AcDbEntity
  8
Ｓ_１_１
  6
CONTINUOUS
 62
     2
100
AcDbDimension
  2
*D19
 10
660.0
 20
1189.9999469999
 30
0.0
 11
635.2500000000001
 21
1089.99998649995
 31
0.0
 70
   160
  3
ISO-25
100
AcDbAlignedDimension
 13
1156.7321640445
 23
990.000026
 33
0.0
 14
864.99998140334
 24
1189.9999469999
 34
0.0
 50
90.0
100
AcDbRotatedDimension
1001
ACAD
1000
DSTYLE
1002
{
1070
   270
1070
     2
1070
     6
1000
EX_NORM
1070
     7
1000
EX_NORM
1070
    41
1040
27.0
1070
    42
1040
13.5
1070
    44
1040
9.0
1070
    73
1070
     0
1070
    74
1070
     0
1070
    75
1070
     0
1070
    76
1070
     0
1070
    77
1070
     1
1070
    78
1070
     8
1070
   140
1040
31.16613741339492
1070
   147
1040
0.0
1070
   173
1070
     1
1070
   176
1070
     2
1070
   177
1070
     2
1070
   178
1070
     2
1070
   271
1070
     2
1070
   277
1070
     2
1070
   279
1070
     2
1070
   280
1070
     0
1070
   287
1070
     5
1070
   340
1005
223
1002
}
  0
DIMENSION
  5
268
330
1F
100
AcDbEntity
  8
Ｓ_１_１
  6
CONTINUOUS
 62
     2
100
AcDbDimension
  2
*D20
 10
715.0
 20
1149.999917674457
 30
0.0
 11
690.2500000000006
 21
1237.249946999942
 31
0.0
 70
   160
  3
ISO-25
100
AcDbAlignedDimension
 13
864.9999814033437
 23
1189.999946999942
 33
0.0
 14
864.9999814033437
 24
1149.999917674457
 34
0.0
 50
90.0
100
AcDbRotatedDimension
1001
ACAD
1000
DSTYLE
1002
{
1070
   270
1070
     2
1070
     6
1000
EX_NORM
1070
     7
1000
EX_NORM
1070
    41
1040
27.0
1070
    42
1040
13.5
1070
    44
1040
9.0
1070
    73
1070
     0
1070
    74
1070
     0
1070
    75
1070
     0
1070
    76
1070
     0
1070
    77
1070
     1
1070
    78
1070
     8
1070
   140
1040
31.16613741339492
1070
   147
1040
0.0
1070
   173
1070
     1
1070
   176
1070
     2
1070
   177
1070
     2
1070
   178
1070
     2
1070
   271
1070
     2
1070
   277
1070
     2
1070
   279
1070
     2
1070
   280
1070
     1
1070
   287
1070
     5
1070
   340
1005
223
1002
}
  0
DIMENSION
  5
277
330
1F
100
AcDbEntity
  8
Ｓ_１_１
  6
CONTINUOUS
 62
     2
100
AcDbDimension
  2
*D21
 10
605.0
 20
220.0
 30
0.0
 11
580.2500000000001
 21
704.99997349995
 31
0.0
 70
   160
  3
ISO-25
100
AcDbAlignedDimension
 13
864.99998140334
 23
1189.9999469999
 33
0.0
 14
865.000006
 24
220.0
 34
0.0
 50
90.0
100
AcDbRotatedDimension
1001
ACAD
1000
DSTYLE
1002
{
1070
   270
1070
     2
1070
     6
1000
EX_NORM
1070
     7
1000
EX_NORM
1070
    41
1040
27.0
1070
    42
1040
13.5
1070
    44
1040
9.0
1070
    73
1070
     0
1070
    74
1070
     0
1070
    75
1070
     0
1070
    76
1070
     0
1070
    77
1070
     1
1070
    78
1070
     8
1070
   140
1040
31.16613741339492
1070
   147
1040
0.0
1070
   173
1070
     1
1070
   176
1070
     2
1070
   177
1070
     2
1070
   178
1070
     2
1070
   271
1070
     2
1070
   277
1070
     2
1070
   279
1070
     2
1070
   280
1070
     0
1070
   287
1070
     5
1070
   340
1005
223
1002
}
  0
DIMENSION
  5
284
330
1F
100
AcDbEntity
  8
Ｓ_１_１
  6
CONTINUOUS
 62
     2
100
AcDbDimension
  2
*D22
 10
1524.999996
 20
908.1
 30
0.0
 11
1602.624996
 21
932.85
 31
0.0
 70
   160
  1
　520
  3
ISO-25
100
AcDbAlignedDimension
 13
1005.000003
 23
783.499938
 33
0.0
 14
1524.999996
 24
783.499938
 34
0.0
100
AcDbRotatedDimension
1001
ACAD
1000
DSTYLE
1002
{
1070
   270
1070
     2
1070
     6
1000
EX_NORM
1070
     7
1000
EX_NORM
1070
    41
1040
27.0
1070
    42
1040
13.5
1070
    44
1040
9.0
1070
    73
1070
     0
1070
    74
1070
     0
1070
    75
1070
     0
1070
    76
1070
     0
1070
    77
1070
     1
1070
    78
1070
     8
1070
   140
1040
31.16613741339492
1070
   147
1040
0.0
1070
   173
1070
     1
1070
   176
1070
     2
1070
   177
1070
     2
1070
   178
1070
     2
1070
   271
1070
     2
1070
   277
1070
     2
1070
   279
1070
     2
1070
   280
1070
     2
1070
   287
1070
     5
1070
   340
1005
223
1002
}
  0
DIMENSION
  5
291
330
1F
100
AcDbEntity
  8
Ｓ_１_１
  6
CONTINUOUS
 62
     2
100
AcDbDimension
  2
*D23
 10
1574.999995
 20
968.4
 30
0.0
 11
1632.374995
 21
993.15
 31
0.0
 70
   160
  3
ISO-25
100
AcDbAlignedDimension
 13
955.000004
 23
764.99964500003
 33
0.0
 14
1574.999995
 24
764.99975700003
 34
0.0
100
AcDbRotatedDimension
1001
ACAD
1000
DSTYLE
1002
{
1070
   270
1070
     2
1070
     6
1000
EX_NORM
1070
     7
1000
EX_NORM
1070
    41
1040
27.0
1070
    42
1040
13.5
1070
    44
1040
9.0
1070
    73
1070
     0
1070
    74
1070
     0
1070
    75
1070
     0
1070
    76
1070
     0
1070
    77
1070
     1
1070
    78
1070
     8
1070
   140
1040
31.16613741339492
1070
   147
1040
0.0
1070
   173
1070
     1
1070
   176
1070
     2
1070
   177
1070
     2
1070
   178
1070
     2
1070
   271
1070
     2
1070
   277
1070
     2
1070
   279
1070
     2
1070
   280
1070
     2
1070
   287
1070
     5
1070
   340
1005
223
1002
}
  0
DIMENSION
  5
29E
330
1F
100
AcDbEntity
  8
Ｓ_１_１
  6
CONTINUOUS
 62
     2
100
AcDbDimension
  2
*D24
 10
1503.349360905389
 20
742.5000300000006
 30
0.0
 11
1617.482345850062
 21
705.1841587436672
 31
0.0
 70
   163
  3
ISO-25
100
AcDbDiametricDimension
 15
1546.650631094612
 25
717.5000300000014
 35
0.0
 40
0.0
1001
ACAD
1000
DSTYLE
1002
{
1070
   270
1070
     2
1070
     6
1000
EX_NORM
1070
     7
1000
EX_NORM
1070
    41
1040
27.0
1070
    73
1070
     0
1070
    74
1070
     0
1070
    77
1070
     1
1070
    78
1070
     8
1070
   140
1040
31.16613741339492
1070
   147
1040
0.0
1070
   173
1070
     1
1070
   176
1070
     2
1070
   177
1070
     2
1070
   178
1070
     2
1070
   271
1070
     2
1070
   277
1070
     2
1070
   279
1070
     2
1070
   280
1070
     1
1070
   287
1070
     5
1070
   340
1005
223
1002
}
  0
DIMENSION
  5
2AA
330
1F
100
AcDbEntity
  8
Ｓ_１_１
  6
CONTINUOUS
 62
     2
100
AcDbDimension
  2
*D25
 10
1815.0
 20
1360.000159
 30
0.0
 11
1790.25
 21
1760.0000005
 31
0.0
 70
   160
  3
ISO-25
100
AcDbAlignedDimension
 13
1634.999994
 23
2159.999842
 33
0.0
 14
1635.000042
 24
1360.000159
 34
0.0
 50
90.0
100
AcDbRotatedDimension
1001
ACAD
1000
DSTYLE
1002
{
1070
   270
1070
     2
1070
     6
1000
EX_NORM
1070
     7
1000
EX_NORM
1070
    41
1040
27.0
1070
    42
1040
13.5
1070
    44
1040
9.0
1070
    73
1070
     0
1070
    74
1070
     0
1070
    75
1070
     0
1070
    76
1070
     0
1070
    77
1070
     1
1070
    78
1070
     8
1070
   140
1040
31.16613741339492
1070
   147
1040
0.0
1070
   173
1070
     1
1070
   176
1070
     2
1070
   177
1070
     2
1070
   178
1070
     2
1070
   271
1070
     2
1070
   277
1070
     2
1070
   279
1070
     2
1070
   280
1070
     0
1070
   287
1070
     5
1070
   340
1005
223
1002
}
  0
LINE
  5
2B7
330
1F
100
AcDbEntity
  8
Ｓ_１_１
  6
CONTINUOUS
 62
     3
100
AcDbLine
 10
1254.999999999996
 20
1445.000157999921
 30
0.0
 11
1274.999999999996
 21
1445.000157999921
 31
0.0
  0
LINE
  5
2B8
330
1F
100
AcDbEntity
  8
Ｓ_１_１
  6
CONTINUOUS
 62
     3
100
AcDbLine
 10
1254.999999999996
 20
1435.000157999921
 30
0.0
 11
1274.999999999996
 21
1435.000157999921
 31
0.0
  0
LINE
  5
2B9
330
1F
100
AcDbEntity
  8
Ｓ_１_１
  6
CONTINUOUS
 62
     3
100
AcDbLine
 10
1254.999999999996
 20
2074.999842000011
 30
0.0
 11
1274.999999999996
 21
2074.999842000011
 31
0.0
  0
LINE
  5
2BA
330
1F
100
AcDbEntity
  8
Ｓ_１_１
  6
CONTINUOUS
 62
     3
100
AcDbLine
 10
1254.999999999996
 20
2084.999842000011
 30
0.0
 11
1274.999999999996
 21
2084.999842000011
 31
0.0
  0
LINE
  5
2BB
330
1F
100
AcDbEntity
  8
Ｓ_１_１
  6
CONTINUOUS
 62
     3
100
AcDbLine
 10
1254.999999999996
 20
2134.999842000011
 30
0.0
 11
1274.999999999996
 21
2134.999842000011
 31
0.0
  0
LINE
  5
2BC
330
1F
100
AcDbEntity
  8
Ｓ_１_１
  6
CONTINUOUS
 62
     3
100
AcDbLine
 10
1254.999999999996
 20
2144.999842000011
 30
0.0
 11
1274.999999999996
 21
2144.999842000011
 31
0.0
  0
LINE
  5
2BD
330
1F
100
AcDbEntity
  8
Ｓ_１_１
  6
CONTINUOUS
 62
     3
100
AcDbLine
 10
1274.999999999996
 20
2144.999842000011
 30
0.0
 11
1274.999999999996
 21
2074.999842000011
 31
0.0
  0
LINE
  5
2BE
330
1F
100
AcDbEntity
  8
Ｓ_１_１
  6
CONTINUOUS
 62
     3
100
AcDbLine
 10
1254.999999999996
 20
2144.999842000011
 30
0.0
 11
1254.999999999996
 21
2074.999842000011
 31
0.0
  0
LINE
  5
2BF
330
1F
100
AcDbEntity
  8
Ｓ_１_１
  6
CONTINUOUS
 62
     3
100
AcDbLine
 10
1254.999999999996
 20
1385.000157999921
 30
0.0
 11
1274.999999999996
 21
1385.000157999921
 31
0.0
  0
LINE
  5
2C0
330
1F
100
AcDbEntity
  8
Ｓ_１_１
  6
CONTINUOUS
 62
     3
100
AcDbLine
 10
1254.999999999996
 20
1375.000157999921
 30
0.0
 11
1274.999999999996
 21
1375.000157999921
 31
0.0
  0
LINE
  5
2C1
330
1F
100
AcDbEntity
  8
Ｓ_１_１
  6
CONTINUOUS
 62
     3
100
AcDbLine
 10
1274.999999999996
 20
1375.000157999921
 30
0.0
 11
1274.999999999996
 21
1445.000157999921
 31
0.0
  0
LINE
  5
2C2
330
1F
100
AcDbEntity
  8
Ｓ_１_１
  6
CONTINUOUS
 62
     3
100
AcDbLine
 10
1254.999999999996
 20
1375.000157999921
 30
0.0
 11
1254.999999999996
 21
1445.000157999921
 31
0.0
  0
LINE
  5
2C3
330
1F
100
AcDbEntity
  8
Ｓ_１_１
  6
CONTINUOUS
 62
     3
100
AcDbLine
 10
1639.999842000047
 20
1749.999999999986
 30
0.0
 11
1639.999842000047
 21
1769.999999999986
 31
0.0
  0
LINE
  5
2C4
330
1F
100
AcDbEntity
  8
Ｓ_１_１
  6
CONTINUOUS
 62
     3
100
AcDbLine
 10
1649.999842000047
 20
1749.999999999986
 30
0.0
 11
1649.999842000047
 21
1769.999999999986
 31
0.0
  0
LINE
  5
2C5
330
1F
100
AcDbEntity
  8
Ｓ_１_１
  6
CONTINUOUS
 62
     3
100
AcDbLine
 10
1649.999842000047
 20
1769.999999999986
 30
0.0
 11
1579.999842000047
 21
1769.999999999986
 31
0.0
  0
LINE
  5
2C6
330
1F
100
AcDbEntity
  8
Ｓ_１_１
  6
CONTINUOUS
 62
     3
100
AcDbLine
 10
1649.999842000047
 20
1749.999999999986
 30
0.0
 11
1579.999842000047
 21
1749.999999999986
 31
0.0
  0
CIRCLE
  5
2C7
330
1F
100
AcDbEntity
  8
Ｓ_１_１
  6
CONTINUOUS
 62
     3
100
AcDbCircle
 10
1534.99998623132
 20
1659.999995350815
 30
0.0
 40
12.49999915063384
  0
CIRCLE
  5
2C8
330
1F
100
AcDbEntity
  8
Ｓ_１_１
  6
CONTINUOUS
 62
     3
100
AcDbCircle
 10
1414.999992668621
 20
1590.000012695767
 30
0.0
 40
12.49999915063384
  0
CIRCLE
  5
2C9
330
1F
100
AcDbEntity
  8
Ｓ_１_１
  6
CONTINUOUS
 62
     3
100
AcDbCircle
 10
1115.000027358525
 20
1590.000012695767
 30
0.0
 40
12.49999915063384
  0
CIRCLE
  5
2CA
330
1F
100
AcDbEntity
  8
Ｓ_１_１
  6
CONTINUOUS
 62
     3
100
AcDbCircle
 10
995.0000080466198
 20
1659.999995350815
 30
0.0
 40
12.49999915063384
  0
LINE
  5
2CB
330
1F
100
AcDbEntity
  8
Ｓ_１_１
  6
CONTINUOUS
 62
     3
100
AcDbLine
 10
1579.999956279988
 20
1570.000020921207
 30
0.0
 11
1579.999956279988
 21
1575.000013142801
 31
0.0
  0
LINE
  5
2CC
330
1F
100
AcDbEntity
  8
Ｓ_１_１
  6
CONTINUOUS
 62
     3
100
AcDbLine
 10
1549.999957174057
 20
1570.000020921207
 30
0.0
 11
1549.999957174057
 21
1575.000013142801
 31
0.0
  0
LINE
  5
2CD
330
1F
100
AcDbEntity
  8
Ｓ_１_１
  6
CONTINUOUS
 62
     3
100
AcDbLine
 10
1579.999956279988
 20
1724.99998578427
 30
0.0
 11
1579.999956279988
 21
1720.000016450859
 31
0.0
  0
LINE
  5
2CE
330
1F
100
AcDbEntity
  8
Ｓ_１_１
  6
CONTINUOUS
 62
     3
100
AcDbLine
 10
1549.999957174057
 20
1720.000016450859
 30
0.0
 11
1549.999957174057
 21
1724.99998578427
 31
0.0
  0
LINE
  5
2CF
330
1F
100
AcDbEntity
  8
Ｓ_１_１
  6
CONTINUOUS
 62
     3
100
AcDbLine
 10
1579.999956279988
 20
1720.000016450859
 30
0.0
 11
1579.999956279988
 21
1722.500001117565
 31
0.0
  0
LINE
  5
2D0
330
1F
100
AcDbEntity
  8
Ｓ_１_１
  6
CONTINUOUS
 62
     3
100
AcDbLine
 10
1579.999956279988
 20
1644.99999579785
 30
0.0
 11
1579.999956279988
 21
1650.000010907627
 31
0.0
  0
LINE
  5
2D1
330
1F
100
AcDbEntity
  8
Ｓ_１_１
  6
CONTINUOUS
 62
     3
100
AcDbLine
 10
1549.999957174057
 20
1644.99999579785
 30
0.0
 11
1549.999957174057
 21
1650.000010907627
 31
0.0
  0
LINE
  5
2D2
330
1F
100
AcDbEntity
  8
Ｓ_１_１
  6
CONTINUOUS
 62
     3
100
AcDbLine
 10
1017.500007376068
 20
1724.99998578427
 30
0.0
 11
1112.500019803636
 21
1724.99998578427
 31
0.0
  0
LINE
  5
2D3
330
1F
100
AcDbEntity
  8
Ｓ_１_１
  6
CONTINUOUS
 62
     3
100
AcDbLine
 10
980.0000084936546
 20
1570.000020921207
 30
0.0
 11
980.0000084936546
 21
1575.000013142801
 31
0.0
  0
LINE
  5
2D4
330
1F
100
AcDbEntity
  8
Ｓ_１_１
  6
CONTINUOUS
 62
     3
100
AcDbLine
 10
980.0000084936546
 20
1644.99999579785
 30
0.0
 11
980.0000084936546
 21
1650.000010907627
 31
0.0
  0
LINE
  5
2D5
330
1F
100
AcDbEntity
  8
Ｓ_１_１
  6
CONTINUOUS
 62
     3
100
AcDbLine
 10
980.0000084936546
 20
1720.000016450859
 30
0.0
 11
980.0000084936546
 21
1724.99998578427
 31
0.0
  0
LINE
  5
2D6
330
1F
100
AcDbEntity
  8
Ｓ_１_１
  6
CONTINUOUS
 62
     3
100
AcDbLine
 10
950.0000093877243
 20
1720.000016450859
 30
0.0
 11
950.0000093877243
 21
1724.99998578427
 31
0.0
  0
LINE
  5
2D7
330
1F
100
AcDbEntity
  8
Ｓ_１_１
  6
CONTINUOUS
 62
     3
100
AcDbLine
 10
950.0000093877243
 20
1644.99999579785
 30
0.0
 11
950.0000093877243
 21
1650.000010907627
 31
0.0
  0
LINE
  5
2D8
330
1F
100
AcDbEntity
  8
Ｓ_１_１
  6
CONTINUOUS
 62
     3
100
AcDbLine
 10
950.0000093877243
 20
1570.000020921207
 30
0.0
 11
950.0000093877243
 21
1575.000013142801
 31
0.0
  0
LINE
  5
2D9
330
1F
100
AcDbEntity
  8
Ｓ_１_１
  6
CONTINUOUS
 62
     3
100
AcDbLine
 10
1617.499955162401
 20
1720.000016450859
 30
0.0
 11
1617.499955162401
 21
1650.000010907627
 31
0.0
  0
LINE
  5
2DA
330
1F
100
AcDbEntity
  8
Ｓ_１_１
  6
CONTINUOUS
 62
     3
100
AcDbLine
 10
1617.499955162401
 20
1724.99998578427
 30
0.0
 11
1664.999949932093
 21
1724.99998578427
 31
0.0
  0
LINE
  5
2DB
330
1F
100
AcDbEntity
  8
Ｓ_１_１
  6
CONTINUOUS
 62
     3
100
AcDbLine
 10
1612.499962940805
 20
1720.000016450859
 30
0.0
 11
1612.499962940805
 21
1650.000010907627
 31
0.0
  0
LINE
  5
2DC
330
1F
100
AcDbEntity
  8
Ｓ_１_１
  6
CONTINUOUS
 62
     3
100
AcDbLine
 10
1617.499955162401
 20
1720.000016450859
 30
0.0
 11
1664.999949932093
 21
1720.000016450859
 31
0.0
  0
LINE
  5
2DD
330
1F
100
AcDbEntity
  8
Ｓ_１_１
  6
CONTINUOUS
 62
     3
100
AcDbLine
 10
1617.499955162401
 20
1644.99999579785
 30
0.0
 11
1617.499955162401
 21
1575.000013142801
 31
0.0
  0
LINE
  5
2DE
330
1F
100
AcDbEntity
  8
Ｓ_１_１
  6
CONTINUOUS
 62
     3
100
AcDbLine
 10
1612.499962940805
 20
1644.99999579785
 30
0.0
 11
1612.499962940805
 21
1575.000013142801
 31
0.0
  0
LINE
  5
2DF
330
1F
100
AcDbEntity
  8
Ｓ_１_１
  6
CONTINUOUS
 62
     3
100
AcDbLine
 10
1617.499955162401
 20
1650.000010907627
 30
0.0
 11
1664.999949932093
 21
1650.000010907627
 31
0.0
  0
LINE
  5
2E0
330
1F
100
AcDbEntity
  8
Ｓ_１_１
  6
CONTINUOUS
 62
     3
100
AcDbLine
 10
1617.499955162401
 20
1644.99999579785
 30
0.0
 11
1664.999949932093
 21
1644.99999579785
 31
0.0
  0
LINE
  5
2E1
330
1F
100
AcDbEntity
  8
Ｓ_１_１
  6
CONTINUOUS
 62
     3
100
AcDbLine
 10
1617.499955162401
 20
1570.000020921207
 30
0.0
 11
1617.499955162401
 21
1535.0000067055
 31
0.0
  0
LINE
  5
2E2
330
1F
100
AcDbEntity
  8
Ｓ_１_１
  6
CONTINUOUS
 62
     3
100
AcDbLine
 10
1612.499962940805
 20
1570.000020921207
 30
0.0
 11
1612.499962940805
 21
1535.0000067055
 31
0.0
  0
LINE
  5
2E3
330
1F
100
AcDbEntity
  8
Ｓ_１_１
  6
CONTINUOUS
 62
     3
100
AcDbLine
 10
1617.499955162401
 20
1575.000013142801
 30
0.0
 11
1664.999949932093
 21
1575.000013142801
 31
0.0
  0
LINE
  5
2E4
330
1F
100
AcDbEntity
  8
Ｓ_１_１
  6
CONTINUOUS
 62
     3
100
AcDbLine
 10
1617.499955162401
 20
1570.000020921207
 30
0.0
 11
1664.999949932093
 21
1570.000020921207
 31
0.0
  0
LINE
  5
2E5
330
1F
100
AcDbEntity
  8
Ｓ_１_１
  6
CONTINUOUS
 62
     3
100
AcDbLine
 10
912.5000105053114
 20
1720.000016450859
 30
0.0
 11
912.5000105053114
 21
1650.000010907627
 31
0.0
  0
LINE
  5
2E6
330
1F
100
AcDbEntity
  8
Ｓ_１_１
  6
CONTINUOUS
 62
     3
100
AcDbLine
 10
917.4999798387215
 20
1724.99998578427
 30
0.0
 11
950.0000093877243
 21
1724.99998578427
 31
0.0
  0
LINE
  5
2E7
330
1F
100
AcDbEntity
  8
Ｓ_１_１
  6
CONTINUOUS
 62
     3
100
AcDbLine
 10
917.4999798387215
 20
1720.000016450859
 30
0.0
 11
917.4999798387215
 21
1650.000010907627
 31
0.0
  0
LINE
  5
2E8
330
1F
100
AcDbEntity
  8
Ｓ_１_１
  6
CONTINUOUS
 62
     3
100
AcDbLine
 10
917.4999798387215
 20
1720.000016450859
 30
0.0
 11
950.0000093877243
 21
1720.000016450859
 31
0.0
  0
LINE
  5
2E9
330
1F
100
AcDbEntity
  8
Ｓ_１_１
  6
CONTINUOUS
 62
     3
100
AcDbLine
 10
912.5000105053114
 20
1644.99999579785
 30
0.0
 11
912.5000105053114
 21
1575.000013142801
 31
0.0
  0
LINE
  5
2EA
330
1F
100
AcDbEntity
  8
Ｓ_１_１
  6
CONTINUOUS
 62
     3
100
AcDbLine
 10
917.4999798387215
 20
1650.000010907627
 30
0.0
 11
950.0000093877243
 21
1650.000010907627
 31
0.0
  0
LINE
  5
2EB
330
1F
100
AcDbEntity
  8
Ｓ_１_１
  6
CONTINUOUS
 62
     3
100
AcDbLine
 10
917.4999798387215
 20
1644.99999579785
 30
0.0
 11
917.4999798387215
 21
1575.000013142801
 31
0.0
  0
LINE
  5
2EC
330
1F
100
AcDbEntity
  8
Ｓ_１_１
  6
CONTINUOUS
 62
     3
100
AcDbLine
 10
917.4999798387215
 20
1644.99999579785
 30
0.0
 11
950.0000093877243
 21
1644.99999579785
 31
0.0
  0
LINE
  5
2ED
330
1F
100
AcDbEntity
  8
Ｓ_１_１
  6
CONTINUOUS
 62
     3
100
AcDbLine
 10
912.5000105053114
 20
1570.000020921207
 30
0.0
 11
912.5000105053114
 21
1535.0000067055
 31
0.0
  0
LINE
  5
2EE
330
1F
100
AcDbEntity
  8
Ｓ_１_１
  6
CONTINUOUS
 62
     3
100
AcDbLine
 10
917.4999798387215
 20
1575.000013142801
 30
0.0
 11
950.0000093877243
 21
1575.000013142801
 31
0.0
  0
LINE
  5
2EF
330
1F
100
AcDbEntity
  8
Ｓ_１_１
  6
CONTINUOUS
 62
     3
100
AcDbLine
 10
917.4999798387215
 20
1570.000020921207
 30
0.0
 11
917.4999798387215
 21
1535.0000067055
 31
0.0
  0
LINE
  5
2F0
330
1F
100
AcDbEntity
  8
Ｓ_１_１
  6
CONTINUOUS
 62
     3
100
AcDbLine
 10
917.4999798387215
 20
1570.000020921207
 30
0.0
 11
950.0000093877243
 21
1570.000020921207
 31
0.0
  0
LINE
  5
2F1
330
1F
100
AcDbEntity
  8
Ｓ_１_１
  6
CONTINUOUS
 62
     3
100
AcDbLine
 10
1579.999956279988
 20
1720.000016450859
 30
0.0
 11
1612.499962940805
 21
1720.000016450859
 31
0.0
  0
LINE
  5
2F2
330
1F
100
AcDbEntity
  8
Ｓ_１_１
  6
CONTINUOUS
 62
     3
100
AcDbLine
 10
1579.999956279988
 20
1724.99998578427
 30
0.0
 11
1612.499962940805
 21
1724.99998578427
 31
0.0
  0
LINE
  5
2F3
330
1F
100
AcDbEntity
  8
Ｓ_１_１
  6
CONTINUOUS
 62
     3
100
AcDbLine
 10
1579.999956279988
 20
1650.000010907627
 30
0.0
 11
1612.499962940805
 21
1650.000010907627
 31
0.0
  0
LINE
  5
2F4
330
1F
100
AcDbEntity
  8
Ｓ_１_１
  6
CONTINUOUS
 62
     3
100
AcDbLine
 10
1579.999956279988
 20
1644.99999579785
 30
0.0
 11
1612.499962940805
 21
1644.99999579785
 31
0.0
  0
LINE
  5
2F5
330
1F
100
AcDbEntity
  8
Ｓ_１_１
  6
CONTINUOUS
 62
     3
100
AcDbLine
 10
1579.999956279988
 20
1575.000013142801
 30
0.0
 11
1612.499962940805
 21
1575.000013142801
 31
0.0
  0
LINE
  5
2F6
330
1F
100
AcDbEntity
  8
Ｓ_１_１
  6
CONTINUOUS
 62
     3
100
AcDbLine
 10
1579.999956279988
 20
1570.000020921207
 30
0.0
 11
1612.499962940805
 21
1570.000020921207
 31
0.0
  0
LINE
  5
2F7
330
1F
100
AcDbEntity
  8
Ｓ_１_１
  6
CONTINUOUS
 62
     3
100
AcDbLine
 10
980.0000084936546
 20
1570.000020921207
 30
0.0
 11
1012.500038042657
 21
1570.000020921207
 31
0.0
  0
LINE
  5
2F8
330
1F
100
AcDbEntity
  8
Ｓ_１_１
  6
CONTINUOUS
 62
     3
100
AcDbLine
 10
980.0000084936546
 20
1575.000013142801
 30
0.0
 11
1012.500038042657
 21
1575.000013142801
 31
0.0
  0
LINE
  5
2F9
330
1F
100
AcDbEntity
  8
Ｓ_１_１
  6
CONTINUOUS
 62
     3
100
AcDbLine
 10
980.0000084936546
 20
1650.000010907627
 30
0.0
 11
987.5000082701372
 21
1650.000010907627
 31
0.0
  0
LINE
  5
2FA
330
1F
100
AcDbEntity
  8
Ｓ_１_１
  6
CONTINUOUS
 62
     3
100
AcDbLine
 10
980.0000084936546
 20
1644.99999579785
 30
0.0
 11
1012.500038042657
 21
1644.99999579785
 31
0.0
  0
LINE
  5
2FB
330
1F
100
AcDbEntity
  8
Ｓ_１_１
  6
CONTINUOUS
 62
     3
100
AcDbLine
 10
980.0000084936546
 20
1724.99998578427
 30
0.0
 11
1012.500038042657
 21
1724.99998578427
 31
0.0
  0
LINE
  5
2FC
330
1F
100
AcDbEntity
  8
Ｓ_１_１
  6
CONTINUOUS
 62
     3
100
AcDbLine
 10
980.0000084936546
 20
1720.000016450859
 30
0.0
 11
1012.500038042657
 21
1720.000016450859
 31
0.0
  0
LINE
  5
2FD
330
1F
100
AcDbEntity
  8
Ｓ_１_１
  6
CONTINUOUS
 62
     3
100
AcDbLine
 10
1014.177192533689
 20
1650.000010907627
 30
0.0
 11
1112.500019803636
 21
1650.000010907627
 31
0.0
  0
LINE
  5
2FE
330
1F
100
AcDbEntity
  8
Ｓ_１_１
  6
CONTINUOUS
 62
     3
100
AcDbLine
 10
1117.50001202523
 20
1577.752568907937
 30
0.0
 11
1117.50001202523
 21
1575.000013142801
 31
0.0
  0
LINE
  5
2FF
330
1F
100
AcDbEntity
  8
Ｓ_１_１
  6
CONTINUOUS
 62
     3
100
AcDbLine
 10
1417.499988779418
 20
1577.752568907937
 30
0.0
 11
1417.499988779418
 21
1575.000013142801
 31
0.0
  0
LINE
  5
300
330
1F
100
AcDbEntity
  8
Ｓ_１_１
  6
CONTINUOUS
 62
     3
100
AcDbLine
 10
1112.500019803636
 20
1577.752568907937
 30
0.0
 11
1112.500019803636
 21
1575.000013142801
 31
0.0
  0
LINE
  5
301
330
1F
100
AcDbEntity
  8
Ｓ_１_１
  6
CONTINUOUS
 62
     3
100
AcDbLine
 10
1414.999992668621
 20
1577.499997809507
 30
0.0
 11
1414.999992668621
 21
1575.950742484585
 31
0.0
  0
LINE
  5
302
330
1F
100
AcDbEntity
  8
Ｓ_１_１
  6
CONTINUOUS
 62
     3
100
AcDbLine
 10
1412.499999418847
 20
1577.752568907937
 30
0.0
 11
1412.499999418847
 21
1575.000013142801
 31
0.0
  0
LINE
  5
303
330
1F
100
AcDbEntity
  8
Ｓ_１_１
  6
CONTINUOUS
 62
     3
100
AcDbLine
 10
1542.499986007802
 20
1650.000010907627
 30
0.0
 11
1549.999957174057
 21
1650.000010907627
 31
0.0
  0
LINE
  5
304
330
1F
100
AcDbEntity
  8
Ｓ_１_１
  6
CONTINUOUS
 62
     3
100
AcDbLine
 10
1002.500007823102
 20
1650.000010907627
 30
0.0
 11
1012.500038042657
 21
1650.000010907627
 31
0.0
  0
LINE
  5
305
330
1F
100
AcDbEntity
  8
Ｓ_１_１
  6
CONTINUOUS
 62
     3
100
AcDbLine
 10
1517.499979123466
 20
1720.000016450859
 30
0.0
 11
1517.499979123466
 21
1650.000010907627
 31
0.0
  0
LINE
  5
306
330
1F
100
AcDbEntity
  8
Ｓ_１_１
  6
CONTINUOUS
 62
     3
100
AcDbLine
 10
1517.499979123466
 20
1724.99998578427
 30
0.0
 11
1549.999957174057
 21
1724.99998578427
 31
0.0
  0
LINE
  5
307
330
1F
100
AcDbEntity
  8
Ｓ_１_１
  6
CONTINUOUS
 62
     3
100
AcDbLine
 10
1512.499986901872
 20
1720.000016450859
 30
0.0
 11
1512.499986901872
 21
1650.000010907627
 31
0.0
  0
LINE
  5
308
330
1F
100
AcDbEntity
  8
Ｓ_１_１
  6
CONTINUOUS
 62
     3
100
AcDbLine
 10
1517.499979123466
 20
1720.000016450859
 30
0.0
 11
1549.999957174057
 21
1720.000016450859
 31
0.0
  0
LINE
  5
309
330
1F
100
AcDbEntity
  8
Ｓ_１_１
  6
CONTINUOUS
 62
     3
100
AcDbLine
 10
1512.499986901872
 20
1644.99999579785
 30
0.0
 11
1512.499986901872
 21
1575.000013142801
 31
0.0
  0
LINE
  5
30A
330
1F
100
AcDbEntity
  8
Ｓ_１_１
  6
CONTINUOUS
 62
     3
100
AcDbLine
 10
1517.499979123466
 20
1650.000010907627
 30
0.0
 11
1527.499986454837
 21
1650.000010907627
 31
0.0
  0
LINE
  5
30B
330
1F
100
AcDbEntity
  8
Ｓ_１_１
  6
CONTINUOUS
 62
     3
100
AcDbLine
 10
1517.499979123466
 20
1644.99999579785
 30
0.0
 11
1517.499979123466
 21
1575.000013142801
 31
0.0
  0
LINE
  5
30C
330
1F
100
AcDbEntity
  8
Ｓ_１_１
  6
CONTINUOUS
 62
     3
100
AcDbLine
 10
1517.499979123466
 20
1644.99999579785
 30
0.0
 11
1549.999957174057
 21
1644.99999579785
 31
0.0
  0
LINE
  5
30D
330
1F
100
AcDbEntity
  8
Ｓ_１_１
  6
CONTINUOUS
 62
     3
100
AcDbLine
 10
1512.499986901872
 20
1570.000020921207
 30
0.0
 11
1512.499986901872
 21
1535.0000067055
 31
0.0
  0
LINE
  5
30E
330
1F
100
AcDbEntity
  8
Ｓ_１_１
  6
CONTINUOUS
 62
     3
100
AcDbLine
 10
1517.499979123466
 20
1575.000013142801
 30
0.0
 11
1549.999957174057
 21
1575.000013142801
 31
0.0
  0
LINE
  5
30F
330
1F
100
AcDbEntity
  8
Ｓ_１_１
  6
CONTINUOUS
 62
     3
100
AcDbLine
 10
1517.499979123466
 20
1570.000020921207
 30
0.0
 11
1517.499979123466
 21
1535.0000067055
 31
0.0
  0
LINE
  5
310
330
1F
100
AcDbEntity
  8
Ｓ_１_１
  6
CONTINUOUS
 62
     3
100
AcDbLine
 10
1417.499988779418
 20
1575.000013142801
 30
0.0
 11
1512.499986901872
 21
1575.000013142801
 31
0.0
  0
LINE
  5
311
330
1F
100
AcDbEntity
  8
Ｓ_１_１
  6
CONTINUOUS
 62
     3
100
AcDbLine
 10
1412.499999418847
 20
1570.000020921207
 30
0.0
 11
1412.499999418847
 21
1535.0000067055
 31
0.0
  0
LINE
  5
312
330
1F
100
AcDbEntity
  8
Ｓ_１_１
  6
CONTINUOUS
 62
     3
100
AcDbLine
 10
1517.499979123466
 20
1570.000020921207
 30
0.0
 11
1549.999957174057
 21
1570.000020921207
 31
0.0
  0
LINE
  5
313
330
1F
100
AcDbEntity
  8
Ｓ_１_１
  6
CONTINUOUS
 62
     3
100
AcDbLine
 10
1417.499988779418
 20
1570.000020921207
 30
0.0
 11
1417.499988779418
 21
1535.0000067055
 31
0.0
  0
LINE
  5
314
330
1F
100
AcDbEntity
  8
Ｓ_１_１
  6
CONTINUOUS
 62
     3
100
AcDbLine
 10
1417.499988779418
 20
1570.000020921207
 30
0.0
 11
1512.499986901872
 21
1570.000020921207
 31
0.0
  0
LINE
  5
315
330
1F
100
AcDbEntity
  8
Ｓ_１_１
  6
CONTINUOUS
 62
     3
100
AcDbLine
 10
1412.499999418847
 20
1644.99999579785
 30
0.0
 11
1412.499999418847
 21
1602.247479371779
 31
0.0
  0
LINE
  5
316
330
1F
100
AcDbEntity
  8
Ｓ_１_１
  6
CONTINUOUS
 62
     3
100
AcDbLine
 10
1417.499988779418
 20
1650.000010907627
 30
0.0
 11
1512.499986901872
 21
1650.000010907627
 31
0.0
  0
LINE
  5
317
330
1F
100
AcDbEntity
  8
Ｓ_１_１
  6
CONTINUOUS
 62
     3
100
AcDbLine
 10
1417.499988779418
 20
1644.99999579785
 30
0.0
 11
1417.499988779418
 21
1602.247479371779
 31
0.0
  0
LINE
  5
318
330
1F
100
AcDbEntity
  8
Ｓ_１_１
  6
CONTINUOUS
 62
     3
100
AcDbLine
 10
1417.499988779418
 20
1644.99999579785
 30
0.0
 11
1512.499986901872
 21
1644.99999579785
 31
0.0
  0
LINE
  5
319
330
1F
100
AcDbEntity
  8
Ｓ_１_１
  6
CONTINUOUS
 62
     3
100
AcDbLine
 10
1417.499988779418
 20
1720.000016450859
 30
0.0
 11
1417.499988779418
 21
1650.000010907627
 31
0.0
  0
LINE
  5
31A
330
1F
100
AcDbEntity
  8
Ｓ_１_１
  6
CONTINUOUS
 62
     3
100
AcDbLine
 10
1417.499988779418
 20
1724.99998578427
 30
0.0
 11
1512.499986901872
 21
1724.99998578427
 31
0.0
  0
LINE
  5
31B
330
1F
100
AcDbEntity
  8
Ｓ_１_１
  6
CONTINUOUS
 62
     3
100
AcDbLine
 10
1412.499999418847
 20
1720.000016450859
 30
0.0
 11
1412.499999418847
 21
1650.000010907627
 31
0.0
  0
LINE
  5
31C
330
1F
100
AcDbEntity
  8
Ｓ_１_１
  6
CONTINUOUS
 62
     3
100
AcDbLine
 10
1417.499988779418
 20
1720.000016450859
 30
0.0
 11
1512.499986901872
 21
1720.000016450859
 31
0.0
  0
LINE
  5
31D
330
1F
100
AcDbEntity
  8
Ｓ_１_１
  6
CONTINUOUS
 62
     3
100
AcDbLine
 10
1317.499998435371
 20
1724.99998578427
 30
0.0
 11
1412.499999418847
 21
1724.99998578427
 31
0.0
  0
LINE
  5
31E
330
1F
100
AcDbEntity
  8
Ｓ_１_１
  6
CONTINUOUS
 62
     3
100
AcDbLine
 10
1317.499998435371
 20
1720.000016450859
 30
0.0
 11
1317.499998435371
 21
1650.000010907627
 31
0.0
  0
LINE
  5
31F
330
1F
100
AcDbEntity
  8
Ｓ_１_１
  6
CONTINUOUS
 62
     3
100
AcDbLine
 10
1312.499994769685
 20
1644.99999579785
 30
0.0
 11
1312.499994769685
 21
1575.000013142801
 31
0.0
  0
LINE
  5
320
330
1F
100
AcDbEntity
  8
Ｓ_１_１
  6
CONTINUOUS
 62
     3
100
AcDbLine
 10
1317.499998435371
 20
1650.000010907627
 30
0.0
 11
1412.499999418847
 21
1650.000010907627
 31
0.0
  0
LINE
  5
321
330
1F
100
AcDbEntity
  8
Ｓ_１_１
  6
CONTINUOUS
 62
     3
100
AcDbLine
 10
1317.499998435371
 20
1644.99999579785
 30
0.0
 11
1317.499998435371
 21
1575.000013142801
 31
0.0
  0
LINE
  5
322
330
1F
100
AcDbEntity
  8
Ｓ_１_１
  6
CONTINUOUS
 62
     3
100
AcDbLine
 10
1317.499998435371
 20
1644.99999579785
 30
0.0
 11
1412.499999418847
 21
1644.99999579785
 31
0.0
  0
LINE
  5
323
330
1F
100
AcDbEntity
  8
Ｓ_１_１
  6
CONTINUOUS
 62
     3
100
AcDbLine
 10
1317.499998435371
 20
1720.000016450859
 30
0.0
 11
1412.499999418847
 21
1720.000016450859
 31
0.0
  0
LINE
  5
324
330
1F
100
AcDbEntity
  8
Ｓ_１_１
  6
CONTINUOUS
 62
     3
100
AcDbLine
 10
1312.499994769685
 20
1720.000016450859
 30
0.0
 11
1312.499994769685
 21
1650.000010907627
 31
0.0
  0
LINE
  5
325
330
1F
100
AcDbEntity
  8
Ｓ_１_１
  6
CONTINUOUS
 62
     3
100
AcDbLine
 10
1317.499998435371
 20
1570.000020921207
 30
0.0
 11
1317.499998435371
 21
1535.0000067055
 31
0.0
  0
LINE
  5
326
330
1F
100
AcDbEntity
  8
Ｓ_１_１
  6
CONTINUOUS
 62
     3
100
AcDbLine
 10
1317.499998435371
 20
1575.000013142801
 30
0.0
 11
1412.499999418847
 21
1575.000013142801
 31
0.0
  0
LINE
  5
327
330
1F
100
AcDbEntity
  8
Ｓ_１_１
  6
CONTINUOUS
 62
     3
100
AcDbLine
 10
1312.499994769685
 20
1570.000020921207
 30
0.0
 11
1312.499994769685
 21
1535.0000067055
 31
0.0
  0
LINE
  5
328
330
1F
100
AcDbEntity
  8
Ｓ_１_１
  6
CONTINUOUS
 62
     3
100
AcDbLine
 10
1317.499998435371
 20
1570.000020921207
 30
0.0
 11
1412.499999418847
 21
1570.000020921207
 31
0.0
  0
LINE
  5
329
330
1F
100
AcDbEntity
  8
Ｓ_１_１
  6
CONTINUOUS
 62
     3
100
AcDbLine
 10
1217.499993786209
 20
1570.000020921207
 30
0.0
 11
1217.499993786209
 21
1535.0000067055
 31
0.0
  0
LINE
  5
32A
330
1F
100
AcDbEntity
  8
Ｓ_１_１
  6
CONTINUOUS
 62
     3
100
AcDbLine
 10
1217.499993786209
 20
1575.000013142801
 30
0.0
 11
1312.499994769685
 21
1575.000013142801
 31
0.0
  0
LINE
  5
32B
330
1F
100
AcDbEntity
  8
Ｓ_１_１
  6
CONTINUOUS
 62
     3
100
AcDbLine
 10
1217.499993786209
 20
1570.000020921207
 30
0.0
 11
1312.499994769685
 21
1570.000020921207
 31
0.0
  0
LINE
  5
32C
330
1F
100
AcDbEntity
  8
Ｓ_１_１
  6
CONTINUOUS
 62
     3
100
AcDbLine
 10
1212.500001564615
 20
1570.000020921207
 30
0.0
 11
1212.500001564615
 21
1535.0000067055
 31
0.0
  0
LINE
  5
32D
330
1F
100
AcDbEntity
  8
Ｓ_１_１
  6
CONTINUOUS
 62
     3
100
AcDbLine
 10
1217.499993786209
 20
1644.99999579785
 30
0.0
 11
1217.499993786209
 21
1575.000013142801
 31
0.0
  0
LINE
  5
32E
330
1F
100
AcDbEntity
  8
Ｓ_１_１
  6
CONTINUOUS
 62
     3
100
AcDbLine
 10
1212.500001564615
 20
1644.99999579785
 30
0.0
 11
1212.500001564615
 21
1575.000013142801
 31
0.0
  0
LINE
  5
32F
330
1F
100
AcDbEntity
  8
Ｓ_１_１
  6
CONTINUOUS
 62
     3
100
AcDbLine
 10
1217.499993786209
 20
1650.000010907627
 30
0.0
 11
1312.499994769685
 21
1650.000010907627
 31
0.0
  0
LINE
  5
330
330
1F
100
AcDbEntity
  8
Ｓ_１_１
  6
CONTINUOUS
 62
     3
100
AcDbLine
 10
1217.499993786209
 20
1644.99999579785
 30
0.0
 11
1312.499994769685
 21
1644.99999579785
 31
0.0
  0
LINE
  5
331
330
1F
100
AcDbEntity
  8
Ｓ_１_１
  6
CONTINUOUS
 62
     3
100
AcDbLine
 10
1217.499993786209
 20
1724.99998578427
 30
0.0
 11
1312.499994769685
 21
1724.99998578427
 31
0.0
  0
LINE
  5
332
330
1F
100
AcDbEntity
  8
Ｓ_１_１
  6
CONTINUOUS
 62
     3
100
AcDbLine
 10
1212.500001564615
 20
1720.000016450859
 30
0.0
 11
1212.500001564615
 21
1650.000010907627
 31
0.0
  0
LINE
  5
333
330
1F
100
AcDbEntity
  8
Ｓ_１_１
  6
CONTINUOUS
 62
     3
100
AcDbLine
 10
1217.499993786209
 20
1720.000016450859
 30
0.0
 11
1217.499993786209
 21
1650.000010907627
 31
0.0
  0
LINE
  5
334
330
1F
100
AcDbEntity
  8
Ｓ_１_１
  6
CONTINUOUS
 62
     3
100
AcDbLine
 10
1217.499993786209
 20
1720.000016450859
 30
0.0
 11
1312.499994769685
 21
1720.000016450859
 31
0.0
  0
LINE
  5
335
330
1F
100
AcDbEntity
  8
Ｓ_１_１
  6
CONTINUOUS
 62
     3
100
AcDbLine
 10
1117.50001202523
 20
1720.000016450859
 30
0.0
 11
1117.50001202523
 21
1650.000010907627
 31
0.0
  0
LINE
  5
336
330
1F
100
AcDbEntity
  8
Ｓ_１_１
  6
CONTINUOUS
 62
     3
100
AcDbLine
 10
1117.50001202523
 20
1724.99998578427
 30
0.0
 11
1212.500001564615
 21
1724.99998578427
 31
0.0
  0
LINE
  5
337
330
1F
100
AcDbEntity
  8
Ｓ_１_１
  6
CONTINUOUS
 62
     3
100
AcDbLine
 10
1112.500019803636
 20
1720.000016450859
 30
0.0
 11
1112.500019803636
 21
1650.000010907627
 31
0.0
  0
LINE
  5
338
330
1F
100
AcDbEntity
  8
Ｓ_１_１
  6
CONTINUOUS
 62
     3
100
AcDbLine
 10
1117.50001202523
 20
1720.000016450859
 30
0.0
 11
1212.500001564615
 21
1720.000016450859
 31
0.0
  0
LINE
  5
339
330
1F
100
AcDbEntity
  8
Ｓ_１_１
  6
CONTINUOUS
 62
     3
100
AcDbLine
 10
1117.50001202523
 20
1644.99999579785
 30
0.0
 11
1117.50001202523
 21
1602.247479371779
 31
0.0
  0
LINE
  5
33A
330
1F
100
AcDbEntity
  8
Ｓ_１_１
  6
CONTINUOUS
 62
     3
100
AcDbLine
 10
1112.500019803636
 20
1644.99999579785
 30
0.0
 11
1112.500019803636
 21
1602.247479371779
 31
0.0
  0
LINE
  5
33B
330
1F
100
AcDbEntity
  8
Ｓ_１_１
  6
CONTINUOUS
 62
     3
100
AcDbLine
 10
1117.50001202523
 20
1650.000010907627
 30
0.0
 11
1212.500001564615
 21
1650.000010907627
 31
0.0
  0
LINE
  5
33C
330
1F
100
AcDbEntity
  8
Ｓ_１_１
  6
CONTINUOUS
 62
     3
100
AcDbLine
 10
1117.50001202523
 20
1644.99999579785
 30
0.0
 11
1212.500001564615
 21
1644.99999579785
 31
0.0
  0
LINE
  5
33D
330
1F
100
AcDbEntity
  8
Ｓ_１_１
  6
CONTINUOUS
 62
     3
100
AcDbLine
 10
1117.50001202523
 20
1570.000020921207
 30
0.0
 11
1117.50001202523
 21
1535.0000067055
 31
0.0
  0
LINE
  5
33E
330
1F
100
AcDbEntity
  8
Ｓ_１_１
  6
CONTINUOUS
 62
     3
100
AcDbLine
 10
1117.50001202523
 20
1575.000013142801
 30
0.0
 11
1212.500001564615
 21
1575.000013142801
 31
0.0
  0
LINE
  5
33F
330
1F
100
AcDbEntity
  8
Ｓ_１_１
  6
CONTINUOUS
 62
     3
100
AcDbLine
 10
1112.500019803636
 20
1570.000020921207
 30
0.0
 11
1112.500019803636
 21
1535.0000067055
 31
0.0
  0
LINE
  5
340
330
1F
100
AcDbEntity
  8
Ｓ_１_１
  6
CONTINUOUS
 62
     3
100
AcDbLine
 10
1117.50001202523
 20
1570.000020921207
 30
0.0
 11
1212.500001564615
 21
1570.000020921207
 31
0.0
  0
LINE
  5
341
330
1F
100
AcDbEntity
  8
Ｓ_１_１
  6
CONTINUOUS
 62
     3
100
AcDbLine
 10
1017.500007376068
 20
1570.000020921207
 30
0.0
 11
1017.500007376068
 21
1535.0000067055
 31
0.0
  0
LINE
  5
342
330
1F
100
AcDbEntity
  8
Ｓ_１_１
  6
CONTINUOUS
 62
     3
100
AcDbLine
 10
1017.500007376068
 20
1575.000013142801
 30
0.0
 11
1112.500019803636
 21
1575.000013142801
 31
0.0
  0
LINE
  5
343
330
1F
100
AcDbEntity
  8
Ｓ_１_１
  6
CONTINUOUS
 62
     3
100
AcDbLine
 10
1012.500038042657
 20
1570.000020921207
 30
0.0
 11
1012.500038042657
 21
1535.0000067055
 31
0.0
  0
LINE
  5
344
330
1F
100
AcDbEntity
  8
Ｓ_１_１
  6
CONTINUOUS
 62
     3
100
AcDbLine
 10
1017.500007376068
 20
1570.000020921207
 30
0.0
 11
1112.500019803636
 21
1570.000020921207
 31
0.0
  0
LINE
  5
345
330
1F
100
AcDbEntity
  8
Ｓ_１_１
  6
CONTINUOUS
 62
     3
100
AcDbLine
 10
1017.500007376068
 20
1644.99999579785
 30
0.0
 11
1017.500007376068
 21
1575.000013142801
 31
0.0
  0
LINE
  5
346
330
1F
100
AcDbEntity
  8
Ｓ_１_１
  6
CONTINUOUS
 62
     3
100
AcDbLine
 10
1012.500038042657
 20
1644.99999579785
 30
0.0
 11
1012.500038042657
 21
1575.000013142801
 31
0.0
  0
LINE
  5
347
330
1F
100
AcDbEntity
  8
Ｓ_１_１
  6
CONTINUOUS
 62
     3
100
AcDbLine
 10
1017.500007376068
 20
1644.99999579785
 30
0.0
 11
1112.500019803636
 21
1644.99999579785
 31
0.0
  0
LINE
  5
348
330
1F
100
AcDbEntity
  8
Ｓ_１_１
  6
CONTINUOUS
 62
     3
100
AcDbLine
 10
1012.500038042657
 20
1720.000016450859
 30
0.0
 11
1012.500038042657
 21
1650.000010907627
 31
0.0
  0
LINE
  5
349
330
1F
100
AcDbEntity
  8
Ｓ_１_１
  6
CONTINUOUS
 62
     3
100
AcDbLine
 10
1017.500007376068
 20
1720.000016450859
 30
0.0
 11
1017.500007376068
 21
1650.000010907627
 31
0.0
  0
LINE
  5
34A
330
1F
100
AcDbEntity
  8
Ｓ_１_１
  6
CONTINUOUS
 62
     3
100
AcDbLine
 10
1017.500007376068
 20
1720.000016450859
 30
0.0
 11
1112.500019803636
 21
1720.000016450859
 31
0.0
  0
LINE
  5
34B
330
1F
100
AcDbEntity
  8
Ｓ_１_１
  6
CONTINUOUS
 62
     3
100
AcDbLine
 10
864.9999814033436
 20
1720.000016450859
 30
0.0
 11
912.5000105053114
 21
1720.000016450859
 31
0.0
  0
LINE
  5
34C
330
1F
100
AcDbEntity
  8
Ｓ_１_１
  6
CONTINUOUS
 62
     3
100
AcDbLine
 10
864.9999814033436
 20
1724.99998578427
 30
0.0
 11
912.5000105053114
 21
1724.99998578427
 31
0.0
  0
LINE
  5
34D
330
1F
100
AcDbEntity
  8
Ｓ_１_１
  6
CONTINUOUS
 62
     3
100
AcDbLine
 10
864.9999814033436
 20
1644.99999579785
 30
0.0
 11
912.5000105053114
 21
1644.99999579785
 31
0.0
  0
LINE
  5
34E
330
1F
100
AcDbEntity
  8
Ｓ_１_１
  6
CONTINUOUS
 62
     3
100
AcDbLine
 10
864.9999814033436
 20
1650.000010907627
 30
0.0
 11
912.5000105053114
 21
1650.000010907627
 31
0.0
  0
LINE
  5
34F
330
1F
100
AcDbEntity
  8
Ｓ_１_１
  6
CONTINUOUS
 62
     3
100
AcDbLine
 10
864.9999814033436
 20
1570.000020921207
 30
0.0
 11
912.5000105053114
 21
1570.000020921207
 31
0.0
  0
LINE
  5
350
330
1F
100
AcDbEntity
  8
Ｓ_１_１
  6
CONTINUOUS
 62
     3
100
AcDbLine
 10
864.9999814033436
 20
1575.000013142801
 30
0.0
 11
912.5000105053114
 21
1575.000013142801
 31
0.0
  0
LINE
  5
351
330
1F
100
AcDbEntity
  8
Ｓ_１_１
  6
CONTINUOUS
 62
     3
100
AcDbLine
 10
864.9999814033436
 20
1535.0000067055
 30
0.0
 11
1664.999949932093
 21
1535.0000067055
 31
0.0
  0
CIRCLE
  5
352
330
1F
100
AcDbEntity
  8
Ｓ_１_１
  6
CONTINUOUS
 62
     3
100
AcDbCircle
 10
1534.99998623132
 20
1860.00000464914
 30
0.0
 40
12.49999915063384
  0
CIRCLE
  5
353
330
1F
100
AcDbEntity
  8
Ｓ_１_１
  6
CONTINUOUS
 62
     3
100
AcDbCircle
 10
1414.999992668621
 20
1929.999987304189
 30
0.0
 40
12.49999915063384
  0
CIRCLE
  5
354
330
1F
100
AcDbEntity
  8
Ｓ_１_１
  6
CONTINUOUS
 62
     3
100
AcDbCircle
 10
1115.000027358525
 20
1929.999987304189
 30
0.0
 40
12.49999915063384
  0
CIRCLE
  5
355
330
1F
100
AcDbEntity
  8
Ｓ_１_１
  6
CONTINUOUS
 62
     3
100
AcDbCircle
 10
995.0000080466198
 20
1860.00000464914
 30
0.0
 40
12.49999915063384
  0
LINE
  5
356
330
1F
100
AcDbEntity
  8
Ｓ_１_１
  6
CONTINUOUS
 62
     3
100
AcDbLine
 10
1579.999956279988
 20
1949.999979078749
 30
0.0
 11
1579.999956279988
 21
1944.999986857154
 31
0.0
  0
LINE
  5
357
330
1F
100
AcDbEntity
  8
Ｓ_１_１
  6
CONTINUOUS
 62
     3
100
AcDbLine
 10
1549.999957174057
 20
1949.999979078749
 30
0.0
 11
1549.999957174057
 21
1944.999986857154
 31
0.0
  0
LINE
  5
358
330
1F
100
AcDbEntity
  8
Ｓ_１_１
  6
CONTINUOUS
 62
     3
100
AcDbLine
 10
1579.999956279988
 20
1795.000014215685
 30
0.0
 11
1579.999956279988
 21
1799.999983549096
 31
0.0
  0
LINE
  5
359
330
1F
100
AcDbEntity
  8
Ｓ_１_１
  6
CONTINUOUS
 62
     3
100
AcDbLine
 10
1549.999957174057
 20
1799.999983549096
 30
0.0
 11
1549.999957174057
 21
1795.000014215685
 31
0.0
  0
LINE
  5
35A
330
1F
100
AcDbEntity
  8
Ｓ_１_１
  6
CONTINUOUS
 62
     3
100
AcDbLine
 10
1579.999956279988
 20
1799.999983549096
 30
0.0
 11
1579.999956279988
 21
1797.499998882391
 31
0.0
  0
LINE
  5
35B
330
1F
100
AcDbEntity
  8
Ｓ_１_１
  6
CONTINUOUS
 62
     3
100
AcDbLine
 10
1579.999956279988
 20
1875.000004202106
 30
0.0
 11
1579.999956279988
 21
1869.999989092328
 31
0.0
  0
LINE
  5
35C
330
1F
100
AcDbEntity
  8
Ｓ_１_１
  6
CONTINUOUS
 62
     3
100
AcDbLine
 10
1549.999957174057
 20
1875.000004202106
 30
0.0
 11
1549.999957174057
 21
1869.999989092328
 31
0.0
  0
LINE
  5
35D
330
1F
100
AcDbEntity
  8
Ｓ_１_１
  6
CONTINUOUS
 62
     3
100
AcDbLine
 10
1017.500007376068
 20
1795.000014215685
 30
0.0
 11
1112.500019803636
 21
1795.000014215685
 31
0.0
  0
LINE
  5
35E
330
1F
100
AcDbEntity
  8
Ｓ_１_１
  6
CONTINUOUS
 62
     3
100
AcDbLine
 10
980.0000084936546
 20
1949.999979078748
 30
0.0
 11
980.0000084936546
 21
1944.999986857154
 31
0.0
  0
LINE
  5
35F
330
1F
100
AcDbEntity
  8
Ｓ_１_１
  6
CONTINUOUS
 62
     3
100
AcDbLine
 10
980.0000084936546
 20
1875.000004202105
 30
0.0
 11
980.0000084936546
 21
1869.999989092328
 31
0.0
  0
LINE
  5
360
330
1F
100
AcDbEntity
  8
Ｓ_１_１
  6
CONTINUOUS
 62
     3
100
AcDbLine
 10
980.0000084936546
 20
1799.999983549096
 30
0.0
 11
980.0000084936546
 21
1795.000014215685
 31
0.0
  0
LINE
  5
361
330
1F
100
AcDbEntity
  8
Ｓ_１_１
  6
CONTINUOUS
 62
     3
100
AcDbLine
 10
950.0000093877243
 20
1799.999983549096
 30
0.0
 11
950.0000093877243
 21
1795.000014215685
 31
0.0
  0
LINE
  5
362
330
1F
100
AcDbEntity
  8
Ｓ_１_１
  6
CONTINUOUS
 62
     3
100
AcDbLine
 10
950.0000093877243
 20
1875.000004202105
 30
0.0
 11
950.0000093877243
 21
1869.999989092328
 31
0.0
  0
LINE
  5
363
330
1F
100
AcDbEntity
  8
Ｓ_１_１
  6
CONTINUOUS
 62
     3
100
AcDbLine
 10
950.0000093877243
 20
1949.999979078748
 30
0.0
 11
950.0000093877243
 21
1944.999986857154
 31
0.0
  0
LINE
  5
364
330
1F
100
AcDbEntity
  8
Ｓ_１_１
  6
CONTINUOUS
 62
     3
100
AcDbLine
 10
1617.499955162401
 20
1799.999983549096
 30
0.0
 11
1617.499955162401
 21
1869.999989092328
 31
0.0
  0
LINE
  5
365
330
1F
100
AcDbEntity
  8
Ｓ_１_１
  6
CONTINUOUS
 62
     3
100
AcDbLine
 10
1617.499955162401
 20
1795.000014215685
 30
0.0
 11
1664.999949932093
 21
1795.000014215685
 31
0.0
  0
LINE
  5
366
330
1F
100
AcDbEntity
  8
Ｓ_１_１
  6
CONTINUOUS
 62
     3
100
AcDbLine
 10
1612.499962940805
 20
1799.999983549096
 30
0.0
 11
1612.499962940805
 21
1869.999989092328
 31
0.0
  0
LINE
  5
367
330
1F
100
AcDbEntity
  8
Ｓ_１_１
  6
CONTINUOUS
 62
     3
100
AcDbLine
 10
1617.499955162401
 20
1799.999983549096
 30
0.0
 11
1664.999949932093
 21
1799.999983549096
 31
0.0
  0
LINE
  5
368
330
1F
100
AcDbEntity
  8
Ｓ_１_１
  6
CONTINUOUS
 62
     3
100
AcDbLine
 10
1617.499955162401
 20
1875.000004202106
 30
0.0
 11
1617.499955162401
 21
1944.999986857154
 31
0.0
  0
LINE
  5
369
330
1F
100
AcDbEntity
  8
Ｓ_１_１
  6
CONTINUOUS
 62
     3
100
AcDbLine
 10
1612.499962940805
 20
1875.000004202106
 30
0.0
 11
1612.499962940805
 21
1944.999986857154
 31
0.0
  0
LINE
  5
36A
330
1F
100
AcDbEntity
  8
Ｓ_１_１
  6
CONTINUOUS
 62
     3
100
AcDbLine
 10
1617.499955162401
 20
1869.999989092328
 30
0.0
 11
1664.999949932093
 21
1869.999989092328
 31
0.0
  0
LINE
  5
36B
330
1F
100
AcDbEntity
  8
Ｓ_１_１
  6
CONTINUOUS
 62
     3
100
AcDbLine
 10
1617.499955162401
 20
1875.000004202106
 30
0.0
 11
1664.999949932093
 21
1875.000004202106
 31
0.0
  0
LINE
  5
36C
330
1F
100
AcDbEntity
  8
Ｓ_１_１
  6
CONTINUOUS
 62
     3
100
AcDbLine
 10
1617.499955162401
 20
1949.999979078749
 30
0.0
 11
1617.499955162401
 21
1984.999993294456
 31
0.0
  0
LINE
  5
36D
330
1F
100
AcDbEntity
  8
Ｓ_１_１
  6
CONTINUOUS
 62
     3
100
AcDbLine
 10
1612.499962940805
 20
1949.999979078749
 30
0.0
 11
1612.499962940805
 21
1984.999993294456
 31
0.0
  0
LINE
  5
36E
330
1F
100
AcDbEntity
  8
Ｓ_１_１
  6
CONTINUOUS
 62
     3
100
AcDbLine
 10
1617.499955162401
 20
1944.999986857154
 30
0.0
 11
1664.999949932093
 21
1944.999986857154
 31
0.0
  0
LINE
  5
36F
330
1F
100
AcDbEntity
  8
Ｓ_１_１
  6
CONTINUOUS
 62
     3
100
AcDbLine
 10
1617.499955162401
 20
1949.999979078749
 30
0.0
 11
1664.999949932093
 21
1949.999979078749
 31
0.0
  0
LINE
  5
370
330
1F
100
AcDbEntity
  8
Ｓ_１_１
  6
CONTINUOUS
 62
     3
100
AcDbLine
 10
912.5000105053114
 20
1799.999983549096
 30
0.0
 11
912.5000105053114
 21
1869.999989092328
 31
0.0
  0
LINE
  5
371
330
1F
100
AcDbEntity
  8
Ｓ_１_１
  6
CONTINUOUS
 62
     3
100
AcDbLine
 10
917.4999798387215
 20
1795.000014215685
 30
0.0
 11
950.0000093877243
 21
1795.000014215685
 31
0.0
  0
LINE
  5
372
330
1F
100
AcDbEntity
  8
Ｓ_１_１
  6
CONTINUOUS
 62
     3
100
AcDbLine
 10
917.4999798387215
 20
1799.999983549096
 30
0.0
 11
950.0000093877243
 21
1799.999983549096
 31
0.0
  0
LINE
  5
373
330
1F
100
AcDbEntity
  8
Ｓ_１_１
  6
CONTINUOUS
 62
     3
100
AcDbLine
 10
912.5000105053114
 20
1875.000004202105
 30
0.0
 11
912.5000105053114
 21
1944.999986857154
 31
0.0
  0
LINE
  5
374
330
1F
100
AcDbEntity
  8
Ｓ_１_１
  6
CONTINUOUS
 62
     3
100
AcDbLine
 10
917.4999798387215
 20
1869.999989092328
 30
0.0
 11
950.0000093877243
 21
1869.999989092328
 31
0.0
  0
LINE
  5
375
330
1F
100
AcDbEntity
  8
Ｓ_１_１
  6
CONTINUOUS
 62
     3
100
AcDbLine
 10
917.4999798387215
 20
1875.000004202105
 30
0.0
 11
917.4999798387215
 21
1944.999986857154
 31
0.0
  0
LINE
  5
376
330
1F
100
AcDbEntity
  8
Ｓ_１_１
  6
CONTINUOUS
 62
     3
100
AcDbLine
 10
917.4999798387215
 20
1875.000004202105
 30
0.0
 11
950.0000093877243
 21
1875.000004202105
 31
0.0
  0
LINE
  5
377
330
1F
100
AcDbEntity
  8
Ｓ_１_１
  6
CONTINUOUS
 62
     3
100
AcDbLine
 10
912.5000105053114
 20
1949.999979078748
 30
0.0
 11
912.5000105053114
 21
1984.999993294456
 31
0.0
  0
LINE
  5
378
330
1F
100
AcDbEntity
  8
Ｓ_１_１
  6
CONTINUOUS
 62
     3
100
AcDbLine
 10
917.4999798387215
 20
1944.999986857154
 30
0.0
 11
950.0000093877243
 21
1944.999986857154
 31
0.0
  0
LINE
  5
379
330
1F
100
AcDbEntity
  8
Ｓ_１_１
  6
CONTINUOUS
 62
     3
100
AcDbLine
 10
917.4999798387215
 20
1949.999979078748
 30
0.0
 11
917.4999798387215
 21
1984.999993294456
 31
0.0
  0
LINE
  5
37A
330
1F
100
AcDbEntity
  8
Ｓ_１_１
  6
CONTINUOUS
 62
     3
100
AcDbLine
 10
917.4999798387215
 20
1949.999979078748
 30
0.0
 11
950.0000093877243
 21
1949.999979078748
 31
0.0
  0
LINE
  5
37B
330
1F
100
AcDbEntity
  8
Ｓ_１_１
  6
CONTINUOUS
 62
     3
100
AcDbLine
 10
1579.999956279988
 20
1799.999983549096
 30
0.0
 11
1612.499962940805
 21
1799.999983549096
 31
0.0
  0
LINE
  5
37C
330
1F
100
AcDbEntity
  8
Ｓ_１_１
  6
CONTINUOUS
 62
     3
100
AcDbLine
 10
1579.999956279988
 20
1795.000014215685
 30
0.0
 11
1612.499962940805
 21
1795.000014215685
 31
0.0
  0
LINE
  5
37D
330
1F
100
AcDbEntity
  8
Ｓ_１_１
  6
CONTINUOUS
 62
     3
100
AcDbLine
 10
1579.999956279988
 20
1869.999989092328
 30
0.0
 11
1612.499962940805
 21
1869.999989092328
 31
0.0
  0
LINE
  5
37E
330
1F
100
AcDbEntity
  8
Ｓ_１_１
  6
CONTINUOUS
 62
     3
100
AcDbLine
 10
1579.999956279988
 20
1875.000004202106
 30
0.0
 11
1612.499962940805
 21
1875.000004202106
 31
0.0
  0
LINE
  5
37F
330
1F
100
AcDbEntity
  8
Ｓ_１_１
  6
CONTINUOUS
 62
     3
100
AcDbLine
 10
1579.999956279988
 20
1944.999986857154
 30
0.0
 11
1612.499962940805
 21
1944.999986857154
 31
0.0
  0
LINE
  5
380
330
1F
100
AcDbEntity
  8
Ｓ_１_１
  6
CONTINUOUS
 62
     3
100
AcDbLine
 10
1579.999956279988
 20
1949.999979078749
 30
0.0
 11
1612.499962940805
 21
1949.999979078749
 31
0.0
  0
LINE
  5
381
330
1F
100
AcDbEntity
  8
Ｓ_１_１
  6
CONTINUOUS
 62
     3
100
AcDbLine
 10
980.0000084936546
 20
1949.999979078748
 30
0.0
 11
1012.500038042657
 21
1949.999979078748
 31
0.0
  0
LINE
  5
382
330
1F
100
AcDbEntity
  8
Ｓ_１_１
  6
CONTINUOUS
 62
     3
100
AcDbLine
 10
980.0000084936546
 20
1944.999986857154
 30
0.0
 11
1012.500038042657
 21
1944.999986857154
 31
0.0
  0
LINE
  5
383
330
1F
100
AcDbEntity
  8
Ｓ_１_１
  6
CONTINUOUS
 62
     3
100
AcDbLine
 10
980.0000084936546
 20
1869.999989092328
 30
0.0
 11
987.5000082701372
 21
1869.999989092328
 31
0.0
  0
LINE
  5
384
330
1F
100
AcDbEntity
  8
Ｓ_１_１
  6
CONTINUOUS
 62
     3
100
AcDbLine
 10
980.0000084936546
 20
1875.000004202105
 30
0.0
 11
1012.500038042657
 21
1875.000004202105
 31
0.0
  0
LINE
  5
385
330
1F
100
AcDbEntity
  8
Ｓ_１_１
  6
CONTINUOUS
 62
     3
100
AcDbLine
 10
980.0000084936546
 20
1795.000014215685
 30
0.0
 11
1012.500038042657
 21
1795.000014215685
 31
0.0
  0
LINE
  5
386
330
1F
100
AcDbEntity
  8
Ｓ_１_１
  6
CONTINUOUS
 62
     3
100
AcDbLine
 10
980.0000084936546
 20
1799.999983549096
 30
0.0
 11
1012.500038042657
 21
1799.999983549096
 31
0.0
  0
LINE
  5
387
330
1F
100
AcDbEntity
  8
Ｓ_１_１
  6
CONTINUOUS
 62
     3
100
AcDbLine
 10
1014.177192533689
 20
1869.999989092328
 30
0.0
 11
1112.500019803636
 21
1869.999989092328
 31
0.0
  0
LINE
  5
388
330
1F
100
AcDbEntity
  8
Ｓ_１_１
  6
CONTINUOUS
 62
     3
100
AcDbLine
 10
1117.50001202523
 20
1942.247431092019
 30
0.0
 11
1117.50001202523
 21
1944.999986857154
 31
0.0
  0
LINE
  5
389
330
1F
100
AcDbEntity
  8
Ｓ_１_１
  6
CONTINUOUS
 62
     3
100
AcDbLine
 10
1417.499988779418
 20
1942.247431092019
 30
0.0
 11
1417.499988779418
 21
1944.999986857154
 31
0.0
  0
LINE
  5
38A
330
1F
100
AcDbEntity
  8
Ｓ_１_１
  6
CONTINUOUS
 62
     3
100
AcDbLine
 10
1112.500019803636
 20
1942.247431092019
 30
0.0
 11
1112.500019803636
 21
1944.999986857154
 31
0.0
  0
LINE
  5
38B
330
1F
100
AcDbEntity
  8
Ｓ_１_１
  6
CONTINUOUS
 62
     3
100
AcDbLine
 10
1414.999992668621
 20
1942.500002190448
 30
0.0
 11
1414.999992668621
 21
1944.04925751537
 31
0.0
  0
LINE
  5
38C
330
1F
100
AcDbEntity
  8
Ｓ_１_１
  6
CONTINUOUS
 62
     3
100
AcDbLine
 10
1412.499999418847
 20
1942.247431092019
 30
0.0
 11
1412.499999418847
 21
1944.999986857154
 31
0.0
  0
LINE
  5
38D
330
1F
100
AcDbEntity
  8
Ｓ_１_１
  6
CONTINUOUS
 62
     3
100
AcDbLine
 10
1542.499986007802
 20
1869.999989092328
 30
0.0
 11
1549.999957174057
 21
1869.999989092328
 31
0.0
  0
LINE
  5
38E
330
1F
100
AcDbEntity
  8
Ｓ_１_１
  6
CONTINUOUS
 62
     3
100
AcDbLine
 10
1002.500007823102
 20
1869.999989092328
 30
0.0
 11
1012.500038042657
 21
1869.999989092328
 31
0.0
  0
LINE
  5
38F
330
1F
100
AcDbEntity
  8
Ｓ_１_１
  6
CONTINUOUS
 62
     3
100
AcDbLine
 10
1517.499979123466
 20
1799.999983549096
 30
0.0
 11
1517.499979123466
 21
1869.999989092328
 31
0.0
  0
LINE
  5
390
330
1F
100
AcDbEntity
  8
Ｓ_１_１
  6
CONTINUOUS
 62
     3
100
AcDbLine
 10
1517.499979123466
 20
1795.000014215685
 30
0.0
 11
1549.999957174057
 21
1795.000014215685
 31
0.0
  0
LINE
  5
391
330
1F
100
AcDbEntity
  8
Ｓ_１_１
  6
CONTINUOUS
 62
     3
100
AcDbLine
 10
1512.499986901872
 20
1799.999983549096
 30
0.0
 11
1512.499986901872
 21
1869.999989092328
 31
0.0
  0
LINE
  5
392
330
1F
100
AcDbEntity
  8
Ｓ_１_１
  6
CONTINUOUS
 62
     3
100
AcDbLine
 10
1517.499979123466
 20
1799.999983549096
 30
0.0
 11
1549.999957174057
 21
1799.999983549096
 31
0.0
  0
LINE
  5
393
330
1F
100
AcDbEntity
  8
Ｓ_１_１
  6
CONTINUOUS
 62
     3
100
AcDbLine
 10
1512.499986901872
 20
1875.000004202106
 30
0.0
 11
1512.499986901872
 21
1944.999986857154
 31
0.0
  0
LINE
  5
394
330
1F
100
AcDbEntity
  8
Ｓ_１_１
  6
CONTINUOUS
 62
     3
100
AcDbLine
 10
1517.499979123466
 20
1869.999989092328
 30
0.0
 11
1527.499986454837
 21
1869.999989092328
 31
0.0
  0
LINE
  5
395
330
1F
100
AcDbEntity
  8
Ｓ_１_１
  6
CONTINUOUS
 62
     3
100
AcDbLine
 10
1517.499979123466
 20
1875.000004202106
 30
0.0
 11
1517.499979123466
 21
1944.999986857154
 31
0.0
  0
LINE
  5
396
330
1F
100
AcDbEntity
  8
Ｓ_１_１
  6
CONTINUOUS
 62
     3
100
AcDbLine
 10
1517.499979123466
 20
1875.000004202106
 30
0.0
 11
1549.999957174057
 21
1875.000004202106
 31
0.0
  0
LINE
  5
397
330
1F
100
AcDbEntity
  8
Ｓ_１_１
  6
CONTINUOUS
 62
     3
100
AcDbLine
 10
1512.499986901872
 20
1949.999979078749
 30
0.0
 11
1512.499986901872
 21
1984.999993294456
 31
0.0
  0
LINE
  5
398
330
1F
100
AcDbEntity
  8
Ｓ_１_１
  6
CONTINUOUS
 62
     3
100
AcDbLine
 10
1517.499979123466
 20
1944.999986857154
 30
0.0
 11
1549.999957174057
 21
1944.999986857154
 31
0.0
  0
LINE
  5
399
330
1F
100
AcDbEntity
  8
Ｓ_１_１
  6
CONTINUOUS
 62
     3
100
AcDbLine
 10
1517.499979123466
 20
1949.999979078749
 30
0.0
 11
1517.499979123466
 21
1984.999993294456
 31
0.0
  0
LINE
  5
39A
330
1F
100
AcDbEntity
  8
Ｓ_１_１
  6
CONTINUOUS
 62
     3
100
AcDbLine
 10
1417.499988779418
 20
1944.999986857154
 30
0.0
 11
1512.499986901872
 21
1944.999986857154
 31
0.0
  0
LINE
  5
39B
330
1F
100
AcDbEntity
  8
Ｓ_１_１
  6
CONTINUOUS
 62
     3
100
AcDbLine
 10
1412.499999418847
 20
1949.999979078748
 30
0.0
 11
1412.499999418847
 21
1984.999993294456
 31
0.0
  0
LINE
  5
39C
330
1F
100
AcDbEntity
  8
Ｓ_１_１
  6
CONTINUOUS
 62
     3
100
AcDbLine
 10
1517.499979123466
 20
1949.999979078749
 30
0.0
 11
1549.999957174057
 21
1949.999979078749
 31
0.0
  0
LINE
  5
39D
330
1F
100
AcDbEntity
  8
Ｓ_１_１
  6
CONTINUOUS
 62
     3
100
AcDbLine
 10
1417.499988779418
 20
1949.999979078748
 30
0.0
 11
1417.499988779418
 21
1984.999993294456
 31
0.0
  0
LINE
  5
39E
330
1F
100
AcDbEntity
  8
Ｓ_１_１
  6
CONTINUOUS
 62
     3
100
AcDbLine
 10
1417.499988779418
 20
1949.999979078748
 30
0.0
 11
1512.499986901872
 21
1949.999979078749
 31
0.0
  0
LINE
  5
39F
330
1F
100
AcDbEntity
  8
Ｓ_１_１
  6
CONTINUOUS
 62
     3
100
AcDbLine
 10
1412.499999418847
 20
1875.000004202105
 30
0.0
 11
1412.499999418847
 21
1917.752520628176
 31
0.0
  0
LINE
  5
3A0
330
1F
100
AcDbEntity
  8
Ｓ_１_１
  6
CONTINUOUS
 62
     3
100
AcDbLine
 10
1417.499988779418
 20
1869.999989092328
 30
0.0
 11
1512.499986901872
 21
1869.999989092328
 31
0.0
  0
LINE
  5
3A1
330
1F
100
AcDbEntity
  8
Ｓ_１_１
  6
CONTINUOUS
 62
     3
100
AcDbLine
 10
1417.499988779418
 20
1875.000004202105
 30
0.0
 11
1417.499988779418
 21
1917.752520628176
 31
0.0
  0
LINE
  5
3A2
330
1F
100
AcDbEntity
  8
Ｓ_１_１
  6
CONTINUOUS
 62
     3
100
AcDbLine
 10
1417.499988779418
 20
1875.000004202105
 30
0.0
 11
1512.499986901872
 21
1875.000004202106
 31
0.0
  0
LINE
  5
3A3
330
1F
100
AcDbEntity
  8
Ｓ_１_１
  6
CONTINUOUS
 62
     3
100
AcDbLine
 10
1417.499988779418
 20
1799.999983549096
 30
0.0
 11
1417.499988779418
 21
1869.999989092328
 31
0.0
  0
LINE
  5
3A4
330
1F
100
AcDbEntity
  8
Ｓ_１_１
  6
CONTINUOUS
 62
     3
100
AcDbLine
 10
1417.499988779418
 20
1795.000014215685
 30
0.0
 11
1512.499986901872
 21
1795.000014215685
 31
0.0
  0
LINE
  5
3A5
330
1F
100
AcDbEntity
  8
Ｓ_１_１
  6
CONTINUOUS
 62
     3
100
AcDbLine
 10
1412.499999418847
 20
1799.999983549096
 30
0.0
 11
1412.499999418847
 21
1869.999989092328
 31
0.0
  0
LINE
  5
3A6
330
1F
100
AcDbEntity
  8
Ｓ_１_１
  6
CONTINUOUS
 62
     3
100
AcDbLine
 10
1417.499988779418
 20
1799.999983549096
 30
0.0
 11
1512.499986901872
 21
1799.999983549096
 31
0.0
  0
LINE
  5
3A7
330
1F
100
AcDbEntity
  8
Ｓ_１_１
  6
CONTINUOUS
 62
     3
100
AcDbLine
 10
1317.499998435371
 20
1795.000014215685
 30
0.0
 11
1412.499999418847
 21
1795.000014215685
 31
0.0
  0
LINE
  5
3A8
330
1F
100
AcDbEntity
  8
Ｓ_１_１
  6
CONTINUOUS
 62
     3
100
AcDbLine
 10
1317.499998435371
 20
1799.999983549096
 30
0.0
 11
1317.499998435371
 21
1869.999989092328
 31
0.0
  0
LINE
  5
3A9
330
1F
100
AcDbEntity
  8
Ｓ_１_１
  6
CONTINUOUS
 62
     3
100
AcDbLine
 10
1312.499994769685
 20
1875.000004202105
 30
0.0
 11
1312.499994769685
 21
1944.999986857154
 31
0.0
  0
LINE
  5
3AA
330
1F
100
AcDbEntity
  8
Ｓ_１_１
  6
CONTINUOUS
 62
     3
100
AcDbLine
 10
1317.499998435371
 20
1869.999989092328
 30
0.0
 11
1412.499999418847
 21
1869.999989092328
 31
0.0
  0
LINE
  5
3AB
330
1F
100
AcDbEntity
  8
Ｓ_１_１
  6
CONTINUOUS
 62
     3
100
AcDbLine
 10
1317.499998435371
 20
1875.000004202105
 30
0.0
 11
1317.499998435371
 21
1944.999986857154
 31
0.0
  0
LINE
  5
3AC
330
1F
100
AcDbEntity
  8
Ｓ_１_１
  6
CONTINUOUS
 62
     3
100
AcDbLine
 10
1317.499998435371
 20
1875.000004202105
 30
0.0
 11
1412.499999418847
 21
1875.000004202105
 31
0.0
  0
LINE
  5
3AD
330
1F
100
AcDbEntity
  8
Ｓ_１_１
  6
CONTINUOUS
 62
     3
100
AcDbLine
 10
1317.499998435371
 20
1799.999983549096
 30
0.0
 11
1412.499999418847
 21
1799.999983549096
 31
0.0
  0
LINE
  5
3AE
330
1F
100
AcDbEntity
  8
Ｓ_１_１
  6
CONTINUOUS
 62
     3
100
AcDbLine
 10
1312.499994769685
 20
1799.999983549096
 30
0.0
 11
1312.499994769685
 21
1869.999989092328
 31
0.0
  0
LINE
  5
3AF
330
1F
100
AcDbEntity
  8
Ｓ_１_１
  6
CONTINUOUS
 62
     3
100
AcDbLine
 10
1317.499998435371
 20
1949.999979078748
 30
0.0
 11
1317.499998435371
 21
1984.999993294456
 31
0.0
  0
LINE
  5
3B0
330
1F
100
AcDbEntity
  8
Ｓ_１_１
  6
CONTINUOUS
 62
     3
100
AcDbLine
 10
1317.499998435371
 20
1944.999986857154
 30
0.0
 11
1412.499999418847
 21
1944.999986857154
 31
0.0
  0
LINE
  5
3B1
330
1F
100
AcDbEntity
  8
Ｓ_１_１
  6
CONTINUOUS
 62
     3
100
AcDbLine
 10
1312.499994769685
 20
1949.999979078748
 30
0.0
 11
1312.499994769685
 21
1984.999993294456
 31
0.0
  0
LINE
  5
3B2
330
1F
100
AcDbEntity
  8
Ｓ_１_１
  6
CONTINUOUS
 62
     3
100
AcDbLine
 10
1317.499998435371
 20
1949.999979078748
 30
0.0
 11
1412.499999418847
 21
1949.999979078748
 31
0.0
  0
LINE
  5
3B3
330
1F
100
AcDbEntity
  8
Ｓ_１_１
  6
CONTINUOUS
 62
     3
100
AcDbLine
 10
1217.499993786209
 20
1949.999979078748
 30
0.0
 11
1217.499993786209
 21
1984.999993294456
 31
0.0
  0
LINE
  5
3B4
330
1F
100
AcDbEntity
  8
Ｓ_１_１
  6
CONTINUOUS
 62
     3
100
AcDbLine
 10
1217.499993786209
 20
1944.999986857154
 30
0.0
 11
1312.499994769685
 21
1944.999986857154
 31
0.0
  0
LINE
  5
3B5
330
1F
100
AcDbEntity
  8
Ｓ_１_１
  6
CONTINUOUS
 62
     3
100
AcDbLine
 10
1217.499993786209
 20
1949.999979078748
 30
0.0
 11
1312.499994769685
 21
1949.999979078748
 31
0.0
  0
LINE
  5
3B6
330
1F
100
AcDbEntity
  8
Ｓ_１_１
  6
CONTINUOUS
 62
     3
100
AcDbLine
 10
1212.500001564615
 20
1949.999979078748
 30
0.0
 11
1212.500001564615
 21
1984.999993294456
 31
0.0
  0
LINE
  5
3B7
330
1F
100
AcDbEntity
  8
Ｓ_１_１
  6
CONTINUOUS
 62
     3
100
AcDbLine
 10
1217.499993786209
 20
1875.000004202105
 30
0.0
 11
1217.499993786209
 21
1944.999986857154
 31
0.0
  0
LINE
  5
3B8
330
1F
100
AcDbEntity
  8
Ｓ_１_１
  6
CONTINUOUS
 62
     3
100
AcDbLine
 10
1212.500001564615
 20
1875.000004202105
 30
0.0
 11
1212.500001564615
 21
1944.999986857154
 31
0.0
  0
LINE
  5
3B9
330
1F
100
AcDbEntity
  8
Ｓ_１_１
  6
CONTINUOUS
 62
     3
100
AcDbLine
 10
1217.499993786209
 20
1869.999989092328
 30
0.0
 11
1312.499994769685
 21
1869.999989092328
 31
0.0
  0
LINE
  5
3BA
330
1F
100
AcDbEntity
  8
Ｓ_１_１
  6
CONTINUOUS
 62
     3
100
AcDbLine
 10
1217.499993786209
 20
1875.000004202105
 30
0.0
 11
1312.499994769685
 21
1875.000004202105
 31
0.0
  0
LINE
  5
3BB
330
1F
100
AcDbEntity
  8
Ｓ_１_１
  6
CONTINUOUS
 62
     3
100
AcDbLine
 10
1217.499993786209
 20
1795.000014215685
 30
0.0
 11
1312.499994769685
 21
1795.000014215685
 31
0.0
  0
LINE
  5
3BC
330
1F
100
AcDbEntity
  8
Ｓ_１_１
  6
CONTINUOUS
 62
     3
100
AcDbLine
 10
1212.500001564615
 20
1799.999983549096
 30
0.0
 11
1212.500001564615
 21
1869.999989092328
 31
0.0
  0
LINE
  5
3BD
330
1F
100
AcDbEntity
  8
Ｓ_１_１
  6
CONTINUOUS
 62
     3
100
AcDbLine
 10
1217.499993786209
 20
1799.999983549096
 30
0.0
 11
1217.499993786209
 21
1869.999989092328
 31
0.0
  0
LINE
  5
3BE
330
1F
100
AcDbEntity
  8
Ｓ_１_１
  6
CONTINUOUS
 62
     3
100
AcDbLine
 10
1217.499993786209
 20
1799.999983549096
 30
0.0
 11
1312.499994769685
 21
1799.999983549096
 31
0.0
  0
LINE
  5
3BF
330
1F
100
AcDbEntity
  8
Ｓ_１_１
  6
CONTINUOUS
 62
     3
100
AcDbLine
 10
1117.50001202523
 20
1799.999983549096
 30
0.0
 11
1117.50001202523
 21
1869.999989092328
 31
0.0
  0
LINE
  5
3C0
330
1F
100
AcDbEntity
  8
Ｓ_１_１
  6
CONTINUOUS
 62
     3
100
AcDbLine
 10
1117.50001202523
 20
1795.000014215685
 30
0.0
 11
1212.500001564615
 21
1795.000014215685
 31
0.0
  0
LINE
  5
3C1
330
1F
100
AcDbEntity
  8
Ｓ_１_１
  6
CONTINUOUS
 62
     3
100
AcDbLine
 10
1112.500019803636
 20
1799.999983549096
 30
0.0
 11
1112.500019803636
 21
1869.999989092328
 31
0.0
  0
LINE
  5
3C2
330
1F
100
AcDbEntity
  8
Ｓ_１_１
  6
CONTINUOUS
 62
     3
100
AcDbLine
 10
1117.50001202523
 20
1799.999983549096
 30
0.0
 11
1212.500001564615
 21
1799.999983549096
 31
0.0
  0
LINE
  5
3C3
330
1F
100
AcDbEntity
  8
Ｓ_１_１
  6
CONTINUOUS
 62
     3
100
AcDbLine
 10
1117.50001202523
 20
1875.000004202105
 30
0.0
 11
1117.50001202523
 21
1917.752520628176
 31
0.0
  0
LINE
  5
3C4
330
1F
100
AcDbEntity
  8
Ｓ_１_１
  6
CONTINUOUS
 62
     3
100
AcDbLine
 10
1112.500019803636
 20
1875.000004202105
 30
0.0
 11
1112.500019803636
 21
1917.752520628176
 31
0.0
  0
LINE
  5
3C5
330
1F
100
AcDbEntity
  8
Ｓ_１_１
  6
CONTINUOUS
 62
     3
100
AcDbLine
 10
1117.50001202523
 20
1869.999989092328
 30
0.0
 11
1212.500001564615
 21
1869.999989092328
 31
0.0
  0
LINE
  5
3C6
330
1F
100
AcDbEntity
  8
Ｓ_１_１
  6
CONTINUOUS
 62
     3
100
AcDbLine
 10
1117.50001202523
 20
1875.000004202105
 30
0.0
 11
1212.500001564615
 21
1875.000004202105
 31
0.0
  0
LINE
  5
3C7
330
1F
100
AcDbEntity
  8
Ｓ_１_１
  6
CONTINUOUS
 62
     3
100
AcDbLine
 10
1117.50001202523
 20
1949.999979078748
 30
0.0
 11
1117.50001202523
 21
1984.999993294456
 31
0.0
  0
LINE
  5
3C8
330
1F
100
AcDbEntity
  8
Ｓ_１_１
  6
CONTINUOUS
 62
     3
100
AcDbLine
 10
1117.50001202523
 20
1944.999986857154
 30
0.0
 11
1212.500001564615
 21
1944.999986857154
 31
0.0
  0
LINE
  5
3C9
330
1F
100
AcDbEntity
  8
Ｓ_１_１
  6
CONTINUOUS
 62
     3
100
AcDbLine
 10
1112.500019803636
 20
1949.999979078748
 30
0.0
 11
1112.500019803636
 21
1984.999993294456
 31
0.0
  0
LINE
  5
3CA
330
1F
100
AcDbEntity
  8
Ｓ_１_１
  6
CONTINUOUS
 62
     3
100
AcDbLine
 10
1117.50001202523
 20
1949.999979078748
 30
0.0
 11
1212.500001564615
 21
1949.999979078748
 31
0.0
  0
LINE
  5
3CB
330
1F
100
AcDbEntity
  8
Ｓ_１_１
  6
CONTINUOUS
 62
     3
100
AcDbLine
 10
1017.500007376068
 20
1949.999979078748
 30
0.0
 11
1017.500007376068
 21
1984.999993294456
 31
0.0
  0
LINE
  5
3CC
330
1F
100
AcDbEntity
  8
Ｓ_１_１
  6
CONTINUOUS
 62
     3
100
AcDbLine
 10
1017.500007376068
 20
1944.999986857154
 30
0.0
 11
1112.500019803636
 21
1944.999986857154
 31
0.0
  0
LINE
  5
3CD
330
1F
100
AcDbEntity
  8
Ｓ_１_１
  6
CONTINUOUS
 62
     3
100
AcDbLine
 10
1012.500038042657
 20
1949.999979078748
 30
0.0
 11
1012.500038042657
 21
1984.999993294456
 31
0.0
  0
LINE
  5
3CE
330
1F
100
AcDbEntity
  8
Ｓ_１_１
  6
CONTINUOUS
 62
     3
100
AcDbLine
 10
1017.500007376068
 20
1949.999979078748
 30
0.0
 11
1112.500019803636
 21
1949.999979078748
 31
0.0
  0
LINE
  5
3CF
330
1F
100
AcDbEntity
  8
Ｓ_１_１
  6
CONTINUOUS
 62
     3
100
AcDbLine
 10
1017.500007376068
 20
1875.000004202105
 30
0.0
 11
1017.500007376068
 21
1944.999986857154
 31
0.0
  0
LINE
  5
3D0
330
1F
100
AcDbEntity
  8
Ｓ_１_１
  6
CONTINUOUS
 62
     3
100
AcDbLine
 10
1012.500038042657
 20
1875.000004202105
 30
0.0
 11
1012.500038042657
 21
1944.999986857154
 31
0.0
  0
LINE
  5
3D1
330
1F
100
AcDbEntity
  8
Ｓ_１_１
  6
CONTINUOUS
 62
     3
100
AcDbLine
 10
1017.500007376068
 20
1875.000004202105
 30
0.0
 11
1112.500019803636
 21
1875.000004202105
 31
0.0
  0
LINE
  5
3D2
330
1F
100
AcDbEntity
  8
Ｓ_１_１
  6
CONTINUOUS
 62
     3
100
AcDbLine
 10
1012.500038042657
 20
1799.999983549096
 30
0.0
 11
1012.500038042657
 21
1869.999989092328
 31
0.0
  0
LINE
  5
3D3
330
1F
100
AcDbEntity
  8
Ｓ_１_１
  6
CONTINUOUS
 62
     3
100
AcDbLine
 10
1017.500007376068
 20
1799.999983549096
 30
0.0
 11
1017.500007376068
 21
1869.999989092328
 31
0.0
  0
LINE
  5
3D4
330
1F
100
AcDbEntity
  8
Ｓ_１_１
  6
CONTINUOUS
 62
     3
100
AcDbLine
 10
1017.500007376068
 20
1799.999983549096
 30
0.0
 11
1112.500019803636
 21
1799.999983549096
 31
0.0
  0
LINE
  5
3D5
330
1F
100
AcDbEntity
  8
Ｓ_１_１
  6
CONTINUOUS
 62
     3
100
AcDbLine
 10
864.9999814033436
 20
1799.999983549096
 30
0.0
 11
912.5000105053114
 21
1799.999983549096
 31
0.0
  0
LINE
  5
3D6
330
1F
100
AcDbEntity
  8
Ｓ_１_１
  6
CONTINUOUS
 62
     3
100
AcDbLine
 10
864.9999814033436
 20
1795.000014215685
 30
0.0
 11
912.5000105053114
 21
1795.000014215685
 31
0.0
  0
LINE
  5
3D7
330
1F
100
AcDbEntity
  8
Ｓ_１_１
  6
CONTINUOUS
 62
     3
100
AcDbLine
 10
864.9999814033436
 20
1875.000004202105
 30
0.0
 11
912.5000105053114
 21
1875.000004202105
 31
0.0
  0
LINE
  5
3D8
330
1F
100
AcDbEntity
  8
Ｓ_１_１
  6
CONTINUOUS
 62
     3
100
AcDbLine
 10
864.9999814033436
 20
1869.999989092328
 30
0.0
 11
912.5000105053114
 21
1869.999989092328
 31
0.0
  0
LINE
  5
3D9
330
1F
100
AcDbEntity
  8
Ｓ_１_１
  6
CONTINUOUS
 62
     3
100
AcDbLine
 10
864.9999814033436
 20
1949.999979078748
 30
0.0
 11
912.5000105053114
 21
1949.999979078748
 31
0.0
  0
LINE
  5
3DA
330
1F
100
AcDbEntity
  8
Ｓ_１_１
  6
CONTINUOUS
 62
     3
100
AcDbLine
 10
864.9999814033436
 20
1944.999986857154
 30
0.0
 11
912.5000105053114
 21
1944.999986857154
 31
0.0
  0
LINE
  5
3DB
330
1F
100
AcDbEntity
  8
Ｓ_１_１
  6
CONTINUOUS
 62
     3
100
AcDbLine
 10
864.9999814033436
 20
1984.999993294456
 30
0.0
 11
1664.999949932093
 21
1984.999993294456
 31
0.0
  0
LINE
  5
3DC
330
1F
100
AcDbEntity
  8
Ｓ_１_１
  6
CONTINUOUS
 62
     3
100
AcDbLine
 10
864.9999814033436
 20
1984.999993294456
 30
0.0
 11
864.9999814033436
 21
1535.0000067055
 31
0.0
  0
LINE
  5
3DD
330
1F
100
AcDbEntity
  8
Ｓ_１_１
  6
CONTINUOUS
 62
     3
100
AcDbLine
 10
965.0000089406894
 20
1984.999993294456
 30
0.0
 11
965.0000089406894
 21
1535.0000067055
 31
0.0
  0
LINE
  5
3DE
330
1F
100
AcDbEntity
  8
Ｓ_１_１
  6
CONTINUOUS
 62
     3
100
AcDbLine
 10
1012.500038042657
 20
1795.000014215685
 30
0.0
 11
1012.500038042657
 21
1724.99998578427
 31
0.0
  0
LINE
  5
3DF
330
1F
100
AcDbEntity
  8
Ｓ_１_１
  6
CONTINUOUS
 62
     3
100
AcDbLine
 10
1017.500007376068
 20
1795.000014215685
 30
0.0
 11
1017.500007376068
 21
1724.99998578427
 31
0.0
  0
LINE
  5
3E0
330
1F
100
AcDbEntity
  8
Ｓ_１_１
  6
CONTINUOUS
 62
     3
100
AcDbLine
 10
1664.999949932093
 20
1984.999993294456
 30
0.0
 11
1664.999949932093
 21
1535.0000067055
 31
0.0
  0
LINE
  5
3E1
330
1F
100
AcDbEntity
  8
Ｓ_１_１
  6
CONTINUOUS
 62
     3
100
AcDbLine
 10
1617.499955162401
 20
1795.000014215685
 30
0.0
 11
1617.499955162401
 21
1724.99998578427
 31
0.0
  0
LINE
  5
3E2
330
1F
100
AcDbEntity
  8
Ｓ_１_１
  6
CONTINUOUS
 62
     3
100
AcDbLine
 10
1612.499962940805
 20
1795.000014215685
 30
0.0
 11
1612.499962940805
 21
1724.99998578427
 31
0.0
  0
LINE
  5
3E3
330
1F
100
AcDbEntity
  8
Ｓ_１_１
  6
CONTINUOUS
 62
     3
100
AcDbLine
 10
1564.999956727022
 20
1984.999993294456
 30
0.0
 11
1564.999956727022
 21
1535.0000067055
 31
0.0
  0
LINE
  5
3E4
330
1F
100
AcDbEntity
  8
Ｓ_１_１
  6
CONTINUOUS
 62
     3
100
AcDbLine
 10
1517.499979123466
 20
1795.000014215685
 30
0.0
 11
1517.499979123466
 21
1724.99998578427
 31
0.0
  0
LINE
  5
3E5
330
1F
100
AcDbEntity
  8
Ｓ_１_１
  6
CONTINUOUS
 62
     3
100
AcDbLine
 10
1512.499986901872
 20
1795.000014215685
 30
0.0
 11
1512.499986901872
 21
1724.99998578427
 31
0.0
  0
LINE
  5
3E6
330
1F
100
AcDbEntity
  8
Ｓ_１_１
  6
CONTINUOUS
 62
     3
100
AcDbLine
 10
1317.499998435371
 20
1795.000014215685
 30
0.0
 11
1317.499998435371
 21
1724.99998578427
 31
0.0
  0
LINE
  5
3E7
330
1F
100
AcDbEntity
  8
Ｓ_１_１
  6
CONTINUOUS
 62
     3
100
AcDbLine
 10
1312.499994769685
 20
1795.000014215685
 30
0.0
 11
1312.499994769685
 21
1724.99998578427
 31
0.0
  0
LINE
  5
3E8
330
1F
100
AcDbEntity
  8
Ｓ_１_１
  6
CONTINUOUS
 62
     3
100
AcDbLine
 10
1217.499993786209
 20
1795.000014215685
 30
0.0
 11
1217.499993786209
 21
1724.99998578427
 31
0.0
  0
LINE
  5
3E9
330
1F
100
AcDbEntity
  8
Ｓ_１_１
  6
CONTINUOUS
 62
     3
100
AcDbLine
 10
1212.500001564615
 20
1795.000014215685
 30
0.0
 11
1212.500001564615
 21
1724.99998578427
 31
0.0
  0
LINE
  5
3EA
330
1F
100
AcDbEntity
  8
Ｓ_１_１
  6
CONTINUOUS
 62
     3
100
AcDbLine
 10
1117.50001202523
 20
1795.000014215685
 30
0.0
 11
1117.50001202523
 21
1724.99998578427
 31
0.0
  0
LINE
  5
3EB
330
1F
100
AcDbEntity
  8
Ｓ_１_１
  6
CONTINUOUS
 62
     3
100
AcDbLine
 10
1112.500019803636
 20
1795.000014215685
 30
0.0
 11
1112.500019803636
 21
1724.99998578427
 31
0.0
  0
CIRCLE
  5
3EC
330
1F
100
AcDbEntity
  8
Ｓ_１_１
  6
CONTINUOUS
 62
     3
100
AcDbCircle
 10
1264.999999999993
 20
1759.999999999977
 30
0.0
 40
14.99999955296518
  0
CIRCLE
  5
3ED
330
1F
100
AcDbEntity
  8
Ｓ_１_１
  6
CONTINUOUS
 62
     3
100
AcDbCircle
 10
1264.999999999993
 20
1759.999999999977
 30
0.0
 40
25.00000116229054
  0
LINE
  5
3EE
330
1F
100
AcDbEntity
  8
Ｓ_１_１
  6
CONTINUOUS
 62
     3
100
AcDbLine
 10
917.4999798387215
 20
1799.999983549096
 30
0.0
 11
917.4999798387215
 21
1869.999989092328
 31
0.0
  0
LINE
  5
3EF
330
1F
100
AcDbEntity
  8
Ｓ_１_１
  6
CONTINUOUS
 62
     3
100
AcDbLine
 10
1417.499988779418
 20
1795.000014215685
 30
0.0
 11
1417.499988779418
 21
1724.99998578427
 31
0.0
  0
LINE
  5
3F0
330
1F
100
AcDbEntity
  8
Ｓ_１_１
  6
CONTINUOUS
 62
     3
100
AcDbLine
 10
1412.499999418847
 20
1795.000014215685
 30
0.0
 11
1412.499999418847
 21
1724.99998578427
 31
0.0
  0
LINE
  5
3F1
330
1F
100
AcDbEntity
  8
Ｓ_１_１
  6
CONTINUOUS
 62
     3
100
AcDbLine
 10
917.4999798387215
 20
1795.000014215685
 30
0.0
 11
917.4999798387215
 21
1773.74999999999
 31
0.0
  0
LINE
  5
3F2
330
1F
100
AcDbEntity
  8
Ｓ_１_１
  6
CONTINUOUS
 62
     3
100
AcDbLine
 10
917.4999798387215
 20
1745.74999999999
 30
0.0
 11
917.4999798387215
 21
1724.99998578427
 31
0.0
  0
LINE
  5
3F3
330
1F
100
AcDbEntity
  8
Ｓ_１_１
  6
CONTINUOUS
 62
     3
100
AcDbLine
 10
912.5000105053114
 20
1795.000014215685
 30
0.0
 11
912.5000105053114
 21
1773.74999999999
 31
0.0
  0
LINE
  5
3F4
330
1F
100
AcDbEntity
  8
Ｓ_１_１
  6
CONTINUOUS
 62
     3
100
AcDbLine
 10
912.5000105053114
 20
1745.74999999999
 30
0.0
 11
912.5000105053114
 21
1724.99998578427
 31
0.0
  0
LINE
  5
3F5
330
1F
100
AcDbEntity
  8
Ｓ_１_１
  6
CONTINUOUS
 62
     3
100
AcDbLine
 10
1124.530418999999
 20
2123.94849299999
 30
0.0
 11
1106.976623999999
 21
2116.67747299999
 31
0.0
  0
LINE
  5
3F6
330
1F
100
AcDbEntity
  8
Ｓ_１_１
  6
CONTINUOUS
 62
     3
100
AcDbLine
 10
1106.976623999999
 20
2116.67747299999
 30
0.0
 11
1161.519172999999
 21
1985.000111999991
 31
0.0
  0
LINE
  5
3F7
330
1F
100
AcDbEntity
  8
Ｓ_１_１
  6
CONTINUOUS
 62
     3
100
AcDbLine
 10
1124.530418999999
 20
2123.94849299999
 30
0.0
 11
1182.084754999998
 21
1985.00003599999
 31
0.0
  0
LINE
  5
3F8
330
1F
100
AcDbEntity
  8
Ｓ_１_１
  6
CONTINUOUS
 62
     3
100
AcDbLine
 10
1423.02341
 20
2116.67753699999
 30
0.0
 11
1405.469754999998
 21
2123.948498999989
 31
0.0
  0
LINE
  5
3F9
330
1F
100
AcDbEntity
  8
Ｓ_１_１
  6
CONTINUOUS
 62
     3
100
AcDbLine
 10
1405.469754999998
 20
2123.948498999989
 30
0.0
 11
1347.915418999999
 21
1985.000041999991
 31
0.0
  0
LINE
  5
3FA
330
1F
100
AcDbEntity
  8
Ｓ_１_１
  6
CONTINUOUS
 62
     3
100
AcDbLine
 10
1423.02341
 20
2116.67753699999
 30
0.0
 11
1368.480772999999
 21
1984.99996499999
 31
0.0
  0
LINE
  5
3FB
330
1F
100
AcDbEntity
  8
Ｓ_１_１
  6
CONTINUOUS
 62
     3
100
AcDbLine
 10
1405.469754999998
 20
2123.948498999989
 30
0.0
 11
1423.02341
 21
2116.67753699999
 31
0.0
  0
LINE
  5
3FC
330
1F
100
AcDbEntity
  8
Ｓ_１_１
  6
CONTINUOUS
 62
     3
100
AcDbLine
 10
1106.976623999999
 20
2116.67747299999
 30
0.0
 11
1124.530418999999
 21
2123.94849299999
 31
0.0
  0
LINE
  5
3FD
330
1F
100
AcDbEntity
  8
Ｓ_１_１
  6
CONTINUOUS
 62
     3
100
AcDbLine
 10
865.0000059999984
 20
2129.99984199999
 30
0.0
 11
865.0000059999984
 21
1390.00015799999
 31
0.0
  0
LINE
  5
3FE
330
1F
100
AcDbEntity
  8
Ｓ_１_１
  6
CONTINUOUS
 62
     3
100
AcDbLine
 10
1664.999994
 20
2130.000146999989
 30
0.0
 11
1664.999994
 21
1390.00015799999
 31
0.0
  0
LINE
  5
3FF
330
1F
100
AcDbEntity
  8
Ｓ_１_１
  6
CONTINUOUS
 62
     3
100
AcDbLine
 10
1635.000017999999
 20
1360.000134999989
 30
0.0
 11
1664.999995999999
 21
1390.000112999989
 31
0.0
  0
LINE
  5
400
330
1F
100
AcDbEntity
  8
Ｓ_１_１
  6
CONTINUOUS
 62
     3
100
AcDbLine
 10
895.0003089999991
 20
1359.999919999989
 30
0.0
 11
865.0000619999992
 21
1390.000166999989
 31
0.0
  0
LINE
  5
401
330
1F
100
AcDbEntity
  8
Ｓ_１_１
  6
CONTINUOUS
 62
     3
100
AcDbLine
 10
895.000039999999
 20
2160.00006899999
 30
0.0
 11
864.9998999999989
 21
2129.99992899999
 31
0.0
  0
LINE
  5
402
330
1F
100
AcDbEntity
  8
Ｓ_１_１
  6
CONTINUOUS
 62
     3
100
AcDbLine
 10
1665.000022999999
 20
2130.00006399999
 30
0.0
 11
1634.999990999999
 21
2160.00009599999
 31
0.0
  0
LINE
  5
403
330
1F
100
AcDbEntity
  8
Ｓ_１_１
  6
CONTINUOUS
 62
     3
100
AcDbLine
 10
1634.999994
 20
1360.00015899999
 30
0.0
 11
895.000004999998
 21
1360.00015899999
 31
0.0
  0
LINE
  5
404
330
1F
100
AcDbEntity
  8
Ｓ_１_１
  6
CONTINUOUS
 62
     3
100
AcDbLine
 10
1634.999994
 20
2159.99984199999
 30
0.0
 11
895.000004999998
 21
2159.99984199999
 31
0.0
  0
LINE
  5
405
330
1F
100
AcDbEntity
  8
Ｓ_１_１
  6
CONTINUOUS
 62
     3
100
AcDbLine
 10
1124.530347999998
 20
1396.051548999991
 30
0.0
 11
1106.976692999999
 21
1403.322510999989
 31
0.0
  0
LINE
  5
406
330
1F
100
AcDbEntity
  8
Ｓ_１_１
  6
CONTINUOUS
 62
     3
100
AcDbLine
 10
1106.976692999999
 20
1403.322510999989
 30
0.0
 11
1161.519316
 21
1535.000047999991
 31
0.0
  0
LINE
  5
407
330
1F
100
AcDbEntity
  8
Ｓ_１_１
  6
CONTINUOUS
 62
     3
100
AcDbLine
 10
1124.530347999998
 20
1396.051548999991
 30
0.0
 11
1182.084728
 21
1535.000111999991
 31
0.0
  0
LINE
  5
408
330
1F
100
AcDbEntity
  8
Ｓ_１_１
  6
CONTINUOUS
 62
     3
100
AcDbLine
 10
1423.023354999999
 20
1403.32241099999
 30
0.0
 11
1405.4697
 21
1396.05144899999
 31
0.0
  0
LINE
  5
409
330
1F
100
AcDbEntity
  8
Ｓ_１_１
  6
CONTINUOUS
 62
     3
100
AcDbLine
 10
1405.4697
 20
1396.05144899999
 30
0.0
 11
1347.915363999999
 21
1534.99990599999
 31
0.0
  0
LINE
  5
40A
330
1F
100
AcDbEntity
  8
Ｓ_１_１
  6
CONTINUOUS
 62
     3
100
AcDbLine
 10
1423.023354999999
 20
1403.32241099999
 30
0.0
 11
1368.480687999998
 21
1535.000053999989
 31
0.0
  0
LINE
  5
40B
330
1F
100
AcDbEntity
  8
Ｓ_１_１
  6
CONTINUOUS
 62
     3
100
AcDbLine
 10
865.0000059999984
 20
1617.50000199999
 30
0.0
 11
865.0000059999984
 21
1390.00015799999
 31
0.0
  0
LINE
  5
40C
330
1F
100
AcDbEntity
  8
Ｓ_１_１
  6
CONTINUOUS
 62
     3
100
AcDbLine
 10
895.0003089999991
 20
1359.999919999989
 30
0.0
 11
865.0000619999992
 21
1390.000166999989
 31
0.0
  0
LINE
  5
40D
330
1F
100
AcDbEntity
  8
Ｓ_１_１
  6
CONTINUOUS
 62
     3
100
AcDbLine
 10
1635.000017999999
 20
1360.000134999989
 30
0.0
 11
1664.999995999999
 21
1390.000112999989
 31
0.0
  0
LINE
  5
40E
330
1F
100
AcDbEntity
  8
Ｓ_１_１
  6
CONTINUOUS
 62
     3
100
AcDbLine
 10
1634.999990999999
 20
2160.00009599999
 30
0.0
 11
1665.000237999999
 21
2129.99984899999
 31
0.0
  0
LINE
  5
40F
330
1F
100
AcDbEntity
  8
Ｓ_１_１
  6
CONTINUOUS
 62
     3
100
AcDbLine
 10
865.0000619999992
 20
2130.00009099999
 30
0.0
 11
895.000039999999
 21
2160.00006899999
 31
0.0
  0
LINE
  5
410
330
1F
100
AcDbEntity
  8
Ｓ_１_１
  6
CONTINUOUS
 62
     3
100
AcDbLine
 10
865.0000059999984
 20
2129.99984199999
 30
0.0
 11
865.0000059999984
 21
1902.499844999989
 31
0.0
  0
LINE
  5
411
330
1F
100
AcDbEntity
  8
Ｓ_１_１
  6
CONTINUOUS
 62
     3
100
AcDbLine
 10
895.000004999998
 20
1360.00015899999
 30
0.0
 11
1634.999994
 21
1360.00015899999
 31
0.0
  0
LINE
  5
412
330
1F
100
AcDbEntity
  8
Ｓ_１_１
  6
CONTINUOUS
 62
     3
100
AcDbLine
 10
895.000004999998
 20
2159.99984199999
 30
0.0
 11
1634.999994
 21
2159.99984199999
 31
0.0
  0
LINE
  5
413
330
1F
100
AcDbEntity
  8
Ｓ_１_１
  6
CONTINUOUS
 62
     3
100
AcDbLine
 10
1405.4697
 20
1396.05144899999
 30
0.0
 11
1423.023354999999
 21
1403.32241099999
 31
0.0
  0
LINE
  5
414
330
1F
100
AcDbEntity
  8
Ｓ_１_１
  6
CONTINUOUS
 62
     3
100
AcDbLine
 10
1106.976692999999
 20
1403.322510999989
 30
0.0
 11
1124.530347999998
 21
1396.051548999991
 31
0.0
  0
LINE
  5
415
330
1F
100
AcDbEntity
  8
Ｓ_１_１
  6
EXLTYPE0
 62
     2
100
AcDbLine
 10
879.9999809563096
 20
1739.999985337236
 30
0.0
 11
1182.386454183259
 21
1739.999985337236
 31
0.0
  0
LINE
  5
416
330
1F
100
AcDbEntity
  8
Ｓ_１_１
  6
EXLTYPE0
 62
     2
100
AcDbLine
 10
879.9999809563096
 20
1780.00001466272
 30
0.0
 11
1182.386454183259
 21
1780.00001466272
 31
0.0
  0
LINE
  5
417
330
1F
100
AcDbEntity
  8
Ｓ_１_１
  6
EXLTYPE0
 62
     2
100
AcDbLine
 10
1028.261652718085
 20
1901.350446805537
 30
0.0
 11
1051.204727552409
 21
1934.116553114402
 31
0.0
  0
LINE
  5
418
330
1F
100
AcDbEntity
  8
Ｓ_１_１
  6
EXLTYPE0
 62
     2
100
AcDbLine
 10
1182.932418117427
 20
1927.002723805936
 30
0.0
 11
1220.520128825021
 21
1940.683532167595
 31
0.0
  0
LINE
  5
419
330
1F
100
AcDbEntity
  8
Ｓ_１_１
  6
EXLTYPE0
 62
     2
100
AcDbLine
 10
1312.670262116273
 20
1939.449047510614
 30
0.0
 11
1350.25796459039
 21
1925.768242145695
 31
0.0
  0
LINE
  5
41A
330
1F
100
AcDbEntity
  8
Ｓ_１_１
  6
EXLTYPE0
 62
     2
100
AcDbLine
 10
1478.795272482494
 20
1934.116544414097
 30
0.0
 11
1501.738334188694
 21
1901.350456854134
 31
0.0
  0
LINE
  5
41B
330
1F
100
AcDbEntity
  8
Ｓ_１_１
  6
EXLTYPE0
 62
     2
100
AcDbLine
 10
1478.795272482494
 20
1585.883455585859
 30
0.0
 11
1501.738334188694
 21
1618.649543145822
 31
0.0
  0
LINE
  5
41C
330
1F
100
AcDbEntity
  8
Ｓ_１_１
  6
EXLTYPE0
 62
     2
100
AcDbLine
 10
1312.670262116273
 20
1580.550952489341
 30
0.0
 11
1350.25796459039
 21
1594.231757854261
 31
0.0
  0
LINE
  5
41D
330
1F
100
AcDbEntity
  8
Ｓ_１_１
  6
EXLTYPE0
 62
     2
100
AcDbLine
 10
1182.932418117427
 20
1592.99727619402
 30
0.0
 11
1220.520128825021
 21
1579.31646783236
 31
0.0
  0
LINE
  5
41E
330
1F
100
AcDbEntity
  8
Ｓ_１_１
  6
EXLTYPE0
 62
     2
100
AcDbLine
 10
1028.261652718085
 20
1618.649553194418
 30
0.0
 11
1051.204727552409
 21
1585.883446885553
 31
0.0
  0
LINE
  5
41F
330
1F
100
AcDbEntity
  8
Ｓ_１_１
  6
EXLTYPE0
 62
     2
100
AcDbLine
 10
980.0000084936546
 20
1542.000014126278
 30
0.0
 11
1069.999982923262
 21
1542.000014126278
 31
0.0
  0
CIRCLE
  5
420
330
1F
100
AcDbEntity
  8
Ｓ_１_１
  6
EXLTYPE0
 62
     2
100
AcDbCircle
 10
980.0000084936546
 20
1550.000006258465
 30
0.0
 40
8.0
  0
LINE
  5
421
330
1F
100
AcDbEntity
  8
Ｓ_１_１
  6
EXLTYPE0
 62
     2
100
AcDbLine
 10
980.0000084936546
 20
1558.000021278835
 30
0.0
 11
1069.999982923262
 21
1558.000021278835
 31
0.0
  0
CIRCLE
  5
422
330
1F
100
AcDbEntity
  8
Ｓ_１_１
  6
EXLTYPE0
 62
     2
100
AcDbCircle
 10
1069.999982923262
 20
1550.000006258465
 30
0.0
 40
8.0
  0
LINE
  5
423
330
1F
100
AcDbEntity
  8
Ｓ_１_１
  6
EXLTYPE0
 62
     2
100
AcDbLine
 10
1550.000002950423
 20
1542.000014126278
 30
0.0
 11
1460.000014215701
 21
1542.000014126278
 31
0.0
  0
LINE
  5
424
330
1F
100
AcDbEntity
  8
Ｓ_１_１
  6
EXLTYPE0
 62
     2
100
AcDbLine
 10
1550.000002950423
 20
1558.000021278835
 30
0.0
 11
1460.000014215701
 21
1558.000021278835
 31
0.0
  0
CIRCLE
  5
425
330
1F
100
AcDbEntity
  8
Ｓ_１_１
  6
EXLTYPE0
 62
     2
100
AcDbCircle
 10
1460.000014215701
 20
1550.000006258465
 30
0.0
 40
8.0
  0
CIRCLE
  5
426
330
1F
100
AcDbEntity
  8
Ｓ_１_１
  6
EXLTYPE0
 62
     2
100
AcDbCircle
 10
1550.000002950423
 20
1550.000006258465
 30
0.0
 40
8.0
  0
LINE
  5
427
330
1F
100
AcDbEntity
  8
Ｓ_１_１
  6
EXLTYPE0
 62
     2
100
AcDbLine
 10
1550.000002950423
 20
1961.999978721121
 30
0.0
 11
1460.000014215701
 21
1961.999978721121
 31
0.0
  0
LINE
  5
428
330
1F
100
AcDbEntity
  8
Ｓ_１_１
  6
EXLTYPE0
 62
     2
100
AcDbLine
 10
1550.000002950423
 20
1977.999985873677
 30
0.0
 11
1460.000014215701
 21
1977.999985873677
 31
0.0
  0
CIRCLE
  5
429
330
1F
100
AcDbEntity
  8
Ｓ_１_１
  6
EXLTYPE0
 62
     2
100
AcDbCircle
 10
1460.000014215701
 20
1969.99999374149
 30
0.0
 40
8.0
  0
CIRCLE
  5
42A
330
1F
100
AcDbEntity
  8
Ｓ_１_１
  6
EXLTYPE0
 62
     2
100
AcDbCircle
 10
1550.000002950423
 20
1969.99999374149
 30
0.0
 40
8.0
  0
LINE
  5
42B
330
1F
100
AcDbEntity
  8
Ｓ_１_１
  6
EXLTYPE0
 62
     2
100
AcDbLine
 10
980.0000084936546
 20
1977.999985873677
 30
0.0
 11
1069.999982923262
 21
1977.999985873677
 31
0.0
  0
CIRCLE
  5
42C
330
1F
100
AcDbEntity
  8
Ｓ_１_１
  6
EXLTYPE0
 62
     2
100
AcDbCircle
 10
980.0000084936546
 20
1969.99999374149
 30
0.0
 40
8.0
  0
LINE
  5
42D
330
1F
100
AcDbEntity
  8
Ｓ_１_１
  6
EXLTYPE0
 62
     2
100
AcDbLine
 10
980.0000084936546
 20
1961.99997872112
 30
0.0
 11
1069.999982923262
 21
1961.99997872112
 31
0.0
  0
CIRCLE
  5
42E
330
1F
100
AcDbEntity
  8
Ｓ_１_１
  6
EXLTYPE0
 62
     2
100
AcDbCircle
 10
1069.999982923262
 20
1969.99999374149
 30
0.0
 40
8.0
  0
LINE
  5
42F
330
1F
100
AcDbEntity
  8
Ｓ_１_１
  6
EXLTYPE0
 62
     2
100
AcDbLine
 10
1347.613557260818
 20
1739.999985337236
 30
0.0
 11
1649.999950379128
 21
1739.999985337236
 31
0.0
  0
LINE
  5
430
330
1F
100
AcDbEntity
  8
Ｓ_１_１
  6
EXLTYPE0
 62
     2
100
AcDbLine
 10
1649.999950379128
 20
1780.00001466272
 30
0.0
 11
1649.999950379128
 21
1739.999985337236
 31
0.0
  0
LINE
  5
431
330
1F
100
AcDbEntity
  8
Ｓ_１_１
  6
EXLTYPE0
 62
     2
100
AcDbLine
 10
1347.613557260818
 20
1780.00001466272
 30
0.0
 11
1649.999950379128
 21
1780.00001466272
 31
0.0
  0
CIRCLE
  5
432
330
1F
100
AcDbEntity
  8
Ｓ_１_１
  6
EXLTYPE0
 62
     2
100
AcDbCircle
 10
1264.999999999993
 20
1759.999999999977
 30
0.0
 40
84.99999937415123
  0
LINE
  5
433
330
1F
100
AcDbEntity
  8
Ｓ_１_１
  6
EXLTYPE0
 62
     2
100
AcDbLine
 10
1323.156399030895
 20
1825.137031039215
 30
0.0
 11
1478.795272482494
 21
1934.116544414097
 31
0.0
  0
LINE
  5
434
330
1F
100
AcDbEntity
  8
Ｓ_１_１
  6
EXLTYPE0
 62
     2
100
AcDbLine
 10
1346.099460737096
 20
1792.370943479252
 30
0.0
 11
1501.738334188694
 21
1901.350456854134
 31
0.0
  0
LINE
  5
435
330
1F
100
AcDbEntity
  8
Ｓ_１_１
  6
EXLTYPE0
 62
     2
100
AcDbLine
 10
1346.099460737096
 20
1792.370943479252
 30
0.0
 11
1323.156399030895
 21
1825.137031039215
 31
0.0
  0
LINE
  5
436
330
1F
100
AcDbEntity
  8
Ｓ_１_１
  6
EXLTYPE0
 62
     2
100
AcDbLine
 10
1358.386741366354
 20
1800.97459007461
 30
0.0
 11
1335.443679660155
 21
1833.740677634574
 31
0.0
  0
LINE
  5
437
330
1F
100
AcDbEntity
  8
Ｓ_１_１
  6
EXLTYPE0
 62
     2
100
AcDbLine
 10
1316.055957912254
 20
1831.799004462368
 30
0.0
 11
1350.25796459039
 21
1925.768242145695
 31
0.0
  0
LINE
  5
438
330
1F
100
AcDbEntity
  8
Ｓ_１_１
  6
EXLTYPE0
 62
     2
100
AcDbLine
 10
1278.468255438138
 20
1845.479809827288
 30
0.0
 11
1312.670262116273
 21
1939.449047510614
 31
0.0
  0
LINE
  5
439
330
1F
100
AcDbEntity
  8
Ｓ_１_１
  6
EXLTYPE0
 62
     2
100
AcDbLine
 10
1316.055957912254
 20
1831.799004462368
 30
0.0
 11
1278.468255438138
 21
1845.479809827288
 31
0.0
  0
LINE
  5
43A
330
1F
100
AcDbEntity
  8
Ｓ_１_１
  6
EXLTYPE0
 62
     2
100
AcDbLine
 10
1220.520128825021
 20
1940.683532167595
 30
0.0
 11
1254.745686366694
 21
1846.649589020803
 31
0.0
  0
LINE
  5
43B
330
1F
100
AcDbEntity
  8
Ｓ_１_１
  6
EXLTYPE0
 62
     2
100
AcDbLine
 10
1182.932418117427
 20
1927.002723805936
 30
0.0
 11
1217.157975659102
 21
1832.968780659144
 31
0.0
  0
LINE
  5
43C
330
1F
100
AcDbEntity
  8
Ｓ_１_１
  6
EXLTYPE0
 62
     2
100
AcDbLine
 10
1217.157975659102
 20
1832.968780659144
 30
0.0
 11
1254.745686366694
 21
1846.649589020803
 31
0.0
  0
LINE
  5
43D
330
1F
100
AcDbEntity
  8
Ｓ_１_１
  6
EXLTYPE0
 62
     2
100
AcDbLine
 10
1316.055957912254
 20
1688.200995537587
 30
0.0
 11
1278.468255438138
 21
1674.520190172667
 31
0.0
  0
LINE
  5
43E
330
1F
100
AcDbEntity
  8
Ｓ_１_１
  6
EXLTYPE0
 62
     2
100
AcDbLine
 10
1217.157975659102
 20
1687.031219340812
 30
0.0
 11
1254.745686366694
 21
1673.350410979152
 31
0.0
  0
LINE
  5
43F
330
1F
100
AcDbEntity
  8
Ｓ_１_１
  6
EXLTYPE0
 62
     2
100
AcDbLine
 10
1346.099460737096
 20
1727.629056520704
 30
0.0
 11
1323.156399030895
 21
1694.86296896074
 31
0.0
  0
LINE
  5
440
330
1F
100
AcDbEntity
  8
Ｓ_１_１
  6
EXLTYPE0
 62
     2
100
AcDbLine
 10
1183.90053926289
 20
1792.370943479252
 30
0.0
 11
1206.843600969092
 21
1825.137031039215
 31
0.0
  0
LINE
  5
441
330
1F
100
AcDbEntity
  8
Ｓ_１_１
  6
EXLTYPE0
 62
     2
100
AcDbLine
 10
1183.90053926289
 20
1727.629056520704
 30
0.0
 11
1206.84360096909
 21
1694.86296896074
 31
0.0
  0
LINE
  5
442
330
1F
100
AcDbEntity
  8
Ｓ_１_１
  6
EXLTYPE0
 62
     2
100
AcDbLine
 10
1278.468255438138
 20
1674.520190172667
 30
0.0
 11
1312.670262116273
 21
1580.550952489341
 31
0.0
  0
LINE
  5
443
330
1F
100
AcDbEntity
  8
Ｓ_１_１
  6
EXLTYPE0
 62
     2
100
AcDbLine
 10
1316.055957912254
 20
1688.200995537587
 30
0.0
 11
1350.25796459039
 21
1594.231757854261
 31
0.0
  0
LINE
  5
444
330
1F
100
AcDbEntity
  8
Ｓ_１_１
  6
EXLTYPE0
 62
     2
100
AcDbLine
 10
1220.520128825021
 20
1579.31646783236
 30
0.0
 11
1254.745686366694
 21
1673.350410979151
 31
0.0
  0
LINE
  5
445
330
1F
100
AcDbEntity
  8
Ｓ_１_１
  6
EXLTYPE0
 62
     2
100
AcDbLine
 10
1182.932418117427
 20
1592.99727619402
 30
0.0
 11
1217.157975659102
 21
1687.031219340812
 31
0.0
  0
LINE
  5
446
330
1F
100
AcDbEntity
  8
Ｓ_１_１
  6
EXLTYPE0
 62
     2
100
AcDbLine
 10
1028.261652718085
 20
1618.649553194418
 30
0.0
 11
1183.900530234063
 21
1727.629069415207
 31
0.0
  0
LINE
  5
447
330
1F
100
AcDbEntity
  8
Ｓ_１_１
  6
EXLTYPE0
 62
     2
100
AcDbLine
 10
1051.204727552409
 20
1585.883446885553
 30
0.0
 11
1206.843605068385
 21
1694.862963106342
 31
0.0
  0
LINE
  5
448
330
1F
100
AcDbEntity
  8
Ｓ_１_１
  6
EXLTYPE0
 62
     2
100
AcDbLine
 10
1028.261652718085
 20
1901.350446805537
 30
0.0
 11
1183.900530234061
 21
1792.370930584747
 31
0.0
  0
LINE
  5
449
330
1F
100
AcDbEntity
  8
Ｓ_１_１
  6
EXLTYPE0
 62
     2
100
AcDbLine
 10
1051.204727552409
 20
1934.116553114402
 30
0.0
 11
1206.843605068385
 21
1825.137036893612
 31
0.0
  0
LINE
  5
44A
330
1F
100
AcDbEntity
  8
Ｓ_１_１
  6
EXLTYPE0
 62
     2
100
AcDbLine
 10
1346.099460737096
 20
1727.629056520704
 30
0.0
 11
1501.738334188694
 21
1618.649543145822
 31
0.0
  0
LINE
  5
44B
330
1F
100
AcDbEntity
  8
Ｓ_１_１
  6
EXLTYPE0
 62
     2
100
AcDbLine
 10
1323.156399030895
 20
1694.86296896074
 30
0.0
 11
1478.795272482494
 21
1585.883455585859
 31
0.0
  0
LINE
  5
44C
330
1F
100
AcDbEntity
  8
Ｓ_１_１
  6
EXLTYPE0
 62
     2
100
AcDbLine
 10
1321.186260224358
 20
1845.894393715114
 30
0.0
 11
1283.598557750242
 21
1859.575199080035
 31
0.0
  0
LINE
  5
44D
330
1F
100
AcDbEntity
  8
Ｓ_１_１
  6
EXLTYPE0
 62
     2
100
AcDbLine
 10
879.9999809563096
 20
1780.00001466272
 30
0.0
 11
879.9999809563096
 21
1773.74999999999
 31
0.0
  0
LINE
  5
44E
330
1F
100
AcDbEntity
  8
Ｓ_１_１
  6
EXLTYPE0
 62
     2
100
AcDbLine
 10
879.9999809563096
 20
1745.74999999999
 30
0.0
 11
879.9999809563096
 21
1739.999985337236
 31
0.0
  0
LINE
  5
44F
330
1F
100
AcDbEntity
  8
Ｓ_１_１
  6
EXLTYPE2
 62
     1
100
AcDbLine
 10
1265.000000000013
 20
2184.43173892149
 30
0.0
 11
1265.000000000013
 21
1334.03173892149
 31
0.0
  0
LINE
  5
450
330
1F
100
AcDbEntity
  8
Ｓ_１_１
  6
EXLTYPE2
 62
     1
100
AcDbLine
 10
1614.999959051604
 20
1987.999993294456
 30
0.0
 11
1614.999959051604
 21
1532.0000067055
 31
0.0
  0
LINE
  5
451
330
1F
100
AcDbEntity
  8
Ｓ_１_１
  6
EXLTYPE2
 62
     1
100
AcDbLine
 10
1579.999956279988
 20
1947.49997152386
 30
0.0
 11
1667.999949932093
 21
1947.49997152386
 31
0.0
  0
LINE
  5
452
330
1F
100
AcDbEntity
  8
Ｓ_１_１
  6
EXLTYPE2
 62
     1
100
AcDbLine
 10
1579.999956279988
 20
1872.499996647217
 30
0.0
 11
1667.999949932093
 21
1872.499996647217
 31
0.0
  0
LINE
  5
453
330
1F
100
AcDbEntity
  8
Ｓ_１_１
  6
EXLTYPE2
 62
     1
100
AcDbLine
 10
1579.999956279988
 20
1797.499998882391
 30
0.0
 11
1667.999949932093
 21
1797.499998882391
 31
0.0
  0
LINE
  5
454
330
1F
100
AcDbEntity
  8
Ｓ_１_１
  6
EXLTYPE2
 62
     1
100
AcDbLine
 10
1579.999956279988
 20
1722.500001117565
 30
0.0
 11
1667.999949932093
 21
1722.500001117565
 31
0.0
  0
LINE
  5
455
330
1F
100
AcDbEntity
  8
Ｓ_１_１
  6
EXLTYPE2
 62
     1
100
AcDbLine
 10
861.9999814033437
 20
1872.499996647216
 30
0.0
 11
950.0000093877243
 21
1872.499996647216
 31
0.0
  0
LINE
  5
456
330
1F
100
AcDbEntity
  8
Ｓ_１_１
  6
EXLTYPE2
 62
     1
100
AcDbLine
 10
861.9999814033437
 20
1947.499971523859
 30
0.0
 11
950.0000093877243
 21
1947.499971523859
 31
0.0
  0
LINE
  5
457
330
1F
100
AcDbEntity
  8
Ｓ_１_１
  6
EXLTYPE2
 62
     1
100
AcDbLine
 10
861.9999814033437
 20
1797.49999888239
 30
0.0
 11
950.0000093877243
 21
1797.49999888239
 31
0.0
  0
LINE
  5
458
330
1F
100
AcDbEntity
  8
Ｓ_１_１
  6
EXLTYPE2
 62
     1
100
AcDbLine
 10
861.9999814033437
 20
1722.500001117565
 30
0.0
 11
950.0000093877243
 21
1722.500001117565
 31
0.0
  0
LINE
  5
459
330
1F
100
AcDbEntity
  8
Ｓ_１_１
  6
EXLTYPE2
 62
     1
100
AcDbLine
 10
861.9999814033437
 20
1647.500003352739
 30
0.0
 11
950.0000093877243
 21
1647.500003352739
 31
0.0
  0
LINE
  5
45A
330
1F
100
AcDbEntity
  8
Ｓ_１_１
  6
EXLTYPE2
 62
     1
100
AcDbLine
 10
861.9999814033437
 20
1572.500028476096
 30
0.0
 11
950.0000093877243
 21
1572.500028476096
 31
0.0
  0
LINE
  5
45B
330
1F
100
AcDbEntity
  8
Ｓ_１_１
  6
EXLTYPE2
 62
     1
100
AcDbLine
 10
966.655648539785
 20
1550.000006258465
 30
0.0
 11
1081.539884312744
 21
1550.000006258465
 31
0.0
  0
LINE
  5
45C
330
1F
100
AcDbEntity
  8
Ｓ_１_１
  6
EXLTYPE2
 62
     1
100
AcDbLine
 10
980.0000084936546
 20
1559.500021234132
 30
0.0
 11
980.0000084936546
 21
1540.500014170982
 31
0.0
  0
LINE
  5
45D
330
1F
100
AcDbEntity
  8
Ｓ_１_１
  6
EXLTYPE2
 62
     1
100
AcDbLine
 10
1069.999982923262
 20
1559.500021234132
 30
0.0
 11
1069.999982923262
 21
1540.500014170982
 31
0.0
  0
LINE
  5
45E
330
1F
100
AcDbEntity
  8
Ｓ_１_１
  6
EXLTYPE2
 62
     1
100
AcDbLine
 10
1015.000022709362
 20
1987.999993294456
 30
0.0
 11
1015.000022709362
 21
1532.0000067055
 31
0.0
  0
LINE
  5
45F
330
1F
100
AcDbEntity
  8
Ｓ_１_１
  6
EXLTYPE2
 62
     1
100
AcDbLine
 10
980.0000084936546
 20
1572.500028476096
 30
0.0
 11
1549.999957174057
 21
1572.500028476096
 31
0.0
  0
LINE
  5
460
330
1F
100
AcDbEntity
  8
Ｓ_１_１
  6
EXLTYPE2
 62
     1
100
AcDbLine
 10
980.0000084936546
 20
1647.500003352739
 30
0.0
 11
1549.999957174057
 21
1647.500003352739
 31
0.0
  0
LINE
  5
461
330
1F
100
AcDbEntity
  8
Ｓ_１_１
  6
EXLTYPE2
 62
     1
100
AcDbLine
 10
980.0000084936546
 20
1722.500001117565
 30
0.0
 11
1549.999957174057
 21
1722.500001117565
 31
0.0
  0
LINE
  5
462
330
1F
100
AcDbEntity
  8
Ｓ_１_１
  6
EXLTYPE2
 62
     1
100
AcDbLine
 10
980.0000084936546
 20
1797.49999888239
 30
0.0
 11
1549.999957174057
 21
1797.499998882391
 31
0.0
  0
LINE
  5
463
330
1F
100
AcDbEntity
  8
Ｓ_１_１
  6
EXLTYPE2
 62
     1
100
AcDbLine
 10
980.0000084936546
 20
1872.499996647216
 30
0.0
 11
1549.999957174057
 21
1872.499996647217
 31
0.0
  0
LINE
  5
464
330
1F
100
AcDbEntity
  8
Ｓ_１_１
  6
EXLTYPE2
 62
     1
100
AcDbLine
 10
1037.052572026889
 20
1919.610488982789
 30
0.0
 11
1195.372074406301
 21
1808.753979009224
 31
0.0
  0
LINE
  5
465
330
1F
100
AcDbEntity
  8
Ｓ_１_１
  6
EXLTYPE2
 62
     1
100
AcDbLine
 10
1115.000027358525
 20
1987.999993294456
 30
0.0
 11
1115.000027358525
 21
1602.500004693843
 31
0.0
  0
LINE
  5
466
330
1F
100
AcDbEntity
  8
Ｓ_１_１
  6
EXLTYPE2
 62
     1
100
AcDbLine
 10
1069.999982923262
 20
1960.499978765823
 30
0.0
 11
1069.999982923262
 21
1979.499985828974
 31
0.0
  0
LINE
  5
467
330
1F
100
AcDbEntity
  8
Ｓ_１_１
  6
EXLTYPE2
 62
     1
100
AcDbLine
 10
966.655648539785
 20
1969.99999374149
 30
0.0
 11
1081.539884312744
 21
1969.99999374149
 31
0.0
  0
LINE
  5
468
330
1F
100
AcDbEntity
  8
Ｓ_１_１
  6
EXLTYPE2
 62
     1
100
AcDbLine
 10
980.0000084936546
 20
1960.499978765823
 30
0.0
 11
980.0000084936546
 21
1979.499985828974
 31
0.0
  0
LINE
  5
469
330
1F
100
AcDbEntity
  8
Ｓ_１_１
  6
EXLTYPE2
 62
     1
100
AcDbLine
 10
1215.000009119503
 20
1987.999993294456
 30
0.0
 11
1215.000009119503
 21
1532.0000067055
 31
0.0
  0
LINE
  5
46A
330
1F
100
AcDbEntity
  8
Ｓ_１_１
  6
EXLTYPE2
 62
     1
100
AcDbLine
 10
980.0000084936546
 20
1947.499971523859
 30
0.0
 11
1549.999957174057
 21
1947.49997152386
 31
0.0
  0
LINE
  5
46B
330
1F
100
AcDbEntity
  8
Ｓ_１_１
  6
EXLTYPE2
 62
     1
100
AcDbLine
 10
1200.483770169831
 20
1937.256911088984
 30
0.0
 11
1235.928297301083
 21
1839.873876639749
 31
0.0
  0
LINE
  5
46C
330
1F
100
AcDbEntity
  8
Ｓ_１_１
  6
EXLTYPE2
 62
     1
100
AcDbLine
 10
1297.262105619766
 20
1838.639399801114
 30
0.0
 11
1333.268882513235
 21
1937.56720272082
 31
0.0
  0
LINE
  5
46D
330
1F
100
AcDbEntity
  8
Ｓ_１_１
  6
EXLTYPE2
 62
     1
100
AcDbLine
 10
1315.000002324574
 20
1987.999993294456
 30
0.0
 11
1315.000002324574
 21
1532.0000067055
 31
0.0
  0
LINE
  5
46E
330
1F
100
AcDbEntity
  8
Ｓ_１_１
  6
EXLTYPE2
 62
     1
100
AcDbLine
 10
1414.999992668621
 20
1987.999993294456
 30
0.0
 11
1414.999992668621
 21
1602.500004693843
 31
0.0
  0
LINE
  5
46F
330
1F
100
AcDbEntity
  8
Ｓ_１_１
  6
EXLTYPE2
 62
     1
100
AcDbLine
 10
1514.999994456761
 20
1987.999993294456
 30
0.0
 11
1514.999994456761
 21
1532.0000067055
 31
0.0
  0
LINE
  5
470
330
1F
100
AcDbEntity
  8
Ｓ_１_１
  6
EXLTYPE2
 62
     1
100
AcDbLine
 10
1563.344340016109
 20
1969.99999374149
 30
0.0
 11
1448.460113005031
 21
1969.99999374149
 31
0.0
  0
LINE
  5
471
330
1F
100
AcDbEntity
  8
Ｓ_１_１
  6
EXLTYPE2
 62
     1
100
AcDbLine
 10
1460.000014215701
 20
1960.499978765824
 30
0.0
 11
1460.000014215701
 21
1979.499985828974
 31
0.0
  0
LINE
  5
472
330
1F
100
AcDbEntity
  8
Ｓ_１_１
  6
EXLTYPE2
 62
     1
100
AcDbLine
 10
1550.000002950423
 20
1960.499978765824
 30
0.0
 11
1550.000002950423
 21
1979.499985828974
 31
0.0
  0
LINE
  5
473
330
1F
100
AcDbEntity
  8
Ｓ_１_１
  6
EXLTYPE2
 62
     1
100
AcDbLine
 10
1550.000002950423
 20
1559.500021234132
 30
0.0
 11
1550.000002950423
 21
1540.500014170982
 31
0.0
  0
LINE
  5
474
330
1F
100
AcDbEntity
  8
Ｓ_１_１
  6
EXLTYPE2
 62
     1
100
AcDbLine
 10
1563.344340016109
 20
1550.000006258465
 30
0.0
 11
1448.460113005032
 21
1550.000006258465
 31
0.0
  0
LINE
  5
475
330
1F
100
AcDbEntity
  8
Ｓ_１_１
  6
EXLTYPE2
 62
     1
100
AcDbLine
 10
1460.000014215701
 20
1559.500021234132
 30
0.0
 11
1460.000014215701
 21
1540.500014170982
 31
0.0
  0
LINE
  5
476
330
1F
100
AcDbEntity
  8
Ｓ_１_１
  6
EXLTYPE2
 62
     1
100
AcDbLine
 10
1579.999956279988
 20
1572.500028476096
 30
0.0
 11
1667.999949932093
 21
1572.500028476096
 31
0.0
  0
LINE
  5
477
330
1F
100
AcDbEntity
  8
Ｓ_１_１
  6
EXLTYPE2
 62
     1
100
AcDbLine
 10
1579.999956279988
 20
1647.500003352739
 30
0.0
 11
1667.999949932093
 21
1647.500003352739
 31
0.0
  0
LINE
  5
478
330
1F
100
AcDbEntity
  8
Ｓ_１_１
  6
EXLTYPE2
 62
     1
100
AcDbLine
 10
1414.999992668621
 20
1575.243177198055
 30
0.0
 11
1414.999992668621
 21
1532.0000067055
 31
0.0
  0
LINE
  5
479
330
1F
100
AcDbEntity
  8
Ｓ_１_１
  6
EXLTYPE2
 62
     1
100
AcDbLine
 10
1414.999992668621
 20
1604.00000464914
 30
0.0
 11
1414.999992668621
 21
1575.999997854211
 31
0.0
  0
LINE
  5
47A
330
1F
100
AcDbEntity
  8
Ｓ_１_１
  6
EXLTYPE2
 62
     1
100
AcDbLine
 10
1297.262105619766
 20
1681.360600198841
 30
0.0
 11
1332.927536696152
 21
1583.370637170216
 31
0.0
  0
LINE
  5
47B
330
1F
100
AcDbEntity
  8
Ｓ_１_１
  6
EXLTYPE2
 62
     1
100
AcDbLine
 10
1200.460593247055
 20
1582.679410841271
 30
0.0
 11
1235.928297301083
 21
1680.126123360206
 31
0.0
  0
LINE
  5
47C
330
1F
100
AcDbEntity
  8
Ｓ_１_１
  6
EXLTYPE2
 62
     1
100
AcDbLine
 10
1036.346983243964
 20
1599.895452428198
 30
0.0
 11
1195.372074406301
 21
1711.246020990731
 31
0.0
  0
LINE
  5
47D
330
1F
100
AcDbEntity
  8
Ｓ_１_１
  6
EXLTYPE2
 62
     1
100
AcDbLine
 10
1334.627904297835
 20
1711.246016685689
 30
0.0
 11
1494.323684916162
 21
1599.425826306198
 31
0.0
  0
LINE
  5
47E
330
1F
100
AcDbEntity
  8
Ｓ_１_１
  6
EXLTYPE2
 62
     1
100
AcDbLine
 10
1334.627904297835
 20
1808.753983314267
 30
0.0
 11
1493.013908543579
 21
1919.657058396347
 31
0.0
  0
LINE
  5
47F
330
1F
100
AcDbEntity
  8
Ｓ_１_１
  6
EXLTYPE2
 62
     1
100
AcDbLine
 10
1115.000027358525
 20
1604.00000464914
 30
0.0
 11
1115.000027358525
 21
1575.999997854211
 31
0.0
  0
LINE
  5
480
330
1F
100
AcDbEntity
  8
Ｓ_１_１
  6
EXLTYPE2
 62
     1
100
AcDbLine
 10
1115.000027358525
 20
1577.499997809507
 30
0.0
 11
1115.000027358525
 21
1532.0000067055
 31
0.0
  0
LINE
  5
481
330
1F
100
AcDbEntity
  8
Ｓ_１_１
  6
EXLTYPE2
 62
     1
100
AcDbLine
 10
995.0000080466198
 20
1677.24035353129
 30
0.0
 11
995.0000080466198
 21
1640.69035353129
 31
0.0
  0
LINE
  5
482
330
1F
100
AcDbEntity
  8
Ｓ_１_１
  6
EXLTYPE2
 62
     1
100
AcDbLine
 10
975.1836939378009
 20
1659.999995350816
 30
0.0
 11
1012.500038042657
 21
1659.999995350816
 31
0.0
  0
LINE
  5
483
330
1F
100
AcDbEntity
  8
Ｓ_１_１
  6
EXLTYPE2
 62
     1
100
AcDbLine
 10
995.0000080466198
 20
1841.69035353129
 30
0.0
 11
995.0000080466198
 21
1878.69035353129
 31
0.0
  0
LINE
  5
484
330
1F
100
AcDbEntity
  8
Ｓ_１_１
  6
EXLTYPE2
 62
     1
100
AcDbLine
 10
976.4836939378001
 20
1860.00000464914
 30
0.0
 11
1012.500038042657
 21
1860.00000464914
 31
0.0
  0
LINE
  5
485
330
1F
100
AcDbEntity
  8
Ｓ_１_１
  6
EXLTYPE2
 62
     1
100
AcDbLine
 10
1097.3336939378
 20
1929.999987304189
 30
0.0
 11
1135.2336939378
 21
1929.999987304189
 31
0.0
  0
LINE
  5
486
330
1F
100
AcDbEntity
  8
Ｓ_１_１
  6
EXLTYPE2
 62
     1
100
AcDbLine
 10
1396.033693937799
 20
1929.999987304189
 30
0.0
 11
1433.9836939378
 21
1929.999987304189
 31
0.0
  0
LINE
  5
487
330
1F
100
AcDbEntity
  8
Ｓ_１_１
  6
EXLTYPE2
 62
     1
100
AcDbLine
 10
1517.499979123466
 20
1860.00000464914
 30
0.0
 11
1553.3836939378
 21
1860.00000464914
 31
0.0
  0
LINE
  5
488
330
1F
100
AcDbEntity
  8
Ｓ_１_１
  6
EXLTYPE2
 62
     1
100
AcDbLine
 10
1534.99998623132
 20
1842.34035353129
 30
0.0
 11
1534.99998623132
 21
1879.24035353129
 31
0.0
  0
LINE
  5
489
330
1F
100
AcDbEntity
  8
Ｓ_１_１
  6
EXLTYPE2
 62
     1
100
AcDbLine
 10
1534.99998623132
 20
1678.44035353129
 30
0.0
 11
1534.99998623132
 21
1640.49035353129
 31
0.0
  0
LINE
  5
48A
330
1F
100
AcDbEntity
  8
Ｓ_１_１
  6
EXLTYPE2
 62
     1
100
AcDbLine
 10
1517.499979123466
 20
1659.999995350816
 30
0.0
 11
1554.7336939378
 21
1659.999995350816
 31
0.0
  0
LINE
  5
48B
330
1F
100
AcDbEntity
  8
Ｓ_１_１
  6
EXLTYPE2
 62
     1
100
AcDbLine
 10
1395.9836939378
 20
1590.000012695767
 30
0.0
 11
1433.033693937799
 21
1590.000012695767
 31
0.0
  0
LINE
  5
48C
330
1F
100
AcDbEntity
  8
Ｓ_１_１
  6
EXLTYPE2
 62
     1
100
AcDbLine
 10
1096.2336939378
 20
1590.000012695767
 30
0.0
 11
1136.2336939378
 21
1590.000012695767
 31
0.0
  0
LINE
  5
48D
330
1F
100
AcDbEntity
  8
Ｓ_１_１
  6
EXLTYPE2
 62
     1
100
AcDbLine
 10
914.9999951720165
 20
1987.999993294456
 30
0.0
 11
914.9999951720165
 21
1773.74999999999
 31
0.0
  0
LINE
  5
48E
330
1F
100
AcDbEntity
  8
Ｓ_１_１
  6
EXLTYPE2
 62
     1
100
AcDbLine
 10
914.9999951720165
 20
1745.74999999999
 30
0.0
 11
914.9999951720165
 21
1532.0000067055
 31
0.0
  0
TEXT
  5
48F
330
1F
100
AcDbEntity
  8
Ｓ_１_１
  6
CONTINUOUS
 62
     4
100
AcDbText
 10
617.58
 20
2088.1124889061
 30
0.0
 40
27.70323325635104
  1
12-25キリ
 41
0.9992307692307693
  7
EXCADTTF1
 72
     5
 11
779.58
 21
2088.1124889061
 31
0.0
100
AcDbText
  0
LEADER
  5
490
330
1F
100
AcDbEntity
  8
Ｓ_１_１
  6
CONTINUOUS
 62
     2
100
AcDbLeader
  3
ISO-25
 76
     3
 10
887.4999806732502
 20
1909.9999844431
 30
0.0
 10
778.9499889060801
 20
2078.5499889061
 30
0.0
 10
617.58
 20
2078.5499889061
 30
0.0
1001
ACAD
1000
DSTYLE
1002
{
1070
     5
1000
EX_NORM
1070
    41
1040
27.0
1070
   341
1005
80
1002
}
  0
LINE
  5
491
330
1F
100
AcDbEntity
  8
Ｓ_１_１
  6
CONTINUOUS
 62
     3
100
AcDbLine
 10
2335.500010147683
 20
1003.999906766808
 30
0.0
 11
2335.500010147683
 21
989.8624941632331
 31
0.0
  0
LINE
  5
492
330
1F
100
AcDbEntity
  8
Ｓ_１_１
  6
CONTINUOUS
 62
     3
100
AcDbLine
 10
2504.500001296393
 20
1003.999906766808
 30
0.0
 11
2504.500001296393
 21
989.8624941632331
 31
0.0
  0
LINE
  5
493
330
1F
100
AcDbEntity
  8
Ｓ_１_１
  6
CONTINUOUS
 62
     3
100
AcDbLine
 10
2429.999999999997
 20
339.9999990000005
 30
0.0
 11
2429.999999999997
 21
259.9999990000005
 31
0.0
  0
LINE
  5
494
330
1F
100
AcDbEntity
  8
Ｓ_１_１
  6
CONTINUOUS
 62
     3
100
AcDbLine
 10
2409.999999999998
 20
296.9978620000005
 30
0.0
 11
2409.999999999998
 21
259.9999990000005
 31
0.0
  0
LINE
  5
495
330
1F
100
AcDbEntity
  8
Ｓ_１_１
  6
CONTINUOUS
 62
     3
100
AcDbLine
 10
2409.999999999998
 20
339.9999990000005
 30
0.0
 11
2429.999999999997
 21
339.9999990000005
 31
0.0
  0
LINE
  5
496
330
1F
100
AcDbEntity
  8
Ｓ_１_１
  6
CONTINUOUS
 62
     3
100
AcDbLine
 10
2409.999999999998
 20
329.9999990000004
 30
0.0
 11
2429.999999999997
 21
329.9999990000004
 31
0.0
  0
LINE
  5
497
330
1F
100
AcDbEntity
  8
Ｓ_１_１
  6
CONTINUOUS
 62
     3
100
AcDbLine
 10
2409.999999999998
 20
339.9999990000005
 30
0.0
 11
2409.999999999998
 21
287.3742050000009
 31
0.0
  0
LINE
  5
498
330
1F
100
AcDbEntity
  8
Ｓ_１_１
  6
CONTINUOUS
 62
     3
100
AcDbLine
 10
2435.999999999999
 20
775.00002899999
 30
0.0
 11
2435.999999999999
 21
685.0000310000001
 31
0.0
  0
LINE
  5
499
330
1F
100
AcDbEntity
  8
Ｓ_１_１
  6
CONTINUOUS
 62
     3
100
AcDbLine
 10
2403.999999999999
 20
775.00002899999
 30
0.0
 11
2403.999999999999
 21
685.0000310000001
 31
0.0
  0
LINE
  5
49A
330
1F
100
AcDbEntity
  8
Ｓ_１_１
  6
CONTINUOUS
 62
     3
100
AcDbLine
 10
2403.999999999999
 20
775.00002899999
 30
0.0
 11
2435.999999999999
 21
775.00002899999
 31
0.0
  0
LINE
  5
49B
330
1F
100
AcDbEntity
  8
Ｓ_１_１
  6
CONTINUOUS
 62
     3
100
AcDbLine
 10
2403.999999999999
 20
685.0000310000001
 30
0.0
 11
2435.999999999999
 21
685.0000310000001
 31
0.0
  0
LINE
  5
49C
330
1F
100
AcDbEntity
  8
Ｓ_１_１
  6
CONTINUOUS
 62
     3
100
AcDbLine
 10
2403.999999999999
 20
695.0000930000199
 30
0.0
 11
2435.999999999999
 21
695.0000930000199
 31
0.0
  0
LINE
  5
49D
330
1F
100
AcDbEntity
  8
Ｓ_１_１
  6
CONTINUOUS
 62
     3
100
AcDbLine
 10
2403.999999999999
 20
764.9996449999901
 30
0.0
 11
2435.999999999999
 21
764.9996449999901
 31
0.0
  0
LINE
  5
49E
330
1F
100
AcDbEntity
  8
Ｓ_１_１
  6
CONTINUOUS
 62
     3
100
AcDbLine
 10
2432.499999999999
 20
949.9998479999899
 30
0.0
 11
2432.499999999999
 21
899.9998719999901
 31
0.0
  0
LINE
  5
49F
330
1F
100
AcDbEntity
  8
Ｓ_１_１
  6
CONTINUOUS
 62
     3
100
AcDbLine
 10
2407.499999999999
 20
949.9998479999899
 30
0.0
 11
2407.499999999999
 21
899.9998719999901
 31
0.0
  0
LINE
  5
4A0
330
1F
100
AcDbEntity
  8
Ｓ_１_１
  6
CONTINUOUS
 62
     3
100
AcDbLine
 10
2407.499999999999
 20
899.9998719999901
 30
0.0
 11
2432.499999999999
 21
899.9998719999901
 31
0.0
  0
LINE
  5
4A1
330
1F
100
AcDbEntity
  8
Ｓ_１_１
  6
CONTINUOUS
 62
     3
100
AcDbLine
 10
2407.499999999999
 20
949.9998479999899
 30
0.0
 11
2432.499999999999
 21
949.9998479999899
 31
0.0
  0
ARC
  5
4A2
330
1F
100
AcDbEntity
  8
Ｓ_１_１
  6
CONTINUOUS
 62
     3
100
AcDbCircle
 10
2420.000000000001
 20
875.0000279999899
 30
0.0
 40
57.99999900000012
100
AcDbArc
 50
102.4458746978136
 51
77.55412530218783
  0
ARC
  5
4A3
330
1F
100
AcDbEntity
  8
Ｓ_１_１
  6
CONTINUOUS
 62
     3
100
AcDbCircle
 10
2420.000000000001
 20
875.0000279999899
 30
0.0
 40
41.99999900000012
100
AcDbArc
 50
107.3146540126282
 51
72.68534598737378
  0
LINE
  5
4A4
330
1F
100
AcDbEntity
  8
Ｓ_１_１
  6
CONTINUOUS
 62
     3
100
AcDbLine
 10
2407.499999999999
 20
903.0000219999899
 30
0.0
 11
2432.500000000001
 21
903.0000219999899
 31
0.0
  0
LINE
  5
4A5
330
1F
100
AcDbEntity
  8
Ｓ_１_１
  6
CONTINUOUS
 62
     3
100
AcDbLine
 10
2407.499999999999
 20
946.9994819999899
 30
0.0
 11
2432.499999999999
 21
946.9994819999899
 31
0.0
  0
ARC
  5
4A6
330
1F
100
AcDbEntity
  8
Ｓ_１_１
  6
CONTINUOUS
 62
     3
100
AcDbCircle
 10
2505.499986007812
 20
1004.000004756836
 30
0.0
 40
1.0
100
AcDbArc
 50
90.00000250447825
 51
180.0000050089563
  0
ARC
  5
4A7
330
1F
100
AcDbEntity
  8
Ｓ_１_１
  6
CONTINUOUS
 62
     3
100
AcDbCircle
 10
2505.499986007812
 20
1003.999936092287
 30
0.0
 40
1.0
100
AcDbArc
 50
90.00000250447825
 51
180.0000050089563
  0
LINE
  5
4A8
330
1F
100
AcDbEntity
  8
Ｓ_１_１
  6
CONTINUOUS
 62
     3
100
AcDbLine
 10
2535.000016869509
 20
1004.999951640163
 30
0.0
 11
2540.000022028445
 21
1009.999957220566
 31
0.0
  0
LINE
  5
4A9
330
1F
100
AcDbEntity
  8
Ｓ_１_１
  6
CONTINUOUS
 62
     3
100
AcDbLine
 10
2645.000000000001
 20
1189.999946999941
 30
0.0
 11
2645.000000000001
 21
1149.999946999941
 31
0.0
  0
LINE
  5
4AA
330
1F
100
AcDbEntity
  8
Ｓ_１_１
  6
CONTINUOUS
 62
     3
100
AcDbLine
 10
2195.000000000001
 20
1189.999946999941
 30
0.0
 11
2195.000000000001
 21
1149.999946999941
 31
0.0
  0
LINE
  5
4AB
330
1F
100
AcDbEntity
  8
Ｓ_１_１
  6
CONTINUOUS
 62
     3
100
AcDbLine
 10
2594.1165444141
 20
1149.999946999941
 30
0.0
 11
2594.1165444141
 21
1134.999946999941
 31
0.0
  0
LINE
  5
4AC
330
1F
100
AcDbEntity
  8
Ｓ_１_１
  6
CONTINUOUS
 62
     3
100
AcDbLine
 10
2561.3504568541
 20
1149.999946999941
 30
0.0
 11
2561.3504568541
 21
1134.999946999941
 31
0.0
  0
LINE
  5
4AD
330
1F
100
AcDbEntity
  8
Ｓ_１_１
  6
CONTINUOUS
 62
     3
100
AcDbLine
 10
2460.974590074599
 20
1019.99994699989
 30
0.0
 11
2561.3504568541
 21
1134.99994699989
 31
0.0
  0
LINE
  5
4AE
330
1F
100
AcDbEntity
  8
Ｓ_１_１
  6
CONTINUOUS
 62
     3
100
AcDbLine
 10
2452.370943479299
 20
1149.999946999941
 30
0.0
 11
2452.370943479299
 21
1019.999946999941
 31
0.0
  0
LINE
  5
4AF
330
1F
100
AcDbEntity
  8
Ｓ_１_１
  6
CONTINUOUS
 62
     3
100
AcDbLine
 10
2245.8834555859
 20
1149.999946999941
 30
0.0
 11
2245.8834555859
 21
1134.999946999941
 31
0.0
  0
LINE
  5
4B0
330
1F
100
AcDbEntity
  8
Ｓ_１_１
  6
CONTINUOUS
 62
     3
100
AcDbLine
 10
2278.6495431459
 20
1149.999946999941
 30
0.0
 11
2278.6495431459
 21
1134.999946999941
 31
0.0
  0
LINE
  5
4B1
330
1F
100
AcDbEntity
  8
Ｓ_１_１
  6
CONTINUOUS
 62
     3
100
AcDbLine
 10
2379.025409925399
 20
1019.99994699989
 30
0.0
 11
2278.6495431459
 21
1134.99994699989
 31
0.0
  0
LINE
  5
4B2
330
1F
100
AcDbEntity
  8
Ｓ_１_１
  6
CONTINUOUS
 62
     3
100
AcDbLine
 10
2346.259322365401
 20
1019.99994699989
 30
0.0
 11
2245.8834555859
 21
1134.99994699989
 31
0.0
  0
LINE
  5
4B3
330
1F
100
AcDbEntity
  8
Ｓ_１_１
  6
CONTINUOUS
 62
     3
100
AcDbLine
 10
2387.629056520699
 20
1019.999946999941
 30
0.0
 11
2346.259322365358
 21
1019.999946999941
 31
0.0
  0
LINE
  5
4B4
330
1F
100
AcDbEntity
  8
Ｓ_１_１
  6
CONTINUOUS
 62
     3
100
AcDbLine
 10
2387.629056520699
 20
1149.999946999941
 30
0.0
 11
2387.629056520699
 21
1019.999946999941
 31
0.0
  0
LINE
  5
4B5
330
1F
100
AcDbEntity
  8
Ｓ_１_１
  6
CONTINUOUS
 62
     3
100
AcDbLine
 10
2440.000000000001
 20
1019.99994699989
 30
0.0
 11
2400.000000000001
 21
1019.99994699989
 31
0.0
  0
LINE
  5
4B6
330
1F
100
AcDbEntity
  8
Ｓ_１_１
  6
CONTINUOUS
 62
     3
100
AcDbLine
 10
2440.000000000001
 20
1149.999946999941
 30
0.0
 11
2440.000000000001
 21
1019.99994699989
 31
0.0
  0
LINE
  5
4B7
330
1F
100
AcDbEntity
  8
Ｓ_１_１
  6
CONTINUOUS
 62
     3
100
AcDbLine
 10
2400.000000000001
 20
1149.999946999937
 30
0.0
 11
2400.000000000001
 21
1019.99994699989
 31
0.0
  0
LINE
  5
4B8
330
1F
100
AcDbEntity
  8
Ｓ_１_１
  6
CONTINUOUS
 62
     3
100
AcDbLine
 10
2519.575199079999
 20
1019.99994699989
 30
0.0
 11
2598.981241837399
 21
1134.99994699989
 31
0.0
  0
LINE
  5
4B9
330
1F
100
AcDbEntity
  8
Ｓ_１_１
  6
CONTINUOUS
 62
     3
100
AcDbLine
 10
2598.981241837399
 20
1149.999946999941
 30
0.0
 11
2598.981241837399
 21
1134.999946999941
 31
0.0
  0
LINE
  5
4BA
330
1F
100
AcDbEntity
  8
Ｓ_１_１
  6
CONTINUOUS
 62
     3
100
AcDbLine
 10
2505.894393715099
 20
1019.99994699989
 30
0.0
 11
2551.916644437491
 21
1086.651786699857
 31
0.0
  0
LINE
  5
4BB
330
1F
100
AcDbEntity
  8
Ｓ_１_１
  6
CONTINUOUS
 62
     3
100
AcDbLine
 10
2452.370943479299
 20
1019.999946999941
 30
0.0
 11
2519.575199079999
 21
1019.999946999941
 31
0.0
  0
LINE
  5
4BC
330
1F
100
AcDbEntity
  8
Ｓ_１_１
  6
CONTINUOUS
 62
     3
100
AcDbLine
 10
2539.999996423724
 20
1049.580210830748
 30
0.0
 11
2539.999996423724
 21
1009.999935913473
 31
0.0
  0
LINE
  5
4BD
330
1F
100
AcDbEntity
  8
Ｓ_１_１
  6
CONTINUOUS
 62
     3
100
AcDbLine
 10
2304.999983130491
 20
1004.999951640163
 30
0.0
 11
2299.999977971555
 21
1009.999957220566
 31
0.0
  0
LINE
  5
4BE
330
1F
100
AcDbEntity
  8
Ｓ_１_１
  6
CONTINUOUS
 62
     3
100
AcDbLine
 10
2300.000003576276
 20
1049.580210830748
 30
0.0
 11
2300.000003576276
 21
1009.999935913473
 31
0.0
  0
LINE
  5
4BF
330
1F
100
AcDbEntity
  8
Ｓ_１_１
  6
CONTINUOUS
 62
     3
100
AcDbLine
 10
2334.105606284899
 20
1019.99994699989
 30
0.0
 11
2288.083355562509
 21
1086.651786699857
 31
0.0
  0
LINE
  5
4C0
330
1F
100
AcDbEntity
  8
Ｓ_１_１
  6
CONTINUOUS
 62
     3
100
AcDbLine
 10
2320.424800919999
 20
1019.99994699989
 30
0.0
 11
2241.018758162601
 21
1134.99994699989
 31
0.0
  0
LINE
  5
4C1
330
1F
100
AcDbEntity
  8
Ｓ_１_１
  6
CONTINUOUS
 62
     3
100
AcDbLine
 10
2387.629056520699
 20
1019.999946999941
 30
0.0
 11
2320.424800919999
 21
1019.999946999941
 31
0.0
  0
LINE
  5
4C2
330
1F
100
AcDbEntity
  8
Ｓ_１_１
  6
CONTINUOUS
 62
     3
100
AcDbLine
 10
2304.99998313049
 20
1004.999943691879
 30
0.0
 11
2534.999987035992
 21
1004.999943691879
 31
0.0
  0
LINE
  5
4C3
330
1F
100
AcDbEntity
  8
Ｓ_１_１
  6
CONTINUOUS
 62
     3
100
AcDbLine
 10
2300.00000357628
 20
1009.999931615891
 30
0.0
 11
2539.999996423724
 21
1009.999931615891
 31
0.0
  0
ARC
  5
4C4
330
1F
100
AcDbEntity
  8
Ｓ_１_１
  6
CONTINUOUS
 62
     3
100
AcDbCircle
 10
2334.500013992188
 20
1004.000004756836
 30
0.0
 40
1.0
100
AcDbArc
 50
359.9999949910496
 51
89.99999749551826
  0
ARC
  5
4C5
330
1F
100
AcDbEntity
  8
Ｓ_１_１
  6
CONTINUOUS
 62
     3
100
AcDbCircle
 10
2334.500013992188
 20
1003.999936092287
 30
0.0
 40
1.0
100
AcDbArc
 50
359.9999949910496
 51
89.99999749551826
  0
LINE
  5
4C6
330
1F
100
AcDbEntity
  8
Ｓ_１_１
  6
CONTINUOUS
 62
     3
100
AcDbLine
 10
2604.999975413107
 20
1186.999947089299
 30
0.0
 11
2609.999967634701
 21
1186.999947089299
 31
0.0
  0
LINE
  5
4C7
330
1F
100
AcDbEntity
  8
Ｓ_１_１
  6
CONTINUOUS
 62
     3
100
AcDbLine
 10
2604.999975413107
 20
1189.999946999892
 30
0.0
 11
2604.999975413107
 21
1186.999947089299
 31
0.0
  0
LINE
  5
4C8
330
1F
100
AcDbEntity
  8
Ｓ_１_１
  6
CONTINUOUS
 62
     3
100
AcDbLine
 10
2609.999967634701
 20
1189.999946999892
 30
0.0
 11
2609.999967634701
 21
1186.999947089299
 31
0.0
  0
LINE
  5
4C9
330
1F
100
AcDbEntity
  8
Ｓ_１_１
  6
CONTINUOUS
 62
     3
100
AcDbLine
 10
2530.000000536406
 20
1186.999947089299
 30
0.0
 11
2534.999992758
 21
1186.999947089299
 31
0.0
  0
LINE
  5
4CA
330
1F
100
AcDbEntity
  8
Ｓ_１_１
  6
CONTINUOUS
 62
     3
100
AcDbLine
 10
2530.000000536406
 20
1189.999946999892
 30
0.0
 11
2530.000000536406
 21
1186.999947089299
 31
0.0
  0
LINE
  5
4CB
330
1F
100
AcDbEntity
  8
Ｓ_１_１
  6
CONTINUOUS
 62
     3
100
AcDbLine
 10
2534.999992758
 20
1189.999946999892
 30
0.0
 11
2534.999992758
 21
1186.999947089299
 31
0.0
  0
LINE
  5
4CC
330
1F
100
AcDbEntity
  8
Ｓ_１_１
  6
CONTINUOUS
 62
     3
100
AcDbLine
 10
2455.000002771606
 20
1186.999947089299
 30
0.0
 11
2459.9999949932
 21
1186.999947089299
 31
0.0
  0
LINE
  5
4CD
330
1F
100
AcDbEntity
  8
Ｓ_１_１
  6
CONTINUOUS
 62
     3
100
AcDbLine
 10
2455.000002771606
 20
1189.999946999892
 30
0.0
 11
2455.000002771606
 21
1186.999947089299
 31
0.0
  0
LINE
  5
4CE
330
1F
100
AcDbEntity
  8
Ｓ_１_１
  6
CONTINUOUS
 62
     3
100
AcDbLine
 10
2459.9999949932
 20
1189.999946999892
 30
0.0
 11
2459.9999949932
 21
1186.999947089299
 31
0.0
  0
LINE
  5
4CF
330
1F
100
AcDbEntity
  8
Ｓ_１_１
  6
CONTINUOUS
 62
     3
100
AcDbLine
 10
2380.000005006777
 20
1186.999947089299
 30
0.0
 11
2384.99999722837
 21
1186.999947089299
 31
0.0
  0
LINE
  5
4D0
330
1F
100
AcDbEntity
  8
Ｓ_１_１
  6
CONTINUOUS
 62
     3
100
AcDbLine
 10
2380.000005006777
 20
1189.999946999892
 30
0.0
 11
2380.000005006777
 21
1186.999947089299
 31
0.0
  0
LINE
  5
4D1
330
1F
100
AcDbEntity
  8
Ｓ_１_１
  6
CONTINUOUS
 62
     3
100
AcDbLine
 10
2384.99999722837
 20
1189.999946999892
 30
0.0
 11
2384.99999722837
 21
1186.999947089299
 31
0.0
  0
LINE
  5
4D2
330
1F
100
AcDbEntity
  8
Ｓ_１_１
  6
CONTINUOUS
 62
     3
100
AcDbLine
 10
2305.000007241954
 20
1186.999947089299
 30
0.0
 11
2309.99999946355
 21
1186.999947089299
 31
0.0
  0
LINE
  5
4D3
330
1F
100
AcDbEntity
  8
Ｓ_１_１
  6
CONTINUOUS
 62
     3
100
AcDbLine
 10
2305.000007241954
 20
1189.999946999892
 30
0.0
 11
2305.000007241954
 21
1186.999947089299
 31
0.0
  0
LINE
  5
4D4
330
1F
100
AcDbEntity
  8
Ｓ_１_１
  6
CONTINUOUS
 62
     3
100
AcDbLine
 10
2309.99999946355
 20
1189.999946999892
 30
0.0
 11
2309.99999946355
 21
1186.999947089299
 31
0.0
  0
LINE
  5
4D5
330
1F
100
AcDbEntity
  8
Ｓ_１_１
  6
CONTINUOUS
 62
     3
100
AcDbLine
 10
2230.000032365316
 20
1186.999947089299
 30
0.0
 11
2235.00002458691
 21
1186.999947089299
 31
0.0
  0
LINE
  5
4D6
330
1F
100
AcDbEntity
  8
Ｓ_１_１
  6
CONTINUOUS
 62
     3
100
AcDbLine
 10
2230.000032365316
 20
1189.999946999892
 30
0.0
 11
2230.000032365316
 21
1186.999947089299
 31
0.0
  0
LINE
  5
4D7
330
1F
100
AcDbEntity
  8
Ｓ_１_１
  6
CONTINUOUS
 62
     3
100
AcDbLine
 10
2235.00002458691
 20
1189.999946999892
 30
0.0
 11
2235.00002458691
 21
1186.999947089299
 31
0.0
  0
LINE
  5
4D8
330
1F
100
AcDbEntity
  8
Ｓ_１_１
  6
CONTINUOUS
 62
     3
100
AcDbLine
 10
2609.999967634701
 20
1189.999946999941
 30
0.0
 11
2645.000000000001
 21
1189.999946999941
 31
0.0
  0
LINE
  5
4D9
330
1F
100
AcDbEntity
  8
Ｓ_１_１
  6
CONTINUOUS
 62
     3
100
AcDbLine
 10
2534.999992758
 20
1189.999946999941
 30
0.0
 11
2604.999975413107
 21
1189.999946999941
 31
0.0
  0
LINE
  5
4DA
330
1F
100
AcDbEntity
  8
Ｓ_１_１
  6
CONTINUOUS
 62
     3
100
AcDbLine
 10
2459.9999949932
 20
1189.999946999941
 30
0.0
 11
2530.000000536406
 21
1189.999946999941
 31
0.0
  0
LINE
  5
4DB
330
1F
100
AcDbEntity
  8
Ｓ_１_１
  6
CONTINUOUS
 62
     3
100
AcDbLine
 10
2384.99999722837
 20
1189.999946999941
 30
0.0
 11
2455.000002771606
 21
1189.999946999941
 31
0.0
  0
LINE
  5
4DC
330
1F
100
AcDbEntity
  8
Ｓ_１_１
  6
CONTINUOUS
 62
     3
100
AcDbLine
 10
2195.000000000001
 20
1189.999946999941
 30
0.0
 11
2230.000032365316
 21
1189.999946999941
 31
0.0
  0
LINE
  5
4DD
330
1F
100
AcDbEntity
  8
Ｓ_１_１
  6
CONTINUOUS
 62
     3
100
AcDbLine
 10
2235.00002458691
 20
1189.999946999941
 30
0.0
 11
2305.000007241954
 21
1189.999946999941
 31
0.0
  0
LINE
  5
4DE
330
1F
100
AcDbEntity
  8
Ｓ_１_１
  6
CONTINUOUS
 62
     3
100
AcDbLine
 10
2309.99999946355
 20
1189.999946999941
 30
0.0
 11
2380.000005006777
 21
1189.999946999941
 31
0.0
  0
LINE
  5
4DF
330
1F
100
AcDbEntity
  8
Ｓ_１_１
  6
CONTINUOUS
 62
     3
100
AcDbLine
 10
2218.00000625848
 20
1074.99994699989
 30
0.0
 11
2218.00000625848
 21
1146.999946999937
 31
0.0
  0
LINE
  5
4E0
330
1F
100
AcDbEntity
  8
Ｓ_１_１
  6
CONTINUOUS
 62
     3
100
AcDbLine
 10
2202.00000625848
 20
1074.99994699989
 30
0.0
 11
2202.00000625848
 21
1146.999946999937
 31
0.0
  0
ARC
  5
4E1
330
1F
100
AcDbEntity
  8
Ｓ_１_１
  6
CONTINUOUS
 62
     3
100
AcDbCircle
 10
2210.00000625848
 20
1074.99994699989
 30
0.0
 40
8.0
100
AcDbArc
 50
179.9999999996602
 51
0.0000000003399359
  0
LINE
  5
4E2
330
1F
100
AcDbEntity
  8
Ｓ_１_１
  6
CONTINUOUS
 62
     3
100
AcDbLine
 10
2202.000006258481
 20
1146.999946999937
 30
0.0
 11
2218.00000625848
 21
1146.999946999937
 31
0.0
  0
LINE
  5
4E3
330
1F
100
AcDbEntity
  8
Ｓ_１_１
  6
CONTINUOUS
 62
     3
100
AcDbLine
 10
2241.018758162599
 20
1149.999946999941
 30
0.0
 11
2241.018758162599
 21
1134.999946999941
 31
0.0
  0
LINE
  5
4E4
330
1F
100
AcDbEntity
  8
Ｓ_１_１
  6
CONTINUOUS
 62
     3
100
AcDbLine
 10
2493.740677634601
 20
1019.99994699989
 30
0.0
 11
2594.116544414143
 21
1134.999946999941
 31
0.0
  0
LINE
  5
4E5
330
1F
100
AcDbEntity
  8
Ｓ_１_１
  6
CONTINUOUS
 62
     3
100
AcDbLine
 10
2561.3504568541
 20
1134.999946999941
 30
0.0
 11
2598.981241837399
 21
1134.999946999941
 31
0.0
  0
LINE
  5
4E6
330
1F
100
AcDbEntity
  8
Ｓ_１_１
  6
CONTINUOUS
 62
     3
100
AcDbLine
 10
2278.6495431459
 20
1134.999946999941
 30
0.0
 11
2241.018758162599
 21
1134.999946999941
 31
0.0
  0
LINE
  5
4E7
330
1F
100
AcDbEntity
  8
Ｓ_１_１
  6
CONTINUOUS
 62
     3
100
AcDbLine
 10
2400.000000000001
 20
1137.850718391691
 30
0.0
 11
2440.000000000001
 21
1137.850718391691
 31
0.0
  0
LINE
  5
4E8
330
1F
100
AcDbEntity
  8
Ｓ_１_１
  6
CONTINUOUS
 62
     3
100
AcDbLine
 10
2202.00000625848
 20
1146.99994699989
 30
0.0
 11
2198.140353531239
 21
1149.999946999937
 31
0.0
  0
LINE
  5
4E9
330
1F
100
AcDbEntity
  8
Ｓ_１_１
  6
CONTINUOUS
 62
     3
100
AcDbLine
 10
2218.00000625848
 20
1146.99994699989
 30
0.0
 11
2221.85965898572
 21
1149.999946999937
 31
0.0
  0
LINE
  5
4EA
330
1F
100
AcDbEntity
  8
Ｓ_１_１
  6
CONTINUOUS
 62
     3
100
AcDbLine
 10
2621.99999374152
 20
1074.99994699989
 30
0.0
 11
2621.99999374152
 21
1146.999946999937
 31
0.0
  0
LINE
  5
4EB
330
1F
100
AcDbEntity
  8
Ｓ_１_１
  6
CONTINUOUS
 62
     3
100
AcDbLine
 10
2637.99999374152
 20
1074.99994699989
 30
0.0
 11
2637.99999374152
 21
1146.999946999937
 31
0.0
  0
ARC
  5
4EC
330
1F
100
AcDbEntity
  8
Ｓ_１_１
  6
CONTINUOUS
 62
     3
100
AcDbCircle
 10
2629.99999374152
 20
1074.99994699989
 30
0.0
 40
8.0
100
AcDbArc
 50
179.9999999996597
 51
0.0000000003403369
  0
LINE
  5
4ED
330
1F
100
AcDbEntity
  8
Ｓ_１_１
  6
CONTINUOUS
 62
     3
100
AcDbLine
 10
2637.99999374152
 20
1146.999946999937
 30
0.0
 11
2621.99999374152
 21
1146.999946999937
 31
0.0
  0
LINE
  5
4EE
330
1F
100
AcDbEntity
  8
Ｓ_１_１
  6
CONTINUOUS
 62
     3
100
AcDbLine
 10
2637.99999374152
 20
1146.99994699989
 30
0.0
 11
2641.859646468761
 21
1149.999946999937
 31
0.0
  0
LINE
  5
4EF
330
1F
100
AcDbEntity
  8
Ｓ_１_１
  6
CONTINUOUS
 62
     3
100
AcDbLine
 10
2621.99999374152
 20
1146.99994699989
 30
0.0
 11
2618.140341014278
 21
1149.999946999937
 31
0.0
  0
LINE
  5
4F0
330
1F
100
AcDbEntity
  8
Ｓ_１_１
  6
CONTINUOUS
 62
     3
100
AcDbLine
 10
2626.999692999999
 20
789.9999320000006
 30
0.0
 11
2629.999847999999
 21
786.9997780000003
 31
0.0
  0
LINE
  5
4F1
330
1F
100
AcDbEntity
  8
Ｓ_１_１
  6
CONTINUOUS
 62
     3
100
AcDbLine
 10
2790.000018
 20
359.9999060000009
 30
0.0
 11
2804.999926
 21
344.9999980000002
 31
0.0
  0
LINE
  5
4F2
330
1F
100
AcDbEntity
  8
Ｓ_１_１
  6
CONTINUOUS
 62
     3
100
AcDbLine
 10
2768.550408999999
 20
359.9999590000007
 30
0.0
 11
2789.999993999998
 21
359.9999590000007
 31
0.0
  0
LINE
  5
4F3
330
1F
100
AcDbEntity
  8
Ｓ_１_１
  6
CONTINUOUS
 62
     3
100
AcDbLine
 10
2804.999993999999
 20
344.9999980000002
 30
0.0
 11
2804.999993999999
 21
259.9999989999997
 31
0.0
  0
LINE
  5
4F4
330
1F
100
AcDbEntity
  8
Ｓ_１_１
  6
CONTINUOUS
 62
     3
100
AcDbLine
 10
2776.677546
 20
309.9999980000002
 30
0.0
 11
2783.948357999999
 21
309.9999980000002
 31
0.0
  0
LINE
  5
4F5
330
1F
100
AcDbEntity
  8
Ｓ_１_１
  6
CONTINUOUS
 62
     3
100
AcDbLine
 10
2578.023373999999
 20
309.9999980000002
 30
0.0
 11
2560.469662999999
 21
309.9999980000002
 31
0.0
  0
LINE
  5
4F6
330
1F
100
AcDbEntity
  8
Ｓ_１_１
  6
CONTINUOUS
 62
     3
100
AcDbLine
 10
2645.366477999999
 20
759.9998830000004
 30
0.0
 11
2783.948363999999
 21
310.0000280000004
 31
0.0
  0
LINE
  5
4F7
330
1F
100
AcDbEntity
  8
Ｓ_１_１
  6
CONTINUOUS
 62
     3
100
AcDbLine
 10
2776.677439
 20
310.000102
 30
0.0
 11
2638.095552999998
 21
759.999957
 31
0.0
  0
LINE
  5
4F8
330
1F
100
AcDbEntity
  8
Ｓ_１_１
  6
CONTINUOUS
 62
     3
100
AcDbLine
 10
2503.067189999999
 20
759.9999530000005
 30
0.0
 11
2560.469708
 21
309.9999589999998
 31
0.0
  0
LINE
  5
4F9
330
1F
100
AcDbEntity
  8
Ｓ_１_１
  6
CONTINUOUS
 62
     3
100
AcDbLine
 10
2578.023216000001
 20
309.9999610000004
 30
0.0
 11
2520.620688999998
 21
760.0000310000005
 31
0.0
  0
LINE
  5
4FA
330
1F
100
AcDbEntity
  8
Ｓ_１_１
  6
CONTINUOUS
 62
     3
100
AcDbLine
 10
2610.379024999999
 20
760.0000300000011
 30
0.0
 11
2645.366512
 21
760.0000300000011
 31
0.0
  0
LINE
  5
4FB
330
1F
100
AcDbEntity
  8
Ｓ_１_１
  6
CONTINUOUS
 62
     3
100
AcDbLine
 10
2491.586607
 20
760.0000300000011
 30
0.0
 11
2520.620726
 21
760.0000300000011
 31
0.0
  0
LINE
  5
4FC
330
1F
100
AcDbEntity
  8
Ｓ_１_１
  6
CONTINUOUS
 62
     3
100
AcDbLine
 10
2610.379024999999
 20
760.0000300000011
 30
0.0
 11
2610.379024999999
 21
259.9999989999997
 31
0.0
  0
LINE
  5
4FD
330
1F
100
AcDbEntity
  8
Ｓ_１_１
  6
CONTINUOUS
 62
     3
100
AcDbLine
 10
2491.586607
 20
760.0000300000011
 30
0.0
 11
2491.586607
 21
259.9999989999997
 31
0.0
  0
LINE
  5
4FE
330
1F
100
AcDbEntity
  8
Ｓ_１_１
  6
CONTINUOUS
 62
     3
100
AcDbLine
 10
2560.469662999999
 20
309.9999980000002
 30
0.0
 11
2560.469662999999
 21
259.9999989999997
 31
0.0
  0
LINE
  5
4FF
330
1F
100
AcDbEntity
  8
Ｓ_１_１
  6
CONTINUOUS
 62
     3
100
AcDbLine
 10
2578.023373999999
 20
309.9999980000002
 30
0.0
 11
2578.023373999999
 21
259.9999989999997
 31
0.0
  0
LINE
  5
500
330
1F
100
AcDbEntity
  8
Ｓ_１_１
  6
CONTINUOUS
 62
     3
100
AcDbLine
 10
2776.677546
 20
309.9999980000002
 30
0.0
 11
2776.677546
 21
259.9999989999997
 31
0.0
  0
LINE
  5
501
330
1F
100
AcDbEntity
  8
Ｓ_１_１
  6
CONTINUOUS
 62
     3
100
AcDbLine
 10
2783.948357999999
 20
309.9999980000002
 30
0.0
 11
2783.948357999999
 21
259.9999989999997
 31
0.0
  0
LINE
  5
502
330
1F
100
AcDbEntity
  8
Ｓ_１_１
  6
CONTINUOUS
 62
     3
100
AcDbLine
 10
2629.999996
 20
786.9999990000006
 30
0.0
 11
2629.999996
 21
760.0000300000011
 31
0.0
  0
LINE
  5
503
330
1F
100
AcDbEntity
  8
Ｓ_１_１
  6
CONTINUOUS
 62
     3
100
AcDbLine
 10
2596.999984999999
 20
984.9999239999997
 30
0.0
 11
2599.999922999998
 21
981.9999850000004
 31
0.0
  0
LINE
  5
504
330
1F
100
AcDbEntity
  8
Ｓ_１_１
  6
CONTINUOUS
 62
     3
100
AcDbLine
 10
2529.999977999999
 20
986.9998560000004
 30
0.0
 11
2528.267799999999
 21
990.0000749999998
 31
0.0
  0
LINE
  5
505
330
1F
100
AcDbEntity
  8
Ｓ_１_１
  6
CONTINUOUS
 62
     3
100
AcDbLine
 10
2529.999997999998
 20
986.9999960000004
 30
0.0
 11
2529.999997999998
 21
985.0000259999997
 31
0.0
  0
LINE
  5
506
330
1F
100
AcDbEntity
  8
Ｓ_１_１
  6
CONTINUOUS
 62
     3
100
AcDbLine
 10
2599.999997
 20
981.9999960000005
 30
0.0
 11
2599.999997
 21
790.0000290000007
 31
0.0
  0
LINE
  5
507
330
1F
100
AcDbEntity
  8
Ｓ_１_１
  6
CONTINUOUS
 62
     3
100
AcDbLine
 10
2596.999814
 20
985.0000259999997
 30
0.0
 11
2420.0
 21
985.0000259999997
 31
0.0
  0
LINE
  5
508
330
1F
100
AcDbEntity
  8
Ｓ_１_１
  6
CONTINUOUS
 62
     3
100
AcDbLine
 10
2213.000309999999
 20
789.9998240000004
 30
0.0
 11
2210.000263999999
 21
786.9997780000003
 31
0.0
  0
LINE
  5
509
330
1F
100
AcDbEntity
  8
Ｓ_１_１
  6
CONTINUOUS
 62
     3
100
AcDbLine
 10
2050.000094
 20
359.9999060000009
 30
0.0
 11
2035.000078
 21
344.99989
 31
0.0
  0
LINE
  5
50A
330
1F
100
AcDbEntity
  8
Ｓ_１_１
  6
CONTINUOUS
 62
     3
100
AcDbLine
 10
2071.449589999999
 20
359.9999590000007
 30
0.0
 11
2050.000004999999
 21
359.9999590000007
 31
0.0
  0
LINE
  5
50B
330
1F
100
AcDbEntity
  8
Ｓ_１_１
  6
CONTINUOUS
 62
     3
100
AcDbLine
 10
2035.000004999999
 20
344.9999980000002
 30
0.0
 11
2035.000004999999
 21
259.9999989999997
 31
0.0
  0
LINE
  5
50C
330
1F
100
AcDbEntity
  8
Ｓ_１_１
  6
CONTINUOUS
 62
     3
100
AcDbLine
 10
2063.322454
 20
309.9999980000002
 30
0.0
 11
2056.051640999999
 21
309.9999980000002
 31
0.0
  0
LINE
  5
50D
330
1F
100
AcDbEntity
  8
Ｓ_１_１
  6
CONTINUOUS
 62
     3
100
AcDbLine
 10
2261.976624999998
 20
309.9999980000002
 30
0.0
 11
2279.530335999999
 21
309.9999980000002
 31
0.0
  0
LINE
  5
50E
330
1F
100
AcDbEntity
  8
Ｓ_１_１
  6
CONTINUOUS
 62
     3
100
AcDbLine
 10
2194.633558
 20
759.9999459999999
 30
0.0
 11
2056.05165
 21
310.0000190000001
 31
0.0
  0
LINE
  5
50F
330
1F
100
AcDbEntity
  8
Ｓ_１_１
  6
CONTINUOUS
 62
     3
100
AcDbLine
 10
2063.322551999999
 20
310.0000200000004
 30
0.0
 11
2201.904469
 21
759.9999750000006
 31
0.0
  0
LINE
  5
510
330
1F
100
AcDbEntity
  8
Ｓ_１_１
  6
CONTINUOUS
 62
     3
100
AcDbLine
 10
2336.932919
 20
759.9999980000011
 30
0.0
 11
2279.530397
 21
309.9999760000001
 31
0.0
  0
LINE
  5
511
330
1F
100
AcDbEntity
  8
Ｓ_１_１
  6
CONTINUOUS
 62
     3
100
AcDbLine
 10
2261.976582999999
 20
309.9999980000002
 30
0.0
 11
2319.379102999998
 21
760.0000010000003
 31
0.0
  0
LINE
  5
512
330
1F
100
AcDbEntity
  8
Ｓ_１_１
  6
CONTINUOUS
 62
     3
100
AcDbLine
 10
2229.620974
 20
760.0000300000011
 30
0.0
 11
2194.633486999998
 21
760.0000300000011
 31
0.0
  0
LINE
  5
513
330
1F
100
AcDbEntity
  8
Ｓ_１_１
  6
CONTINUOUS
 62
     3
100
AcDbLine
 10
2348.413391999999
 20
760.0000300000011
 30
0.0
 11
2319.379274
 21
760.0000300000011
 31
0.0
  0
LINE
  5
514
330
1F
100
AcDbEntity
  8
Ｓ_１_１
  6
CONTINUOUS
 62
     3
100
AcDbLine
 10
2229.620974
 20
760.0000300000011
 30
0.0
 11
2229.620974
 21
259.9999989999997
 31
0.0
  0
LINE
  5
515
330
1F
100
AcDbEntity
  8
Ｓ_１_１
  6
CONTINUOUS
 62
     3
100
AcDbLine
 10
2348.413391999999
 20
760.0000300000011
 30
0.0
 11
2348.413391999999
 21
259.9999989999997
 31
0.0
  0
LINE
  5
516
330
1F
100
AcDbEntity
  8
Ｓ_１_１
  6
CONTINUOUS
 62
     3
100
AcDbLine
 10
2279.530335999999
 20
309.9999980000002
 30
0.0
 11
2279.530335999999
 21
259.9999989999997
 31
0.0
  0
LINE
  5
517
330
1F
100
AcDbEntity
  8
Ｓ_１_１
  6
CONTINUOUS
 62
     3
100
AcDbLine
 10
2261.976624999998
 20
309.9999980000002
 30
0.0
 11
2261.976624999998
 21
259.9999989999997
 31
0.0
  0
LINE
  5
518
330
1F
100
AcDbEntity
  8
Ｓ_１_１
  6
CONTINUOUS
 62
     3
100
AcDbLine
 10
2063.322454
 20
309.9999980000002
 30
0.0
 11
2063.322454
 21
259.9999989999997
 31
0.0
  0
LINE
  5
519
330
1F
100
AcDbEntity
  8
Ｓ_１_１
  6
CONTINUOUS
 62
     3
100
AcDbLine
 10
2056.051640999999
 20
309.9999980000002
 30
0.0
 11
2056.051640999999
 21
259.9999989999997
 31
0.0
  0
LINE
  5
51A
330
1F
100
AcDbEntity
  8
Ｓ_１_１
  6
CONTINUOUS
 62
     3
100
AcDbLine
 10
2020.000005999999
 20
259.9999989999997
 30
0.0
 11
2020.000005999999
 21
220.0
 31
0.0
  0
LINE
  5
51B
330
1F
100
AcDbEntity
  8
Ｓ_１_１
  6
CONTINUOUS
 62
     3
100
AcDbLine
 10
2020.000005999999
 20
220.0
 30
0.0
 11
2819.999993999999
 21
220.0
 31
0.0
  0
LINE
  5
51C
330
1F
100
AcDbEntity
  8
Ｓ_１_１
  6
CONTINUOUS
 62
     3
100
AcDbLine
 10
2020.000005999999
 20
259.9999989999997
 30
0.0
 11
2819.999993999999
 21
259.9999989999997
 31
0.0
  0
LINE
  5
51D
330
1F
100
AcDbEntity
  8
Ｓ_１_１
  6
CONTINUOUS
 62
     3
100
AcDbLine
 10
2210.000003
 20
786.9999990000006
 30
0.0
 11
2210.000003
 21
760.0000300000011
 31
0.0
  0
LINE
  5
51E
330
1F
100
AcDbEntity
  8
Ｓ_１_１
  6
CONTINUOUS
 62
     3
100
AcDbLine
 10
2243.000018
 20
985.0000319999999
 30
0.0
 11
2239.999971999999
 21
981.9999850000004
 31
0.0
  0
LINE
  5
51F
330
1F
100
AcDbEntity
  8
Ｓ_１_１
  6
CONTINUOUS
 62
     3
100
AcDbLine
 10
2819.999993999999
 20
259.9999989999997
 30
0.0
 11
2819.999993999999
 21
220.0
 31
0.0
  0
LINE
  5
520
330
1F
100
AcDbEntity
  8
Ｓ_１_１
  6
CONTINUOUS
 62
     3
100
AcDbLine
 10
2310.000078
 20
986.9999669999997
 30
0.0
 11
2311.732104
 21
989.9999220000009
 31
0.0
  0
LINE
  5
521
330
1F
100
AcDbEntity
  8
Ｓ_１_１
  6
CONTINUOUS
 62
     3
100
AcDbLine
 10
2310.000000999999
 20
986.9999960000004
 30
0.0
 11
2310.000000999999
 21
985.0000259999997
 31
0.0
  0
LINE
  5
522
330
1F
100
AcDbEntity
  8
Ｓ_１_１
  6
CONTINUOUS
 62
     3
100
AcDbLine
 10
2240.000002
 20
981.9999960000005
 30
0.0
 11
2240.000002
 21
790.0000290000007
 31
0.0
  0
LINE
  5
523
330
1F
100
AcDbEntity
  8
Ｓ_１_１
  6
CONTINUOUS
 62
     3
100
AcDbLine
 10
2819.999993999999
 20
259.9993890000005
 30
0.0
 11
2819.999993999999
 21
219.9993890000005
 31
0.0
  0
LINE
  5
524
330
1F
100
AcDbEntity
  8
Ｓ_１_１
  6
EXLTYPE2
 62
     1
100
AcDbLine
 10
2420.0
 20
1220.716652
 30
0.0
 11
2420.0
 21
199.7000120000002
 31
0.0
  0
LINE
  5
525
330
1F
100
AcDbEntity
  8
Ｓ_１_１
  6
EXLTYPE2
 62
     1
100
AcDbLine
 10
2454.427546
 20
730.0000300000011
 30
0.0
 11
2384.927546
 21
730.0000300000011
 31
0.0
  0
CIRCLE
  5
526
330
1F
100
AcDbEntity
  8
Ｓ_１_１
  6
EXLTYPE2
 62
     1
100
AcDbCircle
 10
2420.000000000001
 20
875.0000279999899
 30
0.0
 40
49.99999900000012
  0
LINE
  5
527
330
1F
100
AcDbEntity
  8
Ｓ_１_１
  6
EXLTYPE2
 62
     1
100
AcDbLine
 10
2350.427546
 20
875.0000279999888
 30
0.0
 11
2490.427546
 21
875.0000279999888
 31
0.0
  0
LINE
  5
528
330
1F
100
AcDbEntity
  8
Ｓ_１_１
  6
EXLTYPE2
 62
     1
100
AcDbLine
 10
2607.499971523904
 20
1192.739239063031
 30
0.0
 11
2607.499971523904
 21
1185.145180298873
 31
0.0
  0
LINE
  5
529
330
1F
100
AcDbEntity
  8
Ｓ_１_１
  6
EXLTYPE2
 62
     1
100
AcDbLine
 10
2532.499996647203
 20
1192.739239063031
 30
0.0
 11
2532.499996647203
 21
1185.145180298873
 31
0.0
  0
LINE
  5
52A
330
1F
100
AcDbEntity
  8
Ｓ_１_１
  6
EXLTYPE2
 62
     1
100
AcDbLine
 10
2457.499998882403
 20
1192.739239063031
 30
0.0
 11
2457.499998882403
 21
1185.145180298873
 31
0.0
  0
LINE
  5
52B
330
1F
100
AcDbEntity
  8
Ｓ_１_１
  6
EXLTYPE2
 62
     1
100
AcDbLine
 10
2382.500001117573
 20
1192.739239063031
 30
0.0
 11
2382.500001117573
 21
1185.145180298873
 31
0.0
  0
LINE
  5
52C
330
1F
100
AcDbEntity
  8
Ｓ_１_１
  6
EXLTYPE2
 62
     1
100
AcDbLine
 10
2307.500003352753
 20
1192.739239063031
 30
0.0
 11
2307.500003352753
 21
1185.145180298873
 31
0.0
  0
LINE
  5
52D
330
1F
100
AcDbEntity
  8
Ｓ_１_１
  6
EXLTYPE2
 62
     1
100
AcDbLine
 10
2232.500028476113
 20
1192.739239063031
 30
0.0
 11
2232.500028476113
 21
1185.145180298873
 31
0.0
  0
LINE
  5
52E
330
1F
100
AcDbEntity
  8
Ｓ_１_１
  6
EXLTYPE2
 62
     1
100
AcDbLine
 10
2195.000000000001
 20
1074.999946999937
 30
0.0
 11
2225.640353531301
 21
1074.999946999937
 31
0.0
  0
LINE
  5
52F
330
1F
100
AcDbEntity
  8
Ｓ_１_１
  6
EXLTYPE2
 62
     1
100
AcDbLine
 10
2210.000006258481
 20
1158.850718391691
 30
0.0
 11
2210.000006258481
 21
1058.350718391691
 31
0.0
  0
LINE
  5
530
330
1F
100
AcDbEntity
  8
Ｓ_１_１
  6
EXLTYPE2
 62
     1
100
AcDbLine
 10
2645.000000000001
 20
1074.999946999937
 30
0.0
 11
2614.359646468701
 21
1074.999946999937
 31
0.0
  0
LINE
  5
531
330
1F
100
AcDbEntity
  8
Ｓ_１_１
  6
EXLTYPE2
 62
     1
100
AcDbLine
 10
2629.99999374152
 20
1158.850718391691
 30
0.0
 11
2629.99999374152
 21
1058.350718391691
 31
0.0
  0
TEXT
  5
532
330
1F
100
AcDbEntity
  8
Ｓ_１_１
  6
CONTINUOUS
 62
     4
100
AcDbText
 10
1674.9
 20
507.51256765242
 30
0.0
 40
27.70323325635104
  1
安定架台
 41
0.9992307692307693
  7
EXCADTTF1
 72
     5
 11
1818.9
 21
507.51256765242
 31
0.0
100
AcDbText
  0
LEADER
  5
533
330
1F
100
AcDbEntity
  8
Ｓ_１_１
  6
CONTINUOUS
 62
     2
100
AcDbLeader
  3
ISO-25
 76
     3
 10
1592.2773030555
 20
429.07743836033
 30
0.0
 10
1661.1499323476
 20
497.95006765242
 30
0.0
 10
1818.9
 20
497.95006765242
 30
0.0
1001
ACAD
1000
DSTYLE
1002
{
1070
     5
1000
EX_NORM
1070
    41
1040
27.0
1070
   341
1005
80
1002
}
  0
TEXT
  5
534
330
1F
100
AcDbEntity
  8
Ｓ_１_１
  6
CONTINUOUS
 62
     4
100
AcDbText
 10
1652.4
 20
831.3134499044
 30
0.0
 40
27.70323325635104
  1
球面回転ヘッド
 41
0.9992307692307691
  7
EXCADTTF1
 72
     5
 11
1904.4
 21
831.3134499044
 31
0.0
100
AcDbText
  0
LEADER
  5
535
330
1F
100
AcDbEntity
  8
Ｓ_１_１
  6
CONTINUOUS
 62
     2
100
AcDbLeader
  3
ISO-25
 76
     3
 10
1349.5000012964
 20
990.000026
 30
0.0
 10
1640.9159494205
 20
821.7509499044
 30
0.0
 10
1904.4
 20
821.7509499044
 30
0.0
1001
ACAD
1000
DSTYLE
1002
{
1070
     5
1000
EX_NORM
1070
    41
1040
27.0
1070
   341
1005
80
1002
}
  0
TEXT
  5
536
330
1F
100
AcDbEntity
  8
Ｓ_１_１
  6
CONTINUOUS
 62
     4
100
AcDbText
 10
1428.3
 20
1280.6083469034
 30
0.0
 40
27.70323325635104
  1
角ヘッド
 41
0.9992307692307693
  7
EXCADTTF1
 72
     5
 11
1572.3
 21
1280.6083469034
 31
0.0
100
AcDbText
  0
LEADER
  5
537
330
1F
100
AcDbEntity
  8
Ｓ_１_１
  6
CONTINUOUS
 62
     2
100
AcDbLeader
  3
ISO-25
 76
     3
 10
1359.0
 20
1189.9999469999
 30
0.0
 10
1405.791872126
 20
1271.0458469034
 30
0.0
 10
1572.3
 20
1271.0458469034
 30
0.0
1001
ACAD
1000
DSTYLE
1002
{
1070
     5
1000
EX_NORM
1070
    41
1040
27.0
1070
   341
1005
80
1002
}
  0
DIMENSION
  5
538
330
1F
100
AcDbEntity
  8
Ｓ_１_１
  6
CONTINUOUS
 62
     2
100
AcDbDimension
  2
*D26
 10
2379.431116261786
 20
864.1296283645015
 30
0.0
 11
2519.363105646439
 21
927.2473773805546
 31
0.0
 70
   163
  3
ISO-25
100
AcDbDiametricDimension
 15
2460.568883738216
 25
885.8704276354782
 35
0.0
 40
0.0
1001
ACAD
1000
DSTYLE
1002
{
1070
   270
1070
     2
1070
     6
1000
EX_NORM
1070
     7
1000
EX_NORM
1070
    41
1040
27.0
1070
    73
1070
     0
1070
    74
1070
     0
1070
    77
1070
     1
1070
    78
1070
     8
1070
   140
1040
31.16613741339492
1070
   147
1040
0.0
1070
   173
1070
     1
1070
   176
1070
     2
1070
   177
1070
     2
1070
   178
1070
     2
1070
   271
1070
     2
1070
   277
1070
     2
1070
   279
1070
     2
1070
   280
1070
     1
1070
   287
1070
     5
1070
   340
1005
223
1002
}
  0
LINE
  5
543
330
1F
100
AcDbEntity
  8
Ｓ_１_１
  6
CONTINUOUS
 62
     3
100
AcDbLine
 10
2629.999996
 20
786.9999990000006
 30
0.0
 11
2210.000003
 21
786.9999990000006
 31
0.0
  0
LINE
  5
544
330
1F
100
AcDbEntity
  8
Ｓ_１_１
  6
CONTINUOUS
 62
     3
100
AcDbLine
 10
2626.999812999999
 20
790.0000290000007
 30
0.0
 11
2213.00031
 21
790.0000290000007
 31
0.0
  0
LINE
  5
545
330
1F
100
AcDbEntity
  8
Ｓ_１_１
  6
CONTINUOUS
 62
     3
100
AcDbLine
 10
2599.999997
 20
981.9999960000005
 30
0.0
 11
2240.000002
 21
981.9999960000005
 31
0.0
  0
LINE
  5
546
330
1F
100
AcDbEntity
  8
Ｓ_１_１
  6
CONTINUOUS
 62
     3
100
AcDbLine
 10
2444.999983996145
 20
985.000037032755
 30
0.0
 11
2243.000018
 21
985.000037032755
 31
0.0
  0
LINE
  5
547
330
1F
100
AcDbEntity
  8
Ｓ_１_１
  6
CONTINUOUS
 62
     3
100
AcDbLine
 10
2529.999997999998
 20
986.9999960000004
 30
0.0
 11
2310.000001
 21
986.9999960000004
 31
0.0
  0
LINE
  5
548
330
1F
100
AcDbEntity
  8
Ｓ_１_１
  6
CONTINUOUS
 62
     3
100
AcDbLine
 10
2528.26782
 20
990.0000259999996
 30
0.0
 11
2311.732104
 21
990.0000259999996
 31
0.0
  0
LINE
  5
549
330
1F
100
AcDbEntity
  8
Ｓ_１_１
  6
CONTINUOUS
 62
     3
100
AcDbLine
 10
1474.999996
 20
786.9999990000006
 30
0.0
 11
1055.000003000001
 21
786.9999990000006
 31
0.0
  0
LINE
  5
54A
330
1F
100
AcDbEntity
  8
Ｓ_１_１
  6
CONTINUOUS
 62
     3
100
AcDbLine
 10
1471.999813
 20
790.0000290000007
 30
0.0
 11
1058.00031
 21
790.0000290000007
 31
0.0
  0
LINE
  5
54B
330
1F
100
AcDbEntity
  8
Ｓ_１_１
  6
CONTINUOUS
 62
     3
100
AcDbLine
 10
1444.999997000001
 20
981.9999960000005
 30
0.0
 11
1085.000002000001
 21
981.9999960000005
 31
0.0
  0
LINE
  5
54C
330
1F
100
AcDbEntity
  8
Ｓ_１_１
  6
CONTINUOUS
 62
     3
100
AcDbLine
 10
1289.999983996146
 20
985.000037032755
 30
0.0
 11
1088.000018
 21
985.000037032755
 31
0.0
  0
LINE
  5
54D
330
1F
100
AcDbEntity
  8
Ｓ_１_１
  6
CONTINUOUS
 62
     3
100
AcDbLine
 10
1374.999997999999
 20
986.9999960000004
 30
0.0
 11
1155.000001
 21
986.9999960000004
 31
0.0
  0
LINE
  5
54E
330
1F
100
AcDbEntity
  8
Ｓ_１_１
  6
CONTINUOUS
 62
     3
100
AcDbLine
 10
1373.267820000001
 20
990.0000259999996
 30
0.0
 11
1156.732104
 21
990.0000259999996
 31
0.0
  0
LINE
  5
54F
330
1F
100
AcDbEntity
  8
Ｓ_１_１
  6
CONTINUOUS
 62
     3
100
AcDbLine
 10
1380.000004202135
 20
1004.9999143664
 30
0.0
 11
1149.9999751336
 21
1004.9999143664
 31
0.0
  0
LINE
  5
550
330
1F
100
AcDbEntity
  8
Ｓ_１_１
  6
CONTINUOUS
 62
     3
100
AcDbLine
 10
1384.999973535545
 20
1009.999906587994
 30
0.0
 11
1145.0000264645
 21
1009.999906587994
 31
0.0
  0
ARC
  5
551
330
1F
100
AcDbEntity
  8
Ｓ_１_１
  6
CONTINUOUS
 62
     3
100
AcDbCircle
 10
1265.0
 20
600.0000319999999
 30
0.0
 40
39.999999
100
AcDbArc
 50
90.00000000000001
 51
89.99999600000015
  0
LINE
  5
552
330
1F
100
AcDbEntity
  8
Ｓ_１_１
  6
CONTINUOUS
 62
     3
100
AcDbLine
 10
2195.000000000001
 20
1149.999946999941
 30
0.0
 11
2645.000000000001
 21
1149.999946999941
 31
0.0
  0
CIRCLE
  5
553
330
1F
100
AcDbEntity
  8
Ｓ_１_１
  6
CONTINUOUS
 62
     3
100
AcDbCircle
 10
1265.000000000006
 20
600.000032
 30
0.0
 40
16.0
  0
CIRCLE
  5
554
330
1F
100
AcDbEntity
  8
Ｓ_１_１
  6
CONTINUOUS
 62
     3
100
AcDbCircle
 10
1265.000000000006
 20
600.000032
 30
0.0
 40
14.58898671826498
  0
CIRCLE
  5
555
330
1F
100
AcDbEntity
  8
Ｓ_１_１
  6
CONTINUOUS
 62
     3
100
AcDbCircle
 10
1265.000000000006
 20
600.000032
 30
0.0
 40
10.62462489497569
  0
CIRCLE
  5
556
330
1F
100
AcDbEntity
  8
Ｓ_１_１
  6
CONTINUOUS
 62
     3
100
AcDbCircle
 10
1265.000000000006
 20
600.000032
 30
0.0
 40
4.983155732690521
  0
POLYLINE
  5
557
330
1F
100
AcDbEntity
  8
Ｓ_１_１
  6
CONTINUOUS
 62
     3
100
AcDb2dPolyline
 66
     1
 10
0.0
 20
0.0
 30
0.0
 70
   128
  0
VERTEX
  5
558
330
557
100
AcDbEntity
  8
Ｓ_１_１
  6
CONTINUOUS
 62
     3
100
AcDbVertex
100
AcDb2dVertex
 10
1265.000000000006
 20
878.8564064605516
 30
0.0
  0
VERTEX
  5
559
330
557
100
AcDbEntity
  8
Ｓ_１_１
  6
CONTINUOUS
 62
     3
100
AcDbVertex
100
AcDb2dVertex
 10
1277.000000000006
 20
871.9282032302755
 30
0.0
  0
VERTEX
  5
55A
330
557
100
AcDbEntity
  8
Ｓ_１_１
  6
CONTINUOUS
 62
     3
100
AcDbVertex
100
AcDb2dVertex
 10
1277.000000000006
 20
858.0717967697246
 30
0.0
  0
VERTEX
  5
55B
330
557
100
AcDbEntity
  8
Ｓ_１_１
  6
CONTINUOUS
 62
     3
100
AcDbVertex
100
AcDb2dVertex
 10
1265.000000000006
 20
851.1435935394484
 30
0.0
  0
VERTEX
  5
55C
330
557
100
AcDbEntity
  8
Ｓ_１_１
  6
CONTINUOUS
 62
     3
100
AcDbVertex
100
AcDb2dVertex
 10
1253.000000000006
 20
858.0717967697246
 30
0.0
  0
VERTEX
  5
55D
330
557
100
AcDbEntity
  8
Ｓ_１_１
  6
CONTINUOUS
 62
     3
100
AcDbVertex
100
AcDb2dVertex
 10
1253.000000000006
 20
871.9282032302755
 30
0.0
  0
VERTEX
  5
55E
330
557
100
AcDbEntity
  8
Ｓ_１_１
  6
CONTINUOUS
 62
     3
100
AcDbVertex
100
AcDb2dVertex
 10
1265.000000000006
 20
878.8564064605516
 30
0.0
  0
SEQEND
  5
55F
330
557
100
AcDbEntity
  8
Ｓ_１_１
  6
CONTINUOUS
 62
     3
  0
CIRCLE
  5
560
330
1F
100
AcDbEntity
  8
Ｓ_１_１
  6
CONTINUOUS
 62
     3
100
AcDbCircle
 10
1265.000000000006
 20
865.0
 30
0.0
 40
12.00000000000102
  0
CIRCLE
  5
561
330
1F
100
AcDbEntity
  8
Ｓ_１_１
  6
CONTINUOUS
 62
     3
100
AcDbCircle
 10
1265.000000000006
 20
865.0
 30
0.0
 40
10.72532284355114
  0
CIRCLE
  5
562
330
1F
100
AcDbEntity
  8
Ｓ_１_１
  6
CONTINUOUS
 62
     3
100
AcDbCircle
 10
1265.000000000006
 20
865.0
 30
0.0
 40
6.323600530683808
  0
CIRCLE
  5
563
330
1F
100
AcDbEntity
  8
Ｓ_１_１
  6
CONTINUOUS
 62
     3
100
AcDbCircle
 10
1265.000000000006
 20
865.0
 30
0.0
 40
4.217842489549019
  0
LINE
  5
564
330
1F
100
AcDbEntity
  8
Ｓ_１_１
  6
CONTINUOUS
 62
     3
100
AcDbLine
 10
1314.000000000001
 20
869.2499999999991
 30
0.0
 11
1319.000000000001
 21
869.2499999999991
 31
0.0
  0
LINE
  5
565
330
1F
100
AcDbEntity
  8
Ｓ_１_１
  6
CONTINUOUS
 62
     3
100
AcDbLine
 10
1314.000000000001
 20
860.7499999999991
 30
0.0
 11
1319.000000000001
 21
860.7499999999991
 31
0.0
  0
LINE
  5
566
330
1F
100
AcDbEntity
  8
Ｓ_１_１
  6
CONTINUOUS
 62
     3
100
AcDbLine
 10
1314.000000000001
 20
859.9999999999991
 30
0.0
 11
1318.250000000001
 21
859.9999999999991
 31
0.0
  0
LINE
  5
567
330
1F
100
AcDbEntity
  8
Ｓ_１_１
  6
CONTINUOUS
 62
     3
100
AcDbLine
 10
1314.000000000001
 20
869.9999999999991
 30
0.0
 11
1318.250000000001
 21
869.9999999999991
 31
0.0
  0
LINE
  5
568
330
1F
100
AcDbEntity
  8
Ｓ_１_１
  6
CONTINUOUS
 62
     3
100
AcDbLine
 10
1319.000000000001
 20
860.7499999999991
 30
0.0
 11
1319.000000000001
 21
869.2499999999991
 31
0.0
  0
LINE
  5
569
330
1F
100
AcDbEntity
  8
Ｓ_１_１
  6
CONTINUOUS
 62
     3
100
AcDbLine
 10
1318.250000000001
 20
859.9999999999991
 30
0.0
 11
1318.250000000001
 21
869.9999999999991
 31
0.0
  0
LINE
  5
56A
330
1F
100
AcDbEntity
  8
Ｓ_１_１
  6
CONTINUOUS
 62
     3
100
AcDbLine
 10
1318.250002557701
 20
860.000001124999
 30
0.0
 11
1319.000000656501
 21
860.7499992869989
 31
0.0
  0
LINE
  5
56B
330
1F
100
AcDbEntity
  8
Ｓ_１_１
  6
CONTINUOUS
 62
     3
100
AcDbLine
 10
1319.000001647
 20
869.2500019252989
 30
0.0
 11
1318.250001461901
 21
870.0000020470989
 31
0.0
  0
LINE
  5
56C
330
1F
100
AcDbEntity
  8
Ｓ_１_１
  6
CONTINUOUS
 62
     3
100
AcDbLine
 10
1307.000000000001
 20
864.9999999999991
 30
0.0
 11
1307.000000000001
 21
874.9999999999991
 31
0.0
  0
LINE
  5
56D
330
1F
100
AcDbEntity
  8
Ｓ_１_１
  6
CONTINUOUS
 62
     3
100
AcDbLine
 10
1307.000000000001
 20
854.9999999999992
 30
0.0
 11
1307.000000000001
 21
864.9999999999991
 31
0.0
  0
LINE
  5
56E
330
1F
100
AcDbEntity
  8
Ｓ_１_１
  6
CONTINUOUS
 62
     3
100
AcDbLine
 10
1307.000000551001
 20
874.9999994489991
 30
0.0
 11
1308.00000058
 21
873.9999993356987
 31
0.0
  0
LINE
  5
56F
330
1F
100
AcDbEntity
  8
Ｓ_１_１
  6
CONTINUOUS
 62
     3
100
AcDbLine
 10
1308.000000284901
 20
856.0000002005991
 30
0.0
 11
1307.000000487701
 21
855.0000004876988
 31
0.0
  0
LINE
  5
570
330
1F
100
AcDbEntity
  8
Ｓ_１_１
  6
CONTINUOUS
 62
     3
100
AcDbLine
 10
1308.000000000001
 20
856.0000002005991
 30
0.0
 11
1308.000000000001
 21
864.9999999999991
 31
0.0
  0
LINE
  5
571
330
1F
100
AcDbEntity
  8
Ｓ_１_１
  6
CONTINUOUS
 62
     3
100
AcDbLine
 10
1308.000000000001
 20
864.9999999999991
 30
0.0
 11
1308.000000000001
 21
873.9999993356987
 31
0.0
  0
LINE
  5
572
330
1F
100
AcDbEntity
  8
Ｓ_１_１
  6
CONTINUOUS
 62
     3
100
AcDbLine
 10
1277.5
 20
874.9999999999991
 30
0.0
 11
1307.000000000001
 21
874.9999999999991
 31
0.0
  0
LINE
  5
573
330
1F
100
AcDbEntity
  8
Ｓ_１_１
  6
CONTINUOUS
 62
     3
100
AcDbLine
 10
1313.999998165601
 20
872.492412663199
 30
0.0
 11
1312.9999979724
 21
874.4999992528988
 31
0.0
  0
LINE
  5
574
330
1F
100
AcDbEntity
  8
Ｓ_１_１
  6
CONTINUOUS
 62
     3
100
AcDbLine
 10
1313.999999514501
 20
857.507586243999
 30
0.0
 11
1312.9999993213
 21
855.4999996542988
 31
0.0
  0
LINE
  5
575
330
1F
100
AcDbEntity
  8
Ｓ_１_１
  6
CONTINUOUS
 62
     3
100
AcDbLine
 10
1307.999999976601
 20
872.4924133061991
 30
0.0
 11
1309.000000169801
 21
874.4999998958988
 31
0.0
  0
LINE
  5
576
330
1F
100
AcDbEntity
  8
Ｓ_１_１
  6
CONTINUOUS
 62
     3
100
AcDbLine
 10
1307.999998485901
 20
857.507585885699
 30
0.0
 11
1308.9999985375
 21
855.4999995804988
 31
0.0
  0
LINE
  5
577
330
1F
100
AcDbEntity
  8
Ｓ_１_１
  6
CONTINUOUS
 62
     3
100
AcDbLine
 10
1309.000000000001
 20
855.4999999999991
 30
0.0
 11
1313.000000000001
 21
855.4999999999991
 31
0.0
  0
LINE
  5
578
330
1F
100
AcDbEntity
  8
Ｓ_１_１
  6
CONTINUOUS
 62
     3
100
AcDbLine
 10
1309.000000000001
 20
874.4999999999991
 30
0.0
 11
1313.000000000001
 21
874.4999999999991
 31
0.0
  0
LINE
  5
579
330
1F
100
AcDbEntity
  8
Ｓ_１_１
  6
CONTINUOUS
 62
     3
100
AcDbLine
 10
1314.000000000001
 20
864.9999999999991
 30
0.0
 11
1314.000000000001
 21
872.4924138386991
 31
0.0
  0
LINE
  5
57A
330
1F
100
AcDbEntity
  8
Ｓ_１_１
  6
CONTINUOUS
 62
     3
100
AcDbLine
 10
1314.000000000001
 20
857.5075861612991
 30
0.0
 11
1314.000000000001
 21
864.9999999999991
 31
0.0
  0
ARC
  5
57B
330
1F
100
AcDbEntity
  8
Ｓ_１_１
  6
CONTINUOUS
 62
     3
100
AcDbCircle
 10
1323.541666666701
 20
864.9999999999991
 30
0.0
 40
15.5416666667
100
AcDbArc
 50
159.3345163543002
 51
159.3345238904477
  0
ARC
  5
57C
330
1F
100
AcDbEntity
  8
Ｓ_１_１
  6
CONTINUOUS
 62
     3
100
AcDbCircle
 10
1298.4583333333
 20
864.9999999999991
 30
0.0
 40
15.5416666667
100
AcDbArc
 50
20.66547610955293
 51
20.66547840939962
  0
ARC
  5
57D
330
1F
100
AcDbEntity
  8
Ｓ_１_１
  6
CONTINUOUS
 62
     3
100
AcDbCircle
 10
1323.541666666701
 20
864.9999999999991
 30
0.0
 40
15.5416666667
100
AcDbArc
 50
162.8126324028145
 51
197.1873680951787
  0
ARC
  5
57E
330
1F
100
AcDbEntity
  8
Ｓ_１_１
  6
CONTINUOUS
 62
     3
100
AcDbCircle
 10
1323.541666666701
 20
864.9999999999991
 30
0.0
 40
15.5416666667
100
AcDbArc
 50
200.6654786560356
 51
200.6654800033002
  0
ARC
  5
57F
330
1F
100
AcDbEntity
  8
Ｓ_１_１
  6
CONTINUOUS
 62
     3
100
AcDbCircle
 10
1298.4583333333
 20
864.9999999999991
 30
0.0
 40
15.5416666667
100
AcDbArc
 50
342.8126319048212
 51
17.18736759718547
  0
LINE
  5
580
330
1F
100
AcDbEntity
  8
Ｓ_１_１
  6
CONTINUOUS
 62
     3
100
AcDbLine
 10
1313.305964117862
 20
869.5925224946791
 30
0.0
 11
1308.694035882138
 21
869.5925224946791
 31
0.0
  0
LINE
  5
581
330
1F
100
AcDbEntity
  8
Ｓ_１_１
  6
CONTINUOUS
 62
     3
100
AcDbLine
 10
1313.305964077947
 20
860.4074773762692
 30
0.0
 11
1308.694035922055
 21
860.4074773762692
 31
0.0
  0
ARC
  5
582
330
1F
100
AcDbEntity
  8
Ｓ_１_１
  6
CONTINUOUS
 62
     3
100
AcDbCircle
 10
1308.000000000001
 20
857.507582846009
 30
0.0
 40
6.000000000001596
100
AcDbArc
 50
0.0000417559226242
 51
28.90218407791362
  0
ARC
  5
583
330
1F
100
AcDbEntity
  8
Ｓ_１_１
  6
CONTINUOUS
 62
     3
100
AcDbCircle
 10
1314.000000000001
 20
857.507587218679
 30
0.0
 40
6.000000000001596
100
AcDbArc
 50
151.0978636188124
 51
180.0000417558857
  0
ARC
  5
584
330
1F
100
AcDbEntity
  8
Ｓ_１_１
  6
CONTINUOUS
 62
     3
100
AcDbCircle
 10
1314.000000000001
 20
872.492413353179
 30
0.0
 40
6.000000000000006
100
AcDbArc
 50
179.9999920172612
 51
208.9021440266621
  0
ARC
  5
585
330
1F
100
AcDbEntity
  8
Ｓ_１_１
  6
CONTINUOUS
 62
     3
100
AcDbCircle
 10
1308.000000000001
 20
872.492413353179
 30
0.0
 40
6.000000000001596
100
AcDbArc
 50
331.0978559733464
 51
0.0
  0
LINE
  5
586
330
1F
100
AcDbEntity
  8
Ｓ_１_１
  6
CONTINUOUS
 62
     3
100
AcDbLine
 10
1277.5
 20
854.9999999999992
 30
0.0
 11
1307.000000000001
 21
854.9999999999992
 31
0.0
  0
LINE
  5
587
330
1F
100
AcDbEntity
  8
Ｓ_１_１
  6
CONTINUOUS
 62
     3
100
AcDbLine
 10
1252.5
 20
877.5
 30
0.0
 11
1252.5
 21
852.5000000000001
 31
0.0
  0
LINE
  5
588
330
1F
100
AcDbEntity
  8
Ｓ_１_１
  6
CONTINUOUS
 62
     3
100
AcDbLine
 10
1277.5
 20
877.5
 30
0.0
 11
1277.5
 21
852.5
 31
0.0
  0
ARC
  5
589
330
1F
100
AcDbEntity
  8
Ｓ_１_１
  6
CONTINUOUS
 62
     3
100
AcDbCircle
 10
1265.000000000006
 20
865.0
 30
0.0
 40
15.0
100
AcDbArc
 50
56.44269023807936
 51
123.5573097619206
  0
ARC
  5
58A
330
1F
100
AcDbEntity
  8
Ｓ_１_１
  6
CONTINUOUS
 62
     3
100
AcDbCircle
 10
1265.000000000006
 20
865.0
 30
0.0
 40
15.0
100
AcDbArc
 50
146.4426902381223
 51
213.5573097618778
  0
ARC
  5
58B
330
1F
100
AcDbEntity
  8
Ｓ_１_１
  6
CONTINUOUS
 62
     3
100
AcDbCircle
 10
1265.000000000006
 20
865.0
 30
0.0
 40
15.0
100
AcDbArc
 50
236.4426902380792
 51
303.5573097619207
  0
ARC
  5
58C
330
1F
100
AcDbEntity
  8
Ｓ_１_１
  6
CONTINUOUS
 62
     3
100
AcDbCircle
 10
1265.000000000006
 20
865.0
 30
0.0
 40
15.0
100
AcDbArc
 50
326.4426902380361
 51
33.55730976196409
  0
LINE
  5
58D
330
1F
100
AcDbEntity
  8
Ｓ_１_１
  6
CONTINUOUS
 62
     3
100
AcDbLine
 10
1252.5
 20
852.5
 30
0.0
 11
1262.650635094617
 21
852.5
 31
0.0
  0
LINE
  5
58E
330
1F
100
AcDbEntity
  8
Ｓ_１_１
  6
CONTINUOUS
 62
     3
100
AcDbLine
 10
1267.349364905396
 20
852.5
 30
0.0
 11
1277.5
 21
852.5
 31
0.0
  0
LINE
  5
58F
330
1F
100
AcDbEntity
  8
Ｓ_１_１
  6
CONTINUOUS
 62
     3
100
AcDbLine
 10
1253.5
 20
853.4999999999999
 30
0.0
 11
1260.918584287048
 21
853.4999999999999
 31
0.0
  0
LINE
  5
590
330
1F
100
AcDbEntity
  8
Ｓ_１_１
  6
CONTINUOUS
 62
     3
100
AcDbLine
 10
1269.081415712964
 20
853.4999999999999
 30
0.0
 11
1276.5
 21
853.4999999999999
 31
0.0
  0
LINE
  5
591
330
1F
100
AcDbEntity
  8
Ｓ_１_１
  6
CONTINUOUS
 62
     3
100
AcDbLine
 10
1253.5
 20
857.7831216351333
 30
0.0
 11
1253.5
 21
853.4999999999999
 31
0.0
  0
LINE
  5
592
330
1F
100
AcDbEntity
  8
Ｓ_１_１
  6
CONTINUOUS
 62
     3
100
AcDbLine
 10
1253.5
 20
876.5
 30
0.0
 11
1253.5
 21
872.2168783648665
 31
0.0
  0
LINE
  5
593
330
1F
100
AcDbEntity
  8
Ｓ_１_１
  6
CONTINUOUS
 62
     3
100
AcDbLine
 10
1276.5
 20
876.5
 30
0.0
 11
1276.5
 21
872.2168783648737
 31
0.0
  0
LINE
  5
594
330
1F
100
AcDbEntity
  8
Ｓ_１_１
  6
CONTINUOUS
 62
     3
100
AcDbLine
 10
1276.5
 20
857.7831216351263
 30
0.0
 11
1276.5
 21
853.4999999999999
 31
0.0
  0
LINE
  5
595
330
1F
100
AcDbEntity
  8
Ｓ_１_１
  6
CONTINUOUS
 62
     3
100
AcDbLine
 10
1253.5
 20
876.5
 30
0.0
 11
1260.918584287048
 21
876.5
 31
0.0
  0
LINE
  5
596
330
1F
100
AcDbEntity
  8
Ｓ_１_１
  6
CONTINUOUS
 62
     3
100
AcDbLine
 10
1252.5
 20
877.5
 30
0.0
 11
1262.650635094617
 21
877.5
 31
0.0
  0
LINE
  5
597
330
1F
100
AcDbEntity
  8
Ｓ_１_１
  6
CONTINUOUS
 62
     3
100
AcDbLine
 10
1267.349364905396
 20
877.5
 30
0.0
 11
1277.5
 21
877.5
 31
0.0
  0
LINE
  5
598
330
1F
100
AcDbEntity
  8
Ｓ_１_１
  6
CONTINUOUS
 62
     3
100
AcDbLine
 10
1269.081415712964
 20
876.5
 30
0.0
 11
1276.5
 21
876.5
 31
0.0
  0
LINE
  5
599
330
1F
100
AcDbEntity
  8
Ｓ_１_１
  6
EXLTYPE8
 62
     1
100
AcDbLine
 10
1245.533106803894
 20
864.9999999999955
 30
0.0
 11
1322.48
 21
864.9999999999955
 31
0.0
  0
LINE
  5
59A
330
1F
100
AcDbEntity
  8
Ｓ_１_１
  6
CONTINUOUS
 62
     3
100
AcDbLine
 10
2233.637725999991
 20
853.4999999999998
 30
0.0
 11
2233.637725999991
 21
864.9999999999998
 31
0.0
  0
LINE
  5
59B
330
1F
100
AcDbEntity
  8
Ｓ_１_１
  6
CONTINUOUS
 62
     3
100
AcDbLine
 10
2233.637725999991
 20
864.9999999999998
 30
0.0
 11
2233.637725999991
 21
876.4999999999998
 31
0.0
  0
LINE
  5
59C
330
1F
100
AcDbEntity
  8
Ｓ_１_１
  6
CONTINUOUS
 62
     3
100
AcDbLine
 10
2232.637725999991
 20
877.4999999999998
 30
0.0
 11
2217.137725999991
 21
877.4999999999998
 31
0.0
  0
LINE
  5
59D
330
1F
100
AcDbEntity
  8
Ｓ_１_１
  6
CONTINUOUS
 62
     3
100
AcDbLine
 10
2201.637725999991
 20
877.4999999999998
 30
0.0
 11
2217.137725999991
 21
877.4999999999998
 31
0.0
  0
LINE
  5
59E
330
1F
100
AcDbEntity
  8
Ｓ_１_１
  6
CONTINUOUS
 62
     3
100
AcDbLine
 10
2200.637725999991
 20
853.4999999999998
 30
0.0
 11
2200.637725999991
 21
864.9999999999998
 31
0.0
  0
LINE
  5
59F
330
1F
100
AcDbEntity
  8
Ｓ_１_１
  6
CONTINUOUS
 62
     3
100
AcDbLine
 10
2200.637725999991
 20
864.9999999999998
 30
0.0
 11
2200.637725999991
 21
876.4999999999998
 31
0.0
  0
LINE
  5
5A0
330
1F
100
AcDbEntity
  8
Ｓ_１_１
  6
CONTINUOUS
 62
     3
100
AcDbLine
 10
2200.637724441292
 20
876.5000013688998
 30
0.0
 11
2201.637724575692
 21
877.5000014188997
 31
0.0
  0
LINE
  5
5A1
330
1F
100
AcDbEntity
  8
Ｓ_１_１
  6
CONTINUOUS
 62
     3
100
AcDbLine
 10
2232.637727097091
 20
877.5000007866995
 30
0.0
 11
2233.637726809991
 21
876.5000009895996
 31
0.0
  0
LINE
  5
5A2
330
1F
100
AcDbEntity
  8
Ｓ_１_１
  6
CONTINUOUS
 62
     3
100
AcDbLine
 10
2232.637725924191
 20
852.5000000480998
 30
0.0
 11
2233.637725966991
 21
853.5000001752
 31
0.0
  0
LINE
  5
5A3
330
1F
100
AcDbEntity
  8
Ｓ_１_１
  6
CONTINUOUS
 62
     3
100
AcDbLine
 10
2232.637725999991
 20
852.4999999999998
 30
0.0
 11
2217.137725999991
 21
852.4999999999998
 31
0.0
  0
LINE
  5
5A4
330
1F
100
AcDbEntity
  8
Ｓ_１_１
  6
CONTINUOUS
 62
     3
100
AcDbLine
 10
2200.637725537191
 20
853.4999997115999
 30
0.0
 11
2201.637725334292
 21
852.4999999986996
 31
0.0
  0
LINE
  5
5A5
330
1F
100
AcDbEntity
  8
Ｓ_１_１
  6
CONTINUOUS
 62
     3
100
AcDbLine
 10
2201.637725999991
 20
852.4999999999998
 30
0.0
 11
2217.137725999991
 21
852.4999999999998
 31
0.0
  0
LINE
  5
5A6
330
1F
100
AcDbEntity
  8
Ｓ_１_１
  6
CONTINUOUS
 62
     3
100
AcDbLine
 10
2201.637725999991
 20
852.4999999999998
 30
0.0
 11
2201.637725999991
 21
877.4999999999998
 31
0.0
  0
LINE
  5
5A7
330
1F
100
AcDbEntity
  8
Ｓ_１_１
  6
CONTINUOUS
 62
     3
100
AcDbLine
 10
2232.637725999991
 20
852.4999999999998
 30
0.0
 11
2232.637725999991
 21
877.4999999999998
 31
0.0
  0
LINE
  5
5A8
330
1F
100
AcDbEntity
  8
Ｓ_１_１
  6
CONTINUOUS
 62
     3
100
AcDbLine
 10
2199.27545399998
 20
873.2648619999998
 30
0.0
 11
2199.27545399998
 21
856.7351449999999
 31
0.0
  0
LINE
  5
5A9
330
1F
100
AcDbEntity
  8
Ｓ_１_１
  6
CONTINUOUS
 62
     3
100
AcDbLine
 10
2193.13775299998
 20
857.8201189999997
 30
0.0
 11
2199.27546599998
 21
857.4365110000001
 31
0.0
  0
LINE
  5
5AA
330
1F
100
AcDbEntity
  8
Ｓ_１_１
  6
CONTINUOUS
 62
     3
100
AcDbLine
 10
2193.137734999981
 20
857.118749
 30
0.0
 11
2200.637748999981
 21
856.6499980000001
 31
0.0
  0
LINE
  5
5AB
330
1F
100
AcDbEntity
  8
Ｓ_１_１
  6
CONTINUOUS
 62
     3
100
AcDbLine
 10
2199.27544599998
 20
857.436526
 30
0.0
 11
2200.63772899998
 21
856.650011
 31
0.0
  0
LINE
  5
5AC
330
1F
100
AcDbEntity
  8
Ｓ_１_１
  6
CONTINUOUS
 62
     3
100
AcDbLine
 10
2193.13772299998
 20
872.8812499999997
 30
0.0
 11
2200.63776799998
 21
873.3500029999998
 31
0.0
  0
LINE
  5
5AD
330
1F
100
AcDbEntity
  8
Ｓ_１_１
  6
CONTINUOUS
 62
     3
100
AcDbLine
 10
2200.63774499998
 20
873.349989
 30
0.0
 11
2199.27547499998
 21
872.5634829999997
 31
0.0
  0
LINE
  5
5AE
330
1F
100
AcDbEntity
  8
Ｓ_１_１
  6
CONTINUOUS
 62
     3
100
AcDbLine
 10
2193.13774099998
 20
872.1798879999999
 30
0.0
 11
2199.27548399998
 21
872.5634969999999
 31
0.0
  0
LINE
  5
5AF
330
1F
100
AcDbEntity
  8
Ｓ_１_１
  6
CONTINUOUS
 62
     3
100
AcDbLine
 10
2240.000017000001
 20
872.2509889999999
 30
0.0
 11
2235.000007
 21
872.5634899999998
 31
0.0
  0
LINE
  5
5B0
330
1F
100
AcDbEntity
  8
Ｓ_１_１
  6
CONTINUOUS
 62
     3
100
AcDbLine
 10
2240.000005
 20
872.9523529999999
 30
0.0
 11
2233.637754000001
 21
873.349993
 31
0.0
  0
LINE
  5
5B1
330
1F
100
AcDbEntity
  8
Ｓ_１_１
  6
CONTINUOUS
 62
     3
100
AcDbLine
 10
2234.999998000001
 20
873.2648619999998
 30
0.0
 11
2234.999998000001
 21
856.7351449999999
 31
0.0
  0
LINE
  5
5B2
330
1F
100
AcDbEntity
  8
Ｓ_１_１
  6
CONTINUOUS
 62
     3
100
AcDbLine
 10
2233.637707
 20
873.3500120000002
 30
0.0
 11
2234.999990000001
 21
872.5634979999998
 31
0.0
  0
LINE
  5
5B3
330
1F
100
AcDbEntity
  8
Ｓ_１_１
  6
CONTINUOUS
 62
     3
100
AcDbLine
 10
2240.000005
 20
857.7490139999999
 30
0.0
 11
2234.999995000001
 21
857.436513
 31
0.0
  0
LINE
  5
5B4
330
1F
100
AcDbEntity
  8
Ｓ_１_１
  6
CONTINUOUS
 62
     3
100
AcDbLine
 10
2239.999992
 20
857.04765
 30
0.0
 11
2233.637742
 21
856.6500100000001
 31
0.0
  0
LINE
  5
5B5
330
1F
100
AcDbEntity
  8
Ｓ_１_１
  6
CONTINUOUS
 62
     3
100
AcDbLine
 10
2235.000006000001
 20
857.4365030000001
 30
0.0
 11
2233.637736
 21
856.6499959999999
 31
0.0
  0
ARC
  5
5B6
330
1F
100
AcDbEntity
  8
Ｓ_１_１
  6
CONTINUOUS
 62
     3
100
AcDbCircle
 10
2192.271559999982
 20
875.3922884999895
 30
0.0
 40
6.133925000000002
100
AcDbArc
 50
145.6154380000004
 51
214.3845830000003
  0
ARC
  5
5B7
330
1F
100
AcDbEntity
  8
Ｓ_１_１
  6
CONTINUOUS
 62
     3
100
AcDbCircle
 10
2209.065871999982
 20
864.9999844999896
 30
0.0
 40
22.927938
100
AcDbArc
 50
162.411858
 51
197.5881660000002
  0
ARC
  5
5B8
330
1F
100
AcDbEntity
  8
Ｓ_１_１
  6
CONTINUOUS
 62
     3
100
AcDbCircle
 10
2187.003859999982
 20
854.60765049999
 30
0.0
 40
6.133925000000002
100
AcDbArc
 50
325.6154019999991
 51
34.38456099999978
  0
ARC
  5
5B9
330
1F
100
AcDbEntity
  8
Ｓ_１_１
  6
CONTINUOUS
 62
     3
100
AcDbCircle
 10
2149.137892999982
 20
860.49998449999
 30
0.0
 40
1.0
100
AcDbArc
 50
179.9999779999953
 51
269.9999749999977
  0
ARC
  5
5BA
330
1F
100
AcDbEntity
  8
Ｓ_１_１
  6
CONTINUOUS
 62
     3
100
AcDbCircle
 10
2192.271559999982
 20
854.60765049999
 30
0.0
 40
6.133925000000002
100
AcDbArc
 50
145.6153689999997
 51
214.384513999999
  0
ARC
  5
5BB
330
1F
100
AcDbEntity
  8
Ｓ_１_１
  6
CONTINUOUS
 62
     3
100
AcDbCircle
 10
2170.209792999981
 20
864.9999844999896
 30
0.0
 40
22.927942
100
AcDbArc
 50
342.4118210000002
 51
17.58811500000014
  0
ARC
  5
5BC
330
1F
100
AcDbEntity
  8
Ｓ_１_１
  6
CONTINUOUS
 62
     3
100
AcDbCircle
 10
2187.003859999982
 20
875.3922884999895
 30
0.0
 40
6.133925000000002
100
AcDbArc
 50
325.6154159999999
 51
34.38457399999984
  0
ARC
  5
5BD
330
1F
100
AcDbEntity
  8
Ｓ_１_１
  6
CONTINUOUS
 62
     3
100
AcDbCircle
 10
2149.137892999982
 20
869.4999544999894
 30
0.0
 40
1.0
100
AcDbArc
 50
89.99999700000235
 51
179.9999780000017
  0
LINE
  5
5BE
330
1F
100
AcDbEntity
  8
Ｓ_１_１
  6
CONTINUOUS
 62
     3
100
AcDbLine
 10
2146.137770999982
 20
863.5000154999896
 30
0.0
 11
2146.137770999982
 21
866.4999844999895
 31
0.0
  0
LINE
  5
5BF
330
1F
100
AcDbEntity
  8
Ｓ_１_１
  6
CONTINUOUS
 62
     3
100
AcDbLine
 10
2193.137648999982
 20
852.99998449999
 30
0.0
 11
2193.137648999982
 21
876.9999544999894
 31
0.0
  0
LINE
  5
5C0
330
1F
100
AcDbEntity
  8
Ｓ_１_１
  6
CONTINUOUS
 62
     3
100
AcDbLine
 10
2149.137892999982
 20
859.4999544999899
 30
0.0
 11
2158.137648999982
 21
859.4999544999899
 31
0.0
  0
LINE
  5
5C1
330
1F
100
AcDbEntity
  8
Ｓ_１_１
  6
CONTINUOUS
 62
     3
100
AcDbLine
 10
2158.137648999982
 20
859.4999544999899
 30
0.0
 11
2158.137648999982
 21
870.4999844999895
 31
0.0
  0
LINE
  5
5C2
330
1F
100
AcDbEntity
  8
Ｓ_１_１
  6
CONTINUOUS
 62
     3
100
AcDbLine
 10
2161.637892999982
 20
856.00001549999
 30
0.0
 11
2163.637770999982
 21
856.00001549999
 31
0.0
  0
LINE
  5
5C3
330
1F
100
AcDbEntity
  8
Ｓ_１_１
  6
CONTINUOUS
 62
     3
100
AcDbLine
 10
2161.637892999982
 20
873.9999844999896
 30
0.0
 11
2163.637770999982
 21
873.9999844999896
 31
0.0
  0
LINE
  5
5C4
330
1F
100
AcDbEntity
  8
Ｓ_１_１
  6
CONTINUOUS
 62
     3
100
AcDbLine
 10
2177.137770999982
 20
853.74998449999
 30
0.0
 11
2177.137770999982
 21
876.2499844999896
 31
0.0
  0
LINE
  5
5C5
330
1F
100
AcDbEntity
  8
Ｓ_１_１
  6
CONTINUOUS
 62
     3
100
AcDbLine
 10
2177.637770999982
 20
876.7499844999895
 30
0.0
 11
2186.137770999982
 21
876.7499844999895
 31
0.0
  0
LINE
  5
5C6
330
1F
100
AcDbEntity
  8
Ｓ_１_１
  6
CONTINUOUS
 62
     3
100
AcDbLine
 10
2177.637770999982
 20
853.2499544999898
 30
0.0
 11
2186.137770999982
 21
853.2499544999898
 31
0.0
  0
LINE
  5
5C7
330
1F
100
AcDbEntity
  8
Ｓ_１_１
  6
CONTINUOUS
 62
     3
100
AcDbLine
 10
2192.065796999982
 20
851.1436164999898
 30
0.0
 11
2193.137573999982
 21
852.99998849999
 31
0.0
  0
LINE
  5
5C8
330
1F
100
AcDbEntity
  8
Ｓ_１_１
  6
CONTINUOUS
 62
     3
100
AcDbLine
 10
2186.137579999982
 20
876.9999114999894
 30
0.0
 11
2187.209418999982
 21
878.8563894999895
 31
0.0
  0
LINE
  5
5C9
330
1F
100
AcDbEntity
  8
Ｓ_１_１
  6
CONTINUOUS
 62
     3
100
AcDbLine
 10
2193.137615999981
 20
876.9999534999895
 30
0.0
 11
2192.065838999982
 21
878.8563264999896
 31
0.0
  0
LINE
  5
5CA
330
1F
100
AcDbEntity
  8
Ｓ_１_１
  6
CONTINUOUS
 62
     3
100
AcDbLine
 10
2187.209278999982
 20
851.14362349999
 30
0.0
 11
2186.137501999982
 21
852.99999649999
 31
0.0
  0
LINE
  5
5CB
330
1F
100
AcDbEntity
  8
Ｓ_１_１
  6
CONTINUOUS
 62
     3
100
AcDbLine
 10
2187.209548999982
 20
878.8563994999893
 30
0.0
 11
2192.065871999982
 21
878.8563994999893
 31
0.0
  0
LINE
  5
5CC
330
1F
100
AcDbEntity
  8
Ｓ_１_１
  6
CONTINUOUS
 62
     3
100
AcDbLine
 10
2187.209548999982
 20
871.9282074999895
 30
0.0
 11
2192.065871999982
 21
871.9282074999895
 31
0.0
  0
LINE
  5
5CD
330
1F
100
AcDbEntity
  8
Ｓ_１_１
  6
CONTINUOUS
 62
     3
100
AcDbLine
 10
2187.209548999982
 20
858.0718534999899
 30
0.0
 11
2192.065871999982
 21
858.0718534999899
 31
0.0
  0
LINE
  5
5CE
330
1F
100
AcDbEntity
  8
Ｓ_１_１
  6
CONTINUOUS
 62
     3
100
AcDbLine
 10
2187.209548999982
 20
851.1435854999897
 30
0.0
 11
2192.065871999982
 21
851.1435854999897
 31
0.0
  0
LINE
  5
5CF
330
1F
100
AcDbEntity
  8
Ｓ_１_１
  6
CONTINUOUS
 62
     3
100
AcDbLine
 10
2186.137770999982
 20
852.99998449999
 30
0.0
 11
2186.137770999982
 21
876.9999544999894
 31
0.0
  0
LINE
  5
5D0
330
1F
100
AcDbEntity
  8
Ｓ_１_１
  6
CONTINUOUS
 62
     3
100
AcDbLine
 10
2148.137648999982
 20
860.49998449999
 30
0.0
 11
2148.137648999982
 21
869.4999544999894
 31
0.0
  0
LINE
  5
5D1
330
1F
100
AcDbEntity
  8
Ｓ_１_１
  6
CONTINUOUS
 62
     3
100
AcDbLine
 10
2146.137583999981
 20
866.4998434999897
 30
0.0
 11
2148.137628999982
 21
868.4998884999893
 31
0.0
  0
LINE
  5
5D2
330
1F
100
AcDbEntity
  8
Ｓ_１_１
  6
CONTINUOUS
 62
     3
100
AcDbLine
 10
2148.137585999982
 20
861.49981649999
 30
0.0
 11
2146.137626999981
 21
863.4997754999893
 31
0.0
  0
LINE
  5
5D3
330
1F
100
AcDbEntity
  8
Ｓ_１_１
  6
CONTINUOUS
 62
     3
100
AcDbLine
 10
2166.637892999982
 20
857.49998449999
 30
0.0
 11
2166.637892999982
 21
872.4999844999895
 31
0.0
  0
LINE
  5
5D4
330
1F
100
AcDbEntity
  8
Ｓ_１_１
  6
CONTINUOUS
 62
     3
100
AcDbLine
 10
2165.137770999982
 20
857.49998449999
 30
0.0
 11
2165.137770999982
 21
872.4999844999895
 31
0.0
  0
LINE
  5
5D5
330
1F
100
AcDbEntity
  8
Ｓ_１_１
  6
CONTINUOUS
 62
     3
100
AcDbLine
 10
2161.637892999982
 20
856.00001549999
 30
0.0
 11
2161.637892999982
 21
873.9999844999896
 31
0.0
  0
LINE
  5
5D6
330
1F
100
AcDbEntity
  8
Ｓ_１_１
  6
CONTINUOUS
 62
     3
100
AcDbLine
 10
2168.137648999982
 20
873.9999844999896
 30
0.0
 11
2177.137770999982
 21
873.9999844999896
 31
0.0
  0
LINE
  5
5D7
330
1F
100
AcDbEntity
  8
Ｓ_１_１
  6
CONTINUOUS
 62
     3
100
AcDbLine
 10
2168.137648999982
 20
856.00001549999
 30
0.0
 11
2177.137770999982
 21
856.00001549999
 31
0.0
  0
LINE
  5
5D8
330
1F
100
AcDbEntity
  8
Ｓ_１_１
  6
CONTINUOUS
 62
     3
100
AcDbLine
 10
2163.637749999981
 20
855.9998724999898
 30
0.0
 11
2165.137762999982
 21
857.4998844999898
 31
0.0
  0
LINE
  5
5D9
330
1F
100
AcDbEntity
  8
Ｓ_１_１
  6
CONTINUOUS
 62
     3
100
AcDbLine
 10
2165.137763999982
 20
872.4999504999894
 30
0.0
 11
2163.637880999982
 21
873.9998334999893
 31
0.0
  0
LINE
  5
5DA
330
1F
100
AcDbEntity
  8
Ｓ_１_１
  6
CONTINUOUS
 62
     3
100
AcDbLine
 10
2163.637770999982
 20
856.00001549999
 30
0.0
 11
2163.637770999982
 21
873.9999844999896
 31
0.0
  0
LINE
  5
5DB
330
1F
100
AcDbEntity
  8
Ｓ_１_１
  6
CONTINUOUS
 62
     3
100
AcDbLine
 10
2168.137615999981
 20
855.9999864999897
 30
0.0
 11
2166.637732999982
 21
857.4998694999897
 31
0.0
  0
LINE
  5
5DC
330
1F
100
AcDbEntity
  8
Ｓ_１_１
  6
CONTINUOUS
 62
     3
100
AcDbLine
 10
2166.637774999982
 20
872.4998364999894
 30
0.0
 11
2168.137786999982
 21
873.9998494999893
 31
0.0
  0
LINE
  5
5DD
330
1F
100
AcDbEntity
  8
Ｓ_１_１
  6
CONTINUOUS
 62
     3
100
AcDbLine
 10
2177.637770999982
 20
853.2499544999898
 30
0.0
 11
2177.637770999982
 21
876.7499844999895
 31
0.0
  0
LINE
  5
5DE
330
1F
100
AcDbEntity
  8
Ｓ_１_１
  6
CONTINUOUS
 62
     3
100
AcDbLine
 10
2168.137648999982
 20
856.00001549999
 30
0.0
 11
2168.137648999982
 21
873.9999844999896
 31
0.0
  0
LINE
  5
5DF
330
1F
100
AcDbEntity
  8
Ｓ_１_１
  6
CONTINUOUS
 62
     3
100
AcDbLine
 10
2165.137770999982
 20
857.49998449999
 30
0.0
 11
2166.637892999982
 21
857.49998449999
 31
0.0
  0
LINE
  5
5E0
330
1F
100
AcDbEntity
  8
Ｓ_１_１
  6
CONTINUOUS
 62
     3
100
AcDbLine
 10
2165.137770999982
 20
872.4999844999895
 30
0.0
 11
2166.637892999982
 21
872.4999844999895
 31
0.0
  0
LINE
  5
5E1
330
1F
100
AcDbEntity
  8
Ｓ_１_１
  6
CONTINUOUS
 62
     3
100
AcDbLine
 10
2177.137681999982
 20
876.2498804999893
 30
0.0
 11
2177.637627999982
 21
876.7498274999896
 31
0.0
  0
LINE
  5
5E2
330
1F
100
AcDbEntity
  8
Ｓ_１_１
  6
CONTINUOUS
 62
     3
100
AcDbLine
 10
2177.637679999982
 20
853.24990949999
 30
0.0
 11
2177.137770999982
 21
853.7498074999901
 31
0.0
  0
LINE
  5
5E3
330
1F
100
AcDbEntity
  8
Ｓ_１_１
  6
CONTINUOUS
 62
     3
100
AcDbLine
 10
2161.637661999982
 20
855.9999434999897
 30
0.0
 11
2158.137647999981
 21
859.4999574999899
 31
0.0
  0
LINE
  5
5E4
330
1F
100
AcDbEntity
  8
Ｓ_１_１
  6
CONTINUOUS
 62
     3
100
AcDbLine
 10
2158.137861999982
 20
870.4998344999898
 30
0.0
 11
2161.637833999982
 21
873.9998054999894
 31
0.0
  0
LINE
  5
5E5
330
1F
100
AcDbEntity
  8
Ｓ_１_１
  6
CONTINUOUS
 62
     3
100
AcDbLine
 10
2149.137892999982
 20
870.4999844999895
 30
0.0
 11
2158.137648999982
 21
870.4999844999895
 31
0.0
  0
CIRCLE
  5
5E6
330
1F
100
AcDbEntity
  8
Ｓ_１_１
  6
CONTINUOUS
 62
     3
100
AcDbCircle
 10
2217.13772599999
 20
864.9999999999998
 30
0.0
 40
10.0
  0
POLYLINE
  5
5E7
330
1F
100
AcDbEntity
  8
Ｓ_１_１
  6
CONTINUOUS
 62
     3
100
AcDb2dPolyline
 66
     1
 10
0.0
 20
0.0
 30
0.0
 70
   128
  0
VERTEX
  5
5E8
330
5E7
100
AcDbEntity
  8
Ｓ_１_１
  6
CONTINUOUS
 62
     3
100
AcDbVertex
100
AcDb2dVertex
 10
2207.63772599999
 20
864.9999999999998
 30
0.0
  0
VERTEX
  5
5E9
330
5E7
100
AcDbEntity
  8
Ｓ_１_１
  6
CONTINUOUS
 62
     3
100
AcDbVertex
100
AcDb2dVertex
 10
2212.38772599999
 20
856.7727586640478
 30
0.0
  0
VERTEX
  5
5EA
330
5E7
100
AcDbEntity
  8
Ｓ_１_１
  6
CONTINUOUS
 62
     3
100
AcDbVertex
100
AcDb2dVertex
 10
2221.88772599999
 20
856.7727586640478
 30
0.0
  0
VERTEX
  5
5EB
330
5E7
100
AcDbEntity
  8
Ｓ_１_１
  6
CONTINUOUS
 62
     3
100
AcDbVertex
100
AcDb2dVertex
 10
2226.63772599999
 20
864.9999999999998
 30
0.0
  0
VERTEX
  5
5EC
330
5E7
100
AcDbEntity
  8
Ｓ_１_１
  6
CONTINUOUS
 62
     3
100
AcDbVertex
100
AcDb2dVertex
 10
2221.88772599999
 20
873.2272413359522
 30
0.0
  0
VERTEX
  5
5ED
330
5E7
100
AcDbEntity
  8
Ｓ_１_１
  6
CONTINUOUS
 62
     3
100
AcDbVertex
100
AcDb2dVertex
 10
2212.38772599999
 20
873.2272413359522
 30
0.0
  0
VERTEX
  5
5EE
330
5E7
100
AcDbEntity
  8
Ｓ_１_１
  6
CONTINUOUS
 62
     3
100
AcDbVertex
100
AcDb2dVertex
 10
2207.63772599999
 20
864.9999999999998
 30
0.0
  0
SEQEND
  5
5EF
330
5E7
100
AcDbEntity
  8
Ｓ_１_１
  6
CONTINUOUS
 62
     3
  0
CIRCLE
  5
5F0
330
1F
100
AcDbEntity
  8
Ｓ_１_１
  6
CONTINUOUS
 62
     3
100
AcDbCircle
 10
2217.13772599999
 20
864.9999999999998
 30
0.0
 40
8.227241335951572
  0
ARC
  5
5F1
330
1F
100
AcDbEntity
  8
Ｓ_１_１
  6
CONTINUOUS
 62
     3
100
AcDbCircle
 10
2217.13772599999
 20
864.9999999999998
 30
0.0
 40
8.999999915700016
100
AcDbArc
 50
186.0835974972829
 51
233.9164025027172
  0
ARC
  5
5F2
330
1F
100
AcDbEntity
  8
Ｓ_１_１
  6
CONTINUOUS
 62
     3
100
AcDbCircle
 10
2217.13772599999
 20
864.9999999999998
 30
0.0
 40
8.999999915700016
100
AcDbArc
 50
246.0835974972827
 51
293.9164025027173
  0
ARC
  5
5F3
330
1F
100
AcDbEntity
  8
Ｓ_１_１
  6
CONTINUOUS
 62
     3
100
AcDbCircle
 10
2217.13772599999
 20
864.9999999999998
 30
0.0
 40
8.999999915700016
100
AcDbArc
 50
306.0835974972829
 51
353.9164025027171
  0
ARC
  5
5F4
330
1F
100
AcDbEntity
  8
Ｓ_１_１
  6
CONTINUOUS
 62
     3
100
AcDbCircle
 10
2217.13772599999
 20
864.9999999999998
 30
0.0
 40
8.999999915700016
100
AcDbArc
 50
6.083597497282877
 51
53.91640250271725
  0
ARC
  5
5F5
330
1F
100
AcDbEntity
  8
Ｓ_１_１
  6
CONTINUOUS
 62
     3
100
AcDbCircle
 10
2217.13772599999
 20
864.9999999999998
 30
0.0
 40
8.999999915700016
100
AcDbArc
 50
66.08359749728265
 51
113.9164025027174
  0
ARC
  5
5F6
330
1F
100
AcDbEntity
  8
Ｓ_１_１
  6
CONTINUOUS
 62
     3
100
AcDbCircle
 10
2217.13772599999
 20
864.9999999999998
 30
0.0
 40
8.999999915700016
100
AcDbArc
 50
126.0835974972829
 51
173.9164025027172
  0
CIRCLE
  5
5F7
330
1F
100
AcDbEntity
  8
Ｓ_１_１
  6
CONTINUOUS
 62
     3
100
AcDbCircle
 10
2217.13772599999
 20
864.9999999999998
 30
0.0
 40
5.000000000000001
  0
CIRCLE
  5
5F8
330
1F
100
AcDbEntity
  8
Ｓ_１_１
  6
CONTINUOUS
 62
     3
100
AcDbCircle
 10
2217.13772599999
 20
864.9999999999998
 30
0.0
 40
4.25
  0
LINE
  5
5F9
330
1F
100
AcDbEntity
  8
Ｓ_１_１
  6
EXLTYPE2
 62
     1
100
AcDbLine
 10
2217.137725999991
 20
877.9999999999998
 30
0.0
 11
2217.137725999991
 21
851.9999999999999
 31
0.0
  0
LINE
  5
5FA
330
1F
100
AcDbEntity
  8
Ｓ_１_１
  6
EXLTYPE8
 62
     1
100
AcDbLine
 10
2140.9798875591
 20
864.9999999999955
 30
0.0
 11
2264.95659074513
 21
864.9999999999955
 31
0.0
  0
LINE
  5
5FB
330
1F
100
AcDbEntity
  8
Ｓ_１_１
  6
EXLTYPE2
 62
     1
100
AcDbLine
 10
2252.00989
 20
600.0000319999999
 30
0.0
 11
2192.300113
 21
600.0000319999999
 31
0.0
  0
LINE
  5
5FC
330
1F
100
AcDbEntity
  8
Ｓ_１_１
  6
EXLTYPE2
 62
     1
100
AcDbLine
 10
2147.990116
 20
600.0000319999999
 30
0.0
 11
2207.699893
 21
600.0000319999999
 31
0.0
  0
POLYLINE
  5
5FD
330
1F
100
AcDbEntity
  8
Ｓ_１_１
  6
CONTINUOUS
 62
     3
100
AcDb2dPolyline
 66
     1
 10
0.0
 20
0.0
 30
0.0
 70
   128
  0
VERTEX
  5
5FE
330
5FD
100
AcDbEntity
  8
Ｓ_１_１
  6
CONTINUOUS
 62
     3
100
AcDbVertex
100
AcDb2dVertex
 10
2214.250974654052
 20
865.0
 30
0.0
  0
VERTEX
  5
5FF
330
5FD
100
AcDbEntity
  8
Ｓ_１_１
  6
CONTINUOUS
 62
     3
100
AcDbVertex
100
AcDb2dVertex
 10
2215.694350327026
 20
862.5
 30
0.0
  0
VERTEX
  5
600
330
5FD
100
AcDbEntity
  8
Ｓ_１_１
  6
CONTINUOUS
 62
     3
100
AcDbVertex
100
AcDb2dVertex
 10
2218.581101672974
 20
862.5
 30
0.0
  0
VERTEX
  5
601
330
5FD
100
AcDbEntity
  8
Ｓ_１_１
  6
CONTINUOUS
 62
     3
100
AcDbVertex
100
AcDb2dVertex
 10
2220.024477345948
 20
865.0
 30
0.0
  0
VERTEX
  5
602
330
5FD
100
AcDbEntity
  8
Ｓ_１_１
  6
CONTINUOUS
 62
     3
100
AcDbVertex
100
AcDb2dVertex
 10
2218.581101672974
 20
867.5
 30
0.0
  0
VERTEX
  5
603
330
5FD
100
AcDbEntity
  8
Ｓ_１_１
  6
CONTINUOUS
 62
     3
100
AcDbVertex
100
AcDb2dVertex
 10
2215.694350327026
 20
867.5
 30
0.0
  0
VERTEX
  5
604
330
5FD
100
AcDbEntity
  8
Ｓ_１_１
  6
CONTINUOUS
 62
     3
100
AcDbVertex
100
AcDb2dVertex
 10
2214.250974654052
 20
865.0
 30
0.0
  0
SEQEND
  5
605
330
5FD
100
AcDbEntity
  8
Ｓ_１_１
  6
CONTINUOUS
 62
     3
  0
LINE
  5
606
330
1F
100
AcDbEntity
  8
Ｓ_１_１
  6
EXLTYPE2
 62
     1
100
AcDbLine
 10
846.9001995638
 20
1759.999999999965
 30
0.0
 11
1682.900199563799
 21
1759.999999999967
 31
0.0
  0
CIRCLE
  5
607
330
1F
100
AcDbEntity
  8
Ｓ_１_１
  6
CONTINUOUS
 62
     3
100
AcDbCircle
 10
895.0000000000098
 20
1620.000000000015
 30
0.0
 40
12.49999915063384
  0
LINE
  5
608
330
1F
100
AcDbEntity
  8
Ｓ_１_１
  6
EXLTYPE2
 62
     1
100
AcDbLine
 10
895.0000000000098
 20
1637.24035818049
 30
0.0
 11
895.0000000000098
 21
1600.69035818049
 31
0.0
  0
LINE
  5
609
330
1F
100
AcDbEntity
  8
Ｓ_１_１
  6
EXLTYPE2
 62
     1
100
AcDbLine
 10
875.183685891191
 20
1620.000000000016
 30
0.0
 11
912.5000299960473
 21
1620.000000000016
 31
0.0
  0
CIRCLE
  5
60A
330
1F
100
AcDbEntity
  8
Ｓ_１_１
  6
CONTINUOUS
 62
     3
100
AcDbCircle
 10
895.0000000000093
 20
1899.999999999915
 30
0.0
 40
12.49999915063384
  0
LINE
  5
60B
330
1F
100
AcDbEntity
  8
Ｓ_１_１
  6
EXLTYPE2
 62
     1
100
AcDbLine
 10
875.1836858911904
 20
1899.999999999915
 30
0.0
 11
912.5000299960468
 21
1899.999999999915
 31
0.0
  0
LINE
  5
60C
330
1F
100
AcDbEntity
  8
Ｓ_１_１
  6
EXLTYPE2
 62
     1
100
AcDbLine
 10
895.0000000000093
 20
1882.759641819441
 30
0.0
 11
895.0000000000093
 21
1919.309641819441
 31
0.0
  0
CIRCLE
  5
60D
330
1F
100
AcDbEntity
  8
Ｓ_１_１
  6
CONTINUOUS
 62
     3
100
AcDbCircle
 10
1635.000000000016
 20
1620.000000000015
 30
0.0
 40
12.49999915063384
  0
LINE
  5
60E
330
1F
100
AcDbEntity
  8
Ｓ_１_１
  6
EXLTYPE2
 62
     1
100
AcDbLine
 10
1635.000000000016
 20
1637.24035818049
 30
0.0
 11
1635.000000000016
 21
1600.69035818049
 31
0.0
  0
LINE
  5
60F
330
1F
100
AcDbEntity
  8
Ｓ_１_１
  6
EXLTYPE2
 62
     1
100
AcDbLine
 10
1654.816314108835
 20
1620.000000000015
 30
0.0
 11
1617.499970003979
 21
1620.000000000015
 31
0.0
  0
CIRCLE
  5
610
330
1F
100
AcDbEntity
  8
Ｓ_１_１
  6
CONTINUOUS
 62
     3
100
AcDbCircle
 10
1635.000000000017
 20
1899.999999999915
 30
0.0
 40
12.49999915063384
  0
LINE
  5
611
330
1F
100
AcDbEntity
  8
Ｓ_１_１
  6
EXLTYPE2
 62
     1
100
AcDbLine
 10
1654.816314108836
 20
1899.999999999915
 30
0.0
 11
1617.49997000398
 21
1899.999999999915
 31
0.0
  0
LINE
  5
612
330
1F
100
AcDbEntity
  8
Ｓ_１_１
  6
EXLTYPE2
 62
     1
100
AcDbLine
 10
1635.000000000017
 20
1882.759641819441
 30
0.0
 11
1635.000000000017
 21
1919.30964181944
 31
0.0
  0
DIMENSION
  5
613
330
1F
100
AcDbEntity
  8
Ｓ_１_１
  6
CONTINUOUS
 62
     2
100
AcDbDimension
  2
*D27
 10
715.0000000000001
 20
1659.9999953508
 30
0.0
 11
690.2500000000002
 21
1759.99999999995
 31
0.0
 70
   160
  3
ISO-25
100
AcDbAlignedDimension
 13
976.4836939378
 23
1860.0000046491
 33
0.0
 14
975.1836939378
 24
1659.9999953508
 34
0.0
 50
90.0
100
AcDbRotatedDimension
1001
ACAD
1000
DSTYLE
1002
{
1070
   270
1070
     2
1070
     6
1000
EX_NORM
1070
     7
1000
EX_NORM
1070
    41
1040
27.0
1070
    42
1040
13.5
1070
    44
1040
9.0
1070
    73
1070
     0
1070
    74
1070
     0
1070
    75
1070
     0
1070
    76
1070
     0
1070
    77
1070
     1
1070
    78
1070
     8
1070
   140
1040
31.16613741339492
1070
   147
1040
0.0
1070
   173
1070
     1
1070
   176
1070
     2
1070
   177
1070
     2
1070
   178
1070
     2
1070
   271
1070
     2
1070
   277
1070
     2
1070
   279
1070
     2
1070
   280
1070
     0
1070
   287
1070
     5
1070
   340
1005
223
1002
}
  0
DIMENSION
  5
620
330
1F
100
AcDbEntity
  8
Ｓ_１_１
  6
CONTINUOUS
 62
     2
100
AcDbDimension
  2
*D28
 10
660.0
 20
1620.0
 30
0.0
 11
635.2500000000001
 21
1759.99999999995
 31
0.0
 70
   160
  3
ISO-25
100
AcDbAlignedDimension
 13
875.18368589119
 23
1899.9999999999
 33
0.0
 14
875.18368589119
 24
1620.0
 34
0.0
 50
90.0
100
AcDbRotatedDimension
1001
ACAD
1000
DSTYLE
1002
{
1070
   270
1070
     2
1070
     6
1000
EX_NORM
1070
     7
1000
EX_NORM
1070
    41
1040
27.0
1070
    42
1040
13.5
1070
    44
1040
9.0
1070
    73
1070
     0
1070
    74
1070
     0
1070
    75
1070
     0
1070
    76
1070
     0
1070
    77
1070
     1
1070
    78
1070
     8
1070
   140
1040
31.16613741339492
1070
   147
1040
0.0
1070
   173
1070
     1
1070
   176
1070
     2
1070
   177
1070
     2
1070
   178
1070
     2
1070
   271
1070
     2
1070
   277
1070
     2
1070
   279
1070
     2
1070
   280
1070
     0
1070
   287
1070
     5
1070
   340
1005
223
1002
}
  0
DIMENSION
  5
62D
330
1F
100
AcDbEntity
  8
Ｓ_１_１
  6
CONTINUOUS
 62
     2
100
AcDbDimension
  2
*D29
 10
605.0
 20
1590.0000126958
 30
0.0
 11
580.2500000000001
 21
1760.0
 31
0.0
 70
   160
  3
ISO-25
100
AcDbAlignedDimension
 13
1097.3336939378
 23
1929.9999873042
 33
0.0
 14
1096.2336939378
 24
1590.0000126958
 34
0.0
 50
90.0
100
AcDbRotatedDimension
1001
ACAD
1000
DSTYLE
1002
{
1070
   270
1070
     2
1070
     6
1000
EX_NORM
1070
     7
1000
EX_NORM
1070
    41
1040
27.0
1070
    42
1040
13.5
1070
    44
1040
9.0
1070
    73
1070
     0
1070
    74
1070
     0
1070
    75
1070
     0
1070
    76
1070
     0
1070
    77
1070
     1
1070
    78
1070
     8
1070
   140
1040
31.16613741339492
1070
   147
1040
0.0
1070
   173
1070
     1
1070
   176
1070
     2
1070
   177
1070
     2
1070
   178
1070
     2
1070
   271
1070
     2
1070
   277
1070
     2
1070
   279
1070
     2
1070
   280
1070
     0
1070
   287
1070
     5
1070
   340
1005
223
1002
}
  0
DIMENSION
  5
63A
330
1F
100
AcDbEntity
  8
Ｓ_１_１
  6
CONTINUOUS
 62
     2
100
AcDbDimension
  2
*D30
 10
550.0
 20
1535.0000067055
 30
0.0
 11
525.2500000000001
 21
1759.999999999978
 31
0.0
 70
   160
  3
ISO-25
100
AcDbAlignedDimension
 13
864.9999814033437
 23
1984.999993294456
 33
0.0
 14
864.9999814033437
 24
1535.0000067055
 34
0.0
 50
90.0
100
AcDbRotatedDimension
1001
ACAD
1000
DSTYLE
1002
{
1070
   270
1070
     2
1070
     6
1000
EX_NORM
1070
     7
1000
EX_NORM
1070
    41
1040
27.0
1070
    42
1040
13.5
1070
    44
1040
9.0
1070
    73
1070
     0
1070
    74
1070
     0
1070
    75
1070
     0
1070
    76
1070
     0
1070
    77
1070
     1
1070
    78
1070
     8
1070
   140
1040
31.16613741339492
1070
   147
1040
0.0
1070
   173
1070
     1
1070
   176
1070
     2
1070
   177
1070
     2
1070
   178
1070
     2
1070
   271
1070
     2
1070
   277
1070
     2
1070
   279
1070
     2
1070
   280
1070
     0
1070
   287
1070
     5
1070
   340
1005
223
1002
}
  0
DIMENSION
  5
647
330
1F
100
AcDbEntity
  8
Ｓ_１_１
  6
CONTINUOUS
 62
     2
100
AcDbDimension
  2
*D31
 10
995.00000804662
 20
2255.0
 30
0.0
 11
945.0000040233151
 21
2279.75
 31
0.0
 70
   160
  3
ISO-25
100
AcDbAlignedDimension
 13
895.00000000001
 23
1919.3096418194
 33
0.0
 14
995.00000804662
 24
1878.6903535313
 34
0.0
100
AcDbRotatedDimension
1001
ACAD
1000
DSTYLE
1002
{
1070
   270
1070
     2
1070
     6
1000
EX_NORM
1070
     7
1000
EX_NORM
1070
    41
1040
27.0
1070
    42
1040
13.5
1070
    44
1040
9.0
1070
    73
1070
     0
1070
    74
1070
     0
1070
    75
1070
     0
1070
    76
1070
     0
1070
    77
1070
     1
1070
    78
1070
     8
1070
   140
1040
31.16613741339492
1070
   147
1040
0.0
1070
   173
1070
     1
1070
   176
1070
     2
1070
   177
1070
     2
1070
   178
1070
     2
1070
   271
1070
     2
1070
   277
1070
     2
1070
   279
1070
     2
1070
   280
1070
     0
1070
   287
1070
     5
1070
   340
1005
223
1002
}
  0
DIMENSION
  5
654
330
1F
100
AcDbEntity
  8
Ｓ_１_１
  6
CONTINUOUS
 62
     2
100
AcDbDimension
  2
*D32
 10
1115.0000273585
 20
2255.0
 30
0.0
 11
1055.00001770256
 21
2279.75
 31
0.0
 70
   160
  3
ISO-25
100
AcDbAlignedDimension
 13
995.00000804662
 23
1878.6903535313
 33
0.0
 14
1115.0000273585
 24
1987.9999932945
 34
0.0
100
AcDbRotatedDimension
1001
ACAD
1000
DSTYLE
1002
{
1070
   270
1070
     2
1070
     6
1000
EX_NORM
1070
     7
1000
EX_NORM
1070
    41
1040
27.0
1070
    42
1040
13.5
1070
    44
1040
9.0
1070
    73
1070
     0
1070
    74
1070
     0
1070
    75
1070
     1
1070
    76
1070
     0
1070
    77
1070
     1
1070
    78
1070
     8
1070
   140
1040
31.16613741339492
1070
   147
1040
0.0
1070
   173
1070
     1
1070
   176
1070
     2
1070
   177
1070
     2
1070
   178
1070
     2
1070
   271
1070
     2
1070
   277
1070
     2
1070
   279
1070
     2
1070
   280
1070
     0
1070
   287
1070
     5
1070
   340
1005
223
1002
}
  0
DIMENSION
  5
660
330
1F
100
AcDbEntity
  8
Ｓ_１_１
  6
CONTINUOUS
 62
     2
100
AcDbDimension
  2
*D33
 10
1414.9999926686
 20
2255.0
 30
0.0
 11
1265.00001001355
 21
2279.75
 31
0.0
 70
   160
  3
ISO-25
100
AcDbAlignedDimension
 13
1115.0000273585
 23
1987.9999932945
 33
0.0
 14
1414.9999926686
 24
1987.9999932945
 34
0.0
100
AcDbRotatedDimension
1001
ACAD
1000
DSTYLE
1002
{
1070
   270
1070
     2
1070
     6
1000
EX_NORM
1070
     7
1000
EX_NORM
1070
    41
1040
27.0
1070
    42
1040
13.5
1070
    44
1040
9.0
1070
    73
1070
     0
1070
    74
1070
     0
1070
    75
1070
     1
1070
    76
1070
     0
1070
    77
1070
     1
1070
    78
1070
     8
1070
   140
1040
31.16613741339492
1070
   147
1040
0.0
1070
   173
1070
     1
1070
   176
1070
     2
1070
   177
1070
     2
1070
   178
1070
     2
1070
   271
1070
     2
1070
   277
1070
     2
1070
   279
1070
     2
1070
   280
1070
     0
1070
   287
1070
     5
1070
   340
1005
223
1002
}
  0
DIMENSION
  5
66C
330
1F
100
AcDbEntity
  8
Ｓ_１_１
  6
CONTINUOUS
 62
     2
100
AcDbDimension
  2
*D34
 10
1534.9999862313
 20
2255.0
 30
0.0
 11
1474.99998944995
 21
2279.75
 31
0.0
 70
   160
  3
ISO-25
100
AcDbAlignedDimension
 13
1414.9999926686
 23
1987.9999932945
 33
0.0
 14
1534.9999862313
 24
1879.2403535313
 34
0.0
100
AcDbRotatedDimension
1001
ACAD
1000
DSTYLE
1002
{
1070
   270
1070
     2
1070
     6
1000
EX_NORM
1070
     7
1000
EX_NORM
1070
    41
1040
27.0
1070
    42
1040
13.5
1070
    44
1040
9.0
1070
    73
1070
     0
1070
    74
1070
     0
1070
    75
1070
     1
1070
    76
1070
     0
1070
    77
1070
     1
1070
    78
1070
     8
1070
   140
1040
31.16613741339492
1070
   147
1040
0.0
1070
   173
1070
     1
1070
   176
1070
     2
1070
   177
1070
     2
1070
   178
1070
     2
1070
   271
1070
     2
1070
   277
1070
     2
1070
   279
1070
     2
1070
   280
1070
     0
1070
   287
1070
     5
1070
   340
1005
223
1002
}
  0
DIMENSION
  5
678
330
1F
100
AcDbEntity
  8
Ｓ_１_１
  6
CONTINUOUS
 62
     2
100
AcDbDimension
  2
*D35
 10
1635.0
 20
2255.0
 30
0.0
 11
1584.99999311565
 21
2279.75
 31
0.0
 70
   160
  3
ISO-25
100
AcDbAlignedDimension
 13
1534.9999862313
 23
1879.2403535313
 33
0.0
 14
1635.0
 24
1919.3096418194
 34
0.0
100
AcDbRotatedDimension
1001
ACAD
1000
DSTYLE
1002
{
1070
   270
1070
     2
1070
     6
1000
EX_NORM
1070
     7
1000
EX_NORM
1070
    41
1040
27.0
1070
    42
1040
13.5
1070
    44
1040
9.0
1070
    73
1070
     0
1070
    74
1070
     0
1070
    75
1070
     1
1070
    76
1070
     0
1070
    77
1070
     1
1070
    78
1070
     8
1070
   140
1040
31.16613741339492
1070
   147
1040
0.0
1070
   173
1070
     1
1070
   176
1070
     2
1070
   177
1070
     2
1070
   178
1070
     2
1070
   271
1070
     2
1070
   277
1070
     2
1070
   279
1070
     2
1070
   280
1070
     0
1070
   287
1070
     5
1070
   340
1005
223
1002
}
  0
DIMENSION
  5
684
330
1F
100
AcDbEntity
  8
Ｓ_１_１
  6
CONTINUOUS
 62
     2
100
AcDbDimension
  2
*D36
 10
895.00000000001
 20
2310.0
 30
0.0
 11
817.7500060000001
 21
2334.75
 31
0.0
 70
   160
  3
ISO-25
100
AcDbAlignedDimension
 13
865.000006
 23
2130.000035
 33
0.0
 14
895.00000000001
 24
1919.3096418194
 34
0.0
100
AcDbRotatedDimension
1001
ACAD
1000
DSTYLE
1002
{
1070
   270
1070
     2
1070
     6
1000
EX_NORM
1070
     7
1000
EX_NONE
1070
    41
1040
27.0
1070
    42
1040
0.0
1070
    44
1040
0.0
1070
    73
1070
     0
1070
    74
1070
     0
1070
    75
1070
     1
1070
    76
1070
     1
1070
    77
1070
     1
1070
    78
1070
     8
1070
   140
1040
31.16613741339492
1070
   147
1040
0.0
1070
   173
1070
     1
1070
   176
1070
     2
1070
   177
1070
     2
1070
   178
1070
     2
1070
   271
1070
     2
1070
   277
1070
     2
1070
   279
1070
     2
1070
   280
1070
     1
1070
   287
1070
     5
1070
   340
1005
223
1002
}
  0
DIMENSION
  5
691
330
1F
100
AcDbEntity
  8
Ｓ_１_１
  6
CONTINUOUS
 62
     2
100
AcDbDimension
  2
*D37
 10
1635.0
 20
2310.0
 30
0.0
 11
1265.000000000005
 21
2334.75
 31
0.0
 70
   160
  3
ISO-25
100
AcDbAlignedDimension
 13
895.00000000001
 23
1919.3096418194
 33
0.0
 14
1635.0
 24
1919.3096418194
 34
0.0
100
AcDbRotatedDimension
1001
ACAD
1000
DSTYLE
1002
{
1070
   270
1070
     2
1070
     6
1000
EX_NORM
1070
     7
1000
EX_NORM
1070
    41
1040
27.0
1070
    42
1040
13.5
1070
    44
1040
9.0
1070
    73
1070
     0
1070
    74
1070
     0
1070
    75
1070
     0
1070
    76
1070
     1
1070
    77
1070
     1
1070
    78
1070
     8
1070
   140
1040
31.16613741339492
1070
   147
1040
0.0
1070
   173
1070
     1
1070
   176
1070
     2
1070
   177
1070
     2
1070
   178
1070
     2
1070
   271
1070
     2
1070
   277
1070
     2
1070
   279
1070
     2
1070
   280
1070
     0
1070
   287
1070
     5
1070
   340
1005
223
1002
}
  0
DIMENSION
  5
69D
330
1F
100
AcDbEntity
  8
Ｓ_１_１
  6
CONTINUOUS
 62
     2
100
AcDbDimension
  2
*D38
 10
1665.000023
 20
2310.0
 30
0.0
 11
1712.250023
 21
2334.75
 31
0.0
 70
   160
  3
ISO-25
100
AcDbAlignedDimension
 13
1635.0
 23
1919.3096418194
 33
0.0
 14
1665.000023
 24
2130.000064
 34
0.0
100
AcDbRotatedDimension
1001
ACAD
1000
DSTYLE
1002
{
1070
   270
1070
     2
1070
     6
1000
EX_NONE
1070
     7
1000
EX_NORM
1070
    41
1040
27.0
1070
    42
1040
13.5
1070
    44
1040
9.0
1070
    73
1070
     0
1070
    74
1070
     0
1070
    75
1070
     0
1070
    76
1070
     1
1070
    77
1070
     1
1070
    78
1070
     8
1070
   140
1040
31.16613741339492
1070
   147
1040
0.0
1070
   173
1070
     1
1070
   176
1070
     2
1070
   177
1070
     2
1070
   178
1070
     2
1070
   271
1070
     2
1070
   277
1070
     2
1070
   279
1070
     2
1070
   280
1070
     2
1070
   287
1070
     5
1070
   340
1005
223
1002
}
  0
DIMENSION
  5
6AB
330
1F
100
AcDbEntity
  8
Ｓ_１_１
  6
CONTINUOUS
 62
     2
100
AcDbDimension
  2
*D39
 10
1665.000023
 20
2365.0
 30
0.0
 11
1265.0000145
 21
2389.75
 31
0.0
 70
   160
  3
ISO-25
100
AcDbAlignedDimension
 13
865.000006
 23
2130.000035
 33
0.0
 14
1665.000023
 24
2130.000064
 34
0.0
100
AcDbRotatedDimension
1001
ACAD
1000
DSTYLE
1002
{
1070
   270
1070
     2
1070
     6
1000
EX_NORM
1070
     7
1000
EX_NORM
1070
    41
1040
27.0
1070
    42
1040
13.5
1070
    44
1040
9.0
1070
    73
1070
     0
1070
    74
1070
     0
1070
    75
1070
     0
1070
    76
1070
     0
1070
    77
1070
     1
1070
    78
1070
     8
1070
   140
1040
31.16613741339492
1070
   147
1040
0.0
1070
   173
1070
     1
1070
   176
1070
     2
1070
   177
1070
     2
1070
   178
1070
     2
1070
   271
1070
     2
1070
   277
1070
     2
1070
   279
1070
     2
1070
   280
1070
     0
1070
   287
1070
     5
1070
   340
1005
223
1002
}
  0
ENDSEC
  0
SECTION
  2
OBJECTS
  0
DICTIONARY
  5
C
330
0
100
AcDbDictionary
  3
ACAD_GROUP
350
D
  3
ACAD_LAYOUT
350
1A
  3
ACAD_MATERIAL
350
43
  3
ACAD_MLEADERSTYLE
350
6B
  3
ACAD_MLINESTYLE
350
17
  3
ACAD_PLOTSETTINGS
350
19
  3
ACAD_SCALELIST
350
47
  3
ACAD_VISUALSTYLE
350
2A
  3
ACDBHEADERROUNDTRIPXREC
350
6B8
  3
ACDBVARIABLEDICTIONARY
350
6D9
  0
DICTIONARY
  5
6E4
330
8
100
AcDbDictionary
280
     1
  3
ACAD_XREC_ROUNDTRIP
360
6E5
  0
DICTIONARY
  5
D
102
{ACAD_REACTORS
330
C
102
}
330
C
100
AcDbDictionary
  0
DICTIONARY
  5
1A
102
{ACAD_REACTORS
330
C
102
}
330
C
100
AcDbDictionary
  0
DICTIONARY
  5
43
102
{ACAD_REACTORS
330
C
102
}
330
C
100
AcDbDictionary
  3
BYBLOCK
350
45
  3
BYLAYER
350
44
  3
GLOBAL
350
46
  0
DICTIONARY
  5
6B
102
{ACAD_REACTORS
330
C
102
}
330
C
100
AcDbDictionary
  3
STANDARD
350
6C
  0
DICTIONARY
  5
17
102
{ACAD_REACTORS
330
C
102
}
330
C
100
AcDbDictionary
  3
STANDARD
350
18
  0
DICTIONARY
  5
19
102
{ACAD_REACTORS
330
C
102
}
330
C
100
AcDbDictionary
  0
DICTIONARY
  5
47
102
{ACAD_REACTORS
330
C
102
}
330
C
100
AcDbDictionary
  3
A0
350
48
  3
A1
350
49
  3
A2
350
4A
  3
A3
350
4B
  3
A4
350
4C
  3
A5
350
4D
  3
A6
350
4E
  3
A7
350
4F
  3
A8
350
50
  3
A9
350
51
  3
B0
350
52
  3
B1
350
53
  3
B2
350
54
  3
B3
350
55
  3
B4
350
56
  3
B5
350
57
  3
B6
350
58
  3
B7
350
59
  3
B8
350
5A
  3
B9
350
5B
  3
C0
350
5C
  3
C1
350
5D
  3
C2
350
5E
  3
C3
350
5F
  3
C4
350
60
  3
C5
350
61
  3
C6
350
62
  3
C7
350
63
  3
C8
350
64
  3
C9
350
65
  3
D0
350
66
  3
D1
350
67
  3
D2
350
68
  0
DICTIONARY
  5
2A
102
{ACAD_REACTORS
330
C
102
}
330
C
100
AcDbDictionary
  3
2DWIREFRAME
350
2F
  3
BASIC
350
32
  3
BRIGHTEN
350
36
  3
COLORCHANGE
350
3A
  3
CONCEPTUAL
350
34
  3
DIM
350
35
  3
EDGECOLOROFF
350
3D
  3
FACEPATTERN
350
39
  3
FLAT
350
2B
  3
FLATWITHEDGES
350
2C
  3
GOURAUD
350
2D
  3
GOURAUDWITHEDGES
350
2E
  3
HIDDEN
350
31
  3
JITTEROFF
350
3B
  3
LINEPATTERN
350
38
  3
OVERHANGOFF
350
3C
  3
REALISTIC
350
33
  3
SHADED
350
42
  3
SHADED_WITH_EDGES
350
41
  3
SHADES_OF_GRAY
350
3E
  3
SKETCHY
350
3F
  3
THICKEN
350
37
  3
WIREFRAME
350
30
  3
X-RAY
350
40
  0
DICTIONARY
  5
6B8
102
{ACAD_REACTORS
330
C
102
}
330
C
100
AcDbDictionary
  3
CEPSNID
350
6C2
  3
CEPSNTYPE
350
6C1
  3
DIMSTYLEDATA
350
6D8
  3
FINGERPRINTGUID
350
6C3
  3
HYPERLINKBASE
350
6BB
  3
INSUNITS
350
6C0
  3
LAYOUTDICT
350
6BD
  3
LWETCUNION
350
6BF
  3
PLOTSETDICT
350
6BE
  3
PSVPSCALE
350
6C5
  3
PUCSBASE
350
6C8
  3
PUCSORGBACK
350
6CE
  3
PUCSORGBOTTOM
350
6CA
  3
PUCSORGFRONT
350
6CD
  3
PUCSORGLEFT
350
6CB
  3
PUCSORGRIGHT
350
6CC
  3
PUCSORGTOP
350
6C9
  3
PUCSORTHOREF
350
6C6
  3
PUCSORTHOVIEW
350
6C7
  3
STYLESHEET
350
6BC
  3
TSTACKALIGN
350
6B9
  3
TSTACKSIZE
350
6BA
  3
UCSBASE
350
6D1
  3
UCSORGBACK
350
6D7
  3
UCSORGBOTTOM
350
6D3
  3
UCSORGFRONT
350
6D6
  3
UCSORGLEFT
350
6D4
  3
UCSORGRIGHT
350
6D5
  3
UCSORGTOP
350
6D2
  3
UCSORTHOREF
350
6CF
  3
UCSORTHOVIEW
350
6D0
  3
VERSIONGUID
350
6C4
  0
DICTIONARY
  5
6D9
102
{ACAD_REACTORS
330
C
102
}
330
C
100
AcDbDictionary
  3
CANNOSCALE
350
6E6
  3
CENTEREXE
350
6E0
  3
CENTERLTYPEFILE
350
6E1
  3
CMLEADERSTYLE
350
6DB
  3
CTABLESTYLE
350
6DA
  3
DIMASSOC
350
6E2
  3
HIDETEXT
350
6E3
  3
MSLTSCALE
350
6E7
  3
PSOLHEIGHT
350
6DD
  3
PSOLWIDTH
350
6DC
  0
XRECORD
  5
6E5
102
{ACAD_REACTORS
330
6E4
102
}
330
6E4
100
AcDbXrecord
102
VTR_0.000_0.000_1.000_1.000_VISUALSTYLE
340
2F
102
VTR_0.000_0.000_1.000_1.000_GRIDDISPLAY
 70
     3
102
VTR_0.000_0.000_1.000_1.000_GRIDMAJOR
 70
     5
102
VTR_0.000_0.000_1.000_1.000_DEFAULTLIGHTING
280
     1
102
VTR_0.000_0.000_1.000_1.000_DEFAULTLIGHTINGTYPE
 70
     1
102
VTR_0.000_0.000_1.000_1.000_BRIGHTNESS
141
0.0
102
VTR_0.000_0.000_1.000_1.000_CONTRAST
142
0.0
  0
MATERIAL
  5
45
102
{ACAD_REACTORS
330
43
102
}
102
{ACAD_XDICTIONARY
360
6EA
102
}
330
43
100
AcDbMaterial
  1
BYBLOCK
  0
MATERIAL
  5
44
102
{ACAD_REACTORS
330
43
102
}
102
{ACAD_XDICTIONARY
360
6E8
102
}
330
43
100
AcDbMaterial
  1
BYLAYER
  0
MATERIAL
  5
46
102
{ACAD_REACTORS
330
43
102
}
102
{ACAD_XDICTIONARY
360
6EC
102
}
330
43
100
AcDbMaterial
  1
GLOBAL
  0
ACAD_PROXY_OBJECT
  5
6C
102
{ACAD_REACTORS
330
6B
102
}
330
6B
100
AcDbProxyObject
 90
      499
 91
      505
 93
      610
310
40901902A4063FBFFFFFE0000000000000020400000000000020404214DD185B99185C990000000000000104090141901A00000000000004100000000000000041025764000000000000039000
340
14
340
0
340
11
340
0
 94
        0
1001
ACAD_MLEADERVER
1070
     2
  0
MLINESTYLE
  5
18
102
{ACAD_REACTORS
330
17
102
}
330
17
100
AcDbMlineStyle
  2
Standard
 70
     0
  3

 62
   256
 51
90.0
 52
90.0
 71
     2
 49
0.5
 62
   256
  6
BYLAYER
 49
-0.5
 62
   256
  6
BYLAYER
  0
ACAD_PROXY_OBJECT
  5
48
102
{ACAD_REACTORS
330
47
102
}
330
47
100
AcDbProxyObject
 90
      499
 91
      503
 93
       41
310
903313A31580
  0
ACAD_PROXY_OBJECT
  5
49
102
{ACAD_REACTORS
330
47
102
}
330
47
100
AcDbProxyObject
 90
      499
 91
      503
 93
      105
310
903313A324000000000000004000
  0
ACAD_PROXY_OBJECT
  5
4A
102
{ACAD_REACTORS
330
47
102
}
330
47
100
AcDbProxyObject
 90
      499
 91
      503
 93
      105
310
903313A344000000000000104000
  0
ACAD_PROXY_OBJECT
  5
4B
102
{ACAD_REACTORS
330
47
102
}
330
47
100
AcDbProxyObject
 90
      499
 91
      503
 93
      105
310
903313A354000000000000144000
  0
ACAD_PROXY_OBJECT
  5
4C
102
{ACAD_REACTORS
330
47
102
}
330
47
100
AcDbProxyObject
 90
      499
 91
      503
 93
      105
310
903313A384000000000000204000
  0
ACAD_PROXY_OBJECT
  5
4D
102
{ACAD_REACTORS
330
47
102
}
330
47
100
AcDbProxyObject
 90
      499
 91
      503
 93
      113
310
904313A31304000000000000244000
  0
ACAD_PROXY_OBJECT
  5
4E
102
{ACAD_REACTORS
330
47
102
}
330
47
100
AcDbProxyObject
 90
      499
 91
      503
 93
      113
310
904313A31364000000000000304000
  0
ACAD_PROXY_OBJECT
  5
4F
102
{ACAD_REACTORS
330
47
102
}
330
47
100
AcDbProxyObject
 90
      499
 91
      503
 93
      113
310
904313A32304000000000000344000
  0
ACAD_PROXY_OBJECT
  5
50
102
{ACAD_REACTORS
330
47
102
}
330
47
100
AcDbProxyObject
 90
      499
 91
      503
 93
      113
310
904313A333040000000000003E4000
  0
ACAD_PROXY_OBJECT
  5
51
102
{ACAD_REACTORS
330
47
102
}
330
47
100
AcDbProxyObject
 90
      499
 91
      503
 93
      113
310
904313A34304000000000000444000
  0
ACAD_PROXY_OBJECT
  5
52
102
{ACAD_REACTORS
330
47
102
}
330
47
100
AcDbProxyObject
 90
      499
 91
      503
 93
      113
310
904313A35304000000000000494000
  0
ACAD_PROXY_OBJECT
  5
53
102
{ACAD_REACTORS
330
47
102
}
330
47
100
AcDbProxyObject
 90
      499
 91
      503
 93
      121
310
905313A3130304000000000000594000
  0
ACAD_PROXY_OBJECT
  5
54
102
{ACAD_REACTORS
330
47
102
}
330
47
100
AcDbProxyObject
 90
      499
 91
      503
 93
      105
310
903323A310000000000000010100
  0
ACAD_PROXY_OBJECT
  5
55
102
{ACAD_REACTORS
330
47
102
}
330
47
100
AcDbProxyObject
 90
      499
 91
      503
 93
      105
310
903343A310000000000000410100
  0
ACAD_PROXY_OBJECT
  5
56
102
{ACAD_REACTORS
330
47
102
}
330
47
100
AcDbProxyObject
 90
      499
 91
      503
 93
      105
310
903383A310000000000000810100
  0
ACAD_PROXY_OBJECT
  5
57
102
{ACAD_REACTORS
330
47
102
}
330
47
100
AcDbProxyObject
 90
      499
 91
      503
 93
      113
310
90431303A310000000000000910100
  0
ACAD_PROXY_OBJECT
  5
58
102
{ACAD_REACTORS
330
47
102
}
330
47
100
AcDbProxyObject
 90
      499
 91
      503
 93
      121
310
9053130303A310000000000001650100
  0
ACAD_PROXY_OBJECT
  5
59
102
{ACAD_REACTORS
330
47
102
}
330
47
100
AcDbProxyObject
 90
      499
 91
      503
 93
      257
310
90E312F31323822203D2031272D3022000000000000200FC000000000000284000
  0
ACAD_PROXY_OBJECT
  5
5A
102
{ACAD_REACTORS
330
47
102
}
330
47
100
AcDbProxyObject
 90
      499
 91
      503
 93
      249
310
90D312F363422203D2031272D3022000000000000240FC000000000000284000
  0
ACAD_PROXY_OBJECT
  5
5B
102
{ACAD_REACTORS
330
47
102
}
330
47
100
AcDbProxyObject
 90
      499
 91
      503
 93
      249
310
90D312F333222203D2031272D3022000000000000280FC000000000000284000
  0
ACAD_PROXY_OBJECT
  5
5C
102
{ACAD_REACTORS
330
47
102
}
330
47
100
AcDbProxyObject
 90
      499
 91
      503
 93
      249
310
90D312F313622203D2031272D30220000000000002C0FC000000000000284000
  0
ACAD_PROXY_OBJECT
  5
5D
102
{ACAD_REACTORS
330
47
102
}
330
47
100
AcDbProxyObject
 90
      499
 91
      503
 93
      249
310
90D332F333222203D2031272D30220000000000002E0FC000000000000284000
  0
ACAD_PROXY_OBJECT
  5
5E
102
{ACAD_REACTORS
330
47
102
}
330
47
100
AcDbProxyObject
 90
      499
 91
      503
 93
      241
310
90C312F3822203D2031272D3022000000000000300FC000000000000284000
  0
ACAD_PROXY_OBJECT
  5
5F
102
{ACAD_REACTORS
330
47
102
}
330
47
100
AcDbProxyObject
 90
      499
 91
      503
 93
      249
310
90D332F313622203D2031272D3022000000000000320FC000000000000284000
  0
ACAD_PROXY_OBJECT
  5
60
102
{ACAD_REACTORS
330
47
102
}
330
47
100
AcDbProxyObject
 90
      499
 91
      503
 93
      241
310
90C312F3422203D2031272D3022000000000000340FC000000000000284000
  0
ACAD_PROXY_OBJECT
  5
61
102
{ACAD_REACTORS
330
47
102
}
330
47
100
AcDbProxyObject
 90
      499
 91
      503
 93
      241
310
90C332F3822203D2031272D3022000000000000360FC000000000000284000
  0
ACAD_PROXY_OBJECT
  5
62
102
{ACAD_REACTORS
330
47
102
}
330
47
100
AcDbProxyObject
 90
      499
 91
      503
 93
      241
310
90C312F3222203D2031272D3022000000000000380FC000000000000284000
  0
ACAD_PROXY_OBJECT
  5
63
102
{ACAD_REACTORS
330
47
102
}
330
47
100
AcDbProxyObject
 90
      499
 91
      503
 93
      241
310
90C332F3422203D2031272D30220000000000003A0FC000000000000284000
  0
ACAD_PROXY_OBJECT
  5
64
102
{ACAD_REACTORS
330
47
102
}
330
47
100
AcDbProxyObject
 90
      499
 91
      503
 93
      161
310
90A3122203D2031272D30224000000000000284000
  0
ACAD_PROXY_OBJECT
  5
65
102
{ACAD_REACTORS
330
47
102
}
330
47
100
AcDbProxyObject
 90
      499
 91
      503
 93
      257
310
90E312D312F3222203D2031272D30220000000000003E0FC000000000000284000
  0
ACAD_PROXY_OBJECT
  5
66
102
{ACAD_REACTORS
330
47
102
}
330
47
100
AcDbProxyObject
 90
      499
 91
      503
 93
      225
310
90A3322203D2031272D302200000000000002100000000000000284000
  0
ACAD_PROXY_OBJECT
  5
67
102
{ACAD_REACTORS
330
47
102
}
330
47
100
AcDbProxyObject
 90
      499
 91
      503
 93
      225
310
90A3622203D2031272D302200000000000006100000000000000284000
  0
ACAD_PROXY_OBJECT
  5
68
102
{ACAD_REACTORS
330
47
102
}
330
47
100
AcDbProxyObject
 90
      499
 91
      503
 93
      249
310
90D31272D3022203D2031272D30220000000000000A100000000000000284000
  0
ACAD_PROXY_OBJECT
  5
2F
102
{ACAD_REACTORS
330
2A
102
}
330
2A
100
AcDbProxyObject
 90
      499
 91
      501
 93
      436
310
42CC9915DA5C99599C985B595049028333333333333E33F0000000000000F90107901411070040501600405405064090741402480A0340
1001
ACAD
1000
AcDbSavedByObjectVersion
1070
     0
  0
ACAD_PROXY_OBJECT
  5
32
102
{ACAD_REACTORS
330
2A
102
}
330
2A
100
AcDbProxyObject
 90
      499
 91
      501
 93
      388
310
4150985CDA58D07406404333333333333E33F0000000000000F90107A41107004050150841D405064090741402480A0350
1001
ACAD
1000
AcDbSavedByObjectVersion
1070
     0
  0
ACAD_PROXY_OBJECT
  5
36
102
{ACAD_REACTORS
330
2A
102
}
330
2A
100
AcDbProxyObject
 90
      499
 91
      501
 93
      428
310
42109C9A59DA1D195B90C409028333333333333E33F0000000000000F9010790141107004050150841D405064090741402480A029950
1001
ACAD
1000
AcDbSavedByObjectVersion
1070
     0
  0
ACAD_PROXY_OBJECT
  5
3A
102
{ACAD_REACTORS
330
2A
102
}
330
2A
100
AcDbProxyObject
 90
      499
 91
      501
 93
      452
310
42D0DBDB1BDC90DA185B99D95104090240C333333333333E33F0000000000000F90108901411070040501508421405064090741402480A0350
1001
ACAD
1000
AcDbSavedByObjectVersion
1070
     0
  0
ACAD_PROXY_OBJECT
  5
34
102
{ACAD_REACTORS
330
2A
102
}
330
2A
100
AcDbProxyObject
 90
      499
 91
      501
 93
      500
310
4290DBDB98D95C1D1D585B10940D028333333333333E33F0000000000000F90107902409070040501000000000018199010841D405064090740C02480A0340
1001
ACAD
1000
AcDbSavedByObjectVersion
1070
     0
  0
ACAD_PROXY_OBJECT
  5
35
102
{ACAD_REACTORS
330
2A
102
}
330
2A
100
AcDbProxyObject
 90
      499
 91
      501
 93
      412
310
40D11A5B50B409028333333333333E33F0000000000000F9010790141107004050150841D405064090741402480A02677FFFFFD0
1001
ACAD
1000
AcDbSavedByObjectVersion
1070
     0
  0
ACAD_PROXY_OBJECT
  5
3D
102
{ACAD_REACTORS
330
2A
102
}
330
2A
100
AcDbProxyObject
 90
      499
 91
      501
 93
      452
310
43115919D950DBDB1BDC93D999916409028333333333333E33F0000000000000F9010790141107004050150841D405064090741402480A0350
1001
ACAD
1000
AcDbSavedByObjectVersion
1070
     0
  0
ACAD_PROXY_OBJECT
  5
39
102
{ACAD_REACTORS
330
2A
102
}
330
2A
100
AcDbProxyObject
 90
      499
 91
      501
 93
      444
310
42D19858D95C185D1D195C9B90F409028333333333333E33F0000000000000F9010790141107004050150841D405064090741402480A0350
1001
ACAD
1000
AcDbSavedByObjectVersion
1070
     0
  0
ACAD_PROXY_OBJECT
  5
2B
102
{ACAD_REACTORS
330
2A
102
}
330
2A
100
AcDbProxyObject
 90
      499
 91
      501
 93
      380
310
41119B185D240901404333333333333E33F0000000000000F9010740A907004050150841D405064090741402480A1B50
1001
ACAD
1000
AcDbSavedByObjectVersion
1070
     0
  0
ACAD_PROXY_OBJECT
  5
2C
102
{ACAD_REACTORS
330
2A
102
}
330
2A
100
AcDbProxyObject
 90
      499
 91
      501
 93
      468
310
43519B185D15DA5D1A115919D95CD0140901404333333333333E33F0000000000000F90107409019070040501600405405064090741402480A1B50
1001
ACAD
1000
AcDbSavedByObjectVersion
1070
     0
  0
ACAD_PROXY_OBJECT
  5
2D
102
{ACAD_REACTORS
330
2A
102
}
330
2A
100
AcDbProxyObject
 90
      499
 91
      501
 93
      404
310
41D1DBDD5C985D5910240902404333333333333E33F0000000000000F9010740A9070040501641D405064090741402480A1B50
1001
ACAD
1000
AcDbSavedByObjectVersion
1070
     0
  0
ACAD_PROXY_OBJECT
  5
2E
102
{ACAD_REACTORS
330
2A
102
}
330
2A
100
AcDbProxyObject
 90
      499
 91
      501
 93
      492
310
4411DBDD5C985D5915DA5D1A115919D95CD0340902404333333333333E33F0000000000000F90107409019070040501600405405064090741402480A1B50
1001
ACAD
1000
AcDbSavedByObjectVersion
1070
     0
  0
ACAD_PROXY_OBJECT
  5
31
102
{ACAD_REACTORS
330
2A
102
}
330
2A
100
AcDbProxyObject
 90
      499
 91
      501
 93
      476
310
41921A5919195B90640502408333333333333E33F0000000000000F901079024090700405020000000000001110200405405064090740C02480A0340
1001
ACAD
1000
AcDbSavedByObjectVersion
1070
     0
  0
ACAD_PROXY_OBJECT
  5
3B
102
{ACAD_REACTORS
330
2A
102
}
330
2A
100
AcDbProxyObject
 90
      499
 91
      501
 93
      428
310
42529A5D1D195C93D999914409028333333333333E33F0000000000000F9010790141107004050150A41D405064090741402480A0350
1001
ACAD
1000
AcDbSavedByObjectVersion
1070
     0
  0
ACAD_PROXY_OBJECT
  5
38
102
{ACAD_REACTORS
330
2A
102
}
330
2A
100
AcDbProxyObject
 90
      499
 91
      501
 93
      444
310
42D31A5B995C185D1D195C9B90E409028333333333333E33F0000000000000F9010790141107004050750841D405064090741402483A0350
1001
ACAD
1000
AcDbSavedByObjectVersion
1070
     0
  0
ACAD_PROXY_OBJECT
  5
3C
102
{ACAD_REACTORS
330
2A
102
}
330
2A
100
AcDbProxyObject
 90
      499
 91
      501
 93
      444
310
42D3DD995C9A185B99D3D999915409028333333333333E33F0000000000000F9010790141107004050150941D405064090741402480A0350
1001
ACAD
1000
AcDbSavedByObjectVersion
1070
     0
  0
ACAD_PROXY_OBJECT
  5
33
102
{ACAD_REACTORS
330
2A
102
}
330
2A
100
AcDbProxyObject
 90
      499
 91
      501
 93
      428
310
425499585B1A5CDD1A58D08409038333333333333E33F0000000000000F9010740A907004050150800405405064090740C02480A1B40
1001
ACAD
1000
AcDbSavedByObjectVersion
1070
     0
  0
ACAD_PROXY_OBJECT
  5
42
102
{ACAD_REACTORS
330
2A
102
}
330
2A
100
AcDbProxyObject
 90
      499
 91
      501
 93
      420
310
4194DA1859195911B40902404333333333333E33F0000000000000F9010740A41107004050150800405405064090840C02480A0B40
1001
ACAD
1000
AcDbSavedByObjectVersion
1070
     0
  0
ACAD_PROXY_OBJECT
  5
41
102
{ACAD_REACTORS
330
2A
102
}
330
2A
100
AcDbProxyObject
 90
      499
 91
      501
 93
      516
310
4454DA18591959081DDA5D1A08195919D95CD1A40902404333333333333E33F0000000000000F901074090142907004050250800405405064090740C02480A0B40
1001
ACAD
1000
AcDbSavedByObjectVersion
1070
     0
  0
ACAD_PROXY_OBJECT
  5
3E
102
{ACAD_REACTORS
330
2A
102
}
330
2A
100
AcDbProxyObject
 90
      499
 91
      501
 93
      532
310
4394DA1859195CC81BD98811DC985E5174090240C333333333333E33F0000000000000F901079024090741D01000000000000111010841D405064090740C02480A0340
1001
ACAD
1000
AcDbSavedByObjectVersion
1070
     0
  0
ACAD_PROXY_OBJECT
  5
3F
102
{ACAD_REACTORS
330
2A
102
}
330
2A
100
AcDbProxyObject
 90
      499
 91
      501
 93
      476
310
41D4DAD95D18DA1E51840502408333333333333E33F0000000000000F901079024090741D01000000000000111010B41D405064090741802480A0340
1001
ACAD
1000
AcDbSavedByObjectVersion
1070
     0
  0
ACAD_PROXY_OBJECT
  5
37
102
{ACAD_REACTORS
330
2A
102
}
330
2A
100
AcDbProxyObject
 90
      499
 91
      501
 93
      412
310
41D51A1A58DAD95B90D409028333333333333E33F0000000000000F9010790141107004050150C41D405064090741402480A0350
1001
ACAD
1000
AcDbSavedByObjectVersion
1070
     0
  0
ACAD_PROXY_OBJECT
  5
30
102
{ACAD_REACTORS
330
2A
102
}
330
2A
100
AcDbProxyObject
 90
      499
 91
      501
 93
      420
310
4255DA5C99599C985B595059028333333333333E33F0000000000000F90107901411070040501600405405064090740C02480A0340
1001
ACAD
1000
AcDbSavedByObjectVersion
1070
     0
  0
ACAD_PROXY_OBJECT
  5
40
102
{ACAD_REACTORS
330
2A
102
}
330
2A
100
AcDbProxyObject
 90
      499
 91
      501
 93
      404
310
41560B54985E51940902404000000000000E03F0000000000000F9010740501907004050150841D405064090740C02480A1B40
1001
ACAD
1000
AcDbSavedByObjectVersion
1070
     0
  0
XRECORD
  5
6C2
102
{ACAD_REACTORS
330
6B8
102
}
330
6B8
100
AcDbXrecord
340
0
  0
XRECORD
  5
6C1
102
{ACAD_REACTORS
330
6B8
102
}
330
6B8
100
AcDbXrecord
 90
        0
  0
XRECORD
  5
6D8
102
{ACAD_REACTORS
330
6B8
102
}
330
6B8
100
AcDbXrecord
1000
DSTYLE
1002
{
1070
   340
340
11
1002
}
  0
XRECORD
  5
6C3
102
{ACAD_REACTORS
330
6B8
102
}
330
6B8
100
AcDbXrecord
  1
{946332b1-0c1a-4685-8133-b9ea19644e7e}
  0
XRECORD
  5
6BB
102
{ACAD_REACTORS
330
6B8
102
}
330
6B8
100
AcDbXrecord
  1

  0
XRECORD
  5
6C0
102
{ACAD_REACTORS
330
6B8
102
}
330
6B8
100
AcDbXrecord
 90
        4
  0
XRECORD
  5
6BD
102
{ACAD_REACTORS
330
6B8
102
}
330
6B8
100
AcDbXrecord
340
1A
  0
XRECORD
  5
6BF
102
{ACAD_REACTORS
330
6B8
102
}
330
6B8
100
AcDbXrecord
 90
    10781
  0
XRECORD
  5
6BE
102
{ACAD_REACTORS
330
6B8
102
}
330
6B8
100
AcDbXrecord
340
19
  0
XRECORD
  5
6C5
102
{ACAD_REACTORS
330
6B8
102
}
330
6B8
100
AcDbXrecord
 40
0.0
  0
XRECORD
  5
6C8
102
{ACAD_REACTORS
330
6B8
102
}
330
6B8
100
AcDbXrecord
340
0
  0
XRECORD
  5
6CE
102
{ACAD_REACTORS
330
6B8
102
}
330
6B8
100
AcDbXrecord
 10
0.0
 20
0.0
 30
0.0
  0
XRECORD
  5
6CA
102
{ACAD_REACTORS
330
6B8
102
}
330
6B8
100
AcDbXrecord
 10
0.0
 20
0.0
 30
0.0
  0
XRECORD
  5
6CD
102
{ACAD_REACTORS
330
6B8
102
}
330
6B8
100
AcDbXrecord
 10
0.0
 20
0.0
 30
0.0
  0
XRECORD
  5
6CB
102
{ACAD_REACTORS
330
6B8
102
}
330
6B8
100
AcDbXrecord
 10
0.0
 20
0.0
 30
0.0
  0
XRECORD
  5
6CC
102
{ACAD_REACTORS
330
6B8
102
}
330
6B8
100
AcDbXrecord
 10
0.0
 20
0.0
 30
0.0
  0
XRECORD
  5
6C9
102
{ACAD_REACTORS
330
6B8
102
}
330
6B8
100
AcDbXrecord
 10
0.0
 20
0.0
 30
0.0
  0
XRECORD
  5
6C6
102
{ACAD_REACTORS
330
6B8
102
}
330
6B8
100
AcDbXrecord
340
0
  0
XRECORD
  5
6C7
102
{ACAD_REACTORS
330
6B8
102
}
330
6B8
100
AcDbXrecord
 70
     0
  0
XRECORD
  5
6BC
102
{ACAD_REACTORS
330
6B8
102
}
330
6B8
100
AcDbXrecord
  1

  0
XRECORD
  5
6B9
102
{ACAD_REACTORS
330
6B8
102
}
330
6B8
100
AcDbXrecord
 90
        1
  0
XRECORD
  5
6BA
102
{ACAD_REACTORS
330
6B8
102
}
330
6B8
100
AcDbXrecord
 90
       70
  0
XRECORD
  5
6D1
102
{ACAD_REACTORS
330
6B8
102
}
330
6B8
100
AcDbXrecord
340
0
  0
XRECORD
  5
6D7
102
{ACAD_REACTORS
330
6B8
102
}
330
6B8
100
AcDbXrecord
 10
0.0
 20
0.0
 30
0.0
  0
XRECORD
  5
6D3
102
{ACAD_REACTORS
330
6B8
102
}
330
6B8
100
AcDbXrecord
 10
0.0
 20
0.0
 30
0.0
  0
XRECORD
  5
6D6
102
{ACAD_REACTORS
330
6B8
102
}
330
6B8
100
AcDbXrecord
 10
0.0
 20
0.0
 30
0.0
  0
XRECORD
  5
6D4
102
{ACAD_REACTORS
330
6B8
102
}
330
6B8
100
AcDbXrecord
 10
0.0
 20
0.0
 30
0.0
  0
XRECORD
  5
6D5
102
{ACAD_REACTORS
330
6B8
102
}
330
6B8
100
AcDbXrecord
 10
0.0
 20
0.0
 30
0.0
  0
XRECORD
  5
6D2
102
{ACAD_REACTORS
330
6B8
102
}
330
6B8
100
AcDbXrecord
 10
0.0
 20
0.0
 30
0.0
  0
XRECORD
  5
6CF
102
{ACAD_REACTORS
330
6B8
102
}
330
6B8
100
AcDbXrecord
340
0
  0
XRECORD
  5
6D0
102
{ACAD_REACTORS
330
6B8
102
}
330
6B8
100
AcDbXrecord
 70
     0
  0
XRECORD
  5
6C4
102
{ACAD_REACTORS
330
6B8
102
}
330
6B8
100
AcDbXrecord
  1
{FAEB1C32-E019-11D5-929B-00C0DF256EC4}
  0
DICTIONARYVAR
  5
6E6
102
{ACAD_REACTORS
330
6D9
102
}
330
6D9
100
DictionaryVariables
280
     0
  1
1:1
  0
DICTIONARYVAR
  5
6E0
102
{ACAD_REACTORS
330
6D9
102
}
330
6D9
100
DictionaryVariables
280
     0
  1
3.500000
  0
DICTIONARYVAR
  5
6E1
102
{ACAD_REACTORS
330
6D9
102
}
330
6D9
100
DictionaryVariables
280
     0
  1
acadiso.lin
  0
DICTIONARYVAR
  5
6DB
102
{ACAD_REACTORS
330
6D9
102
}
330
6D9
100
DictionaryVariables
280
     0
  1
Standard
  0
DICTIONARYVAR
  5
6DA
102
{ACAD_REACTORS
330
6D9
102
}
330
6D9
100
DictionaryVariables
280
     0
  1
Standard
  0
DICTIONARYVAR
  5
6E2
102
{ACAD_REACTORS
330
6D9
102
}
330
6D9
100
DictionaryVariables
280
     0
  1
2
  0
DICTIONARYVAR
  5
6E3
102
{ACAD_REACTORS
330
6D9
102
}
330
6D9
100
DictionaryVariables
280
     0
  1
1
  0
DICTIONARYVAR
  5
6E7
102
{ACAD_REACTORS
330
6D9
102
}
330
6D9
100
DictionaryVariables
280
     0
  1
1
  0
DICTIONARYVAR
  5
6DD
102
{ACAD_REACTORS
330
6D9
102
}
330
6D9
100
DictionaryVariables
280
     0
  1
80.000000
  0
DICTIONARYVAR
  5
6DC
102
{ACAD_REACTORS
330
6D9
102
}
330
6D9
100
DictionaryVariables
280
     0
  1
5.000000
  0
DICTIONARY
  5
6EA
330
45
100
AcDbDictionary
280
     1
  3
ACAD_XREC_ROUNDTRIP
360
6EB
  0
DICTIONARY
  5
6E8
330
44
100
AcDbDictionary
280
     1
  3
ACAD_XREC_ROUNDTRIP
360
6E9
  0
DICTIONARY
  5
6EC
330
46
100
AcDbDictionary
280
     1
  3
ACAD_XREC_ROUNDTRIP
360
6ED
  0
XRECORD
  5
6EB
102
{ACAD_REACTORS
330
6EA
102
}
330
6EA
100
AcDbXrecord
102
MATERIAL
148
0.0
149
0.0
149
0.0
 93
        0
 94
      127
282
     0
 72
     1
 77
     1
171
     1
175
     1
179
     1
273
     0
  0
XRECORD
  5
6E9
102
{ACAD_REACTORS
330
6E8
102
}
330
6E8
100
AcDbXrecord
102
MATERIAL
148
0.0
149
0.0
149
0.0
 93
        0
 94
      127
282
     0
 72
     1
 77
     1
171
     1
175
     1
179
     1
273
     0
  0
XRECORD
  5
6ED
102
{ACAD_REACTORS
330
6EC
102
}
330
6EC
100
AcDbXrecord
102
MATERIAL
148
0.0
149
0.0
149
0.0
 93
        0
 94
      127
282
     0
 72
     1
 77
     1
171
     1
175
     1
179
     1
273
     0
  0
ENDSEC
  0
EOF
