  0
SECTION
  2
HEADER
  9
$ACADVER
  1
AC1014
  9
$ACADMAINTVER
 70
     9
  9
$DWGCODEPAGE
  3
ANSI_932
  9
$INSBASE
 10
0.0
 20
0.0
 30
0.0
  9
$EXTMIN
 10
30.0
 20
30.0
 30
0.0
  9
$EXTMAX
 10
1230.0
 20
861.0
 30
0.0
  9
$LIMMIN
 10
0.0
 20
0.0
  9
$LIMMAX
 10
420.0
 20
297.0
  9
$ORTHOMODE
 70
     0
  9
$REGENMODE
 70
     1
  9
$FILLMODE
 70
     1
  9
$QTEXTMODE
 70
     0
  9
$MIRRTEXT
 70
     1
  9
$DRAGMODE
 70
     2
  9
$LTSCALE
 40
1.0
  9
$OSMODE
 70
    37
  9
$ATTMODE
 70
     1
  9
$TEXTSIZE
 40
2.5
  9
$TRACEWID
 40
1.0
  9
$TEXTSTYLE
  7
STANDARD
  9
$CLAYER
  8
Ｓ_１_１
  9
$CELTYPE
  6
BYLAYER
  9
$CECOLOR
 62
   256
  9
$CELTSCALE
 40
1.0
  9
$DELOBJ
 70
     1
  9
$DISPSILH
 70
     0
  9
$DIMSCALE
 40
1.0
  9
$DIMASZ
 40
2.5
  9
$DIMEXO
 40
0.625
  9
$DIMDLI
 40
3.75
  9
$DIMRND
 40
0.0
  9
$DIMDLE
 40
0.0
  9
$DIMEXE
 40
1.25
  9
$DIMTP
 40
0.0
  9
$DIMTM
 40
0.0
  9
$DIMTXT
 40
2.5
  9
$DIMCEN
 40
2.5
  9
$DIMTSZ
 40
0.0
  9
$DIMTOL
 70
     0
  9
$DIMLIM
 70
     0
  9
$DIMTIH
 70
     0
  9
$DIMTOH
 70
     0
  9
$DIMSE1
 70
     0
  9
$DIMSE2
 70
     0
  9
$DIMTAD
 70
     1
  9
$DIMZIN
 70
     8
  9
$DIMBLK
  1

  9
$DIMASO
 70
     1
  9
$DIMSHO
 70
     1
  9
$DIMPOST
  1

  9
$DIMAPOST
  1

  9
$DIMALT
 70
     0
  9
$DIMALTD
 70
     3
  9
$DIMALTF
 40
0.03937007874016
  9
$DIMLFAC
 40
1.0
  9
$DIMTOFL
 70
     1
  9
$DIMTVP
 40
0.0
  9
$DIMTIX
 70
     0
  9
$DIMSOXD
 70
     0
  9
$DIMSAH
 70
     0
  9
$DIMBLK1
  1

  9
$DIMBLK2
  1

  9
$DIMSTYLE
  2
ISO-25
  9
$DIMCLRD
 70
     0
  9
$DIMCLRE
 70
     0
  9
$DIMCLRT
 70
     0
  9
$DIMTFAC
 40
1.0
  9
$DIMGAP
 40
0.625
  9
$DIMJUST
 70
     0
  9
$DIMSD1
 70
     0
  9
$DIMSD2
 70
     0
  9
$DIMTOLJ
 70
     0
  9
$DIMTZIN
 70
     8
  9
$DIMALTZ
 70
     0
  9
$DIMALTTZ
 70
     0
  9
$DIMFIT
 70
     3
  9
$DIMUPT
 70
     0
  9
$DIMUNIT
 70
     2
  9
$DIMDEC
 70
     2
  9
$DIMTDEC
 70
     2
  9
$DIMALTU
 70
     2
  9
$DIMALTTD
 70
     3
  9
$DIMTXSTY
  7
STANDARD
  9
$DIMAUNIT
 70
     0
  9
$LUNITS
 70
     2
  9
$LUPREC
 70
     4
  9
$SKETCHINC
 40
1.0
  9
$FILLETRAD
 40
10.0
  9
$AUNITS
 70
     0
  9
$AUPREC
 70
     0
  9
$MENU
  1
.
  9
$ELEVATION
 40
0.0
  9
$PELEVATION
 40
0.0
  9
$THICKNESS
 40
0.0
  9
$LIMCHECK
 70
     0
  9
$CHAMFERA
 40
0.0
  9
$CHAMFERB
 40
0.0
  9
$CHAMFERC
 40
0.0
  9
$CHAMFERD
 40
0.0
  9
$SKPOLY
 70
     0
  9
$TDCREATE
 40
2459586.418846528
  9
$TDUPDATE
 40
2459586.418847905
  9
$TDINDWG
 40
0.0000000116
  9
$TDUSRTIMER
 40
0.0000000116
  9
$USRTIMER
 70
     1
  9
$ANGBASE
 50
0.0
  9
$ANGDIR
 70
     0
  9
$PDMODE
 70
     0
  9
$PDSIZE
 40
0.0
  9
$PLINEWID
 40
0.0
  9
$COORDS
 70
     1
  9
$SPLFRAME
 70
     0
  9
$SPLINETYPE
 70
     6
  9
$SPLINESEGS
 70
     8
  9
$ATTDIA
 70
     0
  9
$ATTREQ
 70
     1
  9
$HANDLING
 70
     1
  9
$HANDSEED
  5
726
  9
$SURFTAB1
 70
     6
  9
$SURFTAB2
 70
     6
  9
$SURFTYPE
 70
     6
  9
$SURFU
 70
     6
  9
$SURFV
 70
     6
  9
$UCSNAME
  2

  9
$UCSORG
 10
0.0
 20
0.0
 30
0.0
  9
$UCSXDIR
 10
1.0
 20
0.0
 30
0.0
  9
$UCSYDIR
 10
0.0
 20
1.0
 30
0.0
  9
$PUCSNAME
  2

  9
$PUCSORG
 10
0.0
 20
0.0
 30
0.0
  9
$PUCSXDIR
 10
1.0
 20
0.0
 30
0.0
  9
$PUCSYDIR
 10
0.0
 20
1.0
 30
0.0
  9
$USERI1
 70
     0
  9
$USERI2
 70
     0
  9
$USERI3
 70
     0
  9
$USERI4
 70
     0
  9
$USERI5
 70
     0
  9
$USERR1
 40
0.0
  9
$USERR2
 40
0.0
  9
$USERR3
 40
0.0
  9
$USERR4
 40
0.0
  9
$USERR5
 40
0.0
  9
$WORLDVIEW
 70
     1
  9
$SHADEDGE
 70
     3
  9
$SHADEDIF
 70
    70
  9
$TILEMODE
 70
     1
  9
$MAXACTVP
 70
    64
  9
$PINSBASE
 10
0.0
 20
0.0
 30
0.0
  9
$PLIMCHECK
 70
     0
  9
$PEXTMIN
 10
1.000000000000000E+20
 20
1.000000000000000E+20
 30
1.000000000000000E+20
  9
$PEXTMAX
 10
-1.000000000000000E+20
 20
-1.000000000000000E+20
 30
-1.000000000000000E+20
  9
$PLIMMIN
 10
0.0
 20
0.0
  9
$PLIMMAX
 10
420.0
 20
297.0
  9
$UNITMODE
 70
     0
  9
$VISRETAIN
 70
     1
  9
$PLINEGEN
 70
     0
  9
$PSLTSCALE
 70
     1
  9
$TREEDEPTH
 70
  3020
  9
$PICKSTYLE
 70
     1
  9
$CMLSTYLE
  2
STANDARD
  9
$CMLJUST
 70
     0
  9
$CMLSCALE
 40
20.0
  9
$PROXYGRAPHICS
 70
     1
  9
$MEASUREMENT
 70
     1
  0
ENDSEC
  0
SECTION
  2
CLASSES
  0
CLASS
  1
ACDBDICTIONARYWDFLT
  2
AcDbDictionaryWithDefault
  3
ObjectDBX Classes
 90
        0
280
     0
281
     0
  0
CLASS
  1
VISUALSTYLE
  2
AcDbVisualStyle
  3
ObjectDBX Classes
 90
     4095
280
     0
281
     0
  0
CLASS
  1
MATERIAL
  2
AcDbMaterial
  3
ObjectDBX Classes
 90
     1153
280
     0
281
     0
  0
CLASS
  1
SCALE
  2
AcDbScale
  3
ObjectDBX Classes
 90
     1153
280
     0
281
     0
  0
CLASS
  1
TABLESTYLE
  2
AcDbTableStyle
  3
ObjectDBX Classes
 90
     4095
280
     0
281
     0
  0
CLASS
  1
MLEADERSTYLE
  2
AcDbMLeaderStyle
  3
ACDB_MLEADERSTYLE_CLASS
 90
     4095
280
     0
281
     0
  0
CLASS
  1
SUN
  2
AcDbSun
  3
SCENEOE
 90
     1153
280
     0
281
     0
  0
CLASS
  1
DICTIONARYVAR
  2
AcDbDictionaryVar
  3
ObjectDBX Classes
 90
        0
280
     0
281
     0
  0
CLASS
  1
XRECORD
  2
AcDbXrecord
  3
ObjectDBX Classes
 90
        0
280
     0
281
     0
  0
CLASS
  1
LWPOLYLINE
  2
AcDbPolyline
  3
ObjectDBX Classes
 90
        0
280
     0
281
     1
  0
CLASS
  1
HATCH
  2
AcDbHatch
  3
ObjectDBX Classes
 90
        0
280
     0
281
     1
  0
CLASS
  1
ACDBPLACEHOLDER
  2
AcDbPlaceHolder
  3
ObjectDBX Classes
 90
        0
280
     0
281
     0
  0
CLASS
  1
LAYOUT
  2
AcDbLayout
  3
ObjectDBX Classes
 90
        0
280
     0
281
     0
  0
ENDSEC
  0
SECTION
  2
TABLES
  0
TABLE
  2
VPORT
  5
8
102
{ACAD_XDICTIONARY
360
71B
102
}
330
0
100
AcDbSymbolTable
 70
     1
  0
VPORT
  5
29
330
8
100
AcDbSymbolTableRecord
100
AcDbViewportTableRecord
  2
*ACTIVE
 70
     0
 10
0.0
 20
0.0
 11
1.0
 21
1.0
 12
630.0
 22
445.5
 13
0.0
 23
0.0
 14
10.0
 24
10.0
 15
10.0
 25
10.0
 16
0.0
 26
0.0
 36
1.0
 17
0.0
 27
0.0
 37
0.0
 40
831.0
 41
1.444043321299639
 42
50.0
 43
0.0
 44
0.0
 50
0.0
 51
0.0
 71
     0
 72
  1000
 73
     1
 74
     3
 75
     0
 76
     0
 77
     0
 78
     0
  0
ENDTAB
  0
TABLE
  2
LTYPE
  5
5
330
0
100
AcDbSymbolTable
 70
     7
  0
LTYPE
  5
14
330
5
100
AcDbSymbolTableRecord
100
AcDbLinetypeTableRecord
  2
BYBLOCK
 70
     0
  3

 72
    65
 73
     0
 40
0.0
  0
LTYPE
  5
15
330
5
100
AcDbSymbolTableRecord
100
AcDbLinetypeTableRecord
  2
BYLAYER
 70
     0
  3

 72
    65
 73
     0
 40
0.0
  0
LTYPE
  5
16
330
5
100
AcDbSymbolTableRecord
100
AcDbLinetypeTableRecord
  2
CONTINUOUS
 70
     0
  3
Solid line
 72
    65
 73
     0
 40
0.0
  0
LTYPE
  5
6E
330
5
100
AcDbSymbolTableRecord
100
AcDbLinetypeTableRecord
  2
EXLTYPE0
 70
     0
  3
破線
 72
    65
 73
     2
 40
4.0
 49
3.0
 74
     0
 49
-1.0
 74
     0
  0
LTYPE
  5
6F
330
5
100
AcDbSymbolTableRecord
100
AcDbLinetypeTableRecord
  2
EXLTYPE1
 70
     0
  3
点線
 72
    65
 73
     2
 40
2.0
 49
1.0
 74
     0
 49
-1.0
 74
     0
  0
LTYPE
  5
70
330
5
100
AcDbSymbolTableRecord
100
AcDbLinetypeTableRecord
  2
EXLTYPE2
 70
     0
  3
一点鎖線
 72
    65
 73
     4
 40
13.0
 49
10.0
 74
     0
 49
-1.0
 74
     0
 49
1.0
 74
     0
 49
-1.0
 74
     0
  0
LTYPE
  5
71
330
5
100
AcDbSymbolTableRecord
100
AcDbLinetypeTableRecord
  2
EXLTYPE3
 70
     0
  3
二点鎖線
 72
    65
 73
     6
 40
15.0
 49
10.0
 74
     0
 49
-1.0
 74
     0
 49
1.0
 74
     0
 49
-1.0
 74
     0
 49
1.0
 74
     0
 49
-1.0
 74
     0
  0
LTYPE
  5
72
330
5
100
AcDbSymbolTableRecord
100
AcDbLinetypeTableRecord
  2
EXLTYPE4
 70
     0
  3
一点鎖線2
 72
    65
 73
     4
 40
3.5
 49
2.0
 74
     0
 49
-0.5
 74
     0
 49
0.5
 74
     0
 49
-0.5
 74
     0
  0
LTYPE
  5
73
330
5
100
AcDbSymbolTableRecord
100
AcDbLinetypeTableRecord
  2
EXLTYPE5
 70
     0
  3
二点鎖線2
 72
    65
 73
     6
 40
4.5
 49
2.0
 74
     0
 49
-0.5
 74
     0
 49
0.5
 74
     0
 49
-0.5
 74
     0
 49
0.5
 74
     0
 49
-0.5
 74
     0
  0
ENDTAB
  0
TABLE
  2
LAYER
  5
2
330
0
100
AcDbSymbolTable
 70
     4
  0
LAYER
  5
10
330
2
100
AcDbSymbolTableRecord
100
AcDbLayerTableRecord
  2
0
 70
     0
 62
     7
  6
CONTINUOUS
  0
LAYER
  5
76
330
2
100
AcDbSymbolTableRecord
100
AcDbLayerTableRecord
  2
図面枠
 70
     4
 62
     7
  6
CONTINUOUS
  0
LAYER
  5
77
330
2
100
AcDbSymbolTableRecord
100
AcDbLayerTableRecord
  2
Ｓ_１_１
 70
     0
 62
     7
  6
CONTINUOUS
  0
LAYER
  5
10B
330
2
100
AcDbSymbolTableRecord
100
AcDbLayerTableRecord
  2
DEFPOINTS
 70
     0
 62
     7
  6
CONTINUOUS
  0
ENDTAB
  0
TABLE
  2
STYLE
  5
3
330
0
100
AcDbSymbolTable
 70
     5
  0
STYLE
  5
11
330
3
100
AcDbSymbolTableRecord
100
AcDbTextStyleTableRecord
  2
STANDARD
 70
     0
 40
0.0
 41
1.0
 50
0.0
 71
     0
 42
2.5
  3
monotxt
  4
extfont
  0
STYLE
  5
74
330
3
100
AcDbSymbolTableRecord
100
AcDbTextStyleTableRecord
  2
EXCADSTD
 70
     0
 40
0.0
 41
1.0
 50
0.0
 71
     0
 42
2.5
  3
monotxt
  4
extfont
  0
STYLE
  5
75
330
3
100
AcDbSymbolTableRecord
100
AcDbTextStyleTableRecord
  2
EXCADVERT
 70
     4
 40
0.0
 41
1.0
 50
0.0
 71
     0
 42
2.5
  3
monotxt
  4
extfont
  0
STYLE
  5
DC
330
3
100
AcDbSymbolTableRecord
100
AcDbTextStyleTableRecord
  2
EXCADTTF1
 70
     0
 40
0.0
 41
1.0
 50
0.0
 71
     0
 42
2.5
  3
msgothic.ttc
  4

1001
ACAD
1000
MS Gothic
1071
    32817
  0
STYLE
  5
109
330
3
100
AcDbSymbolTableRecord
100
AcDbTextStyleTableRecord
  2
EXCADDIM1
 70
     0
 40
0.0
 41
1.0
 50
0.0
 71
     0
 42
2.5
  3
msgothic.ttc
  4

1001
ACAD
1000
MS Gothic
1071
    32817
  0
ENDTAB
  0
TABLE
  2
VIEW
  5
6
330
0
100
AcDbSymbolTable
 70
     0
  0
ENDTAB
  0
TABLE
  2
UCS
  5
7
330
0
100
AcDbSymbolTable
 70
     0
  0
ENDTAB
  0
TABLE
  2
APPID
  5
9
330
0
100
AcDbSymbolTable
 70
     2
  0
APPID
  5
12
330
9
100
AcDbSymbolTableRecord
100
AcDbRegAppTableRecord
  2
ACAD
 70
     0
  0
APPID
  5
725
330
9
100
AcDbSymbolTableRecord
100
AcDbRegAppTableRecord
  2
ACAD_MLEADERVER
 70
     0
  0
ENDTAB
  0
TABLE
  2
DIMSTYLE
  5
A
330
0
100
AcDbSymbolTable
 70
     1
  0
DIMSTYLE
105
27
102
{ACAD_REACTORS
330
10A
330
117
330
124
330
131
330
13E
330
6E2
102
}
330
A
100
AcDbSymbolTableRecord
100
AcDbDimStyleTableRecord
  2
ISO-25
 70
     0
  3

  4

  5

  6

  7

 40
1.0
 41
2.5
 42
0.625
 43
3.75
 44
1.25
 45
0.0
 46
0.0
 47
0.0
 48
0.0
140
2.5
141
2.5
142
0.0
143
0.03937007874016
144
1.0
145
0.0
146
1.0
147
0.625
 71
     0
 72
     0
 73
     0
 74
     0
 75
     0
 76
     0
 77
     1
 78
     8
170
     0
171
     3
172
     1
173
     0
174
     0
175
     0
176
     0
177
     0
178
     0
270
     2
271
     2
272
     2
273
     2
274
     3
340
11
275
     0
280
     0
281
     0
282
     0
283
     0
284
     8
285
     0
286
     0
287
     5
288
     0
  0
ENDTAB
  0
TABLE
  2
BLOCK_RECORD
  5
1
330
0
100
AcDbSymbolTable
 70
    20
  0
BLOCK_RECORD
  5
1F
330
1
100
AcDbSymbolTableRecord
100
AcDbBlockTableRecord
  2
*MODEL_SPACE
  0
BLOCK_RECORD
  5
1B
330
1
100
AcDbSymbolTableRecord
100
AcDbBlockTableRecord
  2
*PAPER_SPACE
  0
BLOCK_RECORD
  5
78
330
1
100
AcDbSymbolTableRecord
100
AcDbBlockTableRecord
  2
EX_NORM
  0
BLOCK_RECORD
  5
7B
330
1
100
AcDbSymbolTableRecord
100
AcDbBlockTableRecord
  2
EX_BNORM
  0
BLOCK_RECORD
  5
7E
330
1
100
AcDbSymbolTableRecord
100
AcDbBlockTableRecord
  2
EX_BCIR
  0
BLOCK_RECORD
  5
81
330
1
100
AcDbSymbolTableRecord
100
AcDbBlockTableRecord
  2
EX_RCIVIL
  0
BLOCK_RECORD
  5
84
330
1
100
AcDbSymbolTableRecord
100
AcDbBlockTableRecord
  2
EX_SLANT
  0
BLOCK_RECORD
  5
87
330
1
100
AcDbSymbolTableRecord
100
AcDbBlockTableRecord
  2
EX_NONE
  0
BLOCK_RECORD
  5
8A
330
1
100
AcDbSymbolTableRecord
100
AcDbBlockTableRecord
  2
EX_CIVIL
  0
BLOCK_RECORD
  5
8D
330
1
100
AcDbSymbolTableRecord
100
AcDbBlockTableRecord
  2
EX_WCIR
  0
BLOCK_RECORD
  5
90
330
1
100
AcDbSymbolTableRecord
100
AcDbBlockTableRecord
  2
EX_WCIR2
  0
BLOCK_RECORD
  5
93
330
1
100
AcDbSymbolTableRecord
100
AcDbBlockTableRecord
  2
EX_WNORM
  0
BLOCK_RECORD
  5
96
330
1
100
AcDbSymbolTableRecord
100
AcDbBlockTableRecord
  2
EX_NNORM
  0
BLOCK_RECORD
  5
99
330
1
100
AcDbSymbolTableRecord
100
AcDbBlockTableRecord
  2
EX_BBOX
  0
BLOCK_RECORD
  5
9C
330
1
100
AcDbSymbolTableRecord
100
AcDbBlockTableRecord
  2
EX_WBOX
  0
BLOCK_RECORD
  5
9F
330
1
100
AcDbSymbolTableRecord
100
AcDbBlockTableRecord
  2
EX_INTEGRAL
  0
BLOCK_RECORD
  5
10C
330
1
100
AcDbSymbolTableRecord
100
AcDbBlockTableRecord
  2
*D15
  0
BLOCK_RECORD
  5
118
330
1
100
AcDbSymbolTableRecord
100
AcDbBlockTableRecord
  2
*D16
  0
BLOCK_RECORD
  5
125
330
1
100
AcDbSymbolTableRecord
100
AcDbBlockTableRecord
  2
*D17
  0
BLOCK_RECORD
  5
132
330
1
100
AcDbSymbolTableRecord
100
AcDbBlockTableRecord
  2
*D18
  0
BLOCK_RECORD
  5
13F
330
1
100
AcDbSymbolTableRecord
100
AcDbBlockTableRecord
  2
*D19
  0
BLOCK_RECORD
  5
6E3
330
1
100
AcDbSymbolTableRecord
100
AcDbBlockTableRecord
  2
*D20
  0
ENDTAB
  0
ENDSEC
  0
SECTION
  2
BLOCKS
  0
BLOCK
  5
20
330
1F
100
AcDbEntity
  8
0
100
AcDbBlockBegin
  2
*MODEL_SPACE
 70
     0
 10
0.0
 20
0.0
 30
0.0
  3
*MODEL_SPACE
  1

  0
ENDBLK
  5
21
330
1F
100
AcDbEntity
  8
0
100
AcDbBlockEnd
  0
BLOCK
  5
1C
330
1B
100
AcDbEntity
 67
     1
  8
0
100
AcDbBlockBegin
  2
*PAPER_SPACE
 70
     0
 10
0.0
 20
0.0
 30
0.0
  3
*PAPER_SPACE
  1

  0
ENDBLK
  5
1D
330
1B
100
AcDbEntity
 67
     1
  8
0
100
AcDbBlockEnd
  0
BLOCK
  5
79
330
78
100
AcDbEntity
  8
0
100
AcDbBlockBegin
  2
EX_NORM
 70
     0
 10
0.0
 20
0.0
 30
0.0
  3
EX_NORM
  1

  0
LINE
  5
A2
330
78
100
AcDbEntity
  8
0
  6
CONTINUOUS
 62
     0
100
AcDbLine
 10
0.0
 20
0.0
 30
0.0
 11
-1.0
 21
0.0
 31
0.0
  0
LINE
  5
A3
330
78
100
AcDbEntity
  8
0
  6
CONTINUOUS
 62
     0
100
AcDbLine
 10
0.0
 20
0.0
 30
0.0
 11
-1.0
 21
0.166666667
 31
0.0
  0
LINE
  5
A4
330
78
100
AcDbEntity
  8
0
  6
CONTINUOUS
 62
     0
100
AcDbLine
 10
0.0
 20
0.0
 30
0.0
 11
-1.0
 21
-0.166666667
 31
0.0
  0
ENDBLK
  5
7A
330
78
100
AcDbEntity
  8
0
100
AcDbBlockEnd
  0
BLOCK
  5
7C
330
7B
100
AcDbEntity
  8
0
100
AcDbBlockBegin
  2
EX_BNORM
 70
     0
 10
0.0
 20
0.0
 30
0.0
  3
EX_BNORM
  1

  0
LINE
  5
A5
330
7B
100
AcDbEntity
  8
0
  6
CONTINUOUS
 62
     0
100
AcDbLine
 10
0.0
 20
0.0
 30
0.0
 11
-1.0
 21
0.0
 31
0.0
  0
LINE
  5
A6
330
7B
100
AcDbEntity
  8
0
  6
CONTINUOUS
 62
     0
100
AcDbLine
 10
0.0
 20
0.0
 30
0.0
 11
-1.0
 21
0.166666667
 31
0.0
  0
LINE
  5
A7
330
7B
100
AcDbEntity
  8
0
  6
CONTINUOUS
 62
     0
100
AcDbLine
 10
0.0
 20
0.0
 30
0.0
 11
-1.0
 21
-0.166666667
 31
0.0
  0
LINE
  5
A8
330
7B
100
AcDbEntity
  8
0
  6
CONTINUOUS
 62
     0
100
AcDbLine
 10
0.0
 20
0.0
 30
0.0
 11
-1.0
 21
0.083333333
 31
0.0
  0
LINE
  5
A9
330
7B
100
AcDbEntity
  8
0
  6
CONTINUOUS
 62
     0
100
AcDbLine
 10
0.0
 20
0.0
 30
0.0
 11
-1.0
 21
-0.083333333
 31
0.0
  0
LINE
  5
AA
330
7B
100
AcDbEntity
  8
0
  6
CONTINUOUS
 62
     0
100
AcDbLine
 10
-1.0
 20
0.166666667
 30
0.0
 11
-1.0
 21
-0.166666667
 31
0.0
  0
ENDBLK
  5
7D
330
7B
100
AcDbEntity
  8
0
100
AcDbBlockEnd
  0
BLOCK
  5
7F
330
7E
100
AcDbEntity
  8
0
100
AcDbBlockBegin
  2
EX_BCIR
 70
     0
 10
0.0
 20
0.0
 30
0.0
  3
EX_BCIR
  1

  0
LINE
  5
AB
330
7E
100
AcDbEntity
  8
0
  6
CONTINUOUS
 62
     0
100
AcDbLine
 10
0.0
 20
0.0
 30
0.0
 11
-1.0
 21
0.0
 31
0.0
  0
CIRCLE
  5
AC
330
7E
100
AcDbEntity
  8
0
  6
CONTINUOUS
 62
     0
100
AcDbCircle
 10
0.0
 20
0.0
 30
0.0
 40
0.5
  0
CIRCLE
  5
AD
330
7E
100
AcDbEntity
  8
0
  6
CONTINUOUS
 62
     0
100
AcDbCircle
 10
0.0
 20
0.0
 30
0.0
 40
0.25
  0
ENDBLK
  5
80
330
7E
100
AcDbEntity
  8
0
100
AcDbBlockEnd
  0
BLOCK
  5
82
330
81
100
AcDbEntity
  8
0
100
AcDbBlockBegin
  2
EX_RCIVIL
 70
     0
 10
0.0
 20
0.0
 30
0.0
  3
EX_RCIVIL
  1

  0
LINE
  5
AE
330
81
100
AcDbEntity
  8
0
  6
CONTINUOUS
 62
     0
100
AcDbLine
 10
0.0
 20
0.0
 30
0.0
 11
-1.0
 21
0.0
 31
0.0
  0
LINE
  5
AF
330
81
100
AcDbEntity
  8
0
  6
CONTINUOUS
 62
     0
100
AcDbLine
 10
-1.0
 20
-0.25
 30
0.0
 11
0.0
 21
-0.25
 31
0.0
  0
LINE
  5
B0
330
81
100
AcDbEntity
  8
0
  6
CONTINUOUS
 62
     0
100
AcDbLine
 10
-1.0
 20
-0.125
 30
0.0
 11
0.0
 21
-0.125
 31
0.0
  0
ENDBLK
  5
83
330
81
100
AcDbEntity
  8
0
100
AcDbBlockEnd
  0
BLOCK
  5
85
330
84
100
AcDbEntity
  8
0
100
AcDbBlockBegin
  2
EX_SLANT
 70
     0
 10
0.0
 20
0.0
 30
0.0
  3
EX_SLANT
  1

  0
LINE
  5
B1
330
84
100
AcDbEntity
  8
0
  6
CONTINUOUS
 62
     0
100
AcDbLine
 10
0.0
 20
0.0
 30
0.0
 11
-1.0
 21
0.0
 31
0.0
  0
LINE
  5
B2
330
84
100
AcDbEntity
  8
0
  6
CONTINUOUS
 62
     0
100
AcDbLine
 10
0.707106781
 20
0.707106781
 30
0.0
 11
-0.707106781
 21
-0.707106781
 31
0.0
  0
ENDBLK
  5
86
330
84
100
AcDbEntity
  8
0
100
AcDbBlockEnd
  0
BLOCK
  5
88
330
87
100
AcDbEntity
  8
0
100
AcDbBlockBegin
  2
EX_NONE
 70
     0
 10
0.0
 20
0.0
 30
0.0
  3
EX_NONE
  1

  0
LINE
  5
B3
330
87
100
AcDbEntity
  8
0
  6
CONTINUOUS
 62
     0
100
AcDbLine
 10
0.0
 20
0.0
 30
0.0
 11
-1.0
 21
0.0
 31
0.0
  0
ENDBLK
  5
89
330
87
100
AcDbEntity
  8
0
100
AcDbBlockEnd
  0
BLOCK
  5
8B
330
8A
100
AcDbEntity
  8
0
100
AcDbBlockBegin
  2
EX_CIVIL
 70
     0
 10
0.0
 20
0.0
 30
0.0
  3
EX_CIVIL
  1

  0
LINE
  5
B4
330
8A
100
AcDbEntity
  8
0
  6
CONTINUOUS
 62
     0
100
AcDbLine
 10
0.0
 20
0.0
 30
0.0
 11
-1.0
 21
0.0
 31
0.0
  0
LINE
  5
B5
330
8A
100
AcDbEntity
  8
0
  6
CONTINUOUS
 62
     0
100
AcDbLine
 10
-1.0
 20
0.25
 30
0.0
 11
0.0
 21
0.25
 31
0.0
  0
LINE
  5
B6
330
8A
100
AcDbEntity
  8
0
  6
CONTINUOUS
 62
     0
100
AcDbLine
 10
-1.0
 20
0.125
 30
0.0
 11
0.0
 21
0.125
 31
0.0
  0
ENDBLK
  5
8C
330
8A
100
AcDbEntity
  8
0
100
AcDbBlockEnd
  0
BLOCK
  5
8E
330
8D
100
AcDbEntity
  8
0
100
AcDbBlockBegin
  2
EX_WCIR
 70
     0
 10
0.0
 20
0.0
 30
0.0
  3
EX_WCIR
  1

  0
LINE
  5
B7
330
8D
100
AcDbEntity
  8
0
  6
CONTINUOUS
 62
     0
100
AcDbLine
 10
0.0
 20
0.0
 30
0.0
 11
-1.0
 21
0.0
 31
0.0
  0
CIRCLE
  5
B8
330
8D
100
AcDbEntity
  8
0
  6
CONTINUOUS
 62
     0
100
AcDbCircle
 10
0.0
 20
0.0
 30
0.0
 40
0.5
  0
ENDBLK
  5
8F
330
8D
100
AcDbEntity
  8
0
100
AcDbBlockEnd
  0
BLOCK
  5
91
330
90
100
AcDbEntity
  8
0
100
AcDbBlockBegin
  2
EX_WCIR2
 70
     0
 10
0.0
 20
0.0
 30
0.0
  3
EX_WCIR2
  1

  0
LINE
  5
B9
330
90
100
AcDbEntity
  8
0
  6
CONTINUOUS
 62
     0
100
AcDbLine
 10
-0.5
 20
0.0
 30
0.0
 11
-1.0
 21
0.0
 31
0.0
  0
CIRCLE
  5
BA
330
90
100
AcDbEntity
  8
0
  6
CONTINUOUS
 62
     0
100
AcDbCircle
 10
0.0
 20
0.0
 30
0.0
 40
0.5
  0
ENDBLK
  5
92
330
90
100
AcDbEntity
  8
0
100
AcDbBlockEnd
  0
BLOCK
  5
94
330
93
100
AcDbEntity
  8
0
100
AcDbBlockBegin
  2
EX_WNORM
 70
     0
 10
0.0
 20
0.0
 30
0.0
  3
EX_WNORM
  1

  0
LINE
  5
BB
330
93
100
AcDbEntity
  8
0
  6
CONTINUOUS
 62
     0
100
AcDbLine
 10
-1.0
 20
0.0
 30
0.0
 11
-1.0
 21
0.0
 31
0.0
  0
LINE
  5
BC
330
93
100
AcDbEntity
  8
0
  6
CONTINUOUS
 62
     0
100
AcDbLine
 10
0.0
 20
0.0
 30
0.0
 11
-1.0
 21
0.166666667
 31
0.0
  0
LINE
  5
BD
330
93
100
AcDbEntity
  8
0
  6
CONTINUOUS
 62
     0
100
AcDbLine
 10
0.0
 20
0.0
 30
0.0
 11
-1.0
 21
-0.166666667
 31
0.0
  0
LINE
  5
BE
330
93
100
AcDbEntity
  8
0
  6
CONTINUOUS
 62
     0
100
AcDbLine
 10
-1.0
 20
0.166666667
 30
0.0
 11
-1.0
 21
-0.166666667
 31
0.0
  0
ENDBLK
  5
95
330
93
100
AcDbEntity
  8
0
100
AcDbBlockEnd
  0
BLOCK
  5
97
330
96
100
AcDbEntity
  8
0
100
AcDbBlockBegin
  2
EX_NNORM
 70
     0
 10
0.0
 20
0.0
 30
0.0
  3
EX_NNORM
  1

  0
LINE
  5
BF
330
96
100
AcDbEntity
  8
0
  6
CONTINUOUS
 62
     0
100
AcDbLine
 10
0.0
 20
0.0
 30
0.0
 11
-1.0
 21
0.0
 31
0.0
  0
LINE
  5
C0
330
96
100
AcDbEntity
  8
0
  6
CONTINUOUS
 62
     0
100
AcDbLine
 10
0.0
 20
0.0
 30
0.0
 11
-1.0
 21
0.166666667
 31
0.0
  0
LINE
  5
C1
330
96
100
AcDbEntity
  8
0
  6
CONTINUOUS
 62
     0
100
AcDbLine
 10
0.0
 20
0.0
 30
0.0
 11
-1.0
 21
-0.166666667
 31
0.0
  0
LINE
  5
C2
330
96
100
AcDbEntity
  8
0
  6
CONTINUOUS
 62
     0
100
AcDbLine
 10
-1.0
 20
0.166666667
 30
0.0
 11
-1.0
 21
-0.166666667
 31
0.0
  0
ENDBLK
  5
98
330
96
100
AcDbEntity
  8
0
100
AcDbBlockEnd
  0
BLOCK
  5
9A
330
99
100
AcDbEntity
  8
0
100
AcDbBlockBegin
  2
EX_BBOX
 70
     0
 10
0.0
 20
0.0
 30
0.0
  3
EX_BBOX
  1

  0
LINE
  5
C3
330
99
100
AcDbEntity
  8
0
  6
CONTINUOUS
 62
     0
100
AcDbLine
 10
0.0
 20
0.0
 30
0.0
 11
-1.0
 21
0.0
 31
0.0
  0
LINE
  5
C4
330
99
100
AcDbEntity
  8
0
  6
CONTINUOUS
 62
     0
100
AcDbLine
 10
-0.5
 20
0.5
 30
0.0
 11
0.5
 21
0.5
 31
0.0
  0
LINE
  5
C5
330
99
100
AcDbEntity
  8
0
  6
CONTINUOUS
 62
     0
100
AcDbLine
 10
0.5
 20
0.5
 30
0.0
 11
0.5
 21
-0.5
 31
0.0
  0
LINE
  5
C6
330
99
100
AcDbEntity
  8
0
  6
CONTINUOUS
 62
     0
100
AcDbLine
 10
0.5
 20
-0.5
 30
0.0
 11
-0.5
 21
-0.5
 31
0.0
  0
LINE
  5
C7
330
99
100
AcDbEntity
  8
0
  6
CONTINUOUS
 62
     0
100
AcDbLine
 10
-0.5
 20
-0.5
 30
0.0
 11
-0.5
 21
0.5
 31
0.0
  0
LINE
  5
C8
330
99
100
AcDbEntity
  8
0
  6
CONTINUOUS
 62
     0
100
AcDbLine
 10
-0.25
 20
0.25
 30
0.0
 11
0.25
 21
0.25
 31
0.0
  0
LINE
  5
C9
330
99
100
AcDbEntity
  8
0
  6
CONTINUOUS
 62
     0
100
AcDbLine
 10
0.25
 20
0.25
 30
0.0
 11
0.25
 21
-0.25
 31
0.0
  0
LINE
  5
CA
330
99
100
AcDbEntity
  8
0
  6
CONTINUOUS
 62
     0
100
AcDbLine
 10
0.25
 20
-0.25
 30
0.0
 11
-0.25
 21
-0.25
 31
0.0
  0
LINE
  5
CB
330
99
100
AcDbEntity
  8
0
  6
CONTINUOUS
 62
     0
100
AcDbLine
 10
-0.25
 20
-0.25
 30
0.0
 11
-0.25
 21
0.25
 31
0.0
  0
ENDBLK
  5
9B
330
99
100
AcDbEntity
  8
0
100
AcDbBlockEnd
  0
BLOCK
  5
9D
330
9C
100
AcDbEntity
  8
0
100
AcDbBlockBegin
  2
EX_WBOX
 70
     0
 10
0.0
 20
0.0
 30
0.0
  3
EX_WBOX
  1

  0
LINE
  5
CC
330
9C
100
AcDbEntity
  8
0
  6
CONTINUOUS
 62
     0
100
AcDbLine
 10
-0.5
 20
0.0
 30
0.0
 11
-1.0
 21
0.0
 31
0.0
  0
LINE
  5
CD
330
9C
100
AcDbEntity
  8
0
  6
CONTINUOUS
 62
     0
100
AcDbLine
 10
-0.5
 20
0.5
 30
0.0
 11
0.5
 21
0.5
 31
0.0
  0
LINE
  5
CE
330
9C
100
AcDbEntity
  8
0
  6
CONTINUOUS
 62
     0
100
AcDbLine
 10
0.5
 20
0.5
 30
0.0
 11
0.5
 21
-0.5
 31
0.0
  0
LINE
  5
CF
330
9C
100
AcDbEntity
  8
0
  6
CONTINUOUS
 62
     0
100
AcDbLine
 10
0.5
 20
-0.5
 30
0.0
 11
-0.5
 21
-0.5
 31
0.0
  0
LINE
  5
D0
330
9C
100
AcDbEntity
  8
0
  6
CONTINUOUS
 62
     0
100
AcDbLine
 10
-0.5
 20
-0.5
 30
0.0
 11
-0.5
 21
0.5
 31
0.0
  0
ENDBLK
  5
9E
330
9C
100
AcDbEntity
  8
0
100
AcDbBlockEnd
  0
BLOCK
  5
A0
330
9F
100
AcDbEntity
  8
0
100
AcDbBlockBegin
  2
EX_INTEGRAL
 70
     0
 10
0.0
 20
0.0
 30
0.0
  3
EX_INTEGRAL
  1

  0
LINE
  5
D1
330
9F
100
AcDbEntity
  8
0
  6
CONTINUOUS
 62
     0
100
AcDbLine
 10
0.0
 20
0.0
 30
0.0
 11
-1.0
 21
0.0
 31
0.0
  0
ARC
  5
D2
330
9F
100
AcDbEntity
  8
0
  6
CONTINUOUS
 62
     0
100
AcDbCircle
 10
0.542115
 20
0.164992
 30
0.0
 40
0.56667
100
AcDbArc
 50
73.07249033629006
 51
196.9275130221199
  0
ARC
  5
D3
330
9F
100
AcDbEntity
  8
0
  6
CONTINUOUS
 62
     0
100
AcDbCircle
 10
-0.542115
 20
-0.164992
 30
0.0
 40
0.56667
100
AcDbArc
 50
253.0724869220464
 51
16.9275130559125
  0
ENDBLK
  5
A1
330
9F
100
AcDbEntity
  8
0
100
AcDbBlockEnd
  0
BLOCK
  5
10D
330
10C
100
AcDbEntity
  8
0
100
AcDbBlockBegin
  2
*D15
 70
     1
 10
0.0
 20
0.0
 30
0.0
  3
*D15
  1

  0
LINE
  5
10F
330
10C
100
AcDbEntity
  8
Ｓ_１_１
  6
CONTINUOUS
 62
     2
100
AcDbLine
 10
1047.3885352737
 20
321.9505492311201
 30
0.0
 11
1047.3885352737
 21
403.0000000000001
 31
0.0
  0
LINE
  5
110
330
10C
100
AcDbEntity
  8
Ｓ_１_１
  6
CONTINUOUS
 62
     2
100
AcDbLine
 10
1038.3885352737
 20
400.0000000000001
 30
0.0
 11
556.3885242183
 21
400.0000000000001
 31
0.0
  0
INSERT
  5
111
330
10C
100
AcDbEntity
  8
Ｓ_１_１
 62
     2
100
AcDbBlockReference
  2
EX_NORM
 10
1047.3885352737
 20
400.0000000000001
 30
0.0
 41
9.0
 42
9.0
 43
9.0
  0
INSERT
  5
112
330
10C
100
AcDbEntity
  8
Ｓ_１_１
 62
     2
100
AcDbBlockReference
  2
EX_NORM
 10
547.3885242183
 20
400.0000000000001
 30
0.0
 41
9.0
 42
9.0
 43
9.0
 50
180.0
  0
MTEXT
  5
113
330
10C
100
AcDbEntity
  8
Ｓ_１_１
 62
     2
100
AcDbMText
 10
797.388529746
 20
408.2499999999999
 30
0.0
 40
10.38871247113164
 41
0.0
 71
     5
 72
     1
  1
500
  7
EXCADDIM1
  0
POINT
  5
114
330
10C
100
AcDbEntity
  8
DEFPOINTS
 62
     0
100
AcDbPoint
 10
1047.3885352737
 20
317.4505492311201
 30
0.0
  0
POINT
  5
115
330
10C
100
AcDbEntity
  8
DEFPOINTS
 62
     0
100
AcDbPoint
 10
547.3885242183
 20
276.16239348334
 30
0.0
  0
POINT
  5
116
330
10C
100
AcDbEntity
  8
DEFPOINTS
 62
     0
100
AcDbPoint
 10
547.3885242183
 20
400.0000000000001
 30
0.0
  0
ENDBLK
  5
10E
330
10C
100
AcDbEntity
  8
0
100
AcDbBlockEnd
  0
BLOCK
  5
119
330
118
100
AcDbEntity
  8
0
100
AcDbBlockBegin
  2
*D16
 70
     1
 10
0.0
 20
0.0
 30
0.0
  3
*D16
  1

  0
LINE
  5
11B
330
118
100
AcDbEntity
  8
Ｓ_１_１
  6
CONTINUOUS
 62
     2
100
AcDbLine
 10
547.3885242183
 20
280.66239348334
 30
0.0
 11
547.3885242183
 21
403.0000000000001
 31
0.0
  0
LINE
  5
11C
330
118
100
AcDbEntity
  8
Ｓ_１_１
  6
CONTINUOUS
 62
     2
100
AcDbLine
 10
416.73728649175
 20
242.94370783309
 30
0.0
 11
416.73728649175
 21
403.0000000000001
 31
0.0
  0
LINE
  5
11D
330
118
100
AcDbEntity
  8
Ｓ_１_１
  6
CONTINUOUS
 62
     2
100
AcDbLine
 10
538.3885242183
 20
400.0000000000001
 30
0.0
 11
425.73728649175
 21
400.0000000000001
 31
0.0
  0
INSERT
  5
11E
330
118
100
AcDbEntity
  8
Ｓ_１_１
 62
     2
100
AcDbBlockReference
  2
EX_NORM
 10
547.3885242183
 20
400.0000000000001
 30
0.0
 41
9.0
 42
9.0
 43
9.0
  0
INSERT
  5
11F
330
118
100
AcDbEntity
  8
Ｓ_１_１
 62
     2
100
AcDbBlockReference
  2
EX_NORM
 10
416.73728649175
 20
400.0000000000001
 30
0.0
 41
9.0
 42
9.0
 43
9.0
 50
180.0
  0
MTEXT
  5
120
330
118
100
AcDbEntity
  8
Ｓ_１_１
 62
     2
100
AcDbMText
 10
452.062905355025
 20
408.2500000000001
 30
0.0
 40
10.38871247113164
 41
0.0
 71
     5
 72
     1
  1
130
  7
EXCADDIM1
  0
POINT
  5
121
330
118
100
AcDbEntity
  8
DEFPOINTS
 62
     0
100
AcDbPoint
 10
547.3885242183
 20
276.16239348334
 30
0.0
  0
POINT
  5
122
330
118
100
AcDbEntity
  8
DEFPOINTS
 62
     0
100
AcDbPoint
 10
416.73728649175
 20
238.44370783309
 30
0.0
  0
POINT
  5
123
330
118
100
AcDbEntity
  8
DEFPOINTS
 62
     0
100
AcDbPoint
 10
416.73728649175
 20
400.0000000000001
 30
0.0
  0
ENDBLK
  5
11A
330
118
100
AcDbEntity
  8
0
100
AcDbBlockEnd
  0
BLOCK
  5
126
330
125
100
AcDbEntity
  8
0
100
AcDbBlockBegin
  2
*D17
 70
     1
 10
0.0
 20
0.0
 30
0.0
  3
*D17
  1

  0
LINE
  5
128
330
125
100
AcDbEntity
  8
Ｓ_１_１
  6
CONTINUOUS
 62
     2
100
AcDbLine
 10
589.0288892183
 20
218.4733000000001
 30
0.0
 11
377.0
 21
218.4733000000001
 31
0.0
  0
LINE
  5
129
330
125
100
AcDbEntity
  8
Ｓ_１_１
  6
CONTINUOUS
 62
     2
100
AcDbLine
 10
526.9169402182999
 20
440.000132
 30
0.0
 11
377.0
 21
440.0001320000001
 31
0.0
  0
LINE
  5
12A
330
125
100
AcDbEntity
  8
Ｓ_１_１
  6
CONTINUOUS
 62
     2
100
AcDbLine
 10
380.0
 20
227.4733000000001
 30
0.0
 11
380.0
 21
431.0001320000001
 31
0.0
  0
INSERT
  5
12B
330
125
100
AcDbEntity
  8
Ｓ_１_１
 62
     2
100
AcDbBlockReference
  2
EX_NORM
 10
380.0
 20
218.4733000000001
 30
0.0
 41
9.0
 42
9.0
 43
9.0
 50
270.0
  0
INSERT
  5
12C
330
125
100
AcDbEntity
  8
Ｓ_１_１
 62
     2
100
AcDbBlockReference
  2
EX_NORM
 10
380.0
 20
440.0001320000001
 30
0.0
 41
9.0
 42
9.0
 43
9.0
 50
90.0
  0
MTEXT
  5
12D
330
125
100
AcDbEntity
  8
Ｓ_１_１
 62
     2
100
AcDbMText
 10
371.75
 20
329.2367160000001
 30
0.0
 40
10.38871247113164
 41
0.0
 71
     5
 72
     1
  1
221
  7
EXCADDIM1
 11
0.0
 21
1.0
 31
0.0
  0
POINT
  5
12E
330
125
100
AcDbEntity
  8
DEFPOINTS
 62
     0
100
AcDbPoint
 10
593.5288892183
 20
218.4733000000001
 30
0.0
  0
POINT
  5
12F
330
125
100
AcDbEntity
  8
DEFPOINTS
 62
     0
100
AcDbPoint
 10
531.4169402182999
 20
440.000132
 30
0.0
  0
POINT
  5
130
330
125
100
AcDbEntity
  8
DEFPOINTS
 62
     0
100
AcDbPoint
 10
380.0
 20
440.0001320000001
 30
0.0
  0
ENDBLK
  5
127
330
125
100
AcDbEntity
  8
0
100
AcDbBlockEnd
  0
BLOCK
  5
133
330
132
100
AcDbEntity
  8
0
100
AcDbBlockBegin
  2
*D18
 70
     1
 10
0.0
 20
0.0
 30
0.0
  3
*D18
  1

  0
LINE
  5
135
330
132
100
AcDbEntity
  8
Ｓ_１_１
  6
CONTINUOUS
 62
     2
100
AcDbLine
 10
493.5262290000001
 20
515.0
 30
0.0
 11
377.0
 21
515.0
 31
0.0
  0
LINE
  5
136
330
132
100
AcDbEntity
  8
Ｓ_１_１
  6
CONTINUOUS
 62
     2
100
AcDbLine
 10
613.709104
 20
642.99999
 30
0.0
 11
377.0
 21
642.99999
 31
0.0
  0
LINE
  5
137
330
132
100
AcDbEntity
  8
Ｓ_１_１
  6
CONTINUOUS
 62
     2
100
AcDbLine
 10
380.0
 20
524.0
 30
0.0
 11
380.0
 21
633.99999
 31
0.0
  0
INSERT
  5
138
330
132
100
AcDbEntity
  8
Ｓ_１_１
 62
     2
100
AcDbBlockReference
  2
EX_NORM
 10
380.0
 20
515.0
 30
0.0
 41
9.0
 42
9.0
 43
9.0
 50
270.0
  0
INSERT
  5
139
330
132
100
AcDbEntity
  8
Ｓ_１_１
 62
     2
100
AcDbBlockReference
  2
EX_NORM
 10
380.0
 20
642.99999
 30
0.0
 41
9.0
 42
9.0
 43
9.0
 50
90.0
  0
MTEXT
  5
13A
330
132
100
AcDbEntity
  8
Ｓ_１_１
 62
     2
100
AcDbMText
 10
371.7500000000001
 20
578.999995
 30
0.0
 40
10.38871247113164
 41
0.0
 71
     5
 72
     1
  1
128
  7
EXCADDIM1
 11
0.0
 21
1.0
 31
0.0
  0
POINT
  5
13B
330
132
100
AcDbEntity
  8
DEFPOINTS
 62
     0
100
AcDbPoint
 10
498.0262290000001
 20
515.0
 30
0.0
  0
POINT
  5
13C
330
132
100
AcDbEntity
  8
DEFPOINTS
 62
     0
100
AcDbPoint
 10
618.209104
 20
642.99999
 30
0.0
  0
POINT
  5
13D
330
132
100
AcDbEntity
  8
DEFPOINTS
 62
     0
100
AcDbPoint
 10
380.0
 20
642.99999
 30
0.0
  0
ENDBLK
  5
134
330
132
100
AcDbEntity
  8
0
100
AcDbBlockEnd
  0
BLOCK
  5
140
330
13F
100
AcDbEntity
  8
0
100
AcDbBlockBegin
  2
*D19
 70
     1
 10
0.0
 20
0.0
 30
0.0
  3
*D19
  1

  0
LINE
  5
142
330
13F
100
AcDbEntity
  8
Ｓ_１_１
  6
CONTINUOUS
 62
     2
100
AcDbLine
 10
224.9999240000002
 20
213.9733000000001
 30
0.0
 11
224.9999240000002
 21
157.0000000000001
 31
0.0
  0
LINE
  5
143
330
13F
100
AcDbEntity
  8
Ｓ_１_１
  6
CONTINUOUS
 62
     2
100
AcDbLine
 10
294.9999230000001
 20
213.9733000000001
 30
0.0
 11
294.9999230000001
 21
157.0000000000001
 31
0.0
  0
LINE
  5
144
330
13F
100
AcDbEntity
  8
Ｓ_１_１
  6
CONTINUOUS
 62
     2
100
AcDbLine
 10
233.9999240000002
 20
160.0000000000001
 30
0.0
 11
285.9999230000001
 21
160.0000000000001
 31
0.0
  0
INSERT
  5
145
330
13F
100
AcDbEntity
  8
Ｓ_１_１
 62
     2
100
AcDbBlockReference
  2
EX_NORM
 10
224.9999240000002
 20
160.0000000000001
 30
0.0
 41
9.0
 42
9.0
 43
9.0
 50
180.0
  0
INSERT
  5
146
330
13F
100
AcDbEntity
  8
Ｓ_１_１
 62
     2
100
AcDbBlockReference
  2
EX_NORM
 10
294.9999230000001
 20
160.0000000000001
 30
0.0
 41
9.0
 42
9.0
 43
9.0
  0
MTEXT
  5
147
330
13F
100
AcDbEntity
  8
Ｓ_１_１
 62
     2
100
AcDbMText
 10
259.9999235000001
 20
168.2500000000001
 30
0.0
 40
10.38871247113164
 41
0.0
 71
     5
 72
     1
  1
70
  7
EXCADDIM1
  0
POINT
  5
148
330
13F
100
AcDbEntity
  8
DEFPOINTS
 62
     0
100
AcDbPoint
 10
224.9999240000002
 20
218.4733000000001
 30
0.0
  0
POINT
  5
149
330
13F
100
AcDbEntity
  8
DEFPOINTS
 62
     0
100
AcDbPoint
 10
294.9999230000001
 20
218.4733000000001
 30
0.0
  0
POINT
  5
14A
330
13F
100
AcDbEntity
  8
DEFPOINTS
 62
     0
100
AcDbPoint
 10
294.9999230000001
 20
160.0000000000001
 30
0.0
  0
ENDBLK
  5
141
330
13F
100
AcDbEntity
  8
0
100
AcDbBlockEnd
  0
BLOCK
  5
6E4
330
6E3
100
AcDbEntity
  8
0
100
AcDbBlockBegin
  2
*D20
 70
     1
 10
0.0
 20
0.0
 30
0.0
  3
*D20
  1

  0
LINE
  5
6E6
330
6E3
100
AcDbEntity
  8
Ｓ_１_１
  6
CONTINUOUS
 62
     2
100
AcDbLine
 10
593.5288892183
 20
213.9733
 30
0.0
 11
593.5288892183
 21
157.0
 31
0.0
  0
LINE
  5
6E7
330
6E3
100
AcDbEntity
  8
Ｓ_１_１
  6
CONTINUOUS
 62
     2
100
AcDbLine
 10
960.0
 20
215.5
 30
0.0
 11
960.0
 21
157.0
 31
0.0
  0
LINE
  5
6E8
330
6E3
100
AcDbEntity
  8
Ｓ_１_１
  6
CONTINUOUS
 62
     2
100
AcDbLine
 10
602.5288892183
 20
160.0
 30
0.0
 11
951.0
 21
160.0
 31
0.0
  0
INSERT
  5
6E9
330
6E3
100
AcDbEntity
  8
Ｓ_１_１
 62
     2
100
AcDbBlockReference
  2
EX_NORM
 10
593.5288892183
 20
160.0
 30
0.0
 41
9.0
 42
9.0
 43
9.0
 50
180.0
  0
INSERT
  5
6EA
330
6E3
100
AcDbEntity
  8
Ｓ_１_１
 62
     2
100
AcDbBlockReference
  2
EX_NORM
 10
960.0
 20
160.0
 30
0.0
 41
9.0
 42
9.0
 43
9.0
  0
MTEXT
  5
6EB
330
6E3
100
AcDbEntity
  8
Ｓ_１_１
 62
     2
100
AcDbMText
 10
776.76444460915
 20
168.25
 30
0.0
 40
10.38871247113164
 41
0.0
 71
     5
 72
     1
  1
366
  7
EXCADDIM1
  0
POINT
  5
6EC
330
6E3
100
AcDbEntity
  8
DEFPOINTS
 62
     0
100
AcDbPoint
 10
593.5288892183
 20
218.4733
 30
0.0
  0
POINT
  5
6ED
330
6E3
100
AcDbEntity
  8
DEFPOINTS
 62
     0
100
AcDbPoint
 10
960.0
 20
220.0
 30
0.0
  0
POINT
  5
6EE
330
6E3
100
AcDbEntity
  8
DEFPOINTS
 62
     0
100
AcDbPoint
 10
960.0
 20
160.0
 30
0.0
  0
ENDBLK
  5
6E5
330
6E3
100
AcDbEntity
  8
0
100
AcDbBlockEnd
  0
ENDSEC
  0
SECTION
  2
ENTITIES
  0
LINE
  5
D4
330
1F
100
AcDbEntity
  8
図面枠
  6
CONTINUOUS
 62
     5
100
AcDbLine
 10
30.0
 20
30.0
 30
0.0
 11
1230.0
 21
30.0
 31
0.0
  0
LINE
  5
D5
330
1F
100
AcDbEntity
  8
図面枠
  6
CONTINUOUS
 62
     5
100
AcDbLine
 10
1230.0
 20
30.0
 30
0.0
 11
1230.0
 21
861.0
 31
0.0
  0
LINE
  5
D6
330
1F
100
AcDbEntity
  8
図面枠
  6
CONTINUOUS
 62
     5
100
AcDbLine
 10
1230.0
 20
861.0
 30
0.0
 11
30.00000000000016
 21
861.0
 31
0.0
  0
LINE
  5
D7
330
1F
100
AcDbEntity
  8
図面枠
  6
CONTINUOUS
 62
     5
100
AcDbLine
 10
30.00000000000016
 20
861.0
 30
0.0
 11
30.0
 21
30.0
 31
0.0
  0
LINE
  5
D8
330
1F
100
AcDbEntity
  8
図面枠
  6
CONTINUOUS
 62
     3
100
AcDbLine
 10
45.00000000000006
 20
846.0
 30
0.0
 11
45.00000000000006
 21
819.0
 31
0.0
  0
LINE
  5
D9
330
1F
100
AcDbEntity
  8
図面枠
  6
CONTINUOUS
 62
     3
100
AcDbLine
 10
270.0000000000001
 20
846.0
 30
0.0
 11
270.0000000000001
 21
819.0
 31
0.0
  0
LINE
  5
DA
330
1F
100
AcDbEntity
  8
図面枠
  6
CONTINUOUS
 62
     3
100
AcDbLine
 10
45.00000000000006
 20
846.0
 30
0.0
 11
270.0000000000001
 21
846.0
 31
0.0
  0
LINE
  5
DB
330
1F
100
AcDbEntity
  8
図面枠
  6
CONTINUOUS
 62
     3
100
AcDbLine
 10
45.00000000000006
 20
819.0
 30
0.0
 11
270.0000000000001
 21
819.0
 31
0.0
  0
TEXT
  5
DD
330
1F
100
AcDbEntity
  8
図面枠
  6
CONTINUOUS
 62
     4
100
AcDbText
 10
54.00000000000006
 20
826.03125
 30
0.0
 40
13.85161662817552
  1
手動油圧ポンプ（単動型）
 41
0.9992307692307693
  7
EXCADTTF1
 72
     5
 11
270.0000000000001
 21
826.03125
 31
0.0
100
AcDbText
  0
LINE
  5
DE
330
1F
100
AcDbEntity
  8
図面枠
  6
CONTINUOUS
 62
     3
100
AcDbLine
 10
1134.0
 20
72.0
 30
0.0
 11
1134.0
 21
45.0
 31
0.0
  0
TEXT
  5
DF
330
1F
100
AcDbEntity
  8
図面枠
  6
CONTINUOUS
 62
     4
100
AcDbText
 10
1143.0
 20
52.03125
 30
0.0
 40
13.85161662817552
  1
OHS-03S
 41
0.9992307692307691
  7
EXCADTTF1
 72
     5
 11
1206.0
 21
52.03125
 31
0.0
100
AcDbText
  0
LINE
  5
E0
330
1F
100
AcDbEntity
  8
図面枠
  6
CONTINUOUS
 62
     3
100
AcDbLine
 10
1215.0
 20
72.0
 30
0.0
 11
1215.0
 21
45.0
 31
0.0
  0
LINE
  5
E1
330
1F
100
AcDbEntity
  8
図面枠
  6
CONTINUOUS
 62
     3
100
AcDbLine
 10
1134.0
 20
72.0
 30
0.0
 11
1215.0
 21
72.0
 31
0.0
  0
LINE
  5
E2
330
1F
100
AcDbEntity
  8
図面枠
  6
CONTINUOUS
 62
     3
100
AcDbLine
 10
1134.0
 20
45.0
 30
0.0
 11
1215.0
 21
45.0
 31
0.0
  0
LINE
  5
E3
330
1F
100
AcDbEntity
  8
図面枠
  6
CONTINUOUS
 62
     3
100
AcDbLine
 10
915.0
 20
846.0
 30
0.0
 11
1215.0
 21
846.0
 31
0.0
  0
LINE
  5
E4
330
1F
100
AcDbEntity
  8
図面枠
  6
CONTINUOUS
 62
     3
100
AcDbLine
 10
915.0
 20
828.0
 30
0.0
 11
1215.0
 21
828.0
 31
0.0
  0
TEXT
  5
E5
330
1F
100
AcDbEntity
  8
図面枠
  6
CONTINUOUS
 62
     4
100
AcDbText
 10
921.0
 20
814.1484375
 30
0.0
 40
10.38871247113164
  1
最高使用圧力
 41
0.9992307692307689
  7
EXCADTTF1
 72
     5
 11
1002.0
 21
814.1484375
 31
0.0
100
AcDbText
  0
TEXT
  5
E6
330
1F
100
AcDbEntity
  8
図面枠
  6
CONTINUOUS
 62
     4
100
AcDbText
 10
1041.0
 20
814.1484375
 30
0.0
 40
10.38871247113164
  1
高圧
 41
0.999230769230769
  7
EXCADTTF1
 72
     5
 11
1068.0
 21
814.1484375
 31
0.0
100
AcDbText
  0
TEXT
  5
E7
330
1F
100
AcDbEntity
  8
図面枠
  6
CONTINUOUS
 62
     4
100
AcDbText
 10
1031.25
 20
832.1484375
 30
0.0
 40
10.38871247113164
  1
仕　　　様
 41
0.9992307692307689
  7
EXCADTTF1
 72
     5
 11
1098.75
 21
832.1484375
 31
0.0
100
AcDbText
  0
TEXT
  5
E8
330
1F
100
AcDbEntity
  8
図面枠
  6
CONTINUOUS
 62
     4
100
AcDbText
 10
1135.5
 20
814.1484375
 30
0.0
 40
10.38871247113164
  1
72
 41
0.999230769230769
  7
EXCADTTF1
 72
     5
 11
1149.0
 21
814.1484375
 31
0.0
100
AcDbText
  0
TEXT
  5
E9
330
1F
100
AcDbEntity
  8
図面枠
  6
CONTINUOUS
 62
     4
100
AcDbText
 10
1161.0
 20
814.1484375
 30
0.0
 40
10.38871247113164
  1
MPa
 41
0.999230769230769
  7
EXCADTTF1
 72
     5
 11
1181.25
 21
814.1484375
 31
0.0
100
AcDbText
  0
LINE
  5
EA
330
1F
100
AcDbEntity
  8
図面枠
  6
CONTINUOUS
 62
     2
100
AcDbLine
 10
1035.0
 20
810.0
 30
0.0
 11
1215.0
 21
810.0
 31
0.0
  0
TEXT
  5
EB
330
1F
100
AcDbEntity
  8
図面枠
  6
CONTINUOUS
 62
     4
100
AcDbText
 10
1041.0
 20
796.1484375
 30
0.0
 40
10.38871247113164
  1
低圧
 41
0.999230769230769
  7
EXCADTTF1
 72
     5
 11
1068.0
 21
796.1484375
 31
0.0
100
AcDbText
  0
TEXT
  5
EC
330
1F
100
AcDbEntity
  8
図面枠
  6
CONTINUOUS
 62
     4
100
AcDbText
 10
1161.0
 20
796.1484375
 30
0.0
 40
10.38871247113164
  1
MPa
 41
0.999230769230769
  7
EXCADTTF1
 72
     5
 11
1181.25
 21
796.1484375
 31
0.0
100
AcDbText
  0
TEXT
  5
ED
330
1F
100
AcDbEntity
  8
図面枠
  6
CONTINUOUS
 62
     4
100
AcDbText
 10
1142.25
 20
796.1484375
 30
0.0
 40
10.38871247113164
  1
3
 41
0.999230769230769
  7
EXCADTTF1
 72
     5
 11
1149.0
 21
796.1484375
 31
0.0
100
AcDbText
  0
LINE
  5
EE
330
1F
100
AcDbEntity
  8
図面枠
  6
CONTINUOUS
 62
     2
100
AcDbLine
 10
915.0
 20
792.0
 30
0.0
 11
1215.0
 21
792.0
 31
0.0
  0
LINE
  5
EF
330
1F
100
AcDbEntity
  8
図面枠
  6
CONTINUOUS
 62
     2
100
AcDbLine
 10
915.0
 20
756.0
 30
0.0
 11
1215.0
 21
756.0
 31
0.0
  0
LINE
  5
F0
330
1F
100
AcDbEntity
  8
図面枠
  6
CONTINUOUS
 62
     2
100
AcDbLine
 10
915.0
 20
738.0
 30
0.0
 11
1215.0
 21
738.0
 31
0.0
  0
LINE
  5
F1
330
1F
100
AcDbEntity
  8
図面枠
  6
CONTINUOUS
 62
     2
100
AcDbLine
 10
915.0
 20
720.0
 30
0.0
 11
1215.0
 21
720.0
 31
0.0
  0
LINE
  5
F2
330
1F
100
AcDbEntity
  8
図面枠
  6
CONTINUOUS
 62
     2
100
AcDbLine
 10
1035.0
 20
774.0
 30
0.0
 11
1215.0
 21
774.0
 31
0.0
  0
TEXT
  5
F3
330
1F
100
AcDbEntity
  8
図面枠
  6
CONTINUOUS
 62
     4
100
AcDbText
 10
921.0
 20
778.1484375
 30
0.0
 40
10.38871247113164
  1
吐出量
 41
0.999230769230769
  7
EXCADTTF1
 72
     5
 11
961.5
 21
778.1484375
 31
0.0
100
AcDbText
  0
TEXT
  5
F4
330
1F
100
AcDbEntity
  8
図面枠
  6
CONTINUOUS
 62
     4
100
AcDbText
 10
921.0
 20
742.1484375
 30
0.0
 40
10.38871247113164
  1
型式
 41
0.999230769230769
  7
EXCADTTF1
 72
     5
 11
948.0
 21
742.1484375
 31
0.0
100
AcDbText
  0
TEXT
  5
F5
330
1F
100
AcDbEntity
  8
図面枠
  6
CONTINUOUS
 62
     4
100
AcDbText
 10
921.0
 20
724.1484375
 30
0.0
 40
10.38871247113164
  1
貯油量
 41
0.999230769230769
  7
EXCADTTF1
 72
     5
 11
961.5
 21
724.1484375
 31
0.0
100
AcDbText
  0
TEXT
  5
F6
330
1F
100
AcDbEntity
  8
図面枠
  6
CONTINUOUS
 62
     4
100
AcDbText
 10
921.0
 20
706.1484375
 30
0.0
 40
10.38871247113164
  1
重量
 41
0.999230769230769
  7
EXCADTTF1
 72
     5
 11
948.0
 21
706.1484375
 31
0.0
100
AcDbText
  0
LINE
  5
F7
330
1F
100
AcDbEntity
  8
図面枠
  6
CONTINUOUS
 62
     3
100
AcDbLine
 10
915.0
 20
702.0
 30
0.0
 11
1215.0
 21
702.0
 31
0.0
  0
TEXT
  5
F8
330
1F
100
AcDbEntity
  8
図面枠
  6
CONTINUOUS
 62
     4
100
AcDbText
 10
1041.0
 20
778.1484375
 30
0.0
 40
10.38871247113164
  1
高圧
 41
0.999230769230769
  7
EXCADTTF1
 72
     5
 11
1068.0
 21
778.1484375
 31
0.0
100
AcDbText
  0
TEXT
  5
F9
330
1F
100
AcDbEntity
  8
図面枠
  6
CONTINUOUS
 62
     4
100
AcDbText
 10
1041.0
 20
760.1484375
 30
0.0
 40
10.38871247113164
  1
低圧
 41
0.999230769230769
  7
EXCADTTF1
 72
     5
 11
1068.0
 21
760.1484375
 31
0.0
100
AcDbText
  0
LINE
  5
FA
330
1F
100
AcDbEntity
  8
図面枠
  6
CONTINUOUS
 62
     2
100
AcDbLine
 10
1155.0
 20
738.0
 30
0.0
 11
1155.0
 21
702.0
 31
0.0
  0
TEXT
  5
FB
330
1F
100
AcDbEntity
  8
図面枠
  6
CONTINUOUS
 62
     4
100
AcDbText
 10
1161.0
 20
706.1484375
 30
0.0
 40
10.38871247113164
  1
kg
 41
0.999230769230769
  7
EXCADTTF1
 72
     5
 11
1174.5
 21
706.1484375
 31
0.0
100
AcDbText
  0
TEXT
  5
FC
330
1F
100
AcDbEntity
  8
図面枠
  6
CONTINUOUS
 62
     4
100
AcDbText
 10
1142.25
 20
778.1484375
 30
0.0
 40
10.38871247113164
  1
1
 41
0.999230769230769
  7
EXCADTTF1
 72
     5
 11
1149.0
 21
778.1484375
 31
0.0
100
AcDbText
  0
TEXT
  5
FD
330
1F
100
AcDbEntity
  8
図面枠
  6
CONTINUOUS
 62
     4
100
AcDbText
 10
1142.25
 20
760.1484375
 30
0.0
 40
10.38871247113164
  1
5
 41
0.999230769230769
  7
EXCADTTF1
 72
     5
 11
1149.0
 21
760.1484375
 31
0.0
100
AcDbText
  0
TEXT
  5
FE
330
1F
100
AcDbEntity
  8
図面枠
  6
CONTINUOUS
 62
     4
100
AcDbText
 10
1101.0
 20
742.1484375
 30
0.0
 40
10.38871247113164
  1
高圧自動切換
 41
0.9992307692307689
  7
EXCADTTF1
 72
     5
 11
1182.0
 21
742.1484375
 31
0.0
100
AcDbText
  0
TEXT
  5
FF
330
1F
100
AcDbEntity
  8
図面枠
  6
CONTINUOUS
 62
     4
100
AcDbText
 10
1128.75
 20
706.1484375
 30
0.0
 40
10.38871247113164
  1
約4
 41
0.999230769230769
  7
EXCADTTF1
 72
     5
 11
1149.0
 21
706.1484375
 31
0.0
100
AcDbText
  0
LINE
  5
100
330
1F
100
AcDbEntity
  8
図面枠
  6
CONTINUOUS
 62
     3
100
AcDbLine
 10
915.0
 20
846.0
 30
0.0
 11
915.0
 21
702.0
 31
0.0
  0
LINE
  5
101
330
1F
100
AcDbEntity
  8
図面枠
  6
CONTINUOUS
 62
     3
100
AcDbLine
 10
1215.0
 20
846.0
 30
0.0
 11
1215.0
 21
702.0
 31
0.0
  0
LINE
  5
102
330
1F
100
AcDbEntity
  8
図面枠
  6
CONTINUOUS
 62
     2
100
AcDbLine
 10
1035.0
 20
828.0
 30
0.0
 11
1035.0
 21
756.0
 31
0.0
  0
LINE
  5
103
330
1F
100
AcDbEntity
  8
図面枠
  6
CONTINUOUS
 62
     2
100
AcDbLine
 10
1095.0
 20
828.0
 30
0.0
 11
1095.0
 21
702.0
 31
0.0
  0
LINE
  5
104
330
1F
100
AcDbEntity
  8
図面枠
  6
CONTINUOUS
 62
     2
100
AcDbLine
 10
1155.0
 20
828.0
 30
0.0
 11
1155.0
 21
756.0
 31
0.0
  0
TEXT
  5
105
330
1F
100
AcDbEntity
  8
図面枠
  6
CONTINUOUS
 62
     4
100
AcDbText
 10
1161.0
 20
778.1484375
 30
0.0
 40
10.38871247113164
  1
mL
 41
0.999230769230769
  7
EXCADTTF1
 72
     5
 11
1174.5
 21
778.1484375
 31
0.0
100
AcDbText
  0
TEXT
  5
106
330
1F
100
AcDbEntity
  8
図面枠
  6
CONTINUOUS
 62
     4
100
AcDbText
 10
1161.0
 20
760.1484375
 30
0.0
 40
10.38871247113164
  1
mL
 41
0.999230769230769
  7
EXCADTTF1
 72
     5
 11
1174.5
 21
760.1484375
 31
0.0
100
AcDbText
  0
TEXT
  5
107
330
1F
100
AcDbEntity
  8
図面枠
  6
CONTINUOUS
 62
     4
100
AcDbText
 10
1161.0
 20
724.1484375
 30
0.0
 40
10.38871247113164
  1
L
 41
0.999230769230769
  7
EXCADTTF1
 72
     5
 11
1167.75
 21
724.1484375
 31
0.0
100
AcDbText
  0
TEXT
  5
108
330
1F
100
AcDbEntity
  8
図面枠
  6
CONTINUOUS
 62
     4
100
AcDbText
 10
1128.75
 20
724.1484375
 30
0.0
 40
10.38871247113164
  1
0.3
 41
0.999230769230769
  7
EXCADTTF1
 72
     5
 11
1149.0
 21
724.1484375
 31
0.0
100
AcDbText
  0
DIMENSION
  5
10A
330
1F
100
AcDbEntity
  8
Ｓ_１_１
  6
CONTINUOUS
 62
     2
100
AcDbDimension
  2
*D15
 10
547.3885242183
 20
400.0000000000001
 30
0.0
 11
797.388529746
 21
408.2499999999999
 31
0.0
 70
   160
  3
ISO-25
100
AcDbAlignedDimension
 13
1047.3885352737
 23
317.4505492311201
 33
0.0
 14
547.3885242183
 24
276.16239348334
 34
0.0
100
AcDbRotatedDimension
1001
ACAD
1000
DSTYLE
1002
{
1070
   270
1070
     2
1070
     6
1000
EX_NORM
1070
     7
1000
EX_NORM
1070
    41
1040
9.0
1070
    42
1040
4.5
1070
    44
1040
3.0
1070
    73
1070
     0
1070
    74
1070
     0
1070
    75
1070
     0
1070
    76
1070
     1
1070
    77
1070
     1
1070
    78
1070
     8
1070
   140
1040
10.38871247113164
1070
   147
1040
0.0
1070
   173
1070
     1
1070
   176
1070
     2
1070
   177
1070
     2
1070
   178
1070
     2
1070
   271
1070
     2
1070
   277
1070
     2
1070
   279
1070
     2
1070
   280
1070
     0
1070
   287
1070
     5
1070
   340
1005
109
1002
}
  0
DIMENSION
  5
117
330
1F
100
AcDbEntity
  8
Ｓ_１_１
  6
CONTINUOUS
 62
     2
100
AcDbDimension
  2
*D16
 10
416.73728649175
 20
400.0000000000001
 30
0.0
 11
452.062905355025
 21
408.2500000000001
 31
0.0
 70
   160
  1
130
  3
ISO-25
100
AcDbAlignedDimension
 13
547.3885242183
 23
276.16239348334
 33
0.0
 14
416.73728649175
 24
238.44370783309
 34
0.0
100
AcDbRotatedDimension
1001
ACAD
1000
DSTYLE
1002
{
1070
   270
1070
     2
1070
     6
1000
EX_NORM
1070
     7
1000
EX_NORM
1070
    41
1040
9.0
1070
    42
1040
4.5
1070
    44
1040
3.0
1070
    73
1070
     1
1070
    74
1070
     1
1070
    75
1070
     0
1070
    76
1070
     0
1070
    77
1070
     1
1070
    78
1070
     8
1070
   140
1040
10.38871247113164
1070
   147
1040
0.0
1070
   173
1070
     1
1070
   176
1070
     2
1070
   177
1070
     2
1070
   178
1070
     2
1070
   271
1070
     2
1070
   277
1070
     2
1070
   279
1070
     2
1070
   280
1070
     0
1070
   287
1070
     5
1070
   340
1005
109
1002
}
  0
DIMENSION
  5
124
330
1F
100
AcDbEntity
  8
Ｓ_１_１
  6
CONTINUOUS
 62
     2
100
AcDbDimension
  2
*D17
 10
380.0
 20
440.0001320000001
 30
0.0
 11
371.75
 21
329.2367160000001
 31
0.0
 70
   160
  1
221
  3
ISO-25
100
AcDbAlignedDimension
 13
593.5288892183
 23
218.4733000000001
 33
0.0
 14
531.4169402182999
 24
440.000132
 34
0.0
 50
90.0
100
AcDbRotatedDimension
1001
ACAD
1000
DSTYLE
1002
{
1070
   270
1070
     2
1070
     6
1000
EX_NORM
1070
     7
1000
EX_NORM
1070
    41
1040
9.0
1070
    42
1040
4.5
1070
    44
1040
3.0
1070
    73
1070
     0
1070
    74
1070
     0
1070
    75
1070
     0
1070
    76
1070
     0
1070
    77
1070
     1
1070
    78
1070
     8
1070
   140
1040
10.38871247113164
1070
   147
1040
0.0
1070
   173
1070
     1
1070
   176
1070
     2
1070
   177
1070
     2
1070
   178
1070
     2
1070
   271
1070
     2
1070
   277
1070
     2
1070
   279
1070
     2
1070
   280
1070
     0
1070
   287
1070
     5
1070
   340
1005
109
1002
}
  0
DIMENSION
  5
131
330
1F
100
AcDbEntity
  8
Ｓ_１_１
  6
CONTINUOUS
 62
     2
100
AcDbDimension
  2
*D18
 10
380.0
 20
642.99999
 30
0.0
 11
371.7500000000001
 21
578.999995
 31
0.0
 70
   160
  3
ISO-25
100
AcDbAlignedDimension
 13
498.0262290000001
 23
515.0
 33
0.0
 14
618.209104
 24
642.99999
 34
0.0
 50
90.0
100
AcDbRotatedDimension
1001
ACAD
1000
DSTYLE
1002
{
1070
   270
1070
     2
1070
     6
1000
EX_NORM
1070
     7
1000
EX_NORM
1070
    41
1040
9.0
1070
    42
1040
4.5
1070
    44
1040
3.0
1070
    73
1070
     0
1070
    74
1070
     0
1070
    75
1070
     0
1070
    76
1070
     0
1070
    77
1070
     1
1070
    78
1070
     8
1070
   140
1040
10.38871247113164
1070
   147
1040
0.0
1070
   173
1070
     1
1070
   176
1070
     2
1070
   177
1070
     2
1070
   178
1070
     2
1070
   271
1070
     2
1070
   277
1070
     2
1070
   279
1070
     2
1070
   280
1070
     0
1070
   287
1070
     5
1070
   340
1005
109
1002
}
  0
DIMENSION
  5
13E
330
1F
100
AcDbEntity
  8
Ｓ_１_１
  6
CONTINUOUS
 62
     2
100
AcDbDimension
  2
*D19
 10
294.9999230000001
 20
160.0000000000001
 30
0.0
 11
259.9999235000001
 21
168.2500000000001
 31
0.0
 70
   160
  3
ISO-25
100
AcDbAlignedDimension
 13
224.9999240000002
 23
218.4733000000001
 33
0.0
 14
294.9999230000001
 24
218.4733000000001
 34
0.0
100
AcDbRotatedDimension
1001
ACAD
1000
DSTYLE
1002
{
1070
   270
1070
     2
1070
     6
1000
EX_NORM
1070
     7
1000
EX_NORM
1070
    41
1040
9.0
1070
    42
1040
4.5
1070
    44
1040
3.0
1070
    73
1070
     0
1070
    74
1070
     0
1070
    75
1070
     0
1070
    76
1070
     0
1070
    77
1070
     1
1070
    78
1070
     8
1070
   140
1040
10.38871247113164
1070
   147
1040
0.0
1070
   173
1070
     1
1070
   176
1070
     2
1070
   177
1070
     2
1070
   178
1070
     2
1070
   271
1070
     2
1070
   277
1070
     2
1070
   279
1070
     2
1070
   280
1070
     0
1070
   287
1070
     5
1070
   340
1005
109
1002
}
  0
LINE
  5
14B
330
1F
100
AcDbEntity
  8
Ｓ_１_１
  6
EXLTYPE2
 62
     1
100
AcDbLine
 10
573.3235829999999
 20
585.622595
 30
0.0
 11
573.3235829999999
 21
569.1913590000001
 31
0.0
  0
LINE
  5
14C
330
1F
100
AcDbEntity
  8
Ｓ_１_１
  6
EXLTYPE2
 62
     1
100
AcDbLine
 10
633.2091029999999
 20
644.2152000000001
 30
0.0
 11
633.2091029999999
 21
597.076071
 31
0.0
  0
LINE
  5
14D
330
1F
100
AcDbEntity
  8
Ｓ_１_１
  6
EXLTYPE2
 62
     1
100
AcDbLine
 10
554.8885249999998
 20
582.9017630000001
 30
0.0
 11
554.8885249999998
 21
546.974944
 31
0.0
  0
LINE
  5
14E
330
1F
100
AcDbEntity
  8
Ｓ_１_１
  6
EXLTYPE2
 62
     1
100
AcDbLine
 10
568.323584
 20
581.4349730000001
 30
0.0
 11
568.323584
 21
545.155868
 31
0.0
  0
LINE
  5
14F
330
1F
100
AcDbEntity
  8
Ｓ_１_１
  6
EXLTYPE2
 62
     1
100
AcDbLine
 10
610.3559389999999
 20
534.9999990000001
 30
0.0
 11
648.2341469999999
 21
534.9999990000001
 31
0.0
  0
LINE
  5
150
330
1F
100
AcDbEntity
  8
Ｓ_１_１
  6
EXLTYPE2
 62
     1
100
AcDbLine
 10
620.1698579999999
 20
603.695944
 30
0.0
 11
620.1698579999999
 21
586.2190620000001
 31
0.0
  0
LINE
  5
151
330
1F
100
AcDbEntity
  8
Ｓ_１_１
  6
EXLTYPE2
 62
     1
100
AcDbLine
 10
638.1698119999999
 20
603.791731
 30
0.0
 11
638.1698119999999
 21
585.9317390000001
 31
0.0
  0
LINE
  5
152
330
1F
100
AcDbEntity
  8
Ｓ_１_１
  6
EXLTYPE2
 62
     1
100
AcDbLine
 10
610.8672989999999
 20
594.9999990000001
 30
0.0
 11
647.6884539999999
 21
594.9999990000001
 31
0.0
  0
LINE
  5
153
330
1F
100
AcDbEntity
  8
Ｓ_１_１
  6
EXLTYPE2
 62
     1
100
AcDbLine
 10
620.1698579999999
 20
543.163108
 30
0.0
 11
620.1698579999999
 21
525.8184430000001
 31
0.0
  0
LINE
  5
154
330
1F
100
AcDbEntity
  8
Ｓ_１_１
  6
EXLTYPE2
 62
     1
100
AcDbLine
 10
638.1698119999999
 20
543.163108
 30
0.0
 11
638.1698119999999
 21
525.8184430000001
 31
0.0
  0
POLYLINE
  5
155
330
1F
100
AcDbEntity
  8
Ｓ_１_１
  6
CONTINUOUS
 62
     3
100
AcDb2dPolyline
 66
     1
 10
0.0
 20
0.0
 30
0.0
 70
   128
  0
VERTEX
  5
156
330
155
100
AcDbEntity
  8
Ｓ_１_１
  6
CONTINUOUS
 62
     3
100
AcDbVertex
100
AcDb2dVertex
 10
646.1698419999999
 20
541.0000220000002
 30
0.0
  0
VERTEX
  5
157
330
155
100
AcDbEntity
  8
Ｓ_１_１
  6
CONTINUOUS
 62
     3
100
AcDbVertex
100
AcDb2dVertex
 10
646.1014009999999
 20
541.913706
 30
0.0
  0
VERTEX
  5
158
330
155
100
AcDbEntity
  8
Ｓ_１_１
  6
CONTINUOUS
 62
     3
100
AcDbVertex
100
AcDb2dVertex
 10
645.8972479999999
 20
542.8117560000001
 30
0.0
  0
VERTEX
  5
159
330
155
100
AcDbEntity
  8
Ｓ_１_１
  6
CONTINUOUS
 62
     3
100
AcDbVertex
100
AcDb2dVertex
 10
645.5608769999999
 20
543.6788060000001
 30
0.0
  0
VERTEX
  5
15A
330
155
100
AcDbEntity
  8
Ｓ_１_１
  6
CONTINUOUS
 62
     3
100
AcDbVertex
100
AcDb2dVertex
 10
645.0980429999998
 20
544.5000220000002
 30
0.0
  0
VERTEX
  5
15B
330
155
100
AcDbEntity
  8
Ｓ_１_１
  6
CONTINUOUS
 62
     3
100
AcDbVertex
100
AcDb2dVertex
 10
644.5166649999999
 20
545.261352
 30
0.0
  0
VERTEX
  5
15C
330
155
100
AcDbEntity
  8
Ｓ_１_１
  6
CONTINUOUS
 62
     3
100
AcDbVertex
100
AcDb2dVertex
 10
643.8266909999999
 20
545.9497680000002
 30
0.0
  0
VERTEX
  5
15D
330
155
100
AcDbEntity
  8
Ｓ_１_１
  6
CONTINUOUS
 62
     3
100
AcDbVertex
100
AcDb2dVertex
 10
643.0399269999999
 20
546.5534930000001
 30
0.0
  0
VERTEX
  5
15E
330
155
100
AcDbEntity
  8
Ｓ_１_１
  6
CONTINUOUS
 62
     3
100
AcDbVertex
100
AcDb2dVertex
 10
642.1698339999999
 20
547.0621960000001
 30
0.0
  0
VERTEX
  5
15F
330
155
100
AcDbEntity
  8
Ｓ_１_１
  6
CONTINUOUS
 62
     3
100
AcDbVertex
100
AcDb2dVertex
 10
641.2312999999999
 20
547.4671740000001
 30
0.0
  0
VERTEX
  5
160
330
155
100
AcDbEntity
  8
Ｓ_１_１
  6
CONTINUOUS
 62
     3
100
AcDbVertex
100
AcDb2dVertex
 10
640.2403829999998
 20
547.7614960000001
 30
0.0
  0
VERTEX
  5
161
330
155
100
AcDbEntity
  8
Ｓ_１_１
  6
CONTINUOUS
 62
     3
100
AcDbVertex
100
AcDb2dVertex
 10
639.2140389999998
 20
547.9401270000001
 30
0.0
  0
VERTEX
  5
162
330
155
100
AcDbEntity
  8
Ｓ_１_１
  6
CONTINUOUS
 62
     3
100
AcDbVertex
100
AcDb2dVertex
 10
638.1698279999998
 20
548.0000110000001
 30
0.0
  0
VERTEX
  5
163
330
155
100
AcDbEntity
  8
Ｓ_１_１
  6
CONTINUOUS
 62
     3
100
AcDbVertex
100
AcDb2dVertex
 10
637.1256179999999
 20
547.940122
 30
0.0
  0
VERTEX
  5
164
330
155
100
AcDbEntity
  8
Ｓ_１_１
  6
CONTINUOUS
 62
     3
100
AcDbVertex
100
AcDb2dVertex
 10
636.0992749999999
 20
547.7614860000001
 30
0.0
  0
VERTEX
  5
165
330
155
100
AcDbEntity
  8
Ｓ_１_１
  6
CONTINUOUS
 62
     3
100
AcDbVertex
100
AcDb2dVertex
 10
635.1083599999998
 20
547.467159
 30
0.0
  0
VERTEX
  5
166
330
155
100
AcDbEntity
  8
Ｓ_１_１
  6
CONTINUOUS
 62
     3
100
AcDbVertex
100
AcDb2dVertex
 10
634.1698289999998
 20
547.062177
 30
0.0
  0
VERTEX
  5
167
330
155
100
AcDbEntity
  8
Ｓ_１_１
  6
CONTINUOUS
 62
     3
100
AcDbVertex
100
AcDb2dVertex
 10
633.2997389999998
 20
546.5534700000001
 30
0.0
  0
VERTEX
  5
168
330
155
100
AcDbEntity
  8
Ｓ_１_１
  6
CONTINUOUS
 62
     3
100
AcDbVertex
100
AcDb2dVertex
 10
632.5129779999999
 20
545.9497410000001
 30
0.0
  0
VERTEX
  5
169
330
155
100
AcDbEntity
  8
Ｓ_１_１
  6
CONTINUOUS
 62
     3
100
AcDbVertex
100
AcDb2dVertex
 10
631.8230089999998
 20
545.2613210000002
 30
0.0
  0
VERTEX
  5
16A
330
155
100
AcDbEntity
  8
Ｓ_１_１
  6
CONTINUOUS
 62
     3
100
AcDbVertex
100
AcDb2dVertex
 10
631.2416349999999
 20
544.4999890000001
 30
0.0
  0
VERTEX
  5
16B
330
155
100
AcDbEntity
  8
Ｓ_１_１
  6
CONTINUOUS
 62
     3
100
AcDbVertex
100
AcDb2dVertex
 10
630.7788059999999
 20
543.6787710000001
 30
0.0
  0
VERTEX
  5
16C
330
155
100
AcDbEntity
  8
Ｓ_１_１
  6
CONTINUOUS
 62
     3
100
AcDbVertex
100
AcDb2dVertex
 10
630.4424409999999
 20
542.811719
 30
0.0
  0
VERTEX
  5
16D
330
155
100
AcDbEntity
  8
Ｓ_１_１
  6
CONTINUOUS
 62
     3
100
AcDbVertex
100
AcDb2dVertex
 10
630.2382939999999
 20
541.9136680000001
 30
0.0
  0
VERTEX
  5
16E
330
155
100
AcDbEntity
  8
Ｓ_１_１
  6
CONTINUOUS
 62
     3
100
AcDbVertex
100
AcDb2dVertex
 10
630.1698579999999
 20
540.999984
 30
0.0
  0
SEQEND
  5
16F
330
155
100
AcDbEntity
  8
Ｓ_１_１
  6
CONTINUOUS
 62
     3
  0
POLYLINE
  5
170
330
1F
100
AcDbEntity
  8
Ｓ_１_１
  6
CONTINUOUS
 62
     3
100
AcDb2dPolyline
 66
     1
 10
0.0
 20
0.0
 30
0.0
 70
   128
  0
VERTEX
  5
171
330
170
100
AcDbEntity
  8
Ｓ_１_１
  6
CONTINUOUS
 62
     3
100
AcDbVertex
100
AcDb2dVertex
 10
628.1698499999999
 20
541.0000220000002
 30
0.0
  0
VERTEX
  5
172
330
170
100
AcDbEntity
  8
Ｓ_１_１
  6
CONTINUOUS
 62
     3
100
AcDbVertex
100
AcDb2dVertex
 10
628.0884219999999
 20
541.996224
 30
0.0
  0
VERTEX
  5
173
330
170
100
AcDbEntity
  8
Ｓ_１_１
  6
CONTINUOUS
 62
     3
100
AcDbVertex
100
AcDb2dVertex
 10
627.8457939999998
 20
542.9721450000002
 30
0.0
  0
VERTEX
  5
174
330
170
100
AcDbEntity
  8
Ｓ_１_１
  6
CONTINUOUS
 62
     3
100
AcDbVertex
100
AcDb2dVertex
 10
627.4469059999999
 20
543.9079200000001
 30
0.0
  0
VERTEX
  5
175
330
170
100
AcDbEntity
  8
Ｓ_１_１
  6
CONTINUOUS
 62
     3
100
AcDbVertex
100
AcDb2dVertex
 10
626.8998789999998
 20
544.7844990000001
 30
0.0
  0
VERTEX
  5
176
330
170
100
AcDbEntity
  8
Ｓ_１_１
  6
CONTINUOUS
 62
     3
100
AcDbVertex
100
AcDb2dVertex
 10
626.2158469999998
 20
545.5840370000001
 30
0.0
  0
VERTEX
  5
177
330
170
100
AcDbEntity
  8
Ｓ_１_１
  6
CONTINUOUS
 62
     3
100
AcDbVertex
100
AcDb2dVertex
 10
625.4087369999999
 20
546.2902570000001
 30
0.0
  0
VERTEX
  5
178
330
170
100
AcDbEntity
  8
Ｓ_１_１
  6
CONTINUOUS
 62
     3
100
AcDbVertex
100
AcDb2dVertex
 10
624.4949769999998
 20
546.888784
 30
0.0
  0
VERTEX
  5
179
330
170
100
AcDbEntity
  8
Ｓ_１_１
  6
CONTINUOUS
 62
     3
100
AcDbVertex
100
AcDb2dVertex
 10
623.4931709999998
 20
547.3674330000001
 30
0.0
  0
VERTEX
  5
17A
330
170
100
AcDbEntity
  8
Ｓ_１_１
  6
CONTINUOUS
 62
     3
100
AcDbVertex
100
AcDb2dVertex
 10
622.4237109999999
 20
547.7164600000001
 30
0.0
  0
VERTEX
  5
17B
330
170
100
AcDbEntity
  8
Ｓ_１_１
  6
CONTINUOUS
 62
     3
100
AcDbVertex
100
AcDb2dVertex
 10
621.3083689999999
 20
547.92876
 30
0.0
  0
VERTEX
  5
17C
330
170
100
AcDbEntity
  8
Ｓ_１_１
  6
CONTINUOUS
 62
     3
100
AcDbVertex
100
AcDb2dVertex
 10
620.1698499999999
 20
548.0000110000001
 30
0.0
  0
VERTEX
  5
17D
330
170
100
AcDbEntity
  8
Ｓ_１_１
  6
CONTINUOUS
 62
     3
100
AcDbVertex
100
AcDb2dVertex
 10
619.0313299999999
 20
547.928762
 30
0.0
  0
VERTEX
  5
17E
330
170
100
AcDbEntity
  8
Ｓ_１_１
  6
CONTINUOUS
 62
     3
100
AcDbVertex
100
AcDb2dVertex
 10
617.9159879999999
 20
547.716465
 30
0.0
  0
VERTEX
  5
17F
330
170
100
AcDbEntity
  8
Ｓ_１_１
  6
CONTINUOUS
 62
     3
100
AcDbVertex
100
AcDb2dVertex
 10
616.8465269999999
 20
547.3674410000001
 30
0.0
  0
VERTEX
  5
180
330
170
100
AcDbEntity
  8
Ｓ_１_１
  6
CONTINUOUS
 62
     3
100
AcDbVertex
100
AcDb2dVertex
 10
615.8447189999998
 20
546.8887940000002
 30
0.0
  0
VERTEX
  5
181
330
170
100
AcDbEntity
  8
Ｓ_１_１
  6
CONTINUOUS
 62
     3
100
AcDbVertex
100
AcDb2dVertex
 10
614.9309579999999
 20
546.2902700000002
 30
0.0
  0
VERTEX
  5
182
330
170
100
AcDbEntity
  8
Ｓ_１_１
  6
CONTINUOUS
 62
     3
100
AcDbVertex
100
AcDb2dVertex
 10
614.1238449999998
 20
545.584051
 30
0.0
  0
VERTEX
  5
183
330
170
100
AcDbEntity
  8
Ｓ_１_１
  6
CONTINUOUS
 62
     3
100
AcDbVertex
100
AcDb2dVertex
 10
613.4398109999998
 20
544.784515
 30
0.0
  0
VERTEX
  5
184
330
170
100
AcDbEntity
  8
Ｓ_１_１
  6
CONTINUOUS
 62
     3
100
AcDbVertex
100
AcDb2dVertex
 10
612.8927809999999
 20
543.9079380000001
 30
0.0
  0
VERTEX
  5
185
330
170
100
AcDbEntity
  8
Ｓ_１_１
  6
CONTINUOUS
 62
     3
100
AcDbVertex
100
AcDb2dVertex
 10
612.4938899999999
 20
542.972164
 30
0.0
  0
VERTEX
  5
186
330
170
100
AcDbEntity
  8
Ｓ_１_１
  6
CONTINUOUS
 62
     3
100
AcDbVertex
100
AcDb2dVertex
 10
612.2512589999999
 20
541.996243
 30
0.0
  0
VERTEX
  5
187
330
170
100
AcDbEntity
  8
Ｓ_１_１
  6
CONTINUOUS
 62
     3
100
AcDbVertex
100
AcDb2dVertex
 10
612.1698279999998
 20
541.000041
 30
0.0
  0
SEQEND
  5
188
330
170
100
AcDbEntity
  8
Ｓ_１_１
  6
CONTINUOUS
 62
     3
  0
POLYLINE
  5
189
330
1F
100
AcDbEntity
  8
Ｓ_１_１
  6
CONTINUOUS
 62
     3
100
AcDb2dPolyline
 66
     1
 10
0.0
 20
0.0
 30
0.0
 70
   128
  0
VERTEX
  5
18A
330
189
100
AcDbEntity
  8
Ｓ_１_１
  6
CONTINUOUS
 62
     3
100
AcDbVertex
100
AcDb2dVertex
 10
646.1698419999999
 20
534.9999990000001
 30
0.0
  0
VERTEX
  5
18B
330
189
100
AcDbEntity
  8
Ｓ_１_１
  6
CONTINUOUS
 62
     3
100
AcDbVertex
100
AcDb2dVertex
 10
646.1393999999999
 20
535.6100900000001
 30
0.0
  0
VERTEX
  5
18C
330
189
100
AcDbEntity
  8
Ｓ_１_１
  6
CONTINUOUS
 62
     3
100
AcDbVertex
100
AcDb2dVertex
 10
646.0483049999999
 20
536.2155380000002
 30
0.0
  0
VERTEX
  5
18D
330
189
100
AcDbEntity
  8
Ｓ_１_１
  6
CONTINUOUS
 62
     3
100
AcDbVertex
100
AcDb2dVertex
 10
645.8972489999999
 20
536.811735
 30
0.0
  0
VERTEX
  5
18E
330
189
100
AcDbEntity
  8
Ｓ_１_１
  6
CONTINUOUS
 62
     3
100
AcDbVertex
100
AcDb2dVertex
 10
645.6873839999998
 20
537.394143
 30
0.0
  0
VERTEX
  5
18F
330
189
100
AcDbEntity
  8
Ｓ_１_１
  6
CONTINUOUS
 62
     3
100
AcDbVertex
100
AcDb2dVertex
 10
645.4203049999999
 20
537.9583300000002
 30
0.0
  0
VERTEX
  5
190
330
189
100
AcDbEntity
  8
Ｓ_１_１
  6
CONTINUOUS
 62
     3
100
AcDbVertex
100
AcDb2dVertex
 10
645.0980469999998
 20
538.5000030000001
 30
0.0
  0
VERTEX
  5
191
330
189
100
AcDbEntity
  8
Ｓ_１_１
  6
CONTINUOUS
 62
     3
100
AcDbVertex
100
AcDb2dVertex
 10
644.7230599999999
 20
539.0150390000001
 30
0.0
  0
VERTEX
  5
192
330
189
100
AcDbEntity
  8
Ｓ_１_１
  6
CONTINUOUS
 62
     3
100
AcDbVertex
100
AcDb2dVertex
 10
644.2981999999998
 20
539.4995180000001
 30
0.0
  0
VERTEX
  5
193
330
189
100
AcDbEntity
  8
Ｓ_１_１
  6
CONTINUOUS
 62
     3
100
AcDbVertex
100
AcDb2dVertex
 10
643.8266989999998
 20
539.949752
 30
0.0
  0
VERTEX
  5
194
330
189
100
AcDbEntity
  8
Ｓ_１_１
  6
CONTINUOUS
 62
     3
100
AcDbVertex
100
AcDb2dVertex
 10
643.3121459999999
 20
540.3623160000002
 30
0.0
  0
VERTEX
  5
195
330
189
100
AcDbEntity
  8
Ｓ_１_１
  6
CONTINUOUS
 62
     3
100
AcDbVertex
100
AcDb2dVertex
 10
642.7584569999999
 20
540.73407
 30
0.0
  0
VERTEX
  5
196
330
189
100
AcDbEntity
  8
Ｓ_１_１
  6
CONTINUOUS
 62
     3
100
AcDbVertex
100
AcDb2dVertex
 10
642.1698459999999
 20
541.0621840000001
 30
0.0
  0
VERTEX
  5
197
330
189
100
AcDbEntity
  8
Ｓ_１_１
  6
CONTINUOUS
 62
     3
100
AcDbVertex
100
AcDb2dVertex
 10
641.5507929999999
 20
541.344161
 30
0.0
  0
VERTEX
  5
198
330
189
100
AcDbEntity
  8
Ｓ_１_１
  6
CONTINUOUS
 62
     3
100
AcDbVertex
100
AcDb2dVertex
 10
640.9060089999999
 20
541.577855
 30
0.0
  0
VERTEX
  5
199
330
189
100
AcDbEntity
  8
Ｓ_１_１
  6
CONTINUOUS
 62
     3
100
AcDbVertex
100
AcDb2dVertex
 10
640.2404009999999
 20
541.7614880000001
 30
0.0
  0
VERTEX
  5
19A
330
189
100
AcDbEntity
  8
Ｓ_１_１
  6
CONTINUOUS
 62
     3
100
AcDbVertex
100
AcDb2dVertex
 10
639.5590339999999
 20
541.8936610000001
 30
0.0
  0
VERTEX
  5
19B
330
189
100
AcDbEntity
  8
Ｓ_１_１
  6
CONTINUOUS
 62
     3
100
AcDbVertex
100
AcDb2dVertex
 10
638.8670949999998
 20
541.9733700000002
 30
0.0
  0
VERTEX
  5
19C
330
189
100
AcDbEntity
  8
Ｓ_１_１
  6
CONTINUOUS
 62
     3
100
AcDbVertex
100
AcDb2dVertex
 10
638.1698499999999
 20
542.0000070000001
 30
0.0
  0
VERTEX
  5
19D
330
189
100
AcDbEntity
  8
Ｓ_１_１
  6
CONTINUOUS
 62
     3
100
AcDbVertex
100
AcDb2dVertex
 10
637.4726049999998
 20
541.9733700000002
 30
0.0
  0
VERTEX
  5
19E
330
189
100
AcDbEntity
  8
Ｓ_１_１
  6
CONTINUOUS
 62
     3
100
AcDbVertex
100
AcDb2dVertex
 10
636.7806659999999
 20
541.8936610000001
 30
0.0
  0
VERTEX
  5
19F
330
189
100
AcDbEntity
  8
Ｓ_１_１
  6
CONTINUOUS
 62
     3
100
AcDbVertex
100
AcDb2dVertex
 10
636.0992999999999
 20
541.7614880000001
 30
0.0
  0
VERTEX
  5
1A0
330
189
100
AcDbEntity
  8
Ｓ_１_１
  6
CONTINUOUS
 62
     3
100
AcDbVertex
100
AcDb2dVertex
 10
635.4336919999998
 20
541.577855
 30
0.0
  0
VERTEX
  5
1A1
330
189
100
AcDbEntity
  8
Ｓ_１_１
  6
CONTINUOUS
 62
     3
100
AcDbVertex
100
AcDb2dVertex
 10
634.7889069999999
 20
541.344161
 30
0.0
  0
VERTEX
  5
1A2
330
189
100
AcDbEntity
  8
Ｓ_１_１
  6
CONTINUOUS
 62
     3
100
AcDbVertex
100
AcDb2dVertex
 10
634.1698539999999
 20
541.0621840000001
 30
0.0
  0
VERTEX
  5
1A3
330
189
100
AcDbEntity
  8
Ｓ_１_１
  6
CONTINUOUS
 62
     3
100
AcDbVertex
100
AcDb2dVertex
 10
633.5812429999999
 20
540.73407
 30
0.0
  0
VERTEX
  5
1A4
330
189
100
AcDbEntity
  8
Ｓ_１_１
  6
CONTINUOUS
 62
     3
100
AcDbVertex
100
AcDb2dVertex
 10
633.0275539999999
 20
540.3623160000002
 30
0.0
  0
VERTEX
  5
1A5
330
189
100
AcDbEntity
  8
Ｓ_１_１
  6
CONTINUOUS
 62
     3
100
AcDbVertex
100
AcDb2dVertex
 10
632.5130009999999
 20
539.949752
 30
0.0
  0
VERTEX
  5
1A6
330
189
100
AcDbEntity
  8
Ｓ_１_１
  6
CONTINUOUS
 62
     3
100
AcDbVertex
100
AcDb2dVertex
 10
632.0415009999999
 20
539.4995180000001
 30
0.0
  0
VERTEX
  5
1A7
330
189
100
AcDbEntity
  8
Ｓ_１_１
  6
CONTINUOUS
 62
     3
100
AcDbVertex
100
AcDb2dVertex
 10
631.6166399999998
 20
539.0150390000001
 30
0.0
  0
VERTEX
  5
1A8
330
189
100
AcDbEntity
  8
Ｓ_１_１
  6
CONTINUOUS
 62
     3
100
AcDbVertex
100
AcDb2dVertex
 10
631.2416539999999
 20
538.5000030000001
 30
0.0
  0
VERTEX
  5
1A9
330
189
100
AcDbEntity
  8
Ｓ_１_１
  6
CONTINUOUS
 62
     3
100
AcDbVertex
100
AcDb2dVertex
 10
630.9193949999999
 20
537.9583300000002
 30
0.0
  0
VERTEX
  5
1AA
330
189
100
AcDbEntity
  8
Ｓ_１_１
  6
CONTINUOUS
 62
     3
100
AcDbVertex
100
AcDb2dVertex
 10
630.6523159999999
 20
537.394143
 30
0.0
  0
VERTEX
  5
1AB
330
189
100
AcDbEntity
  8
Ｓ_１_１
  6
CONTINUOUS
 62
     3
100
AcDbVertex
100
AcDb2dVertex
 10
630.4424509999999
 20
536.811735
 30
0.0
  0
VERTEX
  5
1AC
330
189
100
AcDbEntity
  8
Ｓ_１_１
  6
CONTINUOUS
 62
     3
100
AcDbVertex
100
AcDb2dVertex
 10
630.2913959999998
 20
536.2155380000002
 30
0.0
  0
VERTEX
  5
1AD
330
189
100
AcDbEntity
  8
Ｓ_１_１
  6
CONTINUOUS
 62
     3
100
AcDbVertex
100
AcDb2dVertex
 10
630.2002999999999
 20
535.6100900000001
 30
0.0
  0
VERTEX
  5
1AE
330
189
100
AcDbEntity
  8
Ｓ_１_１
  6
CONTINUOUS
 62
     3
100
AcDbVertex
100
AcDb2dVertex
 10
630.1698579999999
 20
534.9999990000001
 30
0.0
  0
VERTEX
  5
1AF
330
189
100
AcDbEntity
  8
Ｓ_１_１
  6
CONTINUOUS
 62
     3
100
AcDbVertex
100
AcDb2dVertex
 10
630.2002999999999
 20
534.389909
 30
0.0
  0
VERTEX
  5
1B0
330
189
100
AcDbEntity
  8
Ｓ_１_１
  6
CONTINUOUS
 62
     3
100
AcDbVertex
100
AcDb2dVertex
 10
630.2913959999998
 20
533.7844610000002
 30
0.0
  0
VERTEX
  5
1B1
330
189
100
AcDbEntity
  8
Ｓ_１_１
  6
CONTINUOUS
 62
     3
100
AcDbVertex
100
AcDb2dVertex
 10
630.4424509999999
 20
533.1882640000001
 30
0.0
  0
VERTEX
  5
1B2
330
189
100
AcDbEntity
  8
Ｓ_１_１
  6
CONTINUOUS
 62
     3
100
AcDbVertex
100
AcDb2dVertex
 10
630.6523159999999
 20
532.6058560000001
 30
0.0
  0
VERTEX
  5
1B3
330
189
100
AcDbEntity
  8
Ｓ_１_１
  6
CONTINUOUS
 62
     3
100
AcDbVertex
100
AcDb2dVertex
 10
630.9193949999999
 20
532.0416680000001
 30
0.0
  0
VERTEX
  5
1B4
330
189
100
AcDbEntity
  8
Ｓ_１_１
  6
CONTINUOUS
 62
     3
100
AcDbVertex
100
AcDb2dVertex
 10
631.2416539999999
 20
531.499996
 30
0.0
  0
VERTEX
  5
1B5
330
189
100
AcDbEntity
  8
Ｓ_１_１
  6
CONTINUOUS
 62
     3
100
AcDbVertex
100
AcDb2dVertex
 10
631.6166399999998
 20
530.98496
 30
0.0
  0
VERTEX
  5
1B6
330
189
100
AcDbEntity
  8
Ｓ_１_１
  6
CONTINUOUS
 62
     3
100
AcDbVertex
100
AcDb2dVertex
 10
632.0415009999999
 20
530.500481
 30
0.0
  0
VERTEX
  5
1B7
330
189
100
AcDbEntity
  8
Ｓ_１_１
  6
CONTINUOUS
 62
     3
100
AcDbVertex
100
AcDb2dVertex
 10
632.5130009999999
 20
530.0502470000001
 30
0.0
  0
VERTEX
  5
1B8
330
189
100
AcDbEntity
  8
Ｓ_１_１
  6
CONTINUOUS
 62
     3
100
AcDbVertex
100
AcDb2dVertex
 10
633.0275539999999
 20
529.6376830000002
 30
0.0
  0
VERTEX
  5
1B9
330
189
100
AcDbEntity
  8
Ｓ_１_１
  6
CONTINUOUS
 62
     3
100
AcDbVertex
100
AcDb2dVertex
 10
633.5812429999999
 20
529.2659290000001
 30
0.0
  0
VERTEX
  5
1BA
330
189
100
AcDbEntity
  8
Ｓ_１_１
  6
CONTINUOUS
 62
     3
100
AcDbVertex
100
AcDb2dVertex
 10
634.1698539999999
 20
528.937815
 30
0.0
  0
VERTEX
  5
1BB
330
189
100
AcDbEntity
  8
Ｓ_１_１
  6
CONTINUOUS
 62
     3
100
AcDbVertex
100
AcDb2dVertex
 10
634.7889069999999
 20
528.6558380000001
 30
0.0
  0
VERTEX
  5
1BC
330
189
100
AcDbEntity
  8
Ｓ_１_１
  6
CONTINUOUS
 62
     3
100
AcDbVertex
100
AcDb2dVertex
 10
635.4336919999998
 20
528.4221440000001
 30
0.0
  0
VERTEX
  5
1BD
330
189
100
AcDbEntity
  8
Ｓ_１_１
  6
CONTINUOUS
 62
     3
100
AcDbVertex
100
AcDb2dVertex
 10
636.0992999999999
 20
528.238511
 30
0.0
  0
VERTEX
  5
1BE
330
189
100
AcDbEntity
  8
Ｓ_１_１
  6
CONTINUOUS
 62
     3
100
AcDbVertex
100
AcDb2dVertex
 10
636.7806659999999
 20
528.106338
 30
0.0
  0
VERTEX
  5
1BF
330
189
100
AcDbEntity
  8
Ｓ_１_１
  6
CONTINUOUS
 62
     3
100
AcDbVertex
100
AcDb2dVertex
 10
637.4726049999998
 20
528.0266290000002
 30
0.0
  0
VERTEX
  5
1C0
330
189
100
AcDbEntity
  8
Ｓ_１_１
  6
CONTINUOUS
 62
     3
100
AcDbVertex
100
AcDb2dVertex
 10
638.1698499999999
 20
527.999992
 30
0.0
  0
VERTEX
  5
1C1
330
189
100
AcDbEntity
  8
Ｓ_１_１
  6
CONTINUOUS
 62
     3
100
AcDbVertex
100
AcDb2dVertex
 10
638.8670949999998
 20
528.0266290000002
 30
0.0
  0
VERTEX
  5
1C2
330
189
100
AcDbEntity
  8
Ｓ_１_１
  6
CONTINUOUS
 62
     3
100
AcDbVertex
100
AcDb2dVertex
 10
639.5590339999999
 20
528.106338
 30
0.0
  0
VERTEX
  5
1C3
330
189
100
AcDbEntity
  8
Ｓ_１_１
  6
CONTINUOUS
 62
     3
100
AcDbVertex
100
AcDb2dVertex
 10
640.2404009999999
 20
528.238511
 30
0.0
  0
VERTEX
  5
1C4
330
189
100
AcDbEntity
  8
Ｓ_１_１
  6
CONTINUOUS
 62
     3
100
AcDbVertex
100
AcDb2dVertex
 10
640.9060089999999
 20
528.4221440000001
 30
0.0
  0
VERTEX
  5
1C5
330
189
100
AcDbEntity
  8
Ｓ_１_１
  6
CONTINUOUS
 62
     3
100
AcDbVertex
100
AcDb2dVertex
 10
641.5507929999999
 20
528.6558380000001
 30
0.0
  0
VERTEX
  5
1C6
330
189
100
AcDbEntity
  8
Ｓ_１_１
  6
CONTINUOUS
 62
     3
100
AcDbVertex
100
AcDb2dVertex
 10
642.1698459999999
 20
528.937815
 30
0.0
  0
VERTEX
  5
1C7
330
189
100
AcDbEntity
  8
Ｓ_１_１
  6
CONTINUOUS
 62
     3
100
AcDbVertex
100
AcDb2dVertex
 10
642.7584569999999
 20
529.2659290000001
 30
0.0
  0
VERTEX
  5
1C8
330
189
100
AcDbEntity
  8
Ｓ_１_１
  6
CONTINUOUS
 62
     3
100
AcDbVertex
100
AcDb2dVertex
 10
643.3121459999999
 20
529.6376830000002
 30
0.0
  0
VERTEX
  5
1C9
330
189
100
AcDbEntity
  8
Ｓ_１_１
  6
CONTINUOUS
 62
     3
100
AcDbVertex
100
AcDb2dVertex
 10
643.8266989999998
 20
530.0502470000001
 30
0.0
  0
VERTEX
  5
1CA
330
189
100
AcDbEntity
  8
Ｓ_１_１
  6
CONTINUOUS
 62
     3
100
AcDbVertex
100
AcDb2dVertex
 10
644.2981999999998
 20
530.500481
 30
0.0
  0
VERTEX
  5
1CB
330
189
100
AcDbEntity
  8
Ｓ_１_１
  6
CONTINUOUS
 62
     3
100
AcDbVertex
100
AcDb2dVertex
 10
644.7230599999999
 20
530.98496
 30
0.0
  0
VERTEX
  5
1CC
330
189
100
AcDbEntity
  8
Ｓ_１_１
  6
CONTINUOUS
 62
     3
100
AcDbVertex
100
AcDb2dVertex
 10
645.0980469999998
 20
531.499996
 30
0.0
  0
VERTEX
  5
1CD
330
189
100
AcDbEntity
  8
Ｓ_１_１
  6
CONTINUOUS
 62
     3
100
AcDbVertex
100
AcDb2dVertex
 10
645.4203049999999
 20
532.0416680000001
 30
0.0
  0
VERTEX
  5
1CE
330
189
100
AcDbEntity
  8
Ｓ_１_１
  6
CONTINUOUS
 62
     3
100
AcDbVertex
100
AcDb2dVertex
 10
645.6873839999998
 20
532.6058560000001
 30
0.0
  0
VERTEX
  5
1CF
330
189
100
AcDbEntity
  8
Ｓ_１_１
  6
CONTINUOUS
 62
     3
100
AcDbVertex
100
AcDb2dVertex
 10
645.8972489999999
 20
533.1882640000001
 30
0.0
  0
VERTEX
  5
1D0
330
189
100
AcDbEntity
  8
Ｓ_１_１
  6
CONTINUOUS
 62
     3
100
AcDbVertex
100
AcDb2dVertex
 10
646.0483049999999
 20
533.7844610000002
 30
0.0
  0
VERTEX
  5
1D1
330
189
100
AcDbEntity
  8
Ｓ_１_１
  6
CONTINUOUS
 62
     3
100
AcDbVertex
100
AcDb2dVertex
 10
646.1393999999999
 20
534.389909
 30
0.0
  0
VERTEX
  5
1D2
330
189
100
AcDbEntity
  8
Ｓ_１_１
  6
CONTINUOUS
 62
     3
100
AcDbVertex
100
AcDb2dVertex
 10
646.1698419999999
 20
534.9999990000001
 30
0.0
  0
SEQEND
  5
1D3
330
189
100
AcDbEntity
  8
Ｓ_１_１
  6
CONTINUOUS
 62
     3
  0
POLYLINE
  5
1D4
330
1F
100
AcDbEntity
  8
Ｓ_１_１
  6
CONTINUOUS
 62
     3
100
AcDb2dPolyline
 66
     1
 10
0.0
 20
0.0
 30
0.0
 70
   128
  0
VERTEX
  5
1D5
330
1D4
100
AcDbEntity
  8
Ｓ_１_１
  6
CONTINUOUS
 62
     3
100
AcDbVertex
100
AcDb2dVertex
 10
628.1698499999999
 20
534.9999990000001
 30
0.0
  0
VERTEX
  5
1D6
330
1D4
100
AcDbEntity
  8
Ｓ_１_１
  6
CONTINUOUS
 62
     3
100
AcDbVertex
100
AcDb2dVertex
 10
628.1394079999999
 20
535.6100900000001
 30
0.0
  0
VERTEX
  5
1D7
330
1D4
100
AcDbEntity
  8
Ｓ_１_１
  6
CONTINUOUS
 62
     3
100
AcDbVertex
100
AcDb2dVertex
 10
628.0483119999999
 20
536.2155380000002
 30
0.0
  0
VERTEX
  5
1D8
330
1D4
100
AcDbEntity
  8
Ｓ_１_１
  6
CONTINUOUS
 62
     3
100
AcDbVertex
100
AcDb2dVertex
 10
627.8972569999999
 20
536.811735
 30
0.0
  0
VERTEX
  5
1D9
330
1D4
100
AcDbEntity
  8
Ｓ_１_１
  6
CONTINUOUS
 62
     3
100
AcDbVertex
100
AcDb2dVertex
 10
627.6873909999998
 20
537.394143
 30
0.0
  0
VERTEX
  5
1DA
330
1D4
100
AcDbEntity
  8
Ｓ_１_１
  6
CONTINUOUS
 62
     3
100
AcDbVertex
100
AcDb2dVertex
 10
627.4203119999999
 20
537.9583300000002
 30
0.0
  0
VERTEX
  5
1DB
330
1D4
100
AcDbEntity
  8
Ｓ_１_１
  6
CONTINUOUS
 62
     3
100
AcDbVertex
100
AcDb2dVertex
 10
627.0980519999998
 20
538.5000030000001
 30
0.0
  0
VERTEX
  5
1DC
330
1D4
100
AcDbEntity
  8
Ｓ_１_１
  6
CONTINUOUS
 62
     3
100
AcDbVertex
100
AcDb2dVertex
 10
626.7230649999999
 20
539.0150390000001
 30
0.0
  0
VERTEX
  5
1DD
330
1D4
100
AcDbEntity
  8
Ｓ_１_１
  6
CONTINUOUS
 62
     3
100
AcDbVertex
100
AcDb2dVertex
 10
626.2982029999998
 20
539.4995180000001
 30
0.0
  0
VERTEX
  5
1DE
330
1D4
100
AcDbEntity
  8
Ｓ_１_１
  6
CONTINUOUS
 62
     3
100
AcDbVertex
100
AcDb2dVertex
 10
625.8267009999998
 20
539.949752
 30
0.0
  0
VERTEX
  5
1DF
330
1D4
100
AcDbEntity
  8
Ｓ_１_１
  6
CONTINUOUS
 62
     3
100
AcDbVertex
100
AcDb2dVertex
 10
625.3121469999999
 20
540.3623160000002
 30
0.0
  0
VERTEX
  5
1E0
330
1D4
100
AcDbEntity
  8
Ｓ_１_１
  6
CONTINUOUS
 62
     3
100
AcDbVertex
100
AcDb2dVertex
 10
624.7584569999999
 20
540.73407
 30
0.0
  0
VERTEX
  5
1E1
330
1D4
100
AcDbEntity
  8
Ｓ_１_１
  6
CONTINUOUS
 62
     3
100
AcDbVertex
100
AcDb2dVertex
 10
624.1698449999999
 20
541.0621840000001
 30
0.0
  0
VERTEX
  5
1E2
330
1D4
100
AcDbEntity
  8
Ｓ_１_１
  6
CONTINUOUS
 62
     3
100
AcDbVertex
100
AcDb2dVertex
 10
623.5507899999999
 20
541.344161
 30
0.0
  0
VERTEX
  5
1E3
330
1D4
100
AcDbEntity
  8
Ｓ_１_１
  6
CONTINUOUS
 62
     3
100
AcDbVertex
100
AcDb2dVertex
 10
622.9060039999998
 20
541.577855
 30
0.0
  0
VERTEX
  5
1E4
330
1D4
100
AcDbEntity
  8
Ｓ_１_１
  6
CONTINUOUS
 62
     3
100
AcDbVertex
100
AcDb2dVertex
 10
622.2403939999999
 20
541.7614880000001
 30
0.0
  0
VERTEX
  5
1E5
330
1D4
100
AcDbEntity
  8
Ｓ_１_１
  6
CONTINUOUS
 62
     3
100
AcDbVertex
100
AcDb2dVertex
 10
621.5590259999999
 20
541.8936610000001
 30
0.0
  0
VERTEX
  5
1E6
330
1D4
100
AcDbEntity
  8
Ｓ_１_１
  6
CONTINUOUS
 62
     3
100
AcDbVertex
100
AcDb2dVertex
 10
620.8670859999999
 20
541.9733700000002
 30
0.0
  0
VERTEX
  5
1E7
330
1D4
100
AcDbEntity
  8
Ｓ_１_１
  6
CONTINUOUS
 62
     3
100
AcDbVertex
100
AcDb2dVertex
 10
620.1698389999999
 20
542.0000070000001
 30
0.0
  0
VERTEX
  5
1E8
330
1D4
100
AcDbEntity
  8
Ｓ_１_１
  6
CONTINUOUS
 62
     3
100
AcDbVertex
100
AcDb2dVertex
 10
619.4725919999998
 20
541.9733700000002
 30
0.0
  0
VERTEX
  5
1E9
330
1D4
100
AcDbEntity
  8
Ｓ_１_１
  6
CONTINUOUS
 62
     3
100
AcDbVertex
100
AcDb2dVertex
 10
618.7806519999999
 20
541.8936610000001
 30
0.0
  0
VERTEX
  5
1EA
330
1D4
100
AcDbEntity
  8
Ｓ_１_１
  6
CONTINUOUS
 62
     3
100
AcDbVertex
100
AcDb2dVertex
 10
618.0992839999999
 20
541.7614880000001
 30
0.0
  0
VERTEX
  5
1EB
330
1D4
100
AcDbEntity
  8
Ｓ_１_１
  6
CONTINUOUS
 62
     3
100
AcDbVertex
100
AcDb2dVertex
 10
617.4336739999999
 20
541.577855
 30
0.0
  0
VERTEX
  5
1EC
330
1D4
100
AcDbEntity
  8
Ｓ_１_１
  6
CONTINUOUS
 62
     3
100
AcDbVertex
100
AcDb2dVertex
 10
616.7888879999998
 20
541.344161
 30
0.0
  0
VERTEX
  5
1ED
330
1D4
100
AcDbEntity
  8
Ｓ_１_１
  6
CONTINUOUS
 62
     3
100
AcDbVertex
100
AcDb2dVertex
 10
616.1698329999999
 20
541.0621840000001
 30
0.0
  0
VERTEX
  5
1EE
330
1D4
100
AcDbEntity
  8
Ｓ_１_１
  6
CONTINUOUS
 62
     3
100
AcDbVertex
100
AcDb2dVertex
 10
615.5812209999999
 20
540.73407
 30
0.0
  0
VERTEX
  5
1EF
330
1D4
100
AcDbEntity
  8
Ｓ_１_１
  6
CONTINUOUS
 62
     3
100
AcDbVertex
100
AcDb2dVertex
 10
615.0275309999998
 20
540.3623160000002
 30
0.0
  0
VERTEX
  5
1F0
330
1D4
100
AcDbEntity
  8
Ｓ_１_１
  6
CONTINUOUS
 62
     3
100
AcDbVertex
100
AcDb2dVertex
 10
614.5129769999999
 20
539.949752
 30
0.0
  0
VERTEX
  5
1F1
330
1D4
100
AcDbEntity
  8
Ｓ_１_１
  6
CONTINUOUS
 62
     3
100
AcDbVertex
100
AcDb2dVertex
 10
614.0414749999999
 20
539.4995180000001
 30
0.0
  0
VERTEX
  5
1F2
330
1D4
100
AcDbEntity
  8
Ｓ_１_１
  6
CONTINUOUS
 62
     3
100
AcDbVertex
100
AcDb2dVertex
 10
613.6166129999999
 20
539.0150390000001
 30
0.0
  0
VERTEX
  5
1F3
330
1D4
100
AcDbEntity
  8
Ｓ_１_１
  6
CONTINUOUS
 62
     3
100
AcDbVertex
100
AcDb2dVertex
 10
613.2416259999999
 20
538.5000030000001
 30
0.0
  0
VERTEX
  5
1F4
330
1D4
100
AcDbEntity
  8
Ｓ_１_１
  6
CONTINUOUS
 62
     3
100
AcDbVertex
100
AcDb2dVertex
 10
612.9193659999999
 20
537.9583300000002
 30
0.0
  0
VERTEX
  5
1F5
330
1D4
100
AcDbEntity
  8
Ｓ_１_１
  6
CONTINUOUS
 62
     3
100
AcDbVertex
100
AcDb2dVertex
 10
612.6522869999999
 20
537.394143
 30
0.0
  0
VERTEX
  5
1F6
330
1D4
100
AcDbEntity
  8
Ｓ_１_１
  6
CONTINUOUS
 62
     3
100
AcDbVertex
100
AcDb2dVertex
 10
612.4424209999999
 20
536.811735
 30
0.0
  0
VERTEX
  5
1F7
330
1D4
100
AcDbEntity
  8
Ｓ_１_１
  6
CONTINUOUS
 62
     3
100
AcDbVertex
100
AcDb2dVertex
 10
612.2913659999999
 20
536.2155380000002
 30
0.0
  0
VERTEX
  5
1F8
330
1D4
100
AcDbEntity
  8
Ｓ_１_１
  6
CONTINUOUS
 62
     3
100
AcDbVertex
100
AcDb2dVertex
 10
612.2002699999998
 20
535.6100900000001
 30
0.0
  0
VERTEX
  5
1F9
330
1D4
100
AcDbEntity
  8
Ｓ_１_１
  6
CONTINUOUS
 62
     3
100
AcDbVertex
100
AcDb2dVertex
 10
612.1698279999998
 20
534.9999990000001
 30
0.0
  0
VERTEX
  5
1FA
330
1D4
100
AcDbEntity
  8
Ｓ_１_１
  6
CONTINUOUS
 62
     3
100
AcDbVertex
100
AcDb2dVertex
 10
612.2002699999998
 20
534.389909
 30
0.0
  0
VERTEX
  5
1FB
330
1D4
100
AcDbEntity
  8
Ｓ_１_１
  6
CONTINUOUS
 62
     3
100
AcDbVertex
100
AcDb2dVertex
 10
612.2913659999999
 20
533.7844610000002
 30
0.0
  0
VERTEX
  5
1FC
330
1D4
100
AcDbEntity
  8
Ｓ_１_１
  6
CONTINUOUS
 62
     3
100
AcDbVertex
100
AcDb2dVertex
 10
612.4424209999999
 20
533.1882640000001
 30
0.0
  0
VERTEX
  5
1FD
330
1D4
100
AcDbEntity
  8
Ｓ_１_１
  6
CONTINUOUS
 62
     3
100
AcDbVertex
100
AcDb2dVertex
 10
612.6522869999999
 20
532.6058560000001
 30
0.0
  0
VERTEX
  5
1FE
330
1D4
100
AcDbEntity
  8
Ｓ_１_１
  6
CONTINUOUS
 62
     3
100
AcDbVertex
100
AcDb2dVertex
 10
612.9193659999999
 20
532.0416680000001
 30
0.0
  0
VERTEX
  5
1FF
330
1D4
100
AcDbEntity
  8
Ｓ_１_１
  6
CONTINUOUS
 62
     3
100
AcDbVertex
100
AcDb2dVertex
 10
613.2416259999999
 20
531.499996
 30
0.0
  0
VERTEX
  5
200
330
1D4
100
AcDbEntity
  8
Ｓ_１_１
  6
CONTINUOUS
 62
     3
100
AcDbVertex
100
AcDb2dVertex
 10
613.6166129999999
 20
530.98496
 30
0.0
  0
VERTEX
  5
201
330
1D4
100
AcDbEntity
  8
Ｓ_１_１
  6
CONTINUOUS
 62
     3
100
AcDbVertex
100
AcDb2dVertex
 10
614.0414749999999
 20
530.500481
 30
0.0
  0
VERTEX
  5
202
330
1D4
100
AcDbEntity
  8
Ｓ_１_１
  6
CONTINUOUS
 62
     3
100
AcDbVertex
100
AcDb2dVertex
 10
614.5129769999999
 20
530.0502470000001
 30
0.0
  0
VERTEX
  5
203
330
1D4
100
AcDbEntity
  8
Ｓ_１_１
  6
CONTINUOUS
 62
     3
100
AcDbVertex
100
AcDb2dVertex
 10
615.0275309999998
 20
529.6376830000002
 30
0.0
  0
VERTEX
  5
204
330
1D4
100
AcDbEntity
  8
Ｓ_１_１
  6
CONTINUOUS
 62
     3
100
AcDbVertex
100
AcDb2dVertex
 10
615.5812209999999
 20
529.2659290000001
 30
0.0
  0
VERTEX
  5
205
330
1D4
100
AcDbEntity
  8
Ｓ_１_１
  6
CONTINUOUS
 62
     3
100
AcDbVertex
100
AcDb2dVertex
 10
616.1698329999999
 20
528.937815
 30
0.0
  0
VERTEX
  5
206
330
1D4
100
AcDbEntity
  8
Ｓ_１_１
  6
CONTINUOUS
 62
     3
100
AcDbVertex
100
AcDb2dVertex
 10
616.7888879999998
 20
528.6558380000001
 30
0.0
  0
VERTEX
  5
207
330
1D4
100
AcDbEntity
  8
Ｓ_１_１
  6
CONTINUOUS
 62
     3
100
AcDbVertex
100
AcDb2dVertex
 10
617.4336739999999
 20
528.4221440000001
 30
0.0
  0
VERTEX
  5
208
330
1D4
100
AcDbEntity
  8
Ｓ_１_１
  6
CONTINUOUS
 62
     3
100
AcDbVertex
100
AcDb2dVertex
 10
618.0992839999999
 20
528.238511
 30
0.0
  0
VERTEX
  5
209
330
1D4
100
AcDbEntity
  8
Ｓ_１_１
  6
CONTINUOUS
 62
     3
100
AcDbVertex
100
AcDb2dVertex
 10
618.7806519999999
 20
528.106338
 30
0.0
  0
VERTEX
  5
20A
330
1D4
100
AcDbEntity
  8
Ｓ_１_１
  6
CONTINUOUS
 62
     3
100
AcDbVertex
100
AcDb2dVertex
 10
619.4725919999998
 20
528.0266290000002
 30
0.0
  0
VERTEX
  5
20B
330
1D4
100
AcDbEntity
  8
Ｓ_１_１
  6
CONTINUOUS
 62
     3
100
AcDbVertex
100
AcDb2dVertex
 10
620.1698389999999
 20
527.999992
 30
0.0
  0
VERTEX
  5
20C
330
1D4
100
AcDbEntity
  8
Ｓ_１_１
  6
CONTINUOUS
 62
     3
100
AcDbVertex
100
AcDb2dVertex
 10
620.8670859999999
 20
528.0266290000002
 30
0.0
  0
VERTEX
  5
20D
330
1D4
100
AcDbEntity
  8
Ｓ_１_１
  6
CONTINUOUS
 62
     3
100
AcDbVertex
100
AcDb2dVertex
 10
621.5590259999999
 20
528.106338
 30
0.0
  0
VERTEX
  5
20E
330
1D4
100
AcDbEntity
  8
Ｓ_１_１
  6
CONTINUOUS
 62
     3
100
AcDbVertex
100
AcDb2dVertex
 10
622.2403939999999
 20
528.238511
 30
0.0
  0
VERTEX
  5
20F
330
1D4
100
AcDbEntity
  8
Ｓ_１_１
  6
CONTINUOUS
 62
     3
100
AcDbVertex
100
AcDb2dVertex
 10
622.9060039999998
 20
528.4221440000001
 30
0.0
  0
VERTEX
  5
210
330
1D4
100
AcDbEntity
  8
Ｓ_１_１
  6
CONTINUOUS
 62
     3
100
AcDbVertex
100
AcDb2dVertex
 10
623.5507899999999
 20
528.6558380000001
 30
0.0
  0
VERTEX
  5
211
330
1D4
100
AcDbEntity
  8
Ｓ_１_１
  6
CONTINUOUS
 62
     3
100
AcDbVertex
100
AcDb2dVertex
 10
624.1698449999999
 20
528.937815
 30
0.0
  0
VERTEX
  5
212
330
1D4
100
AcDbEntity
  8
Ｓ_１_１
  6
CONTINUOUS
 62
     3
100
AcDbVertex
100
AcDb2dVertex
 10
624.7584569999999
 20
529.2659290000001
 30
0.0
  0
VERTEX
  5
213
330
1D4
100
AcDbEntity
  8
Ｓ_１_１
  6
CONTINUOUS
 62
     3
100
AcDbVertex
100
AcDb2dVertex
 10
625.3121469999999
 20
529.6376830000002
 30
0.0
  0
VERTEX
  5
214
330
1D4
100
AcDbEntity
  8
Ｓ_１_１
  6
CONTINUOUS
 62
     3
100
AcDbVertex
100
AcDb2dVertex
 10
625.8267009999998
 20
530.0502470000001
 30
0.0
  0
VERTEX
  5
215
330
1D4
100
AcDbEntity
  8
Ｓ_１_１
  6
CONTINUOUS
 62
     3
100
AcDbVertex
100
AcDb2dVertex
 10
626.2982029999998
 20
530.500481
 30
0.0
  0
VERTEX
  5
216
330
1D4
100
AcDbEntity
  8
Ｓ_１_１
  6
CONTINUOUS
 62
     3
100
AcDbVertex
100
AcDb2dVertex
 10
626.7230649999999
 20
530.98496
 30
0.0
  0
VERTEX
  5
217
330
1D4
100
AcDbEntity
  8
Ｓ_１_１
  6
CONTINUOUS
 62
     3
100
AcDbVertex
100
AcDb2dVertex
 10
627.0980519999998
 20
531.499996
 30
0.0
  0
VERTEX
  5
218
330
1D4
100
AcDbEntity
  8
Ｓ_１_１
  6
CONTINUOUS
 62
     3
100
AcDbVertex
100
AcDb2dVertex
 10
627.4203119999999
 20
532.0416680000001
 30
0.0
  0
VERTEX
  5
219
330
1D4
100
AcDbEntity
  8
Ｓ_１_１
  6
CONTINUOUS
 62
     3
100
AcDbVertex
100
AcDb2dVertex
 10
627.6873909999998
 20
532.6058560000001
 30
0.0
  0
VERTEX
  5
21A
330
1D4
100
AcDbEntity
  8
Ｓ_１_１
  6
CONTINUOUS
 62
     3
100
AcDbVertex
100
AcDb2dVertex
 10
627.8972569999999
 20
533.1882640000001
 30
0.0
  0
VERTEX
  5
21B
330
1D4
100
AcDbEntity
  8
Ｓ_１_１
  6
CONTINUOUS
 62
     3
100
AcDbVertex
100
AcDb2dVertex
 10
628.0483119999999
 20
533.7844610000002
 30
0.0
  0
VERTEX
  5
21C
330
1D4
100
AcDbEntity
  8
Ｓ_１_１
  6
CONTINUOUS
 62
     3
100
AcDbVertex
100
AcDb2dVertex
 10
628.1394079999999
 20
534.389909
 30
0.0
  0
VERTEX
  5
21D
330
1D4
100
AcDbEntity
  8
Ｓ_１_１
  6
CONTINUOUS
 62
     3
100
AcDbVertex
100
AcDb2dVertex
 10
628.1698499999999
 20
534.9999990000001
 30
0.0
  0
SEQEND
  5
21E
330
1D4
100
AcDbEntity
  8
Ｓ_１_１
  6
CONTINUOUS
 62
     3
  0
POLYLINE
  5
21F
330
1F
100
AcDbEntity
  8
Ｓ_１_１
  6
CONTINUOUS
 62
     3
100
AcDb2dPolyline
 66
     1
 10
0.0
 20
0.0
 30
0.0
 70
   128
  0
VERTEX
  5
220
330
21F
100
AcDbEntity
  8
Ｓ_１_１
  6
CONTINUOUS
 62
     3
100
AcDbVertex
100
AcDb2dVertex
 10
630.1698579999999
 20
592.9999910000001
 30
0.0
  0
VERTEX
  5
221
330
21F
100
AcDbEntity
  8
Ｓ_１_１
  6
CONTINUOUS
 62
     3
100
AcDbVertex
100
AcDb2dVertex
 10
630.2512859999998
 20
591.861472
 30
0.0
  0
VERTEX
  5
222
330
21F
100
AcDbEntity
  8
Ｓ_１_１
  6
CONTINUOUS
 62
     3
100
AcDbVertex
100
AcDb2dVertex
 10
630.4939129999999
 20
590.7461310000001
 30
0.0
  0
VERTEX
  5
223
330
21F
100
AcDbEntity
  8
Ｓ_１_１
  6
CONTINUOUS
 62
     3
100
AcDbVertex
100
AcDb2dVertex
 10
630.8927989999999
 20
589.6766709999999
 30
0.0
  0
VERTEX
  5
224
330
21F
100
AcDbEntity
  8
Ｓ_１_１
  6
CONTINUOUS
 62
     3
100
AcDbVertex
100
AcDb2dVertex
 10
631.4398249999999
 20
588.6748640000001
 30
0.0
  0
VERTEX
  5
225
330
21F
100
AcDbEntity
  8
Ｓ_１_１
  6
CONTINUOUS
 62
     3
100
AcDbVertex
100
AcDb2dVertex
 10
632.1238539999998
 20
587.7611040000002
 30
0.0
  0
VERTEX
  5
226
330
21F
100
AcDbEntity
  8
Ｓ_１_１
  6
CONTINUOUS
 62
     3
100
AcDbVertex
100
AcDb2dVertex
 10
632.9309619999999
 20
586.9539930000001
 30
0.0
  0
VERTEX
  5
227
330
21F
100
AcDbEntity
  8
Ｓ_１_１
  6
CONTINUOUS
 62
     3
100
AcDbVertex
100
AcDb2dVertex
 10
633.8447179999998
 20
586.2699600000001
 30
0.0
  0
VERTEX
  5
228
330
21F
100
AcDbEntity
  8
Ｓ_１_１
  6
CONTINUOUS
 62
     3
100
AcDbVertex
100
AcDb2dVertex
 10
634.8465209999998
 20
585.7229300000001
 30
0.0
  0
VERTEX
  5
229
330
21F
100
AcDbEntity
  8
Ｓ_１_１
  6
CONTINUOUS
 62
     3
100
AcDbVertex
100
AcDb2dVertex
 10
635.9159769999999
 20
585.3240410000001
 30
0.0
  0
VERTEX
  5
22A
330
21F
100
AcDbEntity
  8
Ｓ_１_１
  6
CONTINUOUS
 62
     3
100
AcDbVertex
100
AcDb2dVertex
 10
637.0313149999998
 20
585.0814110000001
 30
0.0
  0
VERTEX
  5
22B
330
21F
100
AcDbEntity
  8
Ｓ_１_１
  6
CONTINUOUS
 62
     3
100
AcDbVertex
100
AcDb2dVertex
 10
638.1698309999998
 20
584.99998
 30
0.0
  0
VERTEX
  5
22C
330
21F
100
AcDbEntity
  8
Ｓ_１_１
  6
CONTINUOUS
 62
     3
100
AcDbVertex
100
AcDb2dVertex
 10
639.3083469999999
 20
585.0814050000001
 30
0.0
  0
VERTEX
  5
22D
330
21F
100
AcDbEntity
  8
Ｓ_１_１
  6
CONTINUOUS
 62
     3
100
AcDbVertex
100
AcDb2dVertex
 10
640.4236869999999
 20
585.32403
 30
0.0
  0
VERTEX
  5
22E
330
21F
100
AcDbEntity
  8
Ｓ_１_１
  6
CONTINUOUS
 62
     3
100
AcDbVertex
100
AcDb2dVertex
 10
641.4931449999999
 20
585.7229150000001
 30
0.0
  0
VERTEX
  5
22F
330
21F
100
AcDbEntity
  8
Ｓ_１_１
  6
CONTINUOUS
 62
     3
100
AcDbVertex
100
AcDb2dVertex
 10
642.4949509999999
 20
586.269939
 30
0.0
  0
VERTEX
  5
230
330
21F
100
AcDbEntity
  8
Ｓ_１_１
  6
CONTINUOUS
 62
     3
100
AcDbVertex
100
AcDb2dVertex
 10
643.4087099999999
 20
586.953968
 30
0.0
  0
VERTEX
  5
231
330
21F
100
AcDbEntity
  8
Ｓ_１_１
  6
CONTINUOUS
 62
     3
100
AcDbVertex
100
AcDb2dVertex
 10
644.2158219999999
 20
587.7610750000001
 30
0.0
  0
VERTEX
  5
232
330
21F
100
AcDbEntity
  8
Ｓ_１_１
  6
CONTINUOUS
 62
     3
100
AcDbVertex
100
AcDb2dVertex
 10
644.8998549999999
 20
588.6748320000002
 30
0.0
  0
VERTEX
  5
233
330
21F
100
AcDbEntity
  8
Ｓ_１_１
  6
CONTINUOUS
 62
     3
100
AcDbVertex
100
AcDb2dVertex
 10
645.4468849999998
 20
589.6766360000001
 30
0.0
  0
VERTEX
  5
234
330
21F
100
AcDbEntity
  8
Ｓ_１_１
  6
CONTINUOUS
 62
     3
100
AcDbVertex
100
AcDb2dVertex
 10
645.8457769999999
 20
590.7460940000001
 30
0.0
  0
VERTEX
  5
235
330
21F
100
AcDbEntity
  8
Ｓ_１_１
  6
CONTINUOUS
 62
     3
100
AcDbVertex
100
AcDb2dVertex
 10
646.0884089999998
 20
591.861435
 30
0.0
  0
VERTEX
  5
236
330
21F
100
AcDbEntity
  8
Ｓ_１_１
  6
CONTINUOUS
 62
     3
100
AcDbVertex
100
AcDb2dVertex
 10
646.1698419999999
 20
592.999953
 30
0.0
  0
SEQEND
  5
237
330
21F
100
AcDbEntity
  8
Ｓ_１_１
  6
CONTINUOUS
 62
     3
  0
POLYLINE
  5
238
330
1F
100
AcDbEntity
  8
Ｓ_１_１
  6
CONTINUOUS
 62
     3
100
AcDb2dPolyline
 66
     1
 10
0.0
 20
0.0
 30
0.0
 70
   128
  0
VERTEX
  5
239
330
238
100
AcDbEntity
  8
Ｓ_１_１
  6
CONTINUOUS
 62
     3
100
AcDbVertex
100
AcDb2dVertex
 10
612.2325759999999
 20
594.0000110000001
 30
0.0
  0
VERTEX
  5
23A
330
238
100
AcDbEntity
  8
Ｓ_１_１
  6
CONTINUOUS
 62
     3
100
AcDbVertex
100
AcDb2dVertex
 10
612.1703819999999
 20
592.9058130000001
 30
0.0
  0
VERTEX
  5
23B
330
238
100
AcDbEntity
  8
Ｓ_１_１
  6
CONTINUOUS
 62
     3
100
AcDbVertex
100
AcDb2dVertex
 10
612.2583199999999
 20
591.813382
 30
0.0
  0
VERTEX
  5
23C
330
238
100
AcDbEntity
  8
Ｓ_１_１
  6
CONTINUOUS
 62
     3
100
AcDbVertex
100
AcDb2dVertex
 10
612.4947379999999
 20
590.743221
 30
0.0
  0
VERTEX
  5
23D
330
238
100
AcDbEntity
  8
Ｓ_１_１
  6
CONTINUOUS
 62
     3
100
AcDbVertex
100
AcDb2dVertex
 10
612.8752009999998
 20
589.7154150000001
 30
0.0
  0
VERTEX
  5
23E
330
238
100
AcDbEntity
  8
Ｓ_１_１
  6
CONTINUOUS
 62
     3
100
AcDbVertex
100
AcDb2dVertex
 10
613.3925679999999
 20
588.7492520000001
 30
0.0
  0
VERTEX
  5
23F
330
238
100
AcDbEntity
  8
Ｓ_１_１
  6
CONTINUOUS
 62
     3
100
AcDbVertex
100
AcDb2dVertex
 10
614.0371289999998
 20
587.8628659999999
 30
0.0
  0
VERTEX
  5
240
330
238
100
AcDbEntity
  8
Ｓ_１_１
  6
CONTINUOUS
 62
     3
100
AcDbVertex
100
AcDb2dVertex
 10
614.7967869999999
 20
587.072893
 30
0.0
  0
VERTEX
  5
241
330
238
100
AcDbEntity
  8
Ｓ_１_１
  6
CONTINUOUS
 62
     3
100
AcDbVertex
100
AcDb2dVertex
 10
615.6572849999999
 20
586.3941580000001
 30
0.0
  0
VERTEX
  5
242
330
238
100
AcDbEntity
  8
Ｓ_１_１
  6
CONTINUOUS
 62
     3
100
AcDbVertex
100
AcDb2dVertex
 10
616.6024729999999
 20
585.839399
 30
0.0
  0
VERTEX
  5
243
330
238
100
AcDbEntity
  8
Ｓ_１_１
  6
CONTINUOUS
 62
     3
100
AcDbVertex
100
AcDb2dVertex
 10
617.6146129999998
 20
585.419028
 30
0.0
  0
VERTEX
  5
244
330
238
100
AcDbEntity
  8
Ｓ_１_１
  6
CONTINUOUS
 62
     3
100
AcDbVertex
100
AcDb2dVertex
 10
618.6747079999999
 20
585.1409350000001
 30
0.0
  0
VERTEX
  5
245
330
238
100
AcDbEntity
  8
Ｓ_１_１
  6
CONTINUOUS
 62
     3
100
AcDbVertex
100
AcDb2dVertex
 10
619.7628639999999
 20
585.010338
 30
0.0
  0
VERTEX
  5
246
330
238
100
AcDbEntity
  8
Ｓ_１_１
  6
CONTINUOUS
 62
     3
100
AcDbVertex
100
AcDb2dVertex
 10
620.8586569999999
 20
585.029689
 30
0.0
  0
VERTEX
  5
247
330
238
100
AcDbEntity
  8
Ｓ_１_１
  6
CONTINUOUS
 62
     3
100
AcDbVertex
100
AcDb2dVertex
 10
621.9415239999998
 20
585.198625
 30
0.0
  0
VERTEX
  5
248
330
238
100
AcDbEntity
  8
Ｓ_１_１
  6
CONTINUOUS
 62
     3
100
AcDbVertex
100
AcDb2dVertex
 10
622.9911389999999
 20
585.513974
 30
0.0
  0
VERTEX
  5
249
330
238
100
AcDbEntity
  8
Ｓ_１_１
  6
CONTINUOUS
 62
     3
100
AcDbVertex
100
AcDb2dVertex
 10
623.9878049999999
 20
585.9698190000001
 30
0.0
  0
VERTEX
  5
24A
330
238
100
AcDbEntity
  8
Ｓ_１_１
  6
CONTINUOUS
 62
     3
100
AcDbVertex
100
AcDb2dVertex
 10
624.9128169999999
 20
586.557605
 30
0.0
  0
VERTEX
  5
24B
330
238
100
AcDbEntity
  8
Ｓ_１_１
  6
CONTINUOUS
 62
     3
100
AcDbVertex
100
AcDb2dVertex
 10
625.7488139999999
 20
587.2662990000001
 30
0.0
  0
VERTEX
  5
24C
330
238
100
AcDbEntity
  8
Ｓ_１_１
  6
CONTINUOUS
 62
     3
100
AcDbVertex
100
AcDb2dVertex
 10
626.4801059999999
 20
588.082602
 30
0.0
  0
VERTEX
  5
24D
330
238
100
AcDbEntity
  8
Ｓ_１_１
  6
CONTINUOUS
 62
     3
100
AcDbVertex
100
AcDb2dVertex
 10
627.0929679999999
 20
588.9911930000001
 30
0.0
  0
VERTEX
  5
24E
330
238
100
AcDbEntity
  8
Ｓ_１_１
  6
CONTINUOUS
 62
     3
100
AcDbVertex
100
AcDb2dVertex
 10
627.5758999999998
 20
589.9750200000001
 30
0.0
  0
VERTEX
  5
24F
330
238
100
AcDbEntity
  8
Ｓ_１_１
  6
CONTINUOUS
 62
     3
100
AcDbVertex
100
AcDb2dVertex
 10
627.9198359999999
 20
591.015619
 30
0.0
  0
VERTEX
  5
250
330
238
100
AcDbEntity
  8
Ｓ_１_１
  6
CONTINUOUS
 62
     3
100
AcDbVertex
100
AcDb2dVertex
 10
628.1071019999998
 20
591.999971
 30
0.0
  0
VERTEX
  5
251
330
238
100
AcDbEntity
  8
Ｓ_１_１
  6
CONTINUOUS
 62
     3
100
AcDbVertex
100
AcDb2dVertex
 10
628.1698499999999
 20
593.00001
 30
0.0
  0
SEQEND
  5
252
330
238
100
AcDbEntity
  8
Ｓ_１_１
  6
CONTINUOUS
 62
     3
  0
POLYLINE
  5
253
330
1F
100
AcDbEntity
  8
Ｓ_１_１
  6
CONTINUOUS
 62
     3
100
AcDb2dPolyline
 66
     1
 10
0.0
 20
0.0
 30
0.0
 70
   128
  0
VERTEX
  5
254
330
253
100
AcDbEntity
  8
Ｓ_１_１
  6
CONTINUOUS
 62
     3
100
AcDbVertex
100
AcDb2dVertex
 10
646.1698419999999
 20
594.9999990000001
 30
0.0
  0
VERTEX
  5
255
330
253
100
AcDbEntity
  8
Ｓ_１_１
  6
CONTINUOUS
 62
     3
100
AcDbVertex
100
AcDb2dVertex
 10
646.1393999999999
 20
595.697244
 30
0.0
  0
VERTEX
  5
256
330
253
100
AcDbEntity
  8
Ｓ_１_１
  6
CONTINUOUS
 62
     3
100
AcDbVertex
100
AcDb2dVertex
 10
646.0483049999999
 20
596.389183
 30
0.0
  0
VERTEX
  5
257
330
253
100
AcDbEntity
  8
Ｓ_１_１
  6
CONTINUOUS
 62
     3
100
AcDbVertex
100
AcDb2dVertex
 10
645.8972489999999
 20
597.070549
 30
0.0
  0
VERTEX
  5
258
330
253
100
AcDbEntity
  8
Ｓ_１_１
  6
CONTINUOUS
 62
     3
100
AcDbVertex
100
AcDb2dVertex
 10
645.6873839999998
 20
597.736157
 30
0.0
  0
VERTEX
  5
259
330
253
100
AcDbEntity
  8
Ｓ_１_１
  6
CONTINUOUS
 62
     3
100
AcDbVertex
100
AcDb2dVertex
 10
645.4203049999999
 20
598.3809410000001
 30
0.0
  0
VERTEX
  5
25A
330
253
100
AcDbEntity
  8
Ｓ_１_１
  6
CONTINUOUS
 62
     3
100
AcDbVertex
100
AcDb2dVertex
 10
645.0980469999998
 20
598.9999950000001
 30
0.0
  0
VERTEX
  5
25B
330
253
100
AcDbEntity
  8
Ｓ_１_１
  6
CONTINUOUS
 62
     3
100
AcDbVertex
100
AcDb2dVertex
 10
644.7230599999999
 20
599.588606
 30
0.0
  0
VERTEX
  5
25C
330
253
100
AcDbEntity
  8
Ｓ_１_１
  6
CONTINUOUS
 62
     3
100
AcDbVertex
100
AcDb2dVertex
 10
644.2981999999998
 20
600.142294
 30
0.0
  0
VERTEX
  5
25D
330
253
100
AcDbEntity
  8
Ｓ_１_１
  6
CONTINUOUS
 62
     3
100
AcDbVertex
100
AcDb2dVertex
 10
643.8266989999998
 20
600.656847
 30
0.0
  0
VERTEX
  5
25E
330
253
100
AcDbEntity
  8
Ｓ_１_１
  6
CONTINUOUS
 62
     3
100
AcDbVertex
100
AcDb2dVertex
 10
643.3121459999999
 20
601.128348
 30
0.0
  0
VERTEX
  5
25F
330
253
100
AcDbEntity
  8
Ｓ_１_１
  6
CONTINUOUS
 62
     3
100
AcDbVertex
100
AcDb2dVertex
 10
642.7584569999999
 20
601.5532090000002
 30
0.0
  0
VERTEX
  5
260
330
253
100
AcDbEntity
  8
Ｓ_１_１
  6
CONTINUOUS
 62
     3
100
AcDbVertex
100
AcDb2dVertex
 10
642.1698459999999
 20
601.928195
 30
0.0
  0
VERTEX
  5
261
330
253
100
AcDbEntity
  8
Ｓ_１_１
  6
CONTINUOUS
 62
     3
100
AcDbVertex
100
AcDb2dVertex
 10
641.5507929999999
 20
602.250454
 30
0.0
  0
VERTEX
  5
262
330
253
100
AcDbEntity
  8
Ｓ_１_１
  6
CONTINUOUS
 62
     3
100
AcDbVertex
100
AcDb2dVertex
 10
640.9060089999999
 20
602.5175320000001
 30
0.0
  0
VERTEX
  5
263
330
253
100
AcDbEntity
  8
Ｓ_１_１
  6
CONTINUOUS
 62
     3
100
AcDbVertex
100
AcDb2dVertex
 10
640.2404009999999
 20
602.727398
 30
0.0
  0
VERTEX
  5
264
330
253
100
AcDbEntity
  8
Ｓ_１_１
  6
CONTINUOUS
 62
     3
100
AcDbVertex
100
AcDb2dVertex
 10
639.5590339999999
 20
602.878453
 30
0.0
  0
VERTEX
  5
265
330
253
100
AcDbEntity
  8
Ｓ_１_１
  6
CONTINUOUS
 62
     3
100
AcDbVertex
100
AcDb2dVertex
 10
638.8670949999998
 20
602.969548
 30
0.0
  0
VERTEX
  5
266
330
253
100
AcDbEntity
  8
Ｓ_１_１
  6
CONTINUOUS
 62
     3
100
AcDbVertex
100
AcDb2dVertex
 10
638.1698499999999
 20
602.9999910000001
 30
0.0
  0
VERTEX
  5
267
330
253
100
AcDbEntity
  8
Ｓ_１_１
  6
CONTINUOUS
 62
     3
100
AcDbVertex
100
AcDb2dVertex
 10
637.4726049999998
 20
602.969548
 30
0.0
  0
VERTEX
  5
268
330
253
100
AcDbEntity
  8
Ｓ_１_１
  6
CONTINUOUS
 62
     3
100
AcDbVertex
100
AcDb2dVertex
 10
636.7806659999999
 20
602.878453
 30
0.0
  0
VERTEX
  5
269
330
253
100
AcDbEntity
  8
Ｓ_１_１
  6
CONTINUOUS
 62
     3
100
AcDbVertex
100
AcDb2dVertex
 10
636.0992999999999
 20
602.727398
 30
0.0
  0
VERTEX
  5
26A
330
253
100
AcDbEntity
  8
Ｓ_１_１
  6
CONTINUOUS
 62
     3
100
AcDbVertex
100
AcDb2dVertex
 10
635.4336919999998
 20
602.5175320000001
 30
0.0
  0
VERTEX
  5
26B
330
253
100
AcDbEntity
  8
Ｓ_１_１
  6
CONTINUOUS
 62
     3
100
AcDbVertex
100
AcDb2dVertex
 10
634.7889069999999
 20
602.250454
 30
0.0
  0
VERTEX
  5
26C
330
253
100
AcDbEntity
  8
Ｓ_１_１
  6
CONTINUOUS
 62
     3
100
AcDbVertex
100
AcDb2dVertex
 10
634.1698539999999
 20
601.928195
 30
0.0
  0
VERTEX
  5
26D
330
253
100
AcDbEntity
  8
Ｓ_１_１
  6
CONTINUOUS
 62
     3
100
AcDbVertex
100
AcDb2dVertex
 10
633.5812429999999
 20
601.5532090000002
 30
0.0
  0
VERTEX
  5
26E
330
253
100
AcDbEntity
  8
Ｓ_１_１
  6
CONTINUOUS
 62
     3
100
AcDbVertex
100
AcDb2dVertex
 10
633.0275539999999
 20
601.128348
 30
0.0
  0
VERTEX
  5
26F
330
253
100
AcDbEntity
  8
Ｓ_１_１
  6
CONTINUOUS
 62
     3
100
AcDbVertex
100
AcDb2dVertex
 10
632.5130009999999
 20
600.656847
 30
0.0
  0
VERTEX
  5
270
330
253
100
AcDbEntity
  8
Ｓ_１_１
  6
CONTINUOUS
 62
     3
100
AcDbVertex
100
AcDb2dVertex
 10
632.0415009999999
 20
600.142294
 30
0.0
  0
VERTEX
  5
271
330
253
100
AcDbEntity
  8
Ｓ_１_１
  6
CONTINUOUS
 62
     3
100
AcDbVertex
100
AcDb2dVertex
 10
631.6166399999998
 20
599.588606
 30
0.0
  0
VERTEX
  5
272
330
253
100
AcDbEntity
  8
Ｓ_１_１
  6
CONTINUOUS
 62
     3
100
AcDbVertex
100
AcDb2dVertex
 10
631.2416539999999
 20
598.9999950000001
 30
0.0
  0
VERTEX
  5
273
330
253
100
AcDbEntity
  8
Ｓ_１_１
  6
CONTINUOUS
 62
     3
100
AcDbVertex
100
AcDb2dVertex
 10
630.9193949999999
 20
598.3809410000001
 30
0.0
  0
VERTEX
  5
274
330
253
100
AcDbEntity
  8
Ｓ_１_１
  6
CONTINUOUS
 62
     3
100
AcDbVertex
100
AcDb2dVertex
 10
630.6523159999999
 20
597.736157
 30
0.0
  0
VERTEX
  5
275
330
253
100
AcDbEntity
  8
Ｓ_１_１
  6
CONTINUOUS
 62
     3
100
AcDbVertex
100
AcDb2dVertex
 10
630.4424509999999
 20
597.070549
 30
0.0
  0
VERTEX
  5
276
330
253
100
AcDbEntity
  8
Ｓ_１_１
  6
CONTINUOUS
 62
     3
100
AcDbVertex
100
AcDb2dVertex
 10
630.2913959999998
 20
596.389183
 30
0.0
  0
VERTEX
  5
277
330
253
100
AcDbEntity
  8
Ｓ_１_１
  6
CONTINUOUS
 62
     3
100
AcDbVertex
100
AcDb2dVertex
 10
630.2002999999999
 20
595.697244
 30
0.0
  0
VERTEX
  5
278
330
253
100
AcDbEntity
  8
Ｓ_１_１
  6
CONTINUOUS
 62
     3
100
AcDbVertex
100
AcDb2dVertex
 10
630.1698579999999
 20
594.9999990000001
 30
0.0
  0
VERTEX
  5
279
330
253
100
AcDbEntity
  8
Ｓ_１_１
  6
CONTINUOUS
 62
     3
100
AcDbVertex
100
AcDb2dVertex
 10
630.2002999999999
 20
594.3027529999999
 30
0.0
  0
VERTEX
  5
27A
330
253
100
AcDbEntity
  8
Ｓ_１_１
  6
CONTINUOUS
 62
     3
100
AcDbVertex
100
AcDb2dVertex
 10
630.2913959999998
 20
593.6108140000001
 30
0.0
  0
VERTEX
  5
27B
330
253
100
AcDbEntity
  8
Ｓ_１_１
  6
CONTINUOUS
 62
     3
100
AcDbVertex
100
AcDb2dVertex
 10
630.4424509999999
 20
592.9294480000001
 30
0.0
  0
VERTEX
  5
27C
330
253
100
AcDbEntity
  8
Ｓ_１_１
  6
CONTINUOUS
 62
     3
100
AcDbVertex
100
AcDb2dVertex
 10
630.6523159999999
 20
592.2638400000001
 30
0.0
  0
VERTEX
  5
27D
330
253
100
AcDbEntity
  8
Ｓ_１_１
  6
CONTINUOUS
 62
     3
100
AcDbVertex
100
AcDb2dVertex
 10
630.9193949999999
 20
591.619056
 30
0.0
  0
VERTEX
  5
27E
330
253
100
AcDbEntity
  8
Ｓ_１_１
  6
CONTINUOUS
 62
     3
100
AcDbVertex
100
AcDb2dVertex
 10
631.2416539999999
 20
591.000002
 30
0.0
  0
VERTEX
  5
27F
330
253
100
AcDbEntity
  8
Ｓ_１_１
  6
CONTINUOUS
 62
     3
100
AcDbVertex
100
AcDb2dVertex
 10
631.6166399999998
 20
590.411392
 30
0.0
  0
VERTEX
  5
280
330
253
100
AcDbEntity
  8
Ｓ_１_１
  6
CONTINUOUS
 62
     3
100
AcDbVertex
100
AcDb2dVertex
 10
632.0415009999999
 20
589.8577030000001
 30
0.0
  0
VERTEX
  5
281
330
253
100
AcDbEntity
  8
Ｓ_１_１
  6
CONTINUOUS
 62
     3
100
AcDbVertex
100
AcDb2dVertex
 10
632.5130009999999
 20
589.3431500000002
 30
0.0
  0
VERTEX
  5
282
330
253
100
AcDbEntity
  8
Ｓ_１_１
  6
CONTINUOUS
 62
     3
100
AcDbVertex
100
AcDb2dVertex
 10
633.0275539999999
 20
588.8716490000002
 30
0.0
  0
VERTEX
  5
283
330
253
100
AcDbEntity
  8
Ｓ_１_１
  6
CONTINUOUS
 62
     3
100
AcDbVertex
100
AcDb2dVertex
 10
633.5812429999999
 20
588.4467890000001
 30
0.0
  0
VERTEX
  5
284
330
253
100
AcDbEntity
  8
Ｓ_１_１
  6
CONTINUOUS
 62
     3
100
AcDbVertex
100
AcDb2dVertex
 10
634.1698539999999
 20
588.0718020000002
 30
0.0
  0
VERTEX
  5
285
330
253
100
AcDbEntity
  8
Ｓ_１_１
  6
CONTINUOUS
 62
     3
100
AcDbVertex
100
AcDb2dVertex
 10
634.7889069999999
 20
587.7495430000001
 30
0.0
  0
VERTEX
  5
286
330
253
100
AcDbEntity
  8
Ｓ_１_１
  6
CONTINUOUS
 62
     3
100
AcDbVertex
100
AcDb2dVertex
 10
635.4336919999998
 20
587.482465
 30
0.0
  0
VERTEX
  5
287
330
253
100
AcDbEntity
  8
Ｓ_１_１
  6
CONTINUOUS
 62
     3
100
AcDbVertex
100
AcDb2dVertex
 10
636.0992999999999
 20
587.2725990000001
 30
0.0
  0
VERTEX
  5
288
330
253
100
AcDbEntity
  8
Ｓ_１_１
  6
CONTINUOUS
 62
     3
100
AcDbVertex
100
AcDb2dVertex
 10
636.7806659999999
 20
587.1215440000001
 30
0.0
  0
VERTEX
  5
289
330
253
100
AcDbEntity
  8
Ｓ_１_１
  6
CONTINUOUS
 62
     3
100
AcDbVertex
100
AcDb2dVertex
 10
637.4726049999998
 20
587.0304490000001
 30
0.0
  0
VERTEX
  5
28A
330
253
100
AcDbEntity
  8
Ｓ_１_１
  6
CONTINUOUS
 62
     3
100
AcDbVertex
100
AcDb2dVertex
 10
638.1698499999999
 20
587.000006
 30
0.0
  0
VERTEX
  5
28B
330
253
100
AcDbEntity
  8
Ｓ_１_１
  6
CONTINUOUS
 62
     3
100
AcDbVertex
100
AcDb2dVertex
 10
638.8670949999998
 20
587.0304490000001
 30
0.0
  0
VERTEX
  5
28C
330
253
100
AcDbEntity
  8
Ｓ_１_１
  6
CONTINUOUS
 62
     3
100
AcDbVertex
100
AcDb2dVertex
 10
639.5590339999999
 20
587.1215440000001
 30
0.0
  0
VERTEX
  5
28D
330
253
100
AcDbEntity
  8
Ｓ_１_１
  6
CONTINUOUS
 62
     3
100
AcDbVertex
100
AcDb2dVertex
 10
640.2404009999999
 20
587.2725990000001
 30
0.0
  0
VERTEX
  5
28E
330
253
100
AcDbEntity
  8
Ｓ_１_１
  6
CONTINUOUS
 62
     3
100
AcDbVertex
100
AcDb2dVertex
 10
640.9060089999999
 20
587.482465
 30
0.0
  0
VERTEX
  5
28F
330
253
100
AcDbEntity
  8
Ｓ_１_１
  6
CONTINUOUS
 62
     3
100
AcDbVertex
100
AcDb2dVertex
 10
641.5507929999999
 20
587.7495430000001
 30
0.0
  0
VERTEX
  5
290
330
253
100
AcDbEntity
  8
Ｓ_１_１
  6
CONTINUOUS
 62
     3
100
AcDbVertex
100
AcDb2dVertex
 10
642.1698459999999
 20
588.0718020000002
 30
0.0
  0
VERTEX
  5
291
330
253
100
AcDbEntity
  8
Ｓ_１_１
  6
CONTINUOUS
 62
     3
100
AcDbVertex
100
AcDb2dVertex
 10
642.7584569999999
 20
588.4467890000001
 30
0.0
  0
VERTEX
  5
292
330
253
100
AcDbEntity
  8
Ｓ_１_１
  6
CONTINUOUS
 62
     3
100
AcDbVertex
100
AcDb2dVertex
 10
643.3121459999999
 20
588.8716490000002
 30
0.0
  0
VERTEX
  5
293
330
253
100
AcDbEntity
  8
Ｓ_１_１
  6
CONTINUOUS
 62
     3
100
AcDbVertex
100
AcDb2dVertex
 10
643.8266989999998
 20
589.3431500000002
 30
0.0
  0
VERTEX
  5
294
330
253
100
AcDbEntity
  8
Ｓ_１_１
  6
CONTINUOUS
 62
     3
100
AcDbVertex
100
AcDb2dVertex
 10
644.2981999999998
 20
589.8577030000001
 30
0.0
  0
VERTEX
  5
295
330
253
100
AcDbEntity
  8
Ｓ_１_１
  6
CONTINUOUS
 62
     3
100
AcDbVertex
100
AcDb2dVertex
 10
644.7230599999999
 20
590.411392
 30
0.0
  0
VERTEX
  5
296
330
253
100
AcDbEntity
  8
Ｓ_１_１
  6
CONTINUOUS
 62
     3
100
AcDbVertex
100
AcDb2dVertex
 10
645.0980469999998
 20
591.000002
 30
0.0
  0
VERTEX
  5
297
330
253
100
AcDbEntity
  8
Ｓ_１_１
  6
CONTINUOUS
 62
     3
100
AcDbVertex
100
AcDb2dVertex
 10
645.4203049999999
 20
591.619056
 30
0.0
  0
VERTEX
  5
298
330
253
100
AcDbEntity
  8
Ｓ_１_１
  6
CONTINUOUS
 62
     3
100
AcDbVertex
100
AcDb2dVertex
 10
645.6873839999998
 20
592.2638400000001
 30
0.0
  0
VERTEX
  5
299
330
253
100
AcDbEntity
  8
Ｓ_１_１
  6
CONTINUOUS
 62
     3
100
AcDbVertex
100
AcDb2dVertex
 10
645.8972489999999
 20
592.9294480000001
 30
0.0
  0
VERTEX
  5
29A
330
253
100
AcDbEntity
  8
Ｓ_１_１
  6
CONTINUOUS
 62
     3
100
AcDbVertex
100
AcDb2dVertex
 10
646.0483049999999
 20
593.6108140000001
 30
0.0
  0
VERTEX
  5
29B
330
253
100
AcDbEntity
  8
Ｓ_１_１
  6
CONTINUOUS
 62
     3
100
AcDbVertex
100
AcDb2dVertex
 10
646.1393999999999
 20
594.3027529999999
 30
0.0
  0
VERTEX
  5
29C
330
253
100
AcDbEntity
  8
Ｓ_１_１
  6
CONTINUOUS
 62
     3
100
AcDbVertex
100
AcDb2dVertex
 10
646.1698419999999
 20
594.9999990000001
 30
0.0
  0
SEQEND
  5
29D
330
253
100
AcDbEntity
  8
Ｓ_１_１
  6
CONTINUOUS
 62
     3
  0
POLYLINE
  5
29E
330
1F
100
AcDbEntity
  8
Ｓ_１_１
  6
CONTINUOUS
 62
     3
100
AcDb2dPolyline
 66
     1
 10
0.0
 20
0.0
 30
0.0
 70
   128
  0
VERTEX
  5
29F
330
29E
100
AcDbEntity
  8
Ｓ_１_１
  6
CONTINUOUS
 62
     3
100
AcDbVertex
100
AcDb2dVertex
 10
628.1698499999999
 20
594.9999990000001
 30
0.0
  0
VERTEX
  5
2A0
330
29E
100
AcDbEntity
  8
Ｓ_１_１
  6
CONTINUOUS
 62
     3
100
AcDbVertex
100
AcDb2dVertex
 10
628.1394079999999
 20
595.697244
 30
0.0
  0
VERTEX
  5
2A1
330
29E
100
AcDbEntity
  8
Ｓ_１_１
  6
CONTINUOUS
 62
     3
100
AcDbVertex
100
AcDb2dVertex
 10
628.0483119999999
 20
596.389183
 30
0.0
  0
VERTEX
  5
2A2
330
29E
100
AcDbEntity
  8
Ｓ_１_１
  6
CONTINUOUS
 62
     3
100
AcDbVertex
100
AcDb2dVertex
 10
627.8972569999999
 20
597.070549
 30
0.0
  0
VERTEX
  5
2A3
330
29E
100
AcDbEntity
  8
Ｓ_１_１
  6
CONTINUOUS
 62
     3
100
AcDbVertex
100
AcDb2dVertex
 10
627.6873909999998
 20
597.736157
 30
0.0
  0
VERTEX
  5
2A4
330
29E
100
AcDbEntity
  8
Ｓ_１_１
  6
CONTINUOUS
 62
     3
100
AcDbVertex
100
AcDb2dVertex
 10
627.4203119999999
 20
598.3809410000001
 30
0.0
  0
VERTEX
  5
2A5
330
29E
100
AcDbEntity
  8
Ｓ_１_１
  6
CONTINUOUS
 62
     3
100
AcDbVertex
100
AcDb2dVertex
 10
627.0980519999998
 20
598.9999950000001
 30
0.0
  0
VERTEX
  5
2A6
330
29E
100
AcDbEntity
  8
Ｓ_１_１
  6
CONTINUOUS
 62
     3
100
AcDbVertex
100
AcDb2dVertex
 10
626.7230649999999
 20
599.588606
 30
0.0
  0
VERTEX
  5
2A7
330
29E
100
AcDbEntity
  8
Ｓ_１_１
  6
CONTINUOUS
 62
     3
100
AcDbVertex
100
AcDb2dVertex
 10
626.2982029999998
 20
600.142294
 30
0.0
  0
VERTEX
  5
2A8
330
29E
100
AcDbEntity
  8
Ｓ_１_１
  6
CONTINUOUS
 62
     3
100
AcDbVertex
100
AcDb2dVertex
 10
625.8267009999998
 20
600.656847
 30
0.0
  0
VERTEX
  5
2A9
330
29E
100
AcDbEntity
  8
Ｓ_１_１
  6
CONTINUOUS
 62
     3
100
AcDbVertex
100
AcDb2dVertex
 10
625.3121469999999
 20
601.128348
 30
0.0
  0
VERTEX
  5
2AA
330
29E
100
AcDbEntity
  8
Ｓ_１_１
  6
CONTINUOUS
 62
     3
100
AcDbVertex
100
AcDb2dVertex
 10
624.7584569999999
 20
601.5532090000002
 30
0.0
  0
VERTEX
  5
2AB
330
29E
100
AcDbEntity
  8
Ｓ_１_１
  6
CONTINUOUS
 62
     3
100
AcDbVertex
100
AcDb2dVertex
 10
624.1698449999999
 20
601.928195
 30
0.0
  0
VERTEX
  5
2AC
330
29E
100
AcDbEntity
  8
Ｓ_１_１
  6
CONTINUOUS
 62
     3
100
AcDbVertex
100
AcDb2dVertex
 10
623.5507899999999
 20
602.250454
 30
0.0
  0
VERTEX
  5
2AD
330
29E
100
AcDbEntity
  8
Ｓ_１_１
  6
CONTINUOUS
 62
     3
100
AcDbVertex
100
AcDb2dVertex
 10
622.9060039999998
 20
602.5175320000001
 30
0.0
  0
VERTEX
  5
2AE
330
29E
100
AcDbEntity
  8
Ｓ_１_１
  6
CONTINUOUS
 62
     3
100
AcDbVertex
100
AcDb2dVertex
 10
622.2403939999999
 20
602.727398
 30
0.0
  0
VERTEX
  5
2AF
330
29E
100
AcDbEntity
  8
Ｓ_１_１
  6
CONTINUOUS
 62
     3
100
AcDbVertex
100
AcDb2dVertex
 10
621.5590259999999
 20
602.878453
 30
0.0
  0
VERTEX
  5
2B0
330
29E
100
AcDbEntity
  8
Ｓ_１_１
  6
CONTINUOUS
 62
     3
100
AcDbVertex
100
AcDb2dVertex
 10
620.8670859999999
 20
602.969548
 30
0.0
  0
VERTEX
  5
2B1
330
29E
100
AcDbEntity
  8
Ｓ_１_１
  6
CONTINUOUS
 62
     3
100
AcDbVertex
100
AcDb2dVertex
 10
620.1698389999999
 20
602.9999910000001
 30
0.0
  0
VERTEX
  5
2B2
330
29E
100
AcDbEntity
  8
Ｓ_１_１
  6
CONTINUOUS
 62
     3
100
AcDbVertex
100
AcDb2dVertex
 10
619.4725919999998
 20
602.969548
 30
0.0
  0
VERTEX
  5
2B3
330
29E
100
AcDbEntity
  8
Ｓ_１_１
  6
CONTINUOUS
 62
     3
100
AcDbVertex
100
AcDb2dVertex
 10
618.7806519999999
 20
602.878453
 30
0.0
  0
VERTEX
  5
2B4
330
29E
100
AcDbEntity
  8
Ｓ_１_１
  6
CONTINUOUS
 62
     3
100
AcDbVertex
100
AcDb2dVertex
 10
618.0992839999999
 20
602.727398
 30
0.0
  0
VERTEX
  5
2B5
330
29E
100
AcDbEntity
  8
Ｓ_１_１
  6
CONTINUOUS
 62
     3
100
AcDbVertex
100
AcDb2dVertex
 10
617.4336739999999
 20
602.5175320000001
 30
0.0
  0
VERTEX
  5
2B6
330
29E
100
AcDbEntity
  8
Ｓ_１_１
  6
CONTINUOUS
 62
     3
100
AcDbVertex
100
AcDb2dVertex
 10
616.7888879999998
 20
602.250454
 30
0.0
  0
VERTEX
  5
2B7
330
29E
100
AcDbEntity
  8
Ｓ_１_１
  6
CONTINUOUS
 62
     3
100
AcDbVertex
100
AcDb2dVertex
 10
616.1698329999999
 20
601.928195
 30
0.0
  0
VERTEX
  5
2B8
330
29E
100
AcDbEntity
  8
Ｓ_１_１
  6
CONTINUOUS
 62
     3
100
AcDbVertex
100
AcDb2dVertex
 10
615.5812209999999
 20
601.5532090000002
 30
0.0
  0
VERTEX
  5
2B9
330
29E
100
AcDbEntity
  8
Ｓ_１_１
  6
CONTINUOUS
 62
     3
100
AcDbVertex
100
AcDb2dVertex
 10
615.0275309999998
 20
601.128348
 30
0.0
  0
VERTEX
  5
2BA
330
29E
100
AcDbEntity
  8
Ｓ_１_１
  6
CONTINUOUS
 62
     3
100
AcDbVertex
100
AcDb2dVertex
 10
614.5129769999999
 20
600.656847
 30
0.0
  0
VERTEX
  5
2BB
330
29E
100
AcDbEntity
  8
Ｓ_１_１
  6
CONTINUOUS
 62
     3
100
AcDbVertex
100
AcDb2dVertex
 10
614.0414749999999
 20
600.142294
 30
0.0
  0
VERTEX
  5
2BC
330
29E
100
AcDbEntity
  8
Ｓ_１_１
  6
CONTINUOUS
 62
     3
100
AcDbVertex
100
AcDb2dVertex
 10
613.6166129999999
 20
599.588606
 30
0.0
  0
VERTEX
  5
2BD
330
29E
100
AcDbEntity
  8
Ｓ_１_１
  6
CONTINUOUS
 62
     3
100
AcDbVertex
100
AcDb2dVertex
 10
613.2416259999999
 20
598.9999950000001
 30
0.0
  0
VERTEX
  5
2BE
330
29E
100
AcDbEntity
  8
Ｓ_１_１
  6
CONTINUOUS
 62
     3
100
AcDbVertex
100
AcDb2dVertex
 10
612.9193659999999
 20
598.3809410000001
 30
0.0
  0
VERTEX
  5
2BF
330
29E
100
AcDbEntity
  8
Ｓ_１_１
  6
CONTINUOUS
 62
     3
100
AcDbVertex
100
AcDb2dVertex
 10
612.6522869999999
 20
597.736157
 30
0.0
  0
VERTEX
  5
2C0
330
29E
100
AcDbEntity
  8
Ｓ_１_１
  6
CONTINUOUS
 62
     3
100
AcDbVertex
100
AcDb2dVertex
 10
612.4424209999999
 20
597.070549
 30
0.0
  0
VERTEX
  5
2C1
330
29E
100
AcDbEntity
  8
Ｓ_１_１
  6
CONTINUOUS
 62
     3
100
AcDbVertex
100
AcDb2dVertex
 10
612.2913659999999
 20
596.389183
 30
0.0
  0
VERTEX
  5
2C2
330
29E
100
AcDbEntity
  8
Ｓ_１_１
  6
CONTINUOUS
 62
     3
100
AcDbVertex
100
AcDb2dVertex
 10
612.2002699999998
 20
595.697244
 30
0.0
  0
VERTEX
  5
2C3
330
29E
100
AcDbEntity
  8
Ｓ_１_１
  6
CONTINUOUS
 62
     3
100
AcDbVertex
100
AcDb2dVertex
 10
612.1698279999998
 20
594.9999990000001
 30
0.0
  0
VERTEX
  5
2C4
330
29E
100
AcDbEntity
  8
Ｓ_１_１
  6
CONTINUOUS
 62
     3
100
AcDbVertex
100
AcDb2dVertex
 10
612.2002699999998
 20
594.3027529999999
 30
0.0
  0
VERTEX
  5
2C5
330
29E
100
AcDbEntity
  8
Ｓ_１_１
  6
CONTINUOUS
 62
     3
100
AcDbVertex
100
AcDb2dVertex
 10
612.2913659999999
 20
593.6108140000001
 30
0.0
  0
VERTEX
  5
2C6
330
29E
100
AcDbEntity
  8
Ｓ_１_１
  6
CONTINUOUS
 62
     3
100
AcDbVertex
100
AcDb2dVertex
 10
612.4424209999999
 20
592.9294480000001
 30
0.0
  0
VERTEX
  5
2C7
330
29E
100
AcDbEntity
  8
Ｓ_１_１
  6
CONTINUOUS
 62
     3
100
AcDbVertex
100
AcDb2dVertex
 10
612.6522869999999
 20
592.2638400000001
 30
0.0
  0
VERTEX
  5
2C8
330
29E
100
AcDbEntity
  8
Ｓ_１_１
  6
CONTINUOUS
 62
     3
100
AcDbVertex
100
AcDb2dVertex
 10
612.9193659999999
 20
591.619056
 30
0.0
  0
VERTEX
  5
2C9
330
29E
100
AcDbEntity
  8
Ｓ_１_１
  6
CONTINUOUS
 62
     3
100
AcDbVertex
100
AcDb2dVertex
 10
613.2416259999999
 20
591.000002
 30
0.0
  0
VERTEX
  5
2CA
330
29E
100
AcDbEntity
  8
Ｓ_１_１
  6
CONTINUOUS
 62
     3
100
AcDbVertex
100
AcDb2dVertex
 10
613.6166129999999
 20
590.411392
 30
0.0
  0
VERTEX
  5
2CB
330
29E
100
AcDbEntity
  8
Ｓ_１_１
  6
CONTINUOUS
 62
     3
100
AcDbVertex
100
AcDb2dVertex
 10
614.0414749999999
 20
589.8577030000001
 30
0.0
  0
VERTEX
  5
2CC
330
29E
100
AcDbEntity
  8
Ｓ_１_１
  6
CONTINUOUS
 62
     3
100
AcDbVertex
100
AcDb2dVertex
 10
614.5129769999999
 20
589.3431500000002
 30
0.0
  0
VERTEX
  5
2CD
330
29E
100
AcDbEntity
  8
Ｓ_１_１
  6
CONTINUOUS
 62
     3
100
AcDbVertex
100
AcDb2dVertex
 10
615.0275309999998
 20
588.8716490000002
 30
0.0
  0
VERTEX
  5
2CE
330
29E
100
AcDbEntity
  8
Ｓ_１_１
  6
CONTINUOUS
 62
     3
100
AcDbVertex
100
AcDb2dVertex
 10
615.5812209999999
 20
588.4467890000001
 30
0.0
  0
VERTEX
  5
2CF
330
29E
100
AcDbEntity
  8
Ｓ_１_１
  6
CONTINUOUS
 62
     3
100
AcDbVertex
100
AcDb2dVertex
 10
616.1698329999999
 20
588.0718020000002
 30
0.0
  0
VERTEX
  5
2D0
330
29E
100
AcDbEntity
  8
Ｓ_１_１
  6
CONTINUOUS
 62
     3
100
AcDbVertex
100
AcDb2dVertex
 10
616.7888879999998
 20
587.7495430000001
 30
0.0
  0
VERTEX
  5
2D1
330
29E
100
AcDbEntity
  8
Ｓ_１_１
  6
CONTINUOUS
 62
     3
100
AcDbVertex
100
AcDb2dVertex
 10
617.4336739999999
 20
587.482465
 30
0.0
  0
VERTEX
  5
2D2
330
29E
100
AcDbEntity
  8
Ｓ_１_１
  6
CONTINUOUS
 62
     3
100
AcDbVertex
100
AcDb2dVertex
 10
618.0992839999999
 20
587.2725990000001
 30
0.0
  0
VERTEX
  5
2D3
330
29E
100
AcDbEntity
  8
Ｓ_１_１
  6
CONTINUOUS
 62
     3
100
AcDbVertex
100
AcDb2dVertex
 10
618.7806519999999
 20
587.1215440000001
 30
0.0
  0
VERTEX
  5
2D4
330
29E
100
AcDbEntity
  8
Ｓ_１_１
  6
CONTINUOUS
 62
     3
100
AcDbVertex
100
AcDb2dVertex
 10
619.4725919999998
 20
587.0304490000001
 30
0.0
  0
VERTEX
  5
2D5
330
29E
100
AcDbEntity
  8
Ｓ_１_１
  6
CONTINUOUS
 62
     3
100
AcDbVertex
100
AcDb2dVertex
 10
620.1698389999999
 20
587.000006
 30
0.0
  0
VERTEX
  5
2D6
330
29E
100
AcDbEntity
  8
Ｓ_１_１
  6
CONTINUOUS
 62
     3
100
AcDbVertex
100
AcDb2dVertex
 10
620.8670859999999
 20
587.0304490000001
 30
0.0
  0
VERTEX
  5
2D7
330
29E
100
AcDbEntity
  8
Ｓ_１_１
  6
CONTINUOUS
 62
     3
100
AcDbVertex
100
AcDb2dVertex
 10
621.5590259999999
 20
587.1215440000001
 30
0.0
  0
VERTEX
  5
2D8
330
29E
100
AcDbEntity
  8
Ｓ_１_１
  6
CONTINUOUS
 62
     3
100
AcDbVertex
100
AcDb2dVertex
 10
622.2403939999999
 20
587.2725990000001
 30
0.0
  0
VERTEX
  5
2D9
330
29E
100
AcDbEntity
  8
Ｓ_１_１
  6
CONTINUOUS
 62
     3
100
AcDbVertex
100
AcDb2dVertex
 10
622.9060039999998
 20
587.482465
 30
0.0
  0
VERTEX
  5
2DA
330
29E
100
AcDbEntity
  8
Ｓ_１_１
  6
CONTINUOUS
 62
     3
100
AcDbVertex
100
AcDb2dVertex
 10
623.5507899999999
 20
587.7495430000001
 30
0.0
  0
VERTEX
  5
2DB
330
29E
100
AcDbEntity
  8
Ｓ_１_１
  6
CONTINUOUS
 62
     3
100
AcDbVertex
100
AcDb2dVertex
 10
624.1698449999999
 20
588.0718020000002
 30
0.0
  0
VERTEX
  5
2DC
330
29E
100
AcDbEntity
  8
Ｓ_１_１
  6
CONTINUOUS
 62
     3
100
AcDbVertex
100
AcDb2dVertex
 10
624.7584569999999
 20
588.4467890000001
 30
0.0
  0
VERTEX
  5
2DD
330
29E
100
AcDbEntity
  8
Ｓ_１_１
  6
CONTINUOUS
 62
     3
100
AcDbVertex
100
AcDb2dVertex
 10
625.3121469999999
 20
588.8716490000002
 30
0.0
  0
VERTEX
  5
2DE
330
29E
100
AcDbEntity
  8
Ｓ_１_１
  6
CONTINUOUS
 62
     3
100
AcDbVertex
100
AcDb2dVertex
 10
625.8267009999998
 20
589.3431500000002
 30
0.0
  0
VERTEX
  5
2DF
330
29E
100
AcDbEntity
  8
Ｓ_１_１
  6
CONTINUOUS
 62
     3
100
AcDbVertex
100
AcDb2dVertex
 10
626.2982029999998
 20
589.8577030000001
 30
0.0
  0
VERTEX
  5
2E0
330
29E
100
AcDbEntity
  8
Ｓ_１_１
  6
CONTINUOUS
 62
     3
100
AcDbVertex
100
AcDb2dVertex
 10
626.7230649999999
 20
590.411392
 30
0.0
  0
VERTEX
  5
2E1
330
29E
100
AcDbEntity
  8
Ｓ_１_１
  6
CONTINUOUS
 62
     3
100
AcDbVertex
100
AcDb2dVertex
 10
627.0980519999998
 20
591.000002
 30
0.0
  0
VERTEX
  5
2E2
330
29E
100
AcDbEntity
  8
Ｓ_１_１
  6
CONTINUOUS
 62
     3
100
AcDbVertex
100
AcDb2dVertex
 10
627.4203119999999
 20
591.619056
 30
0.0
  0
VERTEX
  5
2E3
330
29E
100
AcDbEntity
  8
Ｓ_１_１
  6
CONTINUOUS
 62
     3
100
AcDbVertex
100
AcDb2dVertex
 10
627.6873909999998
 20
592.2638400000001
 30
0.0
  0
VERTEX
  5
2E4
330
29E
100
AcDbEntity
  8
Ｓ_１_１
  6
CONTINUOUS
 62
     3
100
AcDbVertex
100
AcDb2dVertex
 10
627.8972569999999
 20
592.9294480000001
 30
0.0
  0
VERTEX
  5
2E5
330
29E
100
AcDbEntity
  8
Ｓ_１_１
  6
CONTINUOUS
 62
     3
100
AcDbVertex
100
AcDb2dVertex
 10
628.0483119999999
 20
593.6108140000001
 30
0.0
  0
VERTEX
  5
2E6
330
29E
100
AcDbEntity
  8
Ｓ_１_１
  6
CONTINUOUS
 62
     3
100
AcDbVertex
100
AcDb2dVertex
 10
628.1394079999999
 20
594.3027529999999
 30
0.0
  0
VERTEX
  5
2E7
330
29E
100
AcDbEntity
  8
Ｓ_１_１
  6
CONTINUOUS
 62
     3
100
AcDbVertex
100
AcDb2dVertex
 10
628.1698499999999
 20
594.9999990000001
 30
0.0
  0
SEQEND
  5
2E8
330
29E
100
AcDbEntity
  8
Ｓ_１_１
  6
CONTINUOUS
 62
     3
  0
ARC
  5
2E9
330
1F
100
AcDbEntity
  8
Ｓ_１_１
  6
CONTINUOUS
 62
     3
100
AcDbCircle
 10
462.7978819999998
 20
575.3923400000001
 30
0.0
 40
6.133926000000002
100
AcDbArc
 50
145.615439
 51
214.384584
  0
ARC
  5
2EA
330
1F
100
AcDbEntity
  8
Ｓ_１_１
  6
CONTINUOUS
 62
     3
100
AcDbCircle
 10
479.5918949999999
 20
565.000037
 30
0.0
 40
22.92794000000001
100
AcDbArc
 50
162.4118580000001
 51
197.588166
  0
ARC
  5
2EB
330
1F
100
AcDbEntity
  8
Ｓ_１_１
  6
CONTINUOUS
 62
     3
100
AcDbCircle
 10
474.7967069999999
 20
574.0932830000002
 30
0.0
 40
5.367246000000002
100
AcDbArc
 50
325.615779
 51
34.38406400000002
  0
ARC
  5
2EC
330
1F
100
AcDbEntity
  8
Ｓ_１_１
  6
CONTINUOUS
 62
     3
100
AcDbCircle
 10
474.7967069999999
 20
555.9067150000001
 30
0.0
 40
5.367246000000002
100
AcDbArc
 50
325.6158610000001
 51
34.38414599999999
  0
ARC
  5
2ED
330
1F
100
AcDbEntity
  8
Ｓ_１_１
  6
CONTINUOUS
 62
     3
100
AcDbCircle
 10
460.1017679999998
 20
565.000037
 30
0.0
 40
20.062196
100
AcDbArc
 50
342.4119950000003
 51
17.58787900000001
  0
ARC
  5
2EE
330
1F
100
AcDbEntity
  8
Ｓ_１_１
  6
CONTINUOUS
 62
     3
100
AcDbCircle
 10
476.5312109999999
 20
555.9067150000001
 30
0.0
 40
5.367246000000002
100
AcDbArc
 50
145.615795
 51
214.3840790000001
  0
ARC
  5
2EF
330
1F
100
AcDbEntity
  8
Ｓ_１_１
  6
CONTINUOUS
 62
     3
100
AcDbCircle
 10
476.5312109999999
 20
574.0932830000002
 30
0.0
 40
5.367246000000002
100
AcDbArc
 50
145.615877
 51
214.3841610000001
  0
ARC
  5
2F0
330
1F
100
AcDbEntity
  8
Ｓ_１_１
  6
CONTINUOUS
 62
     3
100
AcDbCircle
 10
491.22615
 20
565.000037
 30
0.0
 40
20.062196
100
AcDbArc
 50
162.412063
 51
197.587947
  0
ARC
  5
2F1
330
1F
100
AcDbEntity
  8
Ｓ_１_１
  6
CONTINUOUS
 62
     3
100
AcDbCircle
 10
457.5300519999998
 20
554.607696
 30
0.0
 40
6.133926000000002
100
AcDbArc
 50
325.615397
 51
34.38455500000001
  0
ARC
  5
2F2
330
1F
100
AcDbEntity
  8
Ｓ_１_１
  6
CONTINUOUS
 62
     3
100
AcDbCircle
 10
419.6639559999999
 20
560.4999910000001
 30
0.0
 40
1.0
100
AcDbArc
 50
179.9999780000001
 51
269.999973
  0
ARC
  5
2F3
330
1F
100
AcDbEntity
  8
Ｓ_１_１
  6
CONTINUOUS
 62
     3
100
AcDbCircle
 10
462.7978819999998
 20
554.607696
 30
0.0
 40
6.133926000000002
100
AcDbArc
 50
145.615371
 51
214.3845160000002
  0
ARC
  5
2F4
330
1F
100
AcDbEntity
  8
Ｓ_１_１
  6
CONTINUOUS
 62
     3
100
AcDbCircle
 10
440.736038
 20
565.000037
 30
0.0
 40
22.927942
100
AcDbArc
 50
342.411824
 51
17.588118
  0
ARC
  5
2F5
330
1F
100
AcDbEntity
  8
Ｓ_１_１
  6
CONTINUOUS
 62
     3
100
AcDbCircle
 10
457.5300519999998
 20
575.3923400000001
 30
0.0
 40
6.133926000000002
100
AcDbArc
 50
325.6154100000001
 51
34.38456600000003
  0
ARC
  5
2F6
330
1F
100
AcDbEntity
  8
Ｓ_１_１
  6
CONTINUOUS
 62
     3
100
AcDbCircle
 10
419.6639559999999
 20
569.5000070000001
 30
0.0
 40
1.0
100
AcDbArc
 50
90.000003
 51
179.9999780000001
  0
ARC
  5
2F7
330
1F
100
AcDbEntity
  8
Ｓ_１_１
  6
CONTINUOUS
 62
     3
100
AcDbCircle
 10
498.0262289999998
 20
609.999998
 30
0.0
 40
5.0
100
AcDbArc
 50
90.00000900000005
 51
180.000005
  0
ARC
  5
2F8
330
1F
100
AcDbEntity
  8
Ｓ_１_１
  6
CONTINUOUS
 62
     3
100
AcDbCircle
 10
498.0262289999998
 20
520.0
 30
0.0
 40
5.0
100
AcDbArc
 50
180.0000090000001
 51
269.999997
  0
ARC
  5
2F9
330
1F
100
AcDbEntity
  8
Ｓ_１_１
  6
CONTINUOUS
 62
     3
100
AcDbCircle
 10
540.0262359999999
 20
612.000006
 30
0.0
 40
3.000000000000002
100
AcDbArc
 50
0.0
 51
90.00000900000005
  0
ARC
  5
2FA
330
1F
100
AcDbEntity
  8
Ｓ_１_１
  6
CONTINUOUS
 62
     3
100
AcDbCircle
 10
540.0262359999999
 20
518.0000300000002
 30
0.0
 40
3.000000000000002
100
AcDbArc
 50
269.999997
 51
0.0
  0
ARC
  5
2FB
330
1F
100
AcDbEntity
  8
Ｓ_１_１
  6
CONTINUOUS
 62
     3
100
AcDbCircle
 10
551.2557129999999
 20
574.0932830000002
 30
0.0
 40
5.367246000000002
100
AcDbArc
 50
145.615863
 51
214.3841470000001
  0
ARC
  5
2FC
330
1F
100
AcDbEntity
  8
Ｓ_１_１
  6
CONTINUOUS
 62
     3
100
AcDbCircle
 10
565.9506509999999
 20
564.999961
 30
0.0
 40
20.062196
100
AcDbArc
 50
162.4119950000001
 51
197.587879
  0
ARC
  5
2FD
330
1F
100
AcDbEntity
  8
Ｓ_１_１
  6
CONTINUOUS
 62
     3
100
AcDbCircle
 10
551.2557129999999
 20
555.9067150000001
 30
0.0
 40
5.367246000000002
100
AcDbArc
 50
145.615781
 51
214.3840650000001
  0
ARC
  5
2FE
330
1F
100
AcDbEntity
  8
Ｓ_１_１
  6
CONTINUOUS
 62
     3
100
AcDbCircle
 10
647.0110589999998
 20
631.0000210000001
 30
0.0
 40
3.000000000000002
100
AcDbArc
 50
195.000006
 51
269.999997
  0
ARC
  5
2FF
330
1F
100
AcDbEntity
  8
Ｓ_１_１
  6
CONTINUOUS
 62
     3
100
AcDbCircle
 10
621.2090959999998
 20
639.999998
 30
0.0
 40
3.000000000000002
100
AcDbArc
 50
90.000003
 51
180.000005
  0
ARC
  5
300
330
1F
100
AcDbEntity
  8
Ｓ_１_１
  6
CONTINUOUS
 62
     3
100
AcDbCircle
 10
617.2090809999999
 20
629.999998
 30
0.0
 40
2.0
100
AcDbArc
 50
180.0000090000001
 51
269.999997
  0
ARC
  5
301
330
1F
100
AcDbEntity
  8
Ｓ_１_１
  6
CONTINUOUS
 62
     3
100
AcDbCircle
 10
618.2091039999999
 20
639.999998
 30
0.0
 40
3.000000000000002
100
AcDbArc
 50
90.000003
 51
180.000005
  0
ARC
  5
302
330
1F
100
AcDbEntity
  8
Ｓ_１_１
  6
CONTINUOUS
 62
     3
100
AcDbCircle
 10
620.2090729999999
 20
629.999998
 30
0.0
 40
2.0
100
AcDbArc
 50
180.0000090000001
 51
269.999997
  0
ARC
  5
303
330
1F
100
AcDbEntity
  8
Ｓ_１_１
  6
CONTINUOUS
 62
     3
100
AcDbCircle
 10
626.2090959999998
 20
629.999998
 30
0.0
 40
2.0
100
AcDbArc
 50
269.999997
 51
0.0
  0
ARC
  5
304
330
1F
100
AcDbEntity
  8
Ｓ_１_１
  6
CONTINUOUS
 62
     3
100
AcDbCircle
 10
641.7090879999998
 20
622.9999910000001
 30
0.0
 40
3.000000000000002
100
AcDbArc
 50
269.999997
 51
0.0
  0
ARC
  5
305
330
1F
100
AcDbEntity
  8
Ｓ_１_１
  6
CONTINUOUS
 62
     3
100
AcDbCircle
 10
624.7090809999999
 20
622.9999910000001
 30
0.0
 40
3.000000000000002
100
AcDbArc
 50
180.0000090000001
 51
269.999997
  0
ARC
  5
306
330
1F
100
AcDbEntity
  8
Ｓ_１_１
  6
CONTINUOUS
 62
     3
100
AcDbCircle
 10
654.7090799999999
 20
641.0000210000001
 30
0.0
 40
2.0
100
AcDbArc
 50
0.0
 51
90.000003
  0
ARC
  5
307
330
1F
100
AcDbEntity
  8
Ｓ_１_１
  6
CONTINUOUS
 62
     3
100
AcDbCircle
 10
654.7090799999999
 20
629.999998
 30
0.0
 40
2.0
100
AcDbArc
 50
269.999997
 51
0.0
  0
ARC
  5
308
330
1F
100
AcDbEntity
  8
Ｓ_１_１
  6
CONTINUOUS
 62
     3
100
AcDbCircle
 10
646.7090879999998
 20
626.0000210000001
 30
0.0
 40
2.0
100
AcDbArc
 50
90.000003
 51
180.000005
  0
ARC
  5
309
330
1F
100
AcDbEntity
  8
Ｓ_１_１
  6
CONTINUOUS
 62
     3
100
AcDbCircle
 10
608.1852239999998
 20
545.000037
 30
0.0
 40
2.0
100
AcDbArc
 50
6.170174999999993
 51
90.000003
  0
ARC
  5
30A
330
1F
100
AcDbEntity
  8
Ｓ_１_１
  6
CONTINUOUS
 62
     3
100
AcDbCircle
 10
564.3887609999999
 20
549.000053
 30
0.0
 40
2.0
100
AcDbArc
 50
179.999991
 51
270.0000010000001
  0
ARC
  5
30B
330
1F
100
AcDbEntity
  8
Ｓ_１_１
  6
CONTINUOUS
 62
     3
100
AcDbCircle
 10
610.3416719999999
 20
576.000022
 30
0.0
 40
2.0
100
AcDbArc
 50
0.0
 51
90.000003
  0
ARC
  5
30C
330
1F
100
AcDbEntity
  8
Ｓ_１_１
  6
CONTINUOUS
 62
     3
100
AcDbCircle
 10
610.3416719999999
 20
554.0000140000002
 30
0.0
 40
2.0
100
AcDbArc
 50
269.999997
 51
0.0
  0
ARC
  5
30D
330
1F
100
AcDbEntity
  8
Ｓ_１_１
  6
CONTINUOUS
 62
     3
100
AcDbCircle
 10
655.1268469999999
 20
587.0415870000002
 30
0.0
 40
3.000000000000002
100
AcDbArc
 50
195.000006
 51
269.999997
  0
ARC
  5
30E
330
1F
100
AcDbEntity
  8
Ｓ_１_１
  6
CONTINUOUS
 62
     3
100
AcDbCircle
 10
638.2090649999999
 20
600.000037
 30
0.0
 40
12.999999
100
AcDbArc
 50
67.38013700000003
 51
112.619868
  0
ARC
  5
30F
330
1F
100
AcDbEntity
  8
Ｓ_１_１
  6
CONTINUOUS
 62
     3
100
AcDbCircle
 10
628.2091039999999
 20
600.000037
 30
0.0
 40
12.999999
100
AcDbArc
 50
67.38013700000003
 51
112.619868
  0
ARC
  5
310
330
1F
100
AcDbEntity
  8
Ｓ_１_１
  6
CONTINUOUS
 62
     3
100
AcDbCircle
 10
644.4766699999999
 20
539.0000150000001
 30
0.0
 40
3.000000000000002
100
AcDbArc
 50
304.359612
 51
353.829825
  0
ARC
  5
311
330
1F
100
AcDbEntity
  8
Ｓ_１_１
  6
CONTINUOUS
 62
     3
100
AcDbCircle
 10
613.8629809999999
 20
539.0000150000001
 30
0.0
 40
3.000000000000002
100
AcDbArc
 50
186.170169
 51
235.6403830000001
  0
ARC
  5
312
330
1F
100
AcDbEntity
  8
Ｓ_１_１
  6
CONTINUOUS
 62
     3
100
AcDbCircle
 10
638.1698119999999
 20
594.000014
 30
0.0
 40
9.0
100
AcDbArc
 50
6.379370000000019
 51
90.000003
  0
ARC
  5
313
330
1F
100
AcDbEntity
  8
Ｓ_１_１
  6
CONTINUOUS
 62
     3
100
AcDbCircle
 10
620.1698579999999
 20
594.000014
 30
0.0
 40
9.0
100
AcDbArc
 50
90.000003
 51
173.620636
  0
ARC
  5
314
330
1F
100
AcDbEntity
  8
Ｓ_１_１
  6
CONTINUOUS
 62
     3
100
AcDbCircle
 10
964.388523
 20
552.21981
 30
0.0
 40
1.0
100
AcDbArc
 50
179.999991
 51
281.30992
  0
ARC
  5
315
330
1F
100
AcDbEntity
  8
Ｓ_１_１
  6
CONTINUOUS
 62
     3
100
AcDbCircle
 10
1046.388533
 20
552.21981
 30
0.0
 40
1.0
100
AcDbArc
 50
258.6900650000001
 51
0.0
  0
ARC
  5
316
330
1F
100
AcDbEntity
  8
Ｓ_１_１
  6
CONTINUOUS
 62
     3
100
AcDbCircle
 10
1046.388533
 20
577.7802260000001
 30
0.0
 40
1.0
100
AcDbArc
 50
0.0
 51
101.309935
  0
ARC
  5
317
330
1F
100
AcDbEntity
  8
Ｓ_１_１
  6
CONTINUOUS
 62
     3
100
AcDbCircle
 10
964.388523
 20
577.7802260000001
 30
0.0
 40
1.0
100
AcDbArc
 50
78.69007000000005
 51
180.000005
  0
ARC
  5
318
330
1F
100
AcDbEntity
  8
Ｓ_１_１
  6
CONTINUOUS
 62
     3
100
AcDbCircle
 10
1005.388496
 20
808.000064
 30
0.0
 40
257.000004
100
AcDbArc
 50
262.8473350000002
 51
277.1526670000002
  0
ARC
  5
319
330
1F
100
AcDbEntity
  8
Ｓ_１_１
  6
CONTINUOUS
 62
     3
100
AcDbCircle
 10
1005.388496
 20
322.00001
 30
0.0
 40
257.000004
100
AcDbArc
 50
82.84733300000003
 51
97.15266500000001
  0
LINE
  5
31A
330
1F
100
AcDbEntity
  8
Ｓ_１_１
  6
CONTINUOUS
 62
     3
100
AcDbLine
 10
469.8016869999999
 20
572.5635260000001
 30
0.0
 11
471.1639529999999
 21
573.3500300000001
 31
0.0
  0
LINE
  5
31B
330
1F
100
AcDbEntity
  8
Ｓ_１_１
  6
CONTINUOUS
 62
     3
100
AcDbLine
 10
463.6639839999999
 20
572.1799020000001
 30
0.0
 11
469.8017189999998
 21
572.5635110000001
 31
0.0
  0
LINE
  5
31C
330
1F
100
AcDbEntity
  8
Ｓ_１_１
  6
CONTINUOUS
 62
     3
100
AcDbLine
 10
463.6639529999999
 20
557.82014
 30
0.0
 11
469.8016879999999
 21
557.4365319999999
 31
0.0
  0
LINE
  5
31D
330
1F
100
AcDbEntity
  8
Ｓ_１_１
  6
CONTINUOUS
 62
     3
100
AcDbLine
 10
469.801704
 20
556.735152
 30
0.0
 11
469.801704
 21
573.264846
 31
0.0
  0
LINE
  5
31E
330
1F
100
AcDbEntity
  8
Ｓ_１_１
  6
CONTINUOUS
 62
     3
100
AcDbLine
 10
471.1639909999998
 20
556.650005
 30
0.0
 11
469.801708
 21
557.4365190000001
 31
0.0
  0
LINE
  5
31F
330
1F
100
AcDbEntity
  8
Ｓ_１_１
  6
CONTINUOUS
 62
     3
100
AcDbLine
 10
498.0262289999998
 20
515.0
 30
0.0
 11
540.0262359999999
 21
515.0
 31
0.0
  0
LINE
  5
320
330
1F
100
AcDbEntity
  8
Ｓ_１_１
  6
CONTINUOUS
 62
     3
100
AcDbLine
 10
498.0262289999998
 20
614.999998
 30
0.0
 11
540.0262359999999
 21
614.999998
 31
0.0
  0
LINE
  5
321
330
1F
100
AcDbEntity
  8
Ｓ_１_１
  6
CONTINUOUS
 62
     3
100
AcDbLine
 10
493.0262289999998
 20
609.999998
 30
0.0
 11
493.0262289999998
 21
520.0
 31
0.0
  0
LINE
  5
322
330
1F
100
AcDbEntity
  8
Ｓ_１_１
  6
CONTINUOUS
 62
     3
100
AcDbLine
 10
543.026228
 20
612.000006
 30
0.0
 11
543.026228
 21
518.0000300000002
 31
0.0
  0
LINE
  5
323
330
1F
100
AcDbEntity
  8
Ｓ_１_１
  6
CONTINUOUS
 62
     3
100
AcDbLine
 10
518.0262289999998
 20
614.999998
 30
0.0
 11
518.0262289999998
 21
515.0
 31
0.0
  0
LINE
  5
324
330
1F
100
AcDbEntity
  8
Ｓ_１_１
  6
CONTINUOUS
 62
     3
100
AcDbLine
 10
432.1639559999999
 20
556.000022
 30
0.0
 11
434.163963
 21
556.000022
 31
0.0
  0
LINE
  5
325
330
1F
100
AcDbEntity
  8
Ｓ_１_１
  6
CONTINUOUS
 62
     3
100
AcDbLine
 10
428.6639709999999
 20
559.5000070000001
 30
0.0
 11
428.6639709999999
 21
570.4999910000001
 31
0.0
  0
LINE
  5
326
330
1F
100
AcDbEntity
  8
Ｓ_１_１
  6
CONTINUOUS
 62
     3
100
AcDbLine
 10
435.6639789999999
 20
557.4999990000001
 30
0.0
 11
437.1639559999998
 21
557.4999990000001
 31
0.0
  0
LINE
  5
327
330
1F
100
AcDbEntity
  8
Ｓ_１_１
  6
CONTINUOUS
 62
     3
100
AcDbLine
 10
438.6639709999999
 20
556.000022
 30
0.0
 11
438.6639709999999
 21
574.000014
 31
0.0
  0
LINE
  5
328
330
1F
100
AcDbEntity
  8
Ｓ_１_１
  6
CONTINUOUS
 62
     3
100
AcDbLine
 10
435.6639789999999
 20
572.4999990000001
 30
0.0
 11
437.1639559999998
 21
572.4999990000001
 31
0.0
  0
LINE
  5
329
330
1F
100
AcDbEntity
  8
Ｓ_１_１
  6
CONTINUOUS
 62
     3
100
AcDbLine
 10
419.6639559999999
 20
559.5000070000001
 30
0.0
 11
428.6639709999999
 21
559.5000070000001
 31
0.0
  0
LINE
  5
32A
330
1F
100
AcDbEntity
  8
Ｓ_１_１
  6
CONTINUOUS
 62
     3
100
AcDbLine
 10
419.6639559999999
 20
570.4999910000001
 30
0.0
 11
428.6639709999999
 21
570.4999910000001
 31
0.0
  0
LINE
  5
32B
330
1F
100
AcDbEntity
  8
Ｓ_１_１
  6
CONTINUOUS
 62
     3
100
AcDbLine
 10
432.1639609999999
 20
556.0000010000001
 30
0.0
 11
428.6639789999999
 21
559.4999830000002
 31
0.0
  0
LINE
  5
32C
330
1F
100
AcDbEntity
  8
Ｓ_１_１
  6
CONTINUOUS
 62
     3
100
AcDbLine
 10
428.6639849999999
 20
570.4999789999999
 30
0.0
 11
432.1639889999998
 21
573.999982
 31
0.0
  0
LINE
  5
32D
330
1F
100
AcDbEntity
  8
Ｓ_１_１
  6
CONTINUOUS
 62
     3
100
AcDbLine
 10
480.1639859999999
 20
554.5000070000001
 30
0.0
 11
480.1639859999999
 21
575.500029
 31
0.0
  0
LINE
  5
32E
330
1F
100
AcDbEntity
  8
Ｓ_１_１
  6
CONTINUOUS
 62
     3
100
AcDbLine
 10
471.1639699999998
 20
554.5000070000001
 30
0.0
 11
471.1639699999998
 21
575.500029
 31
0.0
  0
LINE
  5
32F
330
1F
100
AcDbEntity
  8
Ｓ_１_１
  6
CONTINUOUS
 62
     3
100
AcDbLine
 10
463.6639709999999
 20
552.999992
 30
0.0
 11
463.6639709999999
 21
577.000006
 31
0.0
  0
LINE
  5
330
330
1F
100
AcDbEntity
  8
Ｓ_１_１
  6
CONTINUOUS
 62
     3
100
AcDbLine
 10
472.101776
 20
571.062201
 30
0.0
 11
479.226142
 21
571.062201
 31
0.0
  0
LINE
  5
331
330
1F
100
AcDbEntity
  8
Ｓ_１_１
  6
CONTINUOUS
 62
     3
100
AcDbLine
 10
472.101776
 20
558.937835
 30
0.0
 11
479.226142
 21
558.937835
 31
0.0
  0
LINE
  5
332
330
1F
100
AcDbEntity
  8
Ｓ_１_１
  6
CONTINUOUS
 62
     3
100
AcDbLine
 10
472.101776
 20
552.875671
 30
0.0
 11
479.2261799999999
 21
552.875671
 31
0.0
  0
LINE
  5
333
330
1F
100
AcDbEntity
  8
Ｓ_１_１
  6
CONTINUOUS
 62
     3
100
AcDbLine
 10
472.101776
 20
577.124366
 30
0.0
 11
479.226142
 21
577.124366
 31
0.0
  0
LINE
  5
334
330
1F
100
AcDbEntity
  8
Ｓ_１_１
  6
CONTINUOUS
 62
     3
100
AcDbLine
 10
471.1639639999999
 20
575.5000239999999
 30
0.0
 11
472.1017859999999
 21
577.1243850000001
 31
0.0
  0
LINE
  5
335
330
1F
100
AcDbEntity
  8
Ｓ_１_１
  6
CONTINUOUS
 62
     3
100
AcDbLine
 10
480.1639699999998
 20
575.50001
 30
0.0
 11
479.2261289999999
 21
577.1244040000001
 31
0.0
  0
LINE
  5
336
330
1F
100
AcDbEntity
  8
Ｓ_１_１
  6
CONTINUOUS
 62
     3
100
AcDbLine
 10
471.1639659999998
 20
554.4999680000001
 30
0.0
 11
472.1017679999998
 21
552.87564
 31
0.0
  0
LINE
  5
337
330
1F
100
AcDbEntity
  8
Ｓ_１_１
  6
CONTINUOUS
 62
     3
100
AcDbLine
 10
480.1639689999999
 20
554.5000030000001
 30
0.0
 11
479.226148
 21
552.8756430000001
 31
0.0
  0
LINE
  5
338
330
1F
100
AcDbEntity
  8
Ｓ_１_１
  6
CONTINUOUS
 62
     3
100
AcDbLine
 10
486.5262519999999
 20
572.952352
 30
0.0
 11
480.1639639999999
 21
573.349995
 31
0.0
  0
LINE
  5
339
330
1F
100
AcDbEntity
  8
Ｓ_１_１
  6
CONTINUOUS
 62
     3
100
AcDbLine
 10
486.5262469999999
 20
557.04765
 30
0.0
 11
480.1639589999999
 21
556.650007
 31
0.0
  0
LINE
  5
33A
330
1F
100
AcDbEntity
  8
Ｓ_１_１
  6
CONTINUOUS
 62
     3
100
AcDbLine
 10
416.6639639999999
 20
563.500022
 30
0.0
 11
416.6639639999999
 21
566.500014
 31
0.0
  0
LINE
  5
33B
330
1F
100
AcDbEntity
  8
Ｓ_１_１
  6
CONTINUOUS
 62
     3
100
AcDbLine
 10
418.6639709999999
 20
560.4999910000001
 30
0.0
 11
418.6639709999999
 21
569.5000070000001
 31
0.0
  0
LINE
  5
33C
330
1F
100
AcDbEntity
  8
Ｓ_１_１
  6
CONTINUOUS
 62
     3
100
AcDbLine
 10
456.663963
 20
553.0000300000002
 30
0.0
 11
456.663963
 21
577.000006
 31
0.0
  0
LINE
  5
33D
330
1F
100
AcDbEntity
  8
Ｓ_１_１
  6
CONTINUOUS
 62
     3
100
AcDbLine
 10
457.735778
 20
551.143607
 30
0.0
 11
462.5921929999999
 21
551.143607
 31
0.0
  0
LINE
  5
33E
330
1F
100
AcDbEntity
  8
Ｓ_１_１
  6
CONTINUOUS
 62
     3
100
AcDbLine
 10
457.735778
 20
558.0718220000001
 30
0.0
 11
462.5921549999998
 21
558.0718220000001
 31
0.0
  0
LINE
  5
33F
330
1F
100
AcDbEntity
  8
Ｓ_１_１
  6
CONTINUOUS
 62
     3
100
AcDbLine
 10
457.735778
 20
571.928214
 30
0.0
 11
462.5921549999998
 21
571.928214
 31
0.0
  0
LINE
  5
340
330
1F
100
AcDbEntity
  8
Ｓ_１_１
  6
CONTINUOUS
 62
     3
100
AcDbLine
 10
457.735778
 20
578.8564290000002
 30
0.0
 11
462.5921549999998
 21
578.8564290000002
 31
0.0
  0
LINE
  5
341
330
1F
100
AcDbEntity
  8
Ｓ_１_１
  6
CONTINUOUS
 62
     3
100
AcDbLine
 10
457.7357829999999
 20
551.1435960000001
 30
0.0
 11
456.6639679999998
 21
553.000035
 31
0.0
  0
LINE
  5
342
330
1F
100
AcDbEntity
  8
Ｓ_１_１
  6
CONTINUOUS
 62
     3
100
AcDbLine
 10
463.6639559999999
 20
577.0000420000001
 30
0.0
 11
462.5921789999999
 21
578.856415
 31
0.0
  0
LINE
  5
343
330
1F
100
AcDbEntity
  8
Ｓ_１_１
  6
CONTINUOUS
 62
     3
100
AcDbLine
 10
456.6639779999998
 20
577.000006
 30
0.0
 11
457.735784
 21
578.856428
 31
0.0
  0
LINE
  5
344
330
1F
100
AcDbEntity
  8
Ｓ_１_１
  6
CONTINUOUS
 62
     3
100
AcDbLine
 10
462.5922219999998
 20
551.1436060000001
 30
0.0
 11
463.6639999999998
 21
552.9999790000002
 31
0.0
  0
LINE
  5
345
330
1F
100
AcDbEntity
  8
Ｓ_１_１
  6
CONTINUOUS
 62
     3
100
AcDbLine
 10
448.1639779999998
 20
553.2500070000001
 30
0.0
 11
456.663963
 21
553.2500070000001
 31
0.0
  0
LINE
  5
346
330
1F
100
AcDbEntity
  8
Ｓ_１_１
  6
CONTINUOUS
 62
     3
100
AcDbLine
 10
448.1639779999998
 20
576.7499910000001
 30
0.0
 11
456.663963
 21
576.7499910000001
 31
0.0
  0
LINE
  5
347
330
1F
100
AcDbEntity
  8
Ｓ_１_１
  6
CONTINUOUS
 62
     3
100
AcDbLine
 10
447.6639859999999
 20
553.7499990000001
 30
0.0
 11
447.6639859999999
 21
576.2499990000001
 31
0.0
  0
LINE
  5
348
330
1F
100
AcDbEntity
  8
Ｓ_１_１
  6
CONTINUOUS
 62
     3
100
AcDbLine
 10
432.1639559999999
 20
574.000014
 30
0.0
 11
434.163963
 21
574.000014
 31
0.0
  0
LINE
  5
349
330
1F
100
AcDbEntity
  8
Ｓ_１_１
  6
CONTINUOUS
 62
     3
100
AcDbLine
 10
544.5261929999999
 20
557.4365540000001
 30
0.0
 11
545.8884759999999
 21
556.65004
 31
0.0
  0
LINE
  5
34A
330
1F
100
AcDbEntity
  8
Ｓ_１_１
  6
CONTINUOUS
 62
     3
100
AcDbLine
 10
543.0262339999999
 20
556.828908
 30
0.0
 11
545.8885379999999
 21
556.650014
 31
0.0
  0
LINE
  5
34B
330
1F
100
AcDbEntity
  8
Ｓ_１_１
  6
CONTINUOUS
 62
     3
100
AcDbLine
 10
543.0262289999998
 20
557.5302710000001
 30
0.0
 11
544.5262549999999
 21
557.43652
 31
0.0
  0
LINE
  5
34C
330
1F
100
AcDbEntity
  8
Ｓ_１_１
  6
CONTINUOUS
 62
     3
100
AcDbLine
 10
545.8884229999999
 20
573.349964
 30
0.0
 11
544.5261649999999
 21
572.5634640000001
 31
0.0
  0
LINE
  5
34D
330
1F
100
AcDbEntity
  8
Ｓ_１_１
  6
CONTINUOUS
 62
     3
100
AcDbLine
 10
544.5262049999999
 20
573.2648839999999
 30
0.0
 11
544.5262049999999
 21
556.735152
 31
0.0
  0
LINE
  5
34E
330
1F
100
AcDbEntity
  8
Ｓ_１_１
  6
CONTINUOUS
 62
     3
100
AcDbLine
 10
543.0262289999998
 20
573.171094
 30
0.0
 11
545.8884959999999
 21
573.3499850000001
 31
0.0
  0
LINE
  5
34F
330
1F
100
AcDbEntity
  8
Ｓ_１_１
  6
CONTINUOUS
 62
     3
100
AcDbLine
 10
543.0262249999998
 20
572.4697310000001
 30
0.0
 11
544.5262119999999
 21
572.56348
 31
0.0
  0
LINE
  5
350
330
1F
100
AcDbEntity
  8
Ｓ_１_１
  6
CONTINUOUS
 62
     3
100
AcDbLine
 10
545.8885009999999
 20
575.500045
 30
0.0
 11
546.8263319999999
 21
577.1244220000001
 31
0.0
  0
LINE
  5
351
330
1F
100
AcDbEntity
  8
Ｓ_１_１
  6
CONTINUOUS
 62
     3
100
AcDbLine
 10
545.8884919999999
 20
554.4999850000002
 30
0.0
 11
546.8263319999999
 21
552.875591
 31
0.0
  0
LINE
  5
352
330
1F
100
AcDbEntity
  8
Ｓ_１_１
  6
CONTINUOUS
 62
     3
100
AcDbLine
 10
547.3885249999998
 20
577.124327
 30
0.0
 11
546.8262389999999
 21
577.124327
 31
0.0
  0
LINE
  5
353
330
1F
100
AcDbEntity
  8
Ｓ_１_１
  6
CONTINUOUS
 62
     3
100
AcDbLine
 10
547.3885249999998
 20
571.062163
 30
0.0
 11
546.8262389999999
 21
571.062163
 31
0.0
  0
LINE
  5
354
330
1F
100
AcDbEntity
  8
Ｓ_１_１
  6
CONTINUOUS
 62
     3
100
AcDbLine
 10
547.3885249999998
 20
558.937797
 30
0.0
 11
546.8262389999999
 21
558.937797
 31
0.0
  0
LINE
  5
355
330
1F
100
AcDbEntity
  8
Ｓ_１_１
  6
CONTINUOUS
 62
     3
100
AcDbLine
 10
545.8885099999999
 20
575.4999910000001
 30
0.0
 11
545.8885099999999
 21
554.4999690000002
 31
0.0
  0
LINE
  5
356
330
1F
100
AcDbEntity
  8
Ｓ_１_１
  6
CONTINUOUS
 62
     3
100
AcDbLine
 10
437.1639729999999
 20
572.499992
 30
0.0
 11
438.6639739999998
 21
573.999994
 31
0.0
  0
LINE
  5
357
330
1F
100
AcDbEntity
  8
Ｓ_１_１
  6
CONTINUOUS
 62
     3
100
AcDbLine
 10
438.6639579999998
 20
556.000022
 30
0.0
 11
437.1639879999997
 21
557.499992
 31
0.0
  0
LINE
  5
358
330
1F
100
AcDbEntity
  8
Ｓ_１_１
  6
CONTINUOUS
 62
     3
100
AcDbLine
 10
434.163963
 20
556.000022
 30
0.0
 11
434.163963
 21
574.000014
 31
0.0
  0
LINE
  5
359
330
1F
100
AcDbEntity
  8
Ｓ_１_１
  6
CONTINUOUS
 62
     3
100
AcDbLine
 10
435.663998
 20
572.499986
 30
0.0
 11
434.1639749999999
 21
574.0000090000001
 31
0.0
  0
LINE
  5
35A
330
1F
100
AcDbEntity
  8
Ｓ_１_１
  6
CONTINUOUS
 62
     3
100
AcDbLine
 10
434.163949
 20
556.0000280000002
 30
0.0
 11
435.6639499999998
 21
557.5000300000002
 31
0.0
  0
LINE
  5
35B
330
1F
100
AcDbEntity
  8
Ｓ_１_１
  6
CONTINUOUS
 62
     3
100
AcDbLine
 10
438.6639709999999
 20
556.000022
 30
0.0
 11
447.6639859999999
 21
556.000022
 31
0.0
  0
LINE
  5
35C
330
1F
100
AcDbEntity
  8
Ｓ_１_１
  6
CONTINUOUS
 62
     3
100
AcDbLine
 10
438.6639709999999
 20
574.000014
 30
0.0
 11
447.6639859999999
 21
574.000014
 31
0.0
  0
LINE
  5
35D
330
1F
100
AcDbEntity
  8
Ｓ_１_１
  6
CONTINUOUS
 62
     3
100
AcDbLine
 10
432.1639559999999
 20
556.000022
 30
0.0
 11
432.1639559999999
 21
574.000014
 31
0.0
  0
LINE
  5
35E
330
1F
100
AcDbEntity
  8
Ｓ_１_１
  6
CONTINUOUS
 62
     3
100
AcDbLine
 10
435.6639789999999
 20
557.4999990000001
 30
0.0
 11
435.6639789999999
 21
572.4999990000001
 31
0.0
  0
LINE
  5
35F
330
1F
100
AcDbEntity
  8
Ｓ_１_１
  6
CONTINUOUS
 62
     3
100
AcDbLine
 10
486.5261959999999
 20
578.000035
 30
0.0
 11
487.0261859999998
 21
578.500025
 31
0.0
  0
LINE
  5
360
330
1F
100
AcDbEntity
  8
Ｓ_１_１
  6
CONTINUOUS
 62
     3
100
AcDbLine
 10
487.0262489999998
 20
551.4999950000001
 30
0.0
 11
486.5262589999999
 21
551.9999850000002
 31
0.0
  0
LINE
  5
361
330
1F
100
AcDbEntity
  8
Ｓ_１_１
  6
CONTINUOUS
 62
     3
100
AcDbLine
 10
487.0262439999998
 20
551.5000140000002
 30
0.0
 11
487.0262439999998
 21
578.500022
 31
0.0
  0
LINE
  5
362
330
1F
100
AcDbEntity
  8
Ｓ_１_１
  6
CONTINUOUS
 62
     3
100
AcDbLine
 10
493.0262289999998
 20
578.500022
 30
0.0
 11
487.0262439999998
 21
578.500022
 31
0.0
  0
LINE
  5
363
330
1F
100
AcDbEntity
  8
Ｓ_１_１
  6
CONTINUOUS
 62
     3
100
AcDbLine
 10
486.5262519999999
 20
552.0000070000001
 30
0.0
 11
486.5262519999999
 21
577.9999910000001
 31
0.0
  0
LINE
  5
364
330
1F
100
AcDbEntity
  8
Ｓ_１_１
  6
CONTINUOUS
 62
     3
100
AcDbLine
 10
493.0262289999998
 20
551.5000140000002
 30
0.0
 11
487.0262439999998
 21
551.5000140000002
 31
0.0
  0
LINE
  5
365
330
1F
100
AcDbEntity
  8
Ｓ_１_１
  6
CONTINUOUS
 62
     3
100
AcDbLine
 10
437.1639559999998
 20
557.4999990000001
 30
0.0
 11
437.1639559999998
 21
572.4999990000001
 31
0.0
  0
LINE
  5
366
330
1F
100
AcDbEntity
  8
Ｓ_１_１
  6
CONTINUOUS
 62
     3
100
AcDbLine
 10
418.6639569999999
 20
561.5000380000001
 30
0.0
 11
416.6639979999999
 21
563.4999970000001
 31
0.0
  0
LINE
  5
367
330
1F
100
AcDbEntity
  8
Ｓ_１_１
  6
CONTINUOUS
 62
     3
100
AcDbLine
 10
416.6639659999998
 20
566.5000110000001
 30
0.0
 11
418.6639679999998
 21
568.5000130000001
 31
0.0
  0
LINE
  5
368
330
1F
100
AcDbEntity
  8
Ｓ_１_１
  6
CONTINUOUS
 62
     3
100
AcDbLine
 10
448.1639399999999
 20
553.250027
 30
0.0
 11
447.6639439999998
 21
553.7500110000001
 31
0.0
  0
LINE
  5
369
330
1F
100
AcDbEntity
  8
Ｓ_１_１
  6
CONTINUOUS
 62
     3
100
AcDbLine
 10
447.663965
 20
576.250014
 30
0.0
 11
448.163965
 21
576.7500150000001
 31
0.0
  0
LINE
  5
36A
330
1F
100
AcDbEntity
  8
Ｓ_１_１
  6
CONTINUOUS
 62
     3
100
AcDbLine
 10
448.1639779999998
 20
553.2500070000001
 30
0.0
 11
448.1639779999998
 21
576.7499910000001
 31
0.0
  0
LINE
  5
36B
330
1F
100
AcDbEntity
  8
Ｓ_１_１
  6
CONTINUOUS
 62
     3
100
AcDbLine
 10
463.6639579999999
 20
557.1187770000001
 30
0.0
 11
471.1639719999998
 21
556.650026
 31
0.0
  0
LINE
  5
36C
330
1F
100
AcDbEntity
  8
Ｓ_１_１
  6
CONTINUOUS
 62
     3
100
AcDbLine
 10
463.6639889999998
 20
572.8812660000001
 30
0.0
 11
471.1639649999999
 21
573.3500140000001
 31
0.0
  0
LINE
  5
36D
330
1F
100
AcDbEntity
  8
Ｓ_１_１
  6
CONTINUOUS
 62
     3
100
AcDbLine
 10
486.5262189999999
 20
572.2509910000001
 30
0.0
 11
481.5262479999999
 21
572.5634890000001
 31
0.0
  0
LINE
  5
36E
330
1F
100
AcDbEntity
  8
Ｓ_１_１
  6
CONTINUOUS
 62
     3
100
AcDbLine
 10
486.5262519999999
 20
557.7490130000001
 30
0.0
 11
481.5262429999999
 21
557.4365130000001
 31
0.0
  0
LINE
  5
36F
330
1F
100
AcDbEntity
  8
Ｓ_１_１
  6
CONTINUOUS
 62
     3
100
AcDbLine
 10
481.5262309999998
 20
572.5634790000001
 30
0.0
 11
480.1639489999999
 21
573.349993
 31
0.0
  0
LINE
  5
370
330
1F
100
AcDbEntity
  8
Ｓ_１_１
  6
CONTINUOUS
 62
     3
100
AcDbLine
 10
480.1639629999999
 20
556.650028
 30
0.0
 11
481.5262289999998
 21
557.436533
 31
0.0
  0
LINE
  5
371
330
1F
100
AcDbEntity
  8
Ｓ_１_１
  6
CONTINUOUS
 62
     3
100
AcDbLine
 10
481.5262519999999
 20
556.735152
 30
0.0
 11
481.5262519999999
 21
573.264846
 31
0.0
  0
LINE
  5
372
330
1F
100
AcDbEntity
  8
Ｓ_１_１
  6
CONTINUOUS
 62
     3
100
AcDbLine
 10
959.9999999999999
 20
553.0000300000002
 30
0.0
 11
959.9999999999999
 21
520.0
 31
0.0
  0
LINE
  5
373
330
1F
100
AcDbEntity
  8
Ｓ_１_１
  6
CONTINUOUS
 62
     3
100
AcDbLine
 10
924.9666569999997
 20
537.4999990000001
 30
0.0
 11
924.9666569999997
 21
520.0
 31
0.0
  0
LINE
  5
374
330
1F
100
AcDbEntity
  8
Ｓ_１_１
  6
CONTINUOUS
 62
     3
100
AcDbLine
 10
959.9999999999999
 20
609.999998
 30
0.0
 11
959.9999999999999
 21
584.000014
 31
0.0
  0
LINE
  5
375
330
1F
100
AcDbEntity
  8
Ｓ_１_１
  6
CONTINUOUS
 62
     3
100
AcDbLine
 10
924.9666569999997
 20
609.999998
 30
0.0
 11
924.9666569999997
 21
592.4999990000001
 31
0.0
  0
LINE
  5
376
330
1F
100
AcDbEntity
  8
Ｓ_１_１
  6
CONTINUOUS
 62
     3
100
AcDbLine
 10
924.9666569999997
 20
609.999998
 30
0.0
 11
959.9999999999999
 21
609.999998
 31
0.0
  0
LINE
  5
377
330
1F
100
AcDbEntity
  8
Ｓ_１_１
  6
CONTINUOUS
 62
     3
100
AcDbLine
 10
924.9666569999997
 20
520.0
 30
0.0
 11
959.9999999999999
 21
520.0
 31
0.0
  0
LINE
  5
378
330
1F
100
AcDbEntity
  8
Ｓ_１_１
  6
CONTINUOUS
 62
     3
100
AcDbLine
 10
578.323596
 20
583.9999890000001
 30
0.0
 11
579.3235749999999
 21
583.00001
 31
0.0
  0
LINE
  5
379
330
1F
100
AcDbEntity
  8
Ｓ_１_１
  6
CONTINUOUS
 62
     3
100
AcDbLine
 10
568.3235799999999
 20
583.9999970000001
 30
0.0
 11
567.3235799999999
 21
582.9999970000001
 31
0.0
  0
LINE
  5
37A
330
1F
100
AcDbEntity
  8
Ｓ_１_１
  6
CONTINUOUS
 62
     3
100
AcDbLine
 10
567.3235989999998
 20
582.9999910000001
 30
0.0
 11
579.3236059999999
 21
582.9999910000001
 31
0.0
  0
LINE
  5
37B
330
1F
100
AcDbEntity
  8
Ｓ_１_１
  6
CONTINUOUS
 62
     3
100
AcDbLine
 10
567.3235989999998
 20
582.9999910000001
 30
0.0
 11
567.3235989999998
 21
581.000022
 31
0.0
  0
LINE
  5
37C
330
1F
100
AcDbEntity
  8
Ｓ_１_１
  6
CONTINUOUS
 62
     3
100
AcDbLine
 10
579.3236059999999
 20
582.9999910000001
 30
0.0
 11
579.3236059999999
 21
577.9999910000001
 31
0.0
  0
LINE
  5
37D
330
1F
100
AcDbEntity
  8
Ｓ_１_１
  6
CONTINUOUS
 62
     3
100
AcDbLine
 10
568.323584
 20
584.000014
 30
0.0
 11
578.3235829999999
 21
584.000014
 31
0.0
  0
LINE
  5
37E
330
1F
100
AcDbEntity
  8
Ｓ_１_１
  6
CONTINUOUS
 62
     3
100
AcDbLine
 10
628.2091039999999
 20
641.0000210000001
 30
0.0
 11
628.2091039999999
 21
629.999998
 31
0.0
  0
LINE
  5
37F
330
1F
100
AcDbEntity
  8
Ｓ_１_１
  6
CONTINUOUS
 62
     3
100
AcDbLine
 10
618.2091039999999
 20
642.9999900000003
 30
0.0
 11
626.2090959999998
 21
642.9999900000003
 31
0.0
  0
LINE
  5
380
330
1F
100
AcDbEntity
  8
Ｓ_１_１
  6
CONTINUOUS
 62
     3
100
AcDbLine
 10
615.2090729999999
 20
639.999998
 30
0.0
 11
615.2090729999999
 21
629.999998
 31
0.0
  0
LINE
  5
381
330
1F
100
AcDbEntity
  8
Ｓ_１_１
  6
CONTINUOUS
 62
     3
100
AcDbLine
 10
643.2257739999999
 20
642.9999430000003
 30
0.0
 11
641.2257739999999
 21
640.9999430000003
 31
0.0
  0
LINE
  5
382
330
1F
100
AcDbEntity
  8
Ｓ_１_１
  6
CONTINUOUS
 62
     3
100
AcDbLine
 10
624.7090809999999
 20
619.999998
 30
0.0
 11
641.7090879999998
 21
619.999998
 31
0.0
  0
LINE
  5
383
330
1F
100
AcDbEntity
  8
Ｓ_１_１
  6
CONTINUOUS
 62
     3
100
AcDbLine
 10
621.7090879999998
 20
627.99999
 30
0.0
 11
621.7090879999998
 21
622.9999910000001
 31
0.0
  0
LINE
  5
384
330
1F
100
AcDbEntity
  8
Ｓ_１_１
  6
CONTINUOUS
 62
     3
100
AcDbLine
 10
618.2091039999999
 20
639.999998
 30
0.0
 11
618.2091039999999
 21
629.999998
 31
0.0
  0
LINE
  5
385
330
1F
100
AcDbEntity
  8
Ｓ_１_１
  6
CONTINUOUS
 62
     3
100
AcDbLine
 10
647.0110589999998
 20
627.99999
 30
0.0
 11
654.7090799999999
 21
627.99999
 31
0.0
  0
LINE
  5
386
330
1F
100
AcDbEntity
  8
Ｓ_１_１
  6
CONTINUOUS
 62
     3
100
AcDbLine
 10
628.2090489999998
 20
641.0000100000002
 30
0.0
 11
626.2090899999998
 21
642.9999690000002
 31
0.0
  0
LINE
  5
387
330
1F
100
AcDbEntity
  8
Ｓ_１_１
  6
CONTINUOUS
 62
     3
100
AcDbLine
 10
628.2091039999999
 20
619.999998
 30
0.0
 11
628.2091039999999
 21
612.9999910000001
 31
0.0
  0
LINE
  5
388
330
1F
100
AcDbEntity
  8
Ｓ_１_１
  6
CONTINUOUS
 62
     3
100
AcDbLine
 10
638.2091029999999
 20
619.999998
 30
0.0
 11
638.2091029999999
 21
612.9999910000001
 31
0.0
  0
LINE
  5
389
330
1F
100
AcDbEntity
  8
Ｓ_１_１
  6
CONTINUOUS
 62
     3
100
AcDbLine
 10
643.2257539999998
 20
642.9999900000003
 30
0.0
 11
654.7090799999999
 21
642.9999900000003
 31
0.0
  0
LINE
  5
38A
330
1F
100
AcDbEntity
  8
Ｓ_１_１
  6
CONTINUOUS
 62
     3
100
AcDbLine
 10
628.2091039999999
 20
641.0000210000001
 30
0.0
 11
640.9590799999999
 21
641.0000210000001
 31
0.0
  0
LINE
  5
38B
330
1F
100
AcDbEntity
  8
Ｓ_１_１
  6
CONTINUOUS
 62
     3
100
AcDbLine
 10
644.7090799999999
 20
626.0000210000001
 30
0.0
 11
644.7090799999999
 21
622.9999910000001
 31
0.0
  0
LINE
  5
38C
330
1F
100
AcDbEntity
  8
Ｓ_１_１
  6
CONTINUOUS
 62
     3
100
AcDbLine
 10
656.7090879999998
 20
641.0000210000001
 30
0.0
 11
656.7090879999998
 21
629.999998
 31
0.0
  0
LINE
  5
38D
330
1F
100
AcDbEntity
  8
Ｓ_１_１
  6
CONTINUOUS
 62
     3
100
AcDbLine
 10
641.2257319999999
 20
641.0000000000002
 30
0.0
 11
644.1132769999999
 21
630.223536
 31
0.0
  0
LINE
  5
38E
330
1F
100
AcDbEntity
  8
Ｓ_１_１
  6
CONTINUOUS
 62
     3
100
AcDbLine
 10
617.2090809999999
 20
627.99999
 30
0.0
 11
626.2090959999998
 21
627.99999
 31
0.0
  0
LINE
  5
38F
330
1F
100
AcDbEntity
  8
Ｓ_１_１
  6
CONTINUOUS
 62
     3
100
AcDbLine
 10
551.8885329999998
 20
574.000014
 30
0.0
 11
551.8885329999998
 21
572.9999910000001
 31
0.0
  0
LINE
  5
390
330
1F
100
AcDbEntity
  8
Ｓ_１_１
  6
CONTINUOUS
 62
     3
100
AcDbLine
 10
557.8885169999999
 20
574.000014
 30
0.0
 11
557.8885169999999
 21
572.9999910000001
 31
0.0
  0
LINE
  5
391
330
1F
100
AcDbEntity
  8
Ｓ_１_１
  6
CONTINUOUS
 62
     3
100
AcDbLine
 10
557.8885169999999
 20
556.000022
 30
0.0
 11
557.8885169999999
 21
557.0000070000001
 31
0.0
  0
LINE
  5
392
330
1F
100
AcDbEntity
  8
Ｓ_１_１
  6
CONTINUOUS
 62
     3
100
AcDbLine
 10
551.8885329999998
 20
556.000022
 30
0.0
 11
551.8885329999998
 21
557.0000070000001
 31
0.0
  0
LINE
  5
393
330
1F
100
AcDbEntity
  8
Ｓ_１_１
  6
CONTINUOUS
 62
     3
100
AcDbLine
 10
547.3885249999998
 20
572.9999910000001
 30
0.0
 11
547.3885249999998
 21
557.0000070000001
 31
0.0
  0
LINE
  5
394
330
1F
100
AcDbEntity
  8
Ｓ_１_１
  6
CONTINUOUS
 62
     3
100
AcDbLine
 10
547.3885249999998
 20
556.000022
 30
0.0
 11
547.3885249999998
 21
552.0000070000001
 31
0.0
  0
LINE
  5
395
330
1F
100
AcDbEntity
  8
Ｓ_１_１
  6
CONTINUOUS
 62
     3
100
AcDbLine
 10
547.3885249999998
 20
572.9999910000001
 30
0.0
 11
561.6060539999999
 21
572.9999910000001
 31
0.0
  0
LINE
  5
396
330
1F
100
AcDbEntity
  8
Ｓ_１_１
  6
CONTINUOUS
 62
     3
100
AcDbLine
 10
547.3885249999998
 20
557.0000070000001
 30
0.0
 11
561.6060539999999
 21
557.0000070000001
 31
0.0
  0
LINE
  5
397
330
1F
100
AcDbEntity
  8
Ｓ_１_１
  6
CONTINUOUS
 62
     3
100
AcDbLine
 10
564.3236059999999
 20
549.0000150000001
 30
0.0
 11
564.3236059999999
 21
552.0000070000001
 31
0.0
  0
LINE
  5
398
330
1F
100
AcDbEntity
  8
Ｓ_１_１
  6
CONTINUOUS
 62
     3
100
AcDbLine
 10
557.8885169999999
 20
549.0000150000001
 30
0.0
 11
557.8885169999999
 21
552.0000070000001
 31
0.0
  0
LINE
  5
399
330
1F
100
AcDbEntity
  8
Ｓ_１_１
  6
CONTINUOUS
 62
     3
100
AcDbLine
 10
551.8885329999998
 20
549.0000150000001
 30
0.0
 11
551.8885329999998
 21
552.0000070000001
 31
0.0
  0
LINE
  5
39A
330
1F
100
AcDbEntity
  8
Ｓ_１_１
  6
CONTINUOUS
 62
     3
100
AcDbLine
 10
557.8885169999999
 20
549.0000150000001
 30
0.0
 11
551.8885329999998
 21
549.0000150000001
 31
0.0
  0
LINE
  5
39B
330
1F
100
AcDbEntity
  8
Ｓ_１_１
  6
CONTINUOUS
 62
     3
100
AcDbLine
 10
572.3235989999998
 20
549.0000150000001
 30
0.0
 11
564.3236059999999
 21
549.0000150000001
 31
0.0
  0
LINE
  5
39C
330
1F
100
AcDbEntity
  8
Ｓ_１_１
  6
CONTINUOUS
 62
     3
100
AcDbLine
 10
572.3235989999998
 20
549.0000150000001
 30
0.0
 11
572.3235989999998
 21
552.0000070000001
 31
0.0
  0
LINE
  5
39D
330
1F
100
AcDbEntity
  8
Ｓ_１_１
  6
CONTINUOUS
 62
     3
100
AcDbLine
 10
561.6060539999999
 20
574.000014
 30
0.0
 11
561.6060539999999
 21
556.000022
 31
0.0
  0
LINE
  5
39E
330
1F
100
AcDbEntity
  8
Ｓ_１_１
  6
CONTINUOUS
 62
     3
100
AcDbLine
 10
562.388792
 20
552.0000070000001
 30
0.0
 11
562.388792
 21
549.000053
 31
0.0
  0
LINE
  5
39F
330
1F
100
AcDbEntity
  8
Ｓ_１_１
  6
CONTINUOUS
 62
     3
100
AcDbLine
 10
551.8885329999998
 20
581.000022
 30
0.0
 11
551.8885329999998
 21
577.9999910000001
 31
0.0
  0
LINE
  5
3A0
330
1F
100
AcDbEntity
  8
Ｓ_１_１
  6
CONTINUOUS
 62
     3
100
AcDbLine
 10
557.8885169999999
 20
581.000022
 30
0.0
 11
557.8885169999999
 21
577.9999910000001
 31
0.0
  0
LINE
  5
3A1
330
1F
100
AcDbEntity
  8
Ｓ_１_１
  6
CONTINUOUS
 62
     3
100
AcDbLine
 10
564.3236059999999
 20
581.000022
 30
0.0
 11
564.3236059999999
 21
577.9999910000001
 31
0.0
  0
LINE
  5
3A2
330
1F
100
AcDbEntity
  8
Ｓ_１_１
  6
CONTINUOUS
 62
     3
100
AcDbLine
 10
572.3235989999998
 20
581.000022
 30
0.0
 11
572.3235989999998
 21
577.9999910000001
 31
0.0
  0
LINE
  5
3A3
330
1F
100
AcDbEntity
  8
Ｓ_１_１
  6
CONTINUOUS
 62
     3
100
AcDbLine
 10
572.3235989999998
 20
581.000022
 30
0.0
 11
564.3236059999999
 21
581.000022
 31
0.0
  0
LINE
  5
3A4
330
1F
100
AcDbEntity
  8
Ｓ_１_１
  6
CONTINUOUS
 62
     3
100
AcDbLine
 10
557.8885169999999
 20
581.000022
 30
0.0
 11
551.8885329999998
 21
581.000022
 31
0.0
  0
LINE
  5
3A5
330
1F
100
AcDbEntity
  8
Ｓ_１_１
  6
CONTINUOUS
 62
     3
100
AcDbLine
 10
547.3885249999998
 20
556.000022
 30
0.0
 11
561.6060539999999
 21
556.000022
 31
0.0
  0
LINE
  5
3A6
330
1F
100
AcDbEntity
  8
Ｓ_１_１
  6
CONTINUOUS
 62
     3
100
AcDbLine
 10
547.3885249999998
 20
574.000014
 30
0.0
 11
561.6060539999999
 21
574.000014
 31
0.0
  0
LINE
  5
3A7
330
1F
100
AcDbEntity
  8
Ｓ_１_１
  6
CONTINUOUS
 62
     3
100
AcDbLine
 10
547.3885249999998
 20
577.9999910000001
 30
0.0
 11
547.3885249999998
 21
574.000014
 31
0.0
  0
LINE
  5
3A8
330
1F
100
AcDbEntity
  8
Ｓ_１_１
  6
CONTINUOUS
 62
     3
100
AcDbLine
 10
598.5288899999998
 20
599.999998
 30
0.0
 11
613.4616369999999
 21
599.999998
 31
0.0
  0
LINE
  5
3A9
330
1F
100
AcDbEntity
  8
Ｓ_１_１
  6
CONTINUOUS
 62
     3
100
AcDbLine
 10
598.5288619999999
 20
599.9999870000001
 30
0.0
 11
592.633981
 21
577.999994
 31
0.0
  0
LINE
  5
3AA
330
1F
100
AcDbEntity
  8
Ｓ_１_１
  6
CONTINUOUS
 62
     3
100
AcDbLine
 10
547.3885249999998
 20
552.0000070000001
 30
0.0
 11
610.3416719999999
 21
552.0000070000001
 31
0.0
  0
LINE
  5
3AB
330
1F
100
AcDbEntity
  8
Ｓ_１_１
  6
CONTINUOUS
 62
     3
100
AcDbLine
 10
547.3885249999998
 20
577.9999910000001
 30
0.0
 11
610.3416719999999
 21
577.9999910000001
 31
0.0
  0
LINE
  5
3AC
330
1F
100
AcDbEntity
  8
Ｓ_１_１
  6
CONTINUOUS
 62
     3
100
AcDbLine
 10
612.3416799999999
 20
576.000022
 30
0.0
 11
612.3416799999999
 21
554.0000140000002
 31
0.0
  0
LINE
  5
3AD
330
1F
100
AcDbEntity
  8
Ｓ_１_１
  6
CONTINUOUS
 62
     3
100
AcDbLine
 10
647.2090709999999
 20
605.0000260000002
 30
0.0
 11
652.2290809999998
 21
586.265095
 31
0.0
  0
LINE
  5
3AE
330
1F
100
AcDbEntity
  8
Ｓ_１_１
  6
CONTINUOUS
 62
     3
100
AcDbLine
 10
598.5288699999999
 20
530.0000150000001
 30
0.0
 11
593.9737279999999
 21
547.000035
 31
0.0
  0
LINE
  5
3AF
330
1F
100
AcDbEntity
  8
Ｓ_１_１
  6
CONTINUOUS
 62
     3
100
AcDbLine
 10
598.5288899999998
 20
530.0
 30
0.0
 11
614.5709889999998
 21
530.0
 31
0.0
  0
LINE
  5
3B0
330
1F
100
AcDbEntity
  8
Ｓ_１_１
  6
CONTINUOUS
 62
     3
100
AcDbLine
 10
670.0285489999999
 20
589.999963
 30
0.0
 11
672.0285339999999
 21
587.999977
 31
0.0
  0
LINE
  5
3B1
330
1F
100
AcDbEntity
  8
Ｓ_１_１
  6
CONTINUOUS
 62
     3
100
AcDbLine
 10
670.0285179999998
 20
540.0000070000001
 30
0.0
 11
672.0285169999999
 21
542.0000070000001
 31
0.0
  0
LINE
  5
3B2
330
1F
100
AcDbEntity
  8
Ｓ_１_１
  6
CONTINUOUS
 62
     3
100
AcDbLine
 10
670.0285229999998
 20
589.9999990000001
 30
0.0
 11
670.0285229999998
 21
572.9999910000001
 31
0.0
  0
LINE
  5
3B3
330
1F
100
AcDbEntity
  8
Ｓ_１_１
  6
CONTINUOUS
 62
     3
100
AcDbLine
 10
670.0285229999998
 20
557.0000070000001
 30
0.0
 11
670.0285229999998
 21
539.9999990000001
 31
0.0
  0
LINE
  5
3B4
330
1F
100
AcDbEntity
  8
Ｓ_１_１
  6
CONTINUOUS
 62
     3
100
AcDbLine
 10
672.0285109999999
 20
557.0000070000001
 30
0.0
 11
672.0285109999999
 21
542.0000070000001
 31
0.0
  0
LINE
  5
3B5
330
1F
100
AcDbEntity
  8
Ｓ_１_１
  6
CONTINUOUS
 62
     3
100
AcDbLine
 10
647.6022419999998
 20
539.9999990000001
 30
0.0
 11
670.0285229999998
 21
539.9999990000001
 31
0.0
  0
LINE
  5
3B6
330
1F
100
AcDbEntity
  8
Ｓ_１_１
  6
CONTINUOUS
 62
     3
100
AcDbLine
 10
651.2283219999998
 20
589.9999990000001
 30
0.0
 11
670.0285229999998
 21
589.9999990000001
 31
0.0
  0
LINE
  5
3B7
330
1F
100
AcDbEntity
  8
Ｓ_１_１
  6
CONTINUOUS
 62
     3
100
AcDbLine
 10
672.0285109999999
 20
587.9999910000001
 30
0.0
 11
672.0285109999999
 21
572.9999910000001
 31
0.0
  0
LINE
  5
3B8
330
1F
100
AcDbEntity
  8
Ｓ_１_１
  6
CONTINUOUS
 62
     3
100
AcDbLine
 10
922.02852
 20
557.0000070000001
 30
0.0
 11
922.02852
 21
537.4999990000001
 31
0.0
  0
LINE
  5
3B9
330
1F
100
AcDbEntity
  8
Ｓ_１_１
  6
CONTINUOUS
 62
     3
100
AcDbLine
 10
957.0285189999998
 20
557.0000070000001
 30
0.0
 11
957.0285189999998
 21
537.4999990000001
 31
0.0
  0
LINE
  5
3BA
330
1F
100
AcDbEntity
  8
Ｓ_１_１
  6
CONTINUOUS
 62
     3
100
AcDbLine
 10
612.3416799999999
 20
557.0000070000001
 30
0.0
 11
958.388517
 21
557.0000070000001
 31
0.0
  0
LINE
  5
3BB
330
1F
100
AcDbEntity
  8
Ｓ_１_１
  6
CONTINUOUS
 62
     3
100
AcDbLine
 10
612.3416799999999
 20
572.9999910000001
 30
0.0
 11
958.388517
 21
572.9999910000001
 31
0.0
  0
LINE
  5
3BC
330
1F
100
AcDbEntity
  8
Ｓ_１_１
  6
CONTINUOUS
 62
     3
100
AcDbLine
 10
672.0285109999999
 20
543.5000220000002
 30
0.0
 11
922.02852
 21
543.5000220000002
 31
0.0
  0
LINE
  5
3BD
330
1F
100
AcDbEntity
  8
Ｓ_１_１
  6
CONTINUOUS
 62
     3
100
AcDbLine
 10
672.0285109999999
 20
586.500014
 30
0.0
 11
922.02852
 21
586.500014
 31
0.0
  0
LINE
  5
3BE
330
1F
100
AcDbEntity
  8
Ｓ_１_１
  6
CONTINUOUS
 62
     3
100
AcDbLine
 10
922.02852
 20
537.4999990000001
 30
0.0
 11
957.0285189999998
 21
537.4999990000001
 31
0.0
  0
LINE
  5
3BF
330
1F
100
AcDbEntity
  8
Ｓ_１_１
  6
CONTINUOUS
 62
     3
100
AcDbLine
 10
922.02852
 20
592.4999990000001
 30
0.0
 11
957.0285189999998
 21
592.4999990000001
 31
0.0
  0
LINE
  5
3C0
330
1F
100
AcDbEntity
  8
Ｓ_１_１
  6
CONTINUOUS
 62
     3
100
AcDbLine
 10
922.02852
 20
592.4999990000001
 30
0.0
 11
922.02852
 21
572.9999910000001
 31
0.0
  0
LINE
  5
3C1
330
1F
100
AcDbEntity
  8
Ｓ_１_１
  6
CONTINUOUS
 62
     3
100
AcDbLine
 10
957.0285189999998
 20
592.4999990000001
 30
0.0
 11
957.0285189999998
 21
572.9999910000001
 31
0.0
  0
LINE
  5
3C2
330
1F
100
AcDbEntity
  8
Ｓ_１_１
  6
CONTINUOUS
 62
     3
100
AcDbLine
 10
634.4792449999999
 20
539.0000150000001
 30
0.0
 11
641.8604169999999
 21
539.0000150000001
 31
0.0
  0
LINE
  5
3C3
330
1F
100
AcDbEntity
  8
Ｓ_１_１
  6
CONTINUOUS
 62
     3
100
AcDbLine
 10
634.4792449999999
 20
530.999984
 30
0.0
 11
641.8604169999999
 21
530.999984
 31
0.0
  0
LINE
  5
3C4
330
1F
100
AcDbEntity
  8
Ｓ_１_１
  6
CONTINUOUS
 62
     3
100
AcDbLine
 10
641.8604169999999
 20
539.0000200000002
 30
0.0
 11
644.1698339999999
 21
534.999992
 31
0.0
  0
LINE
  5
3C5
330
1F
100
AcDbEntity
  8
Ｓ_１_１
  6
CONTINUOUS
 62
     3
100
AcDbLine
 10
632.1698429999999
 20
534.9999790000002
 30
0.0
 11
634.4792229999998
 21
531.0000160000002
 31
0.0
  0
LINE
  5
3C6
330
1F
100
AcDbEntity
  8
Ｓ_１_１
  6
CONTINUOUS
 62
     3
100
AcDbLine
 10
641.8604589999999
 20
531.00001
 30
0.0
 11
644.1698479999999
 21
534.9999890000001
 31
0.0
  0
LINE
  5
3C7
330
1F
100
AcDbEntity
  8
Ｓ_１_１
  6
CONTINUOUS
 62
     3
100
AcDbLine
 10
632.1698239999998
 20
535.0000210000001
 30
0.0
 11
634.4792229999998
 21
539.0000170000001
 31
0.0
  0
LINE
  5
3C8
330
1F
100
AcDbEntity
  8
Ｓ_１_１
  6
CONTINUOUS
 62
     3
100
AcDbLine
 10
623.8604299999998
 20
539.000002
 30
0.0
 11
626.1698289999998
 21
535.000006
 31
0.0
  0
LINE
  5
3C9
330
1F
100
AcDbEntity
  8
Ｓ_１_１
  6
CONTINUOUS
 62
     3
100
AcDbLine
 10
614.1698379999999
 20
534.9999930000001
 30
0.0
 11
616.4792169999998
 21
531.000031
 31
0.0
  0
LINE
  5
3CA
330
1F
100
AcDbEntity
  8
Ｓ_１_１
  6
CONTINUOUS
 62
     3
100
AcDbLine
 10
623.8604199999999
 20
531.0000150000001
 30
0.0
 11
626.1698099999999
 21
534.999994
 31
0.0
  0
LINE
  5
3CB
330
1F
100
AcDbEntity
  8
Ｓ_１_１
  6
CONTINUOUS
 62
     3
100
AcDbLine
 10
614.1697849999998
 20
535.0000260000002
 30
0.0
 11
616.4791939999999
 21
539.0000380000001
 31
0.0
  0
LINE
  5
3CC
330
1F
100
AcDbEntity
  8
Ｓ_１_１
  6
CONTINUOUS
 62
     3
100
AcDbLine
 10
616.4792149999998
 20
530.999984
 30
0.0
 11
623.8604249999999
 21
530.999984
 31
0.0
  0
LINE
  5
3CD
330
1F
100
AcDbEntity
  8
Ｓ_１_１
  6
CONTINUOUS
 62
     3
100
AcDbLine
 10
616.4792149999998
 20
539.0000150000001
 30
0.0
 11
623.8604249999999
 21
539.0000150000001
 31
0.0
  0
LINE
  5
3CE
330
1F
100
AcDbEntity
  8
Ｓ_１_１
  6
CONTINUOUS
 62
     3
100
AcDbLine
 10
609.7090809999999
 20
582.9999910000001
 30
0.0
 11
609.7090809999999
 21
582.500037
 31
0.0
  0
LINE
  5
3CF
330
1F
100
AcDbEntity
  8
Ｓ_１_１
  6
CONTINUOUS
 62
     3
100
AcDbLine
 10
623.2090649999999
 20
612.000006
 30
0.0
 11
623.2090649999999
 21
607.0000440000001
 31
0.0
  0
LINE
  5
3D0
330
1F
100
AcDbEntity
  8
Ｓ_１_１
  6
CONTINUOUS
 62
     3
100
AcDbLine
 10
643.2090839999998
 20
612.000006
 30
0.0
 11
643.2090839999998
 21
607.0000440000001
 31
0.0
  0
LINE
  5
3D1
330
1F
100
AcDbEntity
  8
Ｓ_１_１
  6
CONTINUOUS
 62
     3
100
AcDbLine
 10
628.2091039999999
 20
612.9999910000001
 30
0.0
 11
638.2090649999999
 21
612.9999910000001
 31
0.0
  0
LINE
  5
3D2
330
1F
100
AcDbEntity
  8
Ｓ_１_１
  6
CONTINUOUS
 62
     3
100
AcDbLine
 10
647.2090789999999
 20
605.000035
 30
0.0
 11
645.2091199999999
 21
606.999994
 31
0.0
  0
LINE
  5
3D3
330
1F
100
AcDbEntity
  8
Ｓ_１_１
  6
CONTINUOUS
 62
     3
100
AcDbLine
 10
619.2098259999999
 20
605.0082300000001
 30
0.0
 11
621.5999679999999
 21
607.000014
 31
0.0
  0
LINE
  5
3D4
330
1F
100
AcDbEntity
  8
Ｓ_１_１
  6
CONTINUOUS
 62
     3
100
AcDbLine
 10
621.5999499999999
 20
607.0000440000001
 30
0.0
 11
645.2090919999998
 21
607.0000440000001
 31
0.0
  0
LINE
  5
3D5
330
1F
100
AcDbEntity
  8
Ｓ_１_１
  6
CONTINUOUS
 62
     3
100
AcDbLine
 10
617.6224779999999
 20
587.5473590000001
 30
0.0
 11
619.2098269999999
 21
605.0082
 31
0.0
  0
LINE
  5
3D6
330
1F
100
AcDbEntity
  8
Ｓ_１_１
  6
CONTINUOUS
 62
     3
100
AcDbLine
 10
619.2090879999998
 20
604.999998
 30
0.0
 11
647.2090799999999
 21
604.999998
 31
0.0
  0
LINE
  5
3D7
330
1F
100
AcDbEntity
  8
Ｓ_１_１
  6
CONTINUOUS
 62
     3
100
AcDbLine
 10
649.4400959999999
 20
557.0000030000001
 30
0.0
 11
647.4592929999999
 21
538.6775790000002
 31
0.0
  0
LINE
  5
3D8
330
1F
100
AcDbEntity
  8
Ｓ_１_１
  6
CONTINUOUS
 62
     3
100
AcDbLine
 10
609.4401189999999
 20
552.0000130000001
 30
0.0
 11
610.8803839999998
 21
538.677561
 31
0.0
  0
LINE
  5
3D9
330
1F
100
AcDbEntity
  8
Ｓ_１_１
  6
CONTINUOUS
 62
     3
100
AcDbLine
 10
612.1698279999998
 20
541.0000220000002
 30
0.0
 11
612.1698279999998
 21
534.9999990000001
 31
0.0
  0
LINE
  5
3DA
330
1F
100
AcDbEntity
  8
Ｓ_１_１
  6
CONTINUOUS
 62
     3
100
AcDbLine
 10
628.1698499999999
 20
541.0000220000002
 30
0.0
 11
628.1698499999999
 21
534.9999990000001
 31
0.0
  0
LINE
  5
3DB
330
1F
100
AcDbEntity
  8
Ｓ_１_１
  6
CONTINUOUS
 62
     3
100
AcDbLine
 10
630.1698579999999
 20
541.0000220000002
 30
0.0
 11
630.1698579999999
 21
534.9999990000001
 31
0.0
  0
LINE
  5
3DC
330
1F
100
AcDbEntity
  8
Ｓ_１_１
  6
CONTINUOUS
 62
     3
100
AcDbLine
 10
646.1698419999999
 20
541.0000220000002
 30
0.0
 11
646.1698419999999
 21
534.9999990000001
 31
0.0
  0
LINE
  5
3DD
330
1F
100
AcDbEntity
  8
Ｓ_１_１
  6
CONTINUOUS
 62
     3
100
AcDbLine
 10
615.2644219999999
 20
588.6804240000001
 30
0.0
 11
626.4894019999999
 21
599.9054040000001
 31
0.0
  0
LINE
  5
3DE
330
1F
100
AcDbEntity
  8
Ｓ_１_１
  6
CONTINUOUS
 62
     3
100
AcDbLine
 10
613.8502029999999
 20
590.0946430000001
 30
0.0
 11
625.0751829999999
 21
601.3196230000001
 31
0.0
  0
LINE
  5
3DF
330
1F
100
AcDbEntity
  8
Ｓ_１_１
  6
CONTINUOUS
 62
     3
100
AcDbLine
 10
631.8502379999999
 20
590.0946160000001
 30
0.0
 11
643.0752179999998
 21
601.319596
 31
0.0
  0
LINE
  5
3E0
330
1F
100
AcDbEntity
  8
Ｓ_１_１
  6
CONTINUOUS
 62
     3
100
AcDbLine
 10
633.2644029999999
 20
588.680451
 30
0.0
 11
644.4893829999999
 21
599.9054310000001
 31
0.0
  0
LINE
  5
3E1
330
1F
100
AcDbEntity
  8
Ｓ_１_１
  6
CONTINUOUS
 62
     3
100
AcDbLine
 10
630.1698579999999
 20
594.9999990000001
 30
0.0
 11
630.1698579999999
 21
592.9999910000001
 31
0.0
  0
LINE
  5
3E2
330
1F
100
AcDbEntity
  8
Ｓ_１_１
  6
CONTINUOUS
 62
     3
100
AcDbLine
 10
646.1698419999999
 20
594.9999990000001
 30
0.0
 11
646.1698419999999
 21
592.9999910000001
 31
0.0
  0
LINE
  5
3E3
330
1F
100
AcDbEntity
  8
Ｓ_１_１
  6
CONTINUOUS
 62
     3
100
AcDbLine
 10
628.1698499999999
 20
594.9999990000001
 30
0.0
 11
628.1698499999999
 21
592.9999910000001
 31
0.0
  0
LINE
  5
3E4
330
1F
100
AcDbEntity
  8
Ｓ_１_１
  6
CONTINUOUS
 62
     3
100
AcDbLine
 10
647.1698329999999
 20
594.9999970000001
 30
0.0
 11
650.0085429999999
 21
572.999996
 31
0.0
  0
LINE
  5
3E5
330
1F
100
AcDbEntity
  8
Ｓ_１_１
  6
CONTINUOUS
 62
     3
100
AcDbLine
 10
608.9762579999999
 20
577.999975
 30
0.0
 11
611.1698149999999
 21
595.0000380000001
 31
0.0
  0
LINE
  5
3E6
330
1F
100
AcDbEntity
  8
Ｓ_１_１
  6
CONTINUOUS
 62
     3
100
AcDbLine
 10
958.388517
 20
553.0000300000002
 30
0.0
 11
962.3885359999998
 21
553.0000300000002
 31
0.0
  0
LINE
  5
3E7
330
1F
100
AcDbEntity
  8
Ｓ_１_１
  6
CONTINUOUS
 62
     3
100
AcDbLine
 10
958.388517
 20
584.000014
 30
0.0
 11
962.3885359999998
 21
584.000014
 31
0.0
  0
LINE
  5
3E8
330
1F
100
AcDbEntity
  8
Ｓ_１_１
  6
CONTINUOUS
 62
     3
100
AcDbLine
 10
564.3887609999999
 20
547.000045
 30
0.0
 11
608.1852239999998
 21
547.000045
 31
0.0
  0
LINE
  5
3E9
330
1F
100
AcDbEntity
  8
Ｓ_１_１
  6
CONTINUOUS
 62
     3
100
AcDbLine
 10
962.3885359999998
 20
557.0000070000001
 30
0.0
 11
963.388529
 21
557.0000070000001
 31
0.0
  0
LINE
  5
3EA
330
1F
100
AcDbEntity
  8
Ｓ_１_１
  6
CONTINUOUS
 62
     3
100
AcDbLine
 10
644.2090759999999
 20
531.000029
 30
0.0
 11
645.2090689999999
 21
532.0000220000002
 31
0.0
  0
LINE
  5
3EB
330
1F
100
AcDbEntity
  8
Ｓ_１_１
  6
CONTINUOUS
 62
     3
100
AcDbLine
 10
1037.388485
 20
553.0000560000001
 30
0.0
 11
1046.192373
 21
551.239278
 31
0.0
  0
LINE
  5
3EC
330
1F
100
AcDbEntity
  8
Ｓ_１_１
  6
CONTINUOUS
 62
     3
100
AcDbLine
 10
1037.388488
 20
577.0000260000002
 30
0.0
 11
1046.19237
 21
578.760802
 31
0.0
  0
LINE
  5
3ED
330
1F
100
AcDbEntity
  8
Ｓ_１_１
  6
CONTINUOUS
 62
     3
100
AcDbLine
 10
964.5846429999998
 20
578.7607950000001
 30
0.0
 11
973.3885339999997
 21
577.0000170000001
 31
0.0
  0
LINE
  5
3EE
330
1F
100
AcDbEntity
  8
Ｓ_１_１
  6
CONTINUOUS
 62
     3
100
AcDbLine
 10
964.5846269999998
 20
551.2392440000001
 30
0.0
 11
973.3884999999998
 21
553.0000180000002
 31
0.0
  0
LINE
  5
3EF
330
1F
100
AcDbEntity
  8
Ｓ_１_１
  6
CONTINUOUS
 62
     3
100
AcDbLine
 10
1047.388537
 20
577.7802260000001
 30
0.0
 11
1047.388537
 21
552.21981
 31
0.0
  0
LINE
  5
3F0
330
1F
100
AcDbEntity
  8
Ｓ_１_１
  6
CONTINUOUS
 62
     3
100
AcDbLine
 10
963.388529
 20
577.7802260000001
 30
0.0
 11
963.388529
 21
552.21981
 31
0.0
  0
LINE
  5
3F1
330
1F
100
AcDbEntity
  8
Ｓ_１_１
  6
CONTINUOUS
 62
     3
100
AcDbLine
 10
962.3885359999998
 20
573.000029
 30
0.0
 11
963.388529
 21
573.000029
 31
0.0
  0
LINE
  5
3F2
330
1F
100
AcDbEntity
  8
Ｓ_１_１
  6
CONTINUOUS
 62
     3
100
AcDbLine
 10
973.3885299999997
 20
577.000006
 30
0.0
 11
973.3885299999997
 21
553.0000300000002
 31
0.0
  0
LINE
  5
3F3
330
1F
100
AcDbEntity
  8
Ｓ_１_１
  6
CONTINUOUS
 62
     3
100
AcDbLine
 10
1037.388504
 20
577.000006
 30
0.0
 11
1037.388504
 21
553.0000300000002
 31
0.0
  0
LINE
  5
3F4
330
1F
100
AcDbEntity
  8
Ｓ_１_１
  6
CONTINUOUS
 62
     3
100
AcDbLine
 10
962.3885359999998
 20
584.000014
 30
0.0
 11
962.3885359999998
 21
553.0000300000002
 31
0.0
  0
LINE
  5
3F5
330
1F
100
AcDbEntity
  8
Ｓ_１_１
  6
CONTINUOUS
 62
     3
100
AcDbLine
 10
958.388517
 20
584.000014
 30
0.0
 11
958.388517
 21
553.0000300000002
 31
0.0
  0
LINE
  5
3F6
330
1F
100
AcDbEntity
  8
Ｓ_１_１
  6
EXLTYPE2
 62
     1
100
AcDbLine
 10
412.1781849999999
 20
564.9999990000001
 30
0.0
 11
1052.72260135012
 21
564.9999990000001
 31
0.0
  0
LINE
  5
3F7
330
1F
100
AcDbEntity
  8
Ｓ_１_１
  6
EXLTYPE2
 62
     1
100
AcDbLine
 10
480.1578402182999
 20
387.7144780000001
 30
0.0
 11
539.9286252183
 21
390.324127
 31
0.0
  0
LINE
  5
3F8
330
1F
100
AcDbEntity
  8
Ｓ_１_１
  6
EXLTYPE2
 62
     1
100
AcDbLine
 10
412.3212042183001
 20
236.749502
 30
0.0
 11
973.4314892182999
 21
261.2481050000001
 31
0.0
  0
LINE
  5
3F9
330
1F
100
AcDbEntity
  8
Ｓ_１_１
  6
EXLTYPE2
 62
     1
100
AcDbLine
 10
564.7111722183
 20
283.1241890000001
 30
0.0
 11
571.8466062183
 21
290.259624
 31
0.0
  0
LINE
  5
3FA
330
1F
100
AcDbEntity
  8
Ｓ_１_１
  6
EXLTYPE2
 62
     1
100
AcDbLine
 10
551.8789402183
 20
270.291958
 30
0.0
 11
557.9369802182999
 21
276.349997
 31
0.0
  0
LINE
  5
3FB
330
1F
100
AcDbEntity
  8
Ｓ_１_１
  6
EXLTYPE2
 62
     1
100
AcDbLine
 10
563.8222982183
 20
291.2378820000001
 30
0.0
 11
592.3372502183
 21
262.7229300000001
 31
0.0
  0
LINE
  5
3FC
330
1F
100
AcDbEntity
  8
Ｓ_１_１
  6
EXLTYPE2
 62
     1
100
AcDbLine
 10
551.5364652183
 20
276.6536500000001
 30
0.0
 11
565.3270762183
 21
262.8630400000001
 31
0.0
  0
LINE
  5
3FD
330
1F
100
AcDbEntity
  8
Ｓ_１_１
  6
EXLTYPE2
 62
     1
100
AcDbLine
 10
637.9529152183
 20
277.6238970000001
 30
0.0
 11
639.8156162183
 21
234.961028
 31
0.0
  0
LINE
  5
3FE
330
1F
100
AcDbEntity
  8
Ｓ_１_１
  6
EXLTYPE2
 62
     1
100
AcDbLine
 10
619.9699982183
 20
276.838746
 30
0.0
 11
621.8148542183
 21
234.584595
 31
0.0
  0
LINE
  5
3FF
330
1F
100
AcDbEntity
  8
Ｓ_１_１
  6
EXLTYPE2
 62
     1
100
AcDbLine
 10
611.3044812183
 20
271.4822710000001
 30
0.0
 11
646.6910342182999
 21
273.027281
 31
0.0
  0
LINE
  5
400
330
1F
100
AcDbEntity
  8
Ｓ_１_１
  6
EXLTYPE2
 62
     1
100
AcDbLine
 10
967.0615742182999
 20
287.5192290000001
 30
0.0
 11
967.4422442183
 21
278.800462
 31
0.0
  0
LINE
  5
401
330
1F
100
AcDbEntity
  8
Ｓ_１_１
  6
EXLTYPE2
 62
     1
100
AcDbLine
 10
956.0069862182999
 20
282.508321
 30
0.0
 11
973.1092432183
 21
283.2550210000001
 31
0.0
  0
POLYLINE
  5
402
330
1F
100
AcDbEntity
  8
Ｓ_１_１
  6
CONTINUOUS
 62
     3
100
AcDb2dPolyline
 66
     1
 10
0.0
 20
0.0
 30
0.0
 70
   128
  0
VERTEX
  5
403
330
402
100
AcDbEntity
  8
Ｓ_１_１
  6
CONTINUOUS
 62
     3
100
AcDbVertex
100
AcDb2dVertex
 10
630.6136212183
 20
262.3158250000001
 30
0.0
  0
VERTEX
  5
404
330
402
100
AcDbEntity
  8
Ｓ_１_１
  6
CONTINUOUS
 62
     3
100
AcDbVertex
100
AcDb2dVertex
 10
630.7229052183
 20
261.6795700000001
 30
0.0
  0
VERTEX
  5
405
330
402
100
AcDbEntity
  8
Ｓ_１_１
  6
CONTINUOUS
 62
     3
100
AcDbVertex
100
AcDb2dVertex
 10
630.9926672183
 20
261.0633700000001
 30
0.0
  0
VERTEX
  5
406
330
402
100
AcDbEntity
  8
Ｓ_１_１
  6
CONTINUOUS
 62
     3
100
AcDbVertex
100
AcDb2dVertex
 10
631.4174132183
 20
260.4797710000001
 30
0.0
  0
VERTEX
  5
407
330
402
100
AcDbEntity
  8
Ｓ_１_１
  6
CONTINUOUS
 62
     3
100
AcDbVertex
100
AcDb2dVertex
 10
631.9884992182999
 20
259.9406510000001
 30
0.0
  0
VERTEX
  5
408
330
402
100
AcDbEntity
  8
Ｓ_１_１
  6
CONTINUOUS
 62
     3
100
AcDbVertex
100
AcDb2dVertex
 10
632.6942972183
 20
259.4569870000001
 30
0.0
  0
VERTEX
  5
409
330
402
100
AcDbEntity
  8
Ｓ_１_１
  6
CONTINUOUS
 62
     3
100
AcDbVertex
100
AcDb2dVertex
 10
633.5204402183
 20
259.038623
 30
0.0
  0
VERTEX
  5
40A
330
402
100
AcDbEntity
  8
Ｓ_１_１
  6
CONTINUOUS
 62
     3
100
AcDbVertex
100
AcDb2dVertex
 10
634.4501102183
 20
258.6940780000001
 30
0.0
  0
VERTEX
  5
40B
330
402
100
AcDbEntity
  8
Ｓ_１_１
  6
CONTINUOUS
 62
     3
100
AcDbVertex
100
AcDb2dVertex
 10
635.4643822183
 20
258.4303640000001
 30
0.0
  0
VERTEX
  5
40C
330
402
100
AcDbEntity
  8
Ｓ_１_１
  6
CONTINUOUS
 62
     3
100
AcDbVertex
100
AcDb2dVertex
 10
636.5426082183
 20
258.2528500000001
 30
0.0
  0
VERTEX
  5
40D
330
402
100
AcDbEntity
  8
Ｓ_１_１
  6
CONTINUOUS
 62
     3
100
AcDbVertex
100
AcDb2dVertex
 10
637.6628392183
 20
258.165149
 30
0.0
  0
VERTEX
  5
40E
330
402
100
AcDbEntity
  8
Ｓ_１_１
  6
CONTINUOUS
 62
     3
100
AcDbVertex
100
AcDb2dVertex
 10
638.8022712183
 20
258.1690480000001
 30
0.0
  0
VERTEX
  5
40F
330
402
100
AcDbEntity
  8
Ｓ_１_１
  6
CONTINUOUS
 62
     3
100
AcDbVertex
100
AcDb2dVertex
 10
639.9377072182999
 20
258.2644660000001
 30
0.0
  0
VERTEX
  5
410
330
402
100
AcDbEntity
  8
Ｓ_１_１
  6
CONTINUOUS
 62
     3
100
AcDbVertex
100
AcDb2dVertex
 10
641.0460332183
 20
258.449462
 30
0.0
  0
VERTEX
  5
411
330
402
100
AcDbEntity
  8
Ｓ_１_１
  6
CONTINUOUS
 62
     3
100
AcDbVertex
100
AcDb2dVertex
 10
642.1046882183
 20
258.720269
 30
0.0
  0
VERTEX
  5
412
330
402
100
AcDbEntity
  8
Ｓ_１_１
  6
CONTINUOUS
 62
     3
100
AcDbVertex
100
AcDb2dVertex
 10
643.0921212183
 20
259.0713740000001
 30
0.0
  0
VERTEX
  5
413
330
402
100
AcDbEntity
  8
Ｓ_１_１
  6
CONTINUOUS
 62
     3
100
AcDbVertex
100
AcDb2dVertex
 10
643.9882292182999
 20
259.4956300000001
 30
0.0
  0
VERTEX
  5
414
330
402
100
AcDbEntity
  8
Ｓ_１_１
  6
CONTINUOUS
 62
     3
100
AcDbVertex
100
AcDb2dVertex
 10
644.7747722183
 20
259.984401
 30
0.0
  0
VERTEX
  5
415
330
402
100
AcDbEntity
  8
Ｓ_１_１
  6
CONTINUOUS
 62
     3
100
AcDbVertex
100
AcDb2dVertex
 10
645.4357372183
 20
260.5277360000001
 30
0.0
  0
VERTEX
  5
416
330
402
100
AcDbEntity
  8
Ｓ_１_１
  6
CONTINUOUS
 62
     3
100
AcDbVertex
100
AcDb2dVertex
 10
645.9576692183
 20
261.1145750000001
 30
0.0
  0
VERTEX
  5
417
330
402
100
AcDbEntity
  8
Ｓ_１_１
  6
CONTINUOUS
 62
     3
100
AcDbVertex
100
AcDb2dVertex
 10
646.3299432183
 20
261.7329710000001
 30
0.0
  0
VERTEX
  5
418
330
402
100
AcDbEntity
  8
Ｓ_１_１
  6
CONTINUOUS
 62
     3
100
AcDbVertex
100
AcDb2dVertex
 10
646.5449812183
 20
262.3703360000001
 30
0.0
  0
VERTEX
  5
419
330
402
100
AcDbEntity
  8
Ｓ_１_１
  6
CONTINUOUS
 62
     3
100
AcDbVertex
100
AcDb2dVertex
 10
646.5984052183
 20
263.0136950000001
 30
0.0
  0
VERTEX
  5
41A
330
402
100
AcDbEntity
  8
Ｓ_１_１
  6
CONTINUOUS
 62
     3
100
AcDbVertex
100
AcDb2dVertex
 10
646.5984022183
 20
263.0137530000001
 30
0.0
  0
SEQEND
  5
41B
330
402
100
AcDbEntity
  8
Ｓ_１_１
  6
CONTINUOUS
 62
     3
  0
POLYLINE
  5
41C
330
1F
100
AcDbEntity
  8
Ｓ_１_１
  6
CONTINUOUS
 62
     3
100
AcDb2dPolyline
 66
     1
 10
0.0
 20
0.0
 30
0.0
 70
   128
  0
VERTEX
  5
41D
330
41C
100
AcDbEntity
  8
Ｓ_１_１
  6
CONTINUOUS
 62
     3
100
AcDbVertex
100
AcDb2dVertex
 10
612.6307952183
 20
261.5306840000001
 30
0.0
  0
VERTEX
  5
41E
330
41C
100
AcDbEntity
  8
Ｓ_１_１
  6
CONTINUOUS
 62
     3
100
AcDbVertex
100
AcDb2dVertex
 10
612.7400792183
 20
260.8944300000001
 30
0.0
  0
VERTEX
  5
41F
330
41C
100
AcDbEntity
  8
Ｓ_１_１
  6
CONTINUOUS
 62
     3
100
AcDbVertex
100
AcDb2dVertex
 10
613.0098402182999
 20
260.2782310000001
 30
0.0
  0
VERTEX
  5
420
330
41C
100
AcDbEntity
  8
Ｓ_１_１
  6
CONTINUOUS
 62
     3
100
AcDbVertex
100
AcDb2dVertex
 10
613.4345862183
 20
259.6946330000001
 30
0.0
  0
VERTEX
  5
421
330
41C
100
AcDbEntity
  8
Ｓ_１_１
  6
CONTINUOUS
 62
     3
100
AcDbVertex
100
AcDb2dVertex
 10
614.0056702183
 20
259.155514
 30
0.0
  0
VERTEX
  5
422
330
41C
100
AcDbEntity
  8
Ｓ_１_１
  6
CONTINUOUS
 62
     3
100
AcDbVertex
100
AcDb2dVertex
 10
614.7114672183
 20
258.6718510000001
 30
0.0
  0
VERTEX
  5
423
330
41C
100
AcDbEntity
  8
Ｓ_１_１
  6
CONTINUOUS
 62
     3
100
AcDbVertex
100
AcDb2dVertex
 10
615.5376082183
 20
258.2534880000001
 30
0.0
  0
VERTEX
  5
424
330
41C
100
AcDbEntity
  8
Ｓ_１_１
  6
CONTINUOUS
 62
     3
100
AcDbVertex
100
AcDb2dVertex
 10
616.4672762183
 20
257.9089430000001
 30
0.0
  0
VERTEX
  5
425
330
41C
100
AcDbEntity
  8
Ｓ_１_１
  6
CONTINUOUS
 62
     3
100
AcDbVertex
100
AcDb2dVertex
 10
617.4815452183
 20
257.6452300000001
 30
0.0
  0
VERTEX
  5
426
330
41C
100
AcDbEntity
  8
Ｓ_１_１
  6
CONTINUOUS
 62
     3
100
AcDbVertex
100
AcDb2dVertex
 10
618.5597692183
 20
257.4677170000001
 30
0.0
  0
VERTEX
  5
427
330
41C
100
AcDbEntity
  8
Ｓ_１_１
  6
CONTINUOUS
 62
     3
100
AcDbVertex
100
AcDb2dVertex
 10
619.6799972183
 20
257.3800180000001
 30
0.0
  0
VERTEX
  5
428
330
41C
100
AcDbEntity
  8
Ｓ_１_１
  6
CONTINUOUS
 62
     3
100
AcDbVertex
100
AcDb2dVertex
 10
620.8194252183
 20
257.3839170000001
 30
0.0
  0
VERTEX
  5
429
330
41C
100
AcDbEntity
  8
Ｓ_１_１
  6
CONTINUOUS
 62
     3
100
AcDbVertex
100
AcDb2dVertex
 10
621.9548582182999
 20
257.4793360000001
 30
0.0
  0
VERTEX
  5
42A
330
41C
100
AcDbEntity
  8
Ｓ_１_１
  6
CONTINUOUS
 62
     3
100
AcDbVertex
100
AcDb2dVertex
 10
623.0631812183
 20
257.6643320000001
 30
0.0
  0
VERTEX
  5
42B
330
41C
100
AcDbEntity
  8
Ｓ_１_１
  6
CONTINUOUS
 62
     3
100
AcDbVertex
100
AcDb2dVertex
 10
624.1218322183
 20
257.935139
 30
0.0
  0
VERTEX
  5
42C
330
41C
100
AcDbEntity
  8
Ｓ_１_１
  6
CONTINUOUS
 62
     3
100
AcDbVertex
100
AcDb2dVertex
 10
625.1092612182999
 20
258.2862450000001
 30
0.0
  0
VERTEX
  5
42D
330
41C
100
AcDbEntity
  8
Ｓ_１_１
  6
CONTINUOUS
 62
     3
100
AcDbVertex
100
AcDb2dVertex
 10
626.0053662183
 20
258.7105020000001
 30
0.0
  0
VERTEX
  5
42E
330
41C
100
AcDbEntity
  8
Ｓ_１_１
  6
CONTINUOUS
 62
     3
100
AcDbVertex
100
AcDb2dVertex
 10
626.7919052183
 20
259.1992720000001
 30
0.0
  0
VERTEX
  5
42F
330
41C
100
AcDbEntity
  8
Ｓ_１_１
  6
CONTINUOUS
 62
     3
100
AcDbVertex
100
AcDb2dVertex
 10
627.4528662183
 20
259.7426070000001
 30
0.0
  0
VERTEX
  5
430
330
41C
100
AcDbEntity
  8
Ｓ_１_１
  6
CONTINUOUS
 62
     3
100
AcDbVertex
100
AcDb2dVertex
 10
627.9747942183
 20
260.3294460000001
 30
0.0
  0
VERTEX
  5
431
330
41C
100
AcDbEntity
  8
Ｓ_１_１
  6
CONTINUOUS
 62
     3
100
AcDbVertex
100
AcDb2dVertex
 10
628.3470652183
 20
260.947842
 30
0.0
  0
VERTEX
  5
432
330
41C
100
AcDbEntity
  8
Ｓ_１_１
  6
CONTINUOUS
 62
     3
100
AcDbVertex
100
AcDb2dVertex
 10
628.5621002183
 20
261.5852060000001
 30
0.0
  0
VERTEX
  5
433
330
41C
100
AcDbEntity
  8
Ｓ_１_１
  6
CONTINUOUS
 62
     3
100
AcDbVertex
100
AcDb2dVertex
 10
628.6155212182999
 20
262.2285640000001
 30
0.0
  0
SEQEND
  5
434
330
41C
100
AcDbEntity
  8
Ｓ_１_１
  6
CONTINUOUS
 62
     3
  0
POLYLINE
  5
435
330
1F
100
AcDbEntity
  8
Ｓ_１_１
  6
CONTINUOUS
 62
     3
100
AcDb2dPolyline
 66
     1
 10
0.0
 20
0.0
 30
0.0
 70
   128
  0
VERTEX
  5
436
330
435
100
AcDbEntity
  8
Ｓ_１_１
  6
CONTINUOUS
 62
     3
100
AcDbVertex
100
AcDb2dVertex
 10
646.1622122182999
 20
273.0042060000001
 30
0.0
  0
VERTEX
  5
437
330
435
100
AcDbEntity
  8
Ｓ_１_１
  6
CONTINUOUS
 62
     3
100
AcDbVertex
100
AcDb2dVertex
 10
646.1146912183
 20
273.394706
 30
0.0
  0
VERTEX
  5
438
330
435
100
AcDbEntity
  8
Ｓ_１_１
  6
CONTINUOUS
 62
     3
100
AcDbVertex
100
AcDb2dVertex
 10
646.0067042183
 20
273.779578
 30
0.0
  0
VERTEX
  5
439
330
435
100
AcDbEntity
  8
Ｓ_１_１
  6
CONTINUOUS
 62
     3
100
AcDbVertex
100
AcDb2dVertex
 10
645.8390752183
 20
274.1558930000001
 30
0.0
  0
VERTEX
  5
43A
330
435
100
AcDbEntity
  8
Ｓ_１_１
  6
CONTINUOUS
 62
     3
100
AcDbVertex
100
AcDb2dVertex
 10
645.6130772183
 20
274.520787
 30
0.0
  0
VERTEX
  5
43B
330
435
100
AcDbEntity
  8
Ｓ_１_１
  6
CONTINUOUS
 62
     3
100
AcDbVertex
100
AcDb2dVertex
 10
645.3304332183
 20
274.8714830000001
 30
0.0
  0
VERTEX
  5
43C
330
435
100
AcDbEntity
  8
Ｓ_１_１
  6
CONTINUOUS
 62
     3
100
AcDbVertex
100
AcDb2dVertex
 10
644.9932912183
 20
275.205313
 30
0.0
  0
VERTEX
  5
43D
330
435
100
AcDbEntity
  8
Ｓ_１_１
  6
CONTINUOUS
 62
     3
100
AcDbVertex
100
AcDb2dVertex
 10
644.6042192182999
 20
275.5197350000001
 30
0.0
  0
VERTEX
  5
43E
330
435
100
AcDbEntity
  8
Ｓ_１_１
  6
CONTINUOUS
 62
     3
100
AcDbVertex
100
AcDb2dVertex
 10
644.1661772182999
 20
275.812356
 30
0.0
  0
VERTEX
  5
43F
330
435
100
AcDbEntity
  8
Ｓ_１_１
  6
CONTINUOUS
 62
     3
100
AcDbVertex
100
AcDb2dVertex
 10
643.6825002183
 20
276.08095
 30
0.0
  0
VERTEX
  5
440
330
435
100
AcDbEntity
  8
Ｓ_１_１
  6
CONTINUOUS
 62
     3
100
AcDbVertex
100
AcDb2dVertex
 10
643.1568682183
 20
276.323472
 30
0.0
  0
VERTEX
  5
441
330
435
100
AcDbEntity
  8
Ｓ_１_１
  6
CONTINUOUS
 62
     3
100
AcDbVertex
100
AcDb2dVertex
 10
642.5932812182999
 20
276.538077
 30
0.0
  0
VERTEX
  5
442
330
435
100
AcDbEntity
  8
Ｓ_１_１
  6
CONTINUOUS
 62
     3
100
AcDbVertex
100
AcDb2dVertex
 10
641.9960292183
 20
276.7231310000001
 30
0.0
  0
VERTEX
  5
443
330
435
100
AcDbEntity
  8
Ｓ_１_１
  6
CONTINUOUS
 62
     3
100
AcDbVertex
100
AcDb2dVertex
 10
641.3696582183
 20
276.8772260000001
 30
0.0
  0
VERTEX
  5
444
330
435
100
AcDbEntity
  8
Ｓ_１_１
  6
CONTINUOUS
 62
     3
100
AcDbVertex
100
AcDb2dVertex
 10
640.7189342183
 20
276.9991890000001
 30
0.0
  0
VERTEX
  5
445
330
435
100
AcDbEntity
  8
Ｓ_１_１
  6
CONTINUOUS
 62
     3
100
AcDbVertex
100
AcDb2dVertex
 10
640.0488102183
 20
277.0880930000001
 30
0.0
  0
VERTEX
  5
446
330
435
100
AcDbEntity
  8
Ｓ_１_１
  6
CONTINUOUS
 62
     3
100
AcDbVertex
100
AcDb2dVertex
 10
639.3643852183
 20
277.1432590000001
 30
0.0
  0
VERTEX
  5
447
330
435
100
AcDbEntity
  8
Ｓ_１_１
  6
CONTINUOUS
 62
     3
100
AcDbVertex
100
AcDb2dVertex
 10
638.6708702183
 20
277.1642690000001
 30
0.0
  0
VERTEX
  5
448
330
435
100
AcDbEntity
  8
Ｓ_１_１
  6
CONTINUOUS
 62
     3
100
AcDbVertex
100
AcDb2dVertex
 10
637.9735412182999
 20
277.150963
 30
0.0
  0
VERTEX
  5
449
330
435
100
AcDbEntity
  8
Ｓ_１_１
  6
CONTINUOUS
 62
     3
100
AcDbVertex
100
AcDb2dVertex
 10
637.2777062183
 20
277.1034420000001
 30
0.0
  0
VERTEX
  5
44A
330
435
100
AcDbEntity
  8
Ｓ_１_１
  6
CONTINUOUS
 62
     3
100
AcDbVertex
100
AcDb2dVertex
 10
636.5886602183
 20
277.0220670000001
 30
0.0
  0
VERTEX
  5
44B
330
435
100
AcDbEntity
  8
Ｓ_１_１
  6
CONTINUOUS
 62
     3
100
AcDbVertex
100
AcDb2dVertex
 10
635.9116482183
 20
276.907458
 30
0.0
  0
VERTEX
  5
44C
330
435
100
AcDbEntity
  8
Ｓ_１_１
  6
CONTINUOUS
 62
     3
100
AcDbVertex
100
AcDb2dVertex
 10
635.2518232182999
 20
276.7604870000001
 30
0.0
  0
VERTEX
  5
44D
330
435
100
AcDbEntity
  8
Ｓ_１_１
  6
CONTINUOUS
 62
     3
100
AcDbVertex
100
AcDb2dVertex
 10
634.6142052183
 20
276.5822730000001
 30
0.0
  0
VERTEX
  5
44E
330
435
100
AcDbEntity
  8
Ｓ_１_１
  6
CONTINUOUS
 62
     3
100
AcDbVertex
100
AcDb2dVertex
 10
634.0036472183
 20
276.374172
 30
0.0
  0
VERTEX
  5
44F
330
435
100
AcDbEntity
  8
Ｓ_１_１
  6
CONTINUOUS
 62
     3
100
AcDbVertex
100
AcDb2dVertex
 10
633.4247972183
 20
276.1377680000001
 30
0.0
  0
VERTEX
  5
450
330
435
100
AcDbEntity
  8
Ｓ_１_１
  6
CONTINUOUS
 62
     3
100
AcDbVertex
100
AcDb2dVertex
 10
632.8820602183
 20
275.874859
 30
0.0
  0
VERTEX
  5
451
330
435
100
AcDbEntity
  8
Ｓ_１_１
  6
CONTINUOUS
 62
     3
100
AcDbVertex
100
AcDb2dVertex
 10
632.3795652183
 20
275.5874470000001
 30
0.0
  0
VERTEX
  5
452
330
435
100
AcDbEntity
  8
Ｓ_１_１
  6
CONTINUOUS
 62
     3
100
AcDbVertex
100
AcDb2dVertex
 10
631.9211382183
 20
275.27772
 30
0.0
  0
VERTEX
  5
453
330
435
100
AcDbEntity
  8
Ｓ_１_１
  6
CONTINUOUS
 62
     3
100
AcDbVertex
100
AcDb2dVertex
 10
631.5102672183
 20
274.9480340000001
 30
0.0
  0
VERTEX
  5
454
330
435
100
AcDbEntity
  8
Ｓ_１_１
  6
CONTINUOUS
 62
     3
100
AcDbVertex
100
AcDb2dVertex
 10
631.1500802183
 20
274.600898
 30
0.0
  0
VERTEX
  5
455
330
435
100
AcDbEntity
  8
Ｓ_１_１
  6
CONTINUOUS
 62
     3
100
AcDbVertex
100
AcDb2dVertex
 10
630.8433172183
 20
274.238955
 30
0.0
  0
VERTEX
  5
456
330
435
100
AcDbEntity
  8
Ｓ_１_１
  6
CONTINUOUS
 62
     3
100
AcDbVertex
100
AcDb2dVertex
 10
630.5923132183
 20
273.8649590000001
 30
0.0
  0
VERTEX
  5
457
330
435
100
AcDbEntity
  8
Ｓ_１_１
  6
CONTINUOUS
 62
     3
100
AcDbVertex
100
AcDb2dVertex
 10
630.3989792182999
 20
273.481756
 30
0.0
  0
VERTEX
  5
458
330
435
100
AcDbEntity
  8
Ｓ_１_１
  6
CONTINUOUS
 62
     3
100
AcDbVertex
100
AcDb2dVertex
 10
630.2647852183
 20
273.0922630000001
 30
0.0
  0
VERTEX
  5
459
330
435
100
AcDbEntity
  8
Ｓ_１_１
  6
CONTINUOUS
 62
     3
100
AcDbVertex
100
AcDb2dVertex
 10
630.1907542183
 20
272.6994440000001
 30
0.0
  0
VERTEX
  5
45A
330
435
100
AcDbEntity
  8
Ｓ_１_１
  6
CONTINUOUS
 62
     3
100
AcDbVertex
100
AcDb2dVertex
 10
630.1774482183
 20
272.3062880000001
 30
0.0
  0
VERTEX
  5
45B
330
435
100
AcDbEntity
  8
Ｓ_１_１
  6
CONTINUOUS
 62
     3
100
AcDbVertex
100
AcDb2dVertex
 10
630.2249692183
 20
271.915789
 30
0.0
  0
VERTEX
  5
45C
330
435
100
AcDbEntity
  8
Ｓ_１_１
  6
CONTINUOUS
 62
     3
100
AcDbVertex
100
AcDb2dVertex
 10
630.3329562183
 20
271.530917
 30
0.0
  0
VERTEX
  5
45D
330
435
100
AcDbEntity
  8
Ｓ_１_１
  6
CONTINUOUS
 62
     3
100
AcDbVertex
100
AcDb2dVertex
 10
630.5005852183
 20
271.1546020000001
 30
0.0
  0
VERTEX
  5
45E
330
435
100
AcDbEntity
  8
Ｓ_１_１
  6
CONTINUOUS
 62
     3
100
AcDbVertex
100
AcDb2dVertex
 10
630.7265832183
 20
270.789708
 30
0.0
  0
VERTEX
  5
45F
330
435
100
AcDbEntity
  8
Ｓ_１_１
  6
CONTINUOUS
 62
     3
100
AcDbVertex
100
AcDb2dVertex
 10
631.0092282183
 20
270.439012
 30
0.0
  0
VERTEX
  5
460
330
435
100
AcDbEntity
  8
Ｓ_１_１
  6
CONTINUOUS
 62
     3
100
AcDbVertex
100
AcDb2dVertex
 10
631.3463692183
 20
270.1051820000001
 30
0.0
  0
VERTEX
  5
461
330
435
100
AcDbEntity
  8
Ｓ_１_１
  6
CONTINUOUS
 62
     3
100
AcDbVertex
100
AcDb2dVertex
 10
631.7354412183
 20
269.7907600000001
 30
0.0
  0
VERTEX
  5
462
330
435
100
AcDbEntity
  8
Ｓ_１_１
  6
CONTINUOUS
 62
     3
100
AcDbVertex
100
AcDb2dVertex
 10
632.1734832183
 20
269.498139
 30
0.0
  0
VERTEX
  5
463
330
435
100
AcDbEntity
  8
Ｓ_１_１
  6
CONTINUOUS
 62
     3
100
AcDbVertex
100
AcDb2dVertex
 10
632.6571602183
 20
269.229545
 30
0.0
  0
VERTEX
  5
464
330
435
100
AcDbEntity
  8
Ｓ_１_１
  6
CONTINUOUS
 62
     3
100
AcDbVertex
100
AcDb2dVertex
 10
633.1827922182999
 20
268.987023
 30
0.0
  0
VERTEX
  5
465
330
435
100
AcDbEntity
  8
Ｓ_１_１
  6
CONTINUOUS
 62
     3
100
AcDbVertex
100
AcDb2dVertex
 10
633.7463792182999
 20
268.772418
 30
0.0
  0
VERTEX
  5
466
330
435
100
AcDbEntity
  8
Ｓ_１_１
  6
CONTINUOUS
 62
     3
100
AcDbVertex
100
AcDb2dVertex
 10
634.3436312183
 20
268.5873640000001
 30
0.0
  0
VERTEX
  5
467
330
435
100
AcDbEntity
  8
Ｓ_１_１
  6
CONTINUOUS
 62
     3
100
AcDbVertex
100
AcDb2dVertex
 10
634.9700022183
 20
268.4332690000001
 30
0.0
  0
VERTEX
  5
468
330
435
100
AcDbEntity
  8
Ｓ_１_１
  6
CONTINUOUS
 62
     3
100
AcDbVertex
100
AcDb2dVertex
 10
635.6207262183
 20
268.3113050000001
 30
0.0
  0
VERTEX
  5
469
330
435
100
AcDbEntity
  8
Ｓ_１_１
  6
CONTINUOUS
 62
     3
100
AcDbVertex
100
AcDb2dVertex
 10
636.2908502183
 20
268.2224020000001
 30
0.0
  0
VERTEX
  5
46A
330
435
100
AcDbEntity
  8
Ｓ_１_１
  6
CONTINUOUS
 62
     3
100
AcDbVertex
100
AcDb2dVertex
 10
636.9752752183
 20
268.1672350000001
 30
0.0
  0
VERTEX
  5
46B
330
435
100
AcDbEntity
  8
Ｓ_１_１
  6
CONTINUOUS
 62
     3
100
AcDbVertex
100
AcDb2dVertex
 10
637.6687912182999
 20
268.1462250000001
 30
0.0
  0
VERTEX
  5
46C
330
435
100
AcDbEntity
  8
Ｓ_１_１
  6
CONTINUOUS
 62
     3
100
AcDbVertex
100
AcDb2dVertex
 10
638.3661202183
 20
268.1595320000001
 30
0.0
  0
VERTEX
  5
46D
330
435
100
AcDbEntity
  8
Ｓ_１_１
  6
CONTINUOUS
 62
     3
100
AcDbVertex
100
AcDb2dVertex
 10
639.0619552183
 20
268.2070530000001
 30
0.0
  0
VERTEX
  5
46E
330
435
100
AcDbEntity
  8
Ｓ_１_１
  6
CONTINUOUS
 62
     3
100
AcDbVertex
100
AcDb2dVertex
 10
639.7510002183
 20
268.2884280000001
 30
0.0
  0
VERTEX
  5
46F
330
435
100
AcDbEntity
  8
Ｓ_１_１
  6
CONTINUOUS
 62
     3
100
AcDbVertex
100
AcDb2dVertex
 10
640.4280122183
 20
268.403037
 30
0.0
  0
VERTEX
  5
470
330
435
100
AcDbEntity
  8
Ｓ_１_１
  6
CONTINUOUS
 62
     3
100
AcDbVertex
100
AcDb2dVertex
 10
641.0878372183
 20
268.5500070000001
 30
0.0
  0
VERTEX
  5
471
330
435
100
AcDbEntity
  8
Ｓ_１_１
  6
CONTINUOUS
 62
     3
100
AcDbVertex
100
AcDb2dVertex
 10
641.7254552183
 20
268.7282220000001
 30
0.0
  0
VERTEX
  5
472
330
435
100
AcDbEntity
  8
Ｓ_１_１
  6
CONTINUOUS
 62
     3
100
AcDbVertex
100
AcDb2dVertex
 10
642.3360132183
 20
268.936323
 30
0.0
  0
VERTEX
  5
473
330
435
100
AcDbEntity
  8
Ｓ_１_１
  6
CONTINUOUS
 62
     3
100
AcDbVertex
100
AcDb2dVertex
 10
642.9148632183
 20
269.1727270000001
 30
0.0
  0
VERTEX
  5
474
330
435
100
AcDbEntity
  8
Ｓ_１_１
  6
CONTINUOUS
 62
     3
100
AcDbVertex
100
AcDb2dVertex
 10
643.4576012182999
 20
269.435636
 30
0.0
  0
VERTEX
  5
475
330
435
100
AcDbEntity
  8
Ｓ_１_１
  6
CONTINUOUS
 62
     3
100
AcDbVertex
100
AcDb2dVertex
 10
643.9600952183
 20
269.7230470000001
 30
0.0
  0
VERTEX
  5
476
330
435
100
AcDbEntity
  8
Ｓ_１_１
  6
CONTINUOUS
 62
     3
100
AcDbVertex
100
AcDb2dVertex
 10
644.4185222182999
 20
270.032775
 30
0.0
  0
VERTEX
  5
477
330
435
100
AcDbEntity
  8
Ｓ_１_１
  6
CONTINUOUS
 62
     3
100
AcDbVertex
100
AcDb2dVertex
 10
644.8293932183
 20
270.3624610000001
 30
0.0
  0
VERTEX
  5
478
330
435
100
AcDbEntity
  8
Ｓ_１_１
  6
CONTINUOUS
 62
     3
100
AcDbVertex
100
AcDb2dVertex
 10
645.1895812183
 20
270.709597
 30
0.0
  0
VERTEX
  5
479
330
435
100
AcDbEntity
  8
Ｓ_１_１
  6
CONTINUOUS
 62
     3
100
AcDbVertex
100
AcDb2dVertex
 10
645.4963442183
 20
271.07154
 30
0.0
  0
VERTEX
  5
47A
330
435
100
AcDbEntity
  8
Ｓ_１_１
  6
CONTINUOUS
 62
     3
100
AcDbVertex
100
AcDb2dVertex
 10
645.7473472183
 20
271.4455360000001
 30
0.0
  0
VERTEX
  5
47B
330
435
100
AcDbEntity
  8
Ｓ_１_１
  6
CONTINUOUS
 62
     3
100
AcDbVertex
100
AcDb2dVertex
 10
645.9406822183
 20
271.828739
 30
0.0
  0
VERTEX
  5
47C
330
435
100
AcDbEntity
  8
Ｓ_１_１
  6
CONTINUOUS
 62
     3
100
AcDbVertex
100
AcDb2dVertex
 10
646.0748752183
 20
272.2182320000001
 30
0.0
  0
VERTEX
  5
47D
330
435
100
AcDbEntity
  8
Ｓ_１_１
  6
CONTINUOUS
 62
     3
100
AcDbVertex
100
AcDb2dVertex
 10
646.1489062183
 20
272.6110510000001
 30
0.0
  0
VERTEX
  5
47E
330
435
100
AcDbEntity
  8
Ｓ_１_１
  6
CONTINUOUS
 62
     3
100
AcDbVertex
100
AcDb2dVertex
 10
646.1622122182999
 20
273.0042060000001
 30
0.0
  0
SEQEND
  5
47F
330
435
100
AcDbEntity
  8
Ｓ_１_１
  6
CONTINUOUS
 62
     3
  0
POLYLINE
  5
480
330
1F
100
AcDbEntity
  8
Ｓ_１_１
  6
CONTINUOUS
 62
     3
100
AcDb2dPolyline
 66
     1
 10
0.0
 20
0.0
 30
0.0
 70
   128
  0
VERTEX
  5
481
330
480
100
AcDbEntity
  8
Ｓ_１_１
  6
CONTINUOUS
 62
     3
100
AcDbVertex
100
AcDb2dVertex
 10
628.1793482183
 20
272.219046
 30
0.0
  0
VERTEX
  5
482
330
480
100
AcDbEntity
  8
Ｓ_１_１
  6
CONTINUOUS
 62
     3
100
AcDbVertex
100
AcDb2dVertex
 10
628.1318272183
 20
272.609546
 30
0.0
  0
VERTEX
  5
483
330
480
100
AcDbEntity
  8
Ｓ_１_１
  6
CONTINUOUS
 62
     3
100
AcDbVertex
100
AcDb2dVertex
 10
628.0238412182999
 20
272.9944180000001
 30
0.0
  0
VERTEX
  5
484
330
480
100
AcDbEntity
  8
Ｓ_１_１
  6
CONTINUOUS
 62
     3
100
AcDbVertex
100
AcDb2dVertex
 10
627.8562122183
 20
273.3707330000001
 30
0.0
  0
VERTEX
  5
485
330
480
100
AcDbEntity
  8
Ｓ_１_１
  6
CONTINUOUS
 62
     3
100
AcDbVertex
100
AcDb2dVertex
 10
627.6302142183
 20
273.735628
 30
0.0
  0
VERTEX
  5
486
330
480
100
AcDbEntity
  8
Ｓ_１_１
  6
CONTINUOUS
 62
     3
100
AcDbVertex
100
AcDb2dVertex
 10
627.3475692183
 20
274.0863240000001
 30
0.0
  0
VERTEX
  5
487
330
480
100
AcDbEntity
  8
Ｓ_１_１
  6
CONTINUOUS
 62
     3
100
AcDbVertex
100
AcDb2dVertex
 10
627.0104272182999
 20
274.420154
 30
0.0
  0
VERTEX
  5
488
330
480
100
AcDbEntity
  8
Ｓ_１_１
  6
CONTINUOUS
 62
     3
100
AcDbVertex
100
AcDb2dVertex
 10
626.6213552183
 20
274.7345760000001
 30
0.0
  0
VERTEX
  5
489
330
480
100
AcDbEntity
  8
Ｓ_１_１
  6
CONTINUOUS
 62
     3
100
AcDbVertex
100
AcDb2dVertex
 10
626.1833132183
 20
275.0271980000001
 30
0.0
  0
VERTEX
  5
48A
330
480
100
AcDbEntity
  8
Ｓ_１_１
  6
CONTINUOUS
 62
     3
100
AcDbVertex
100
AcDb2dVertex
 10
625.6996342182999
 20
275.2957930000001
 30
0.0
  0
VERTEX
  5
48B
330
480
100
AcDbEntity
  8
Ｓ_１_１
  6
CONTINUOUS
 62
     3
100
AcDbVertex
100
AcDb2dVertex
 10
625.1740012183
 20
275.5383160000001
 30
0.0
  0
VERTEX
  5
48C
330
480
100
AcDbEntity
  8
Ｓ_１_１
  6
CONTINUOUS
 62
     3
100
AcDbVertex
100
AcDb2dVertex
 10
624.6104142183
 20
275.752921
 30
0.0
  0
VERTEX
  5
48D
330
480
100
AcDbEntity
  8
Ｓ_１_１
  6
CONTINUOUS
 62
     3
100
AcDbVertex
100
AcDb2dVertex
 10
624.0131612183
 20
275.937976
 30
0.0
  0
VERTEX
  5
48E
330
480
100
AcDbEntity
  8
Ｓ_１_１
  6
CONTINUOUS
 62
     3
100
AcDbVertex
100
AcDb2dVertex
 10
623.3867882183
 20
276.092072
 30
0.0
  0
VERTEX
  5
48F
330
480
100
AcDbEntity
  8
Ｓ_１_１
  6
CONTINUOUS
 62
     3
100
AcDbVertex
100
AcDb2dVertex
 10
622.7360632182999
 20
276.2140360000001
 30
0.0
  0
VERTEX
  5
490
330
480
100
AcDbEntity
  8
Ｓ_１_１
  6
CONTINUOUS
 62
     3
100
AcDbVertex
100
AcDb2dVertex
 10
622.0659372183
 20
276.30294
 30
0.0
  0
VERTEX
  5
491
330
480
100
AcDbEntity
  8
Ｓ_１_１
  6
CONTINUOUS
 62
     3
100
AcDbVertex
100
AcDb2dVertex
 10
621.3815112182999
 20
276.358107
 30
0.0
  0
VERTEX
  5
492
330
480
100
AcDbEntity
  8
Ｓ_１_１
  6
CONTINUOUS
 62
     3
100
AcDbVertex
100
AcDb2dVertex
 10
620.6879942183
 20
276.3791180000001
 30
0.0
  0
VERTEX
  5
493
330
480
100
AcDbEntity
  8
Ｓ_１_１
  6
CONTINUOUS
 62
     3
100
AcDbVertex
100
AcDb2dVertex
 10
619.9906632183
 20
276.3658130000001
 30
0.0
  0
VERTEX
  5
494
330
480
100
AcDbEntity
  8
Ｓ_１_１
  6
CONTINUOUS
 62
     3
100
AcDbVertex
100
AcDb2dVertex
 10
619.2948272182999
 20
276.318292
 30
0.0
  0
VERTEX
  5
495
330
480
100
AcDbEntity
  8
Ｓ_１_１
  6
CONTINUOUS
 62
     3
100
AcDbVertex
100
AcDb2dVertex
 10
618.6057792183
 20
276.2369190000001
 30
0.0
  0
VERTEX
  5
496
330
480
100
AcDbEntity
  8
Ｓ_１_１
  6
CONTINUOUS
 62
     3
100
AcDbVertex
100
AcDb2dVertex
 10
617.9287662183
 20
276.1223100000001
 30
0.0
  0
VERTEX
  5
497
330
480
100
AcDbEntity
  8
Ｓ_１_１
  6
CONTINUOUS
 62
     3
100
AcDbVertex
100
AcDb2dVertex
 10
617.2689382182999
 20
275.9753400000001
 30
0.0
  0
VERTEX
  5
498
330
480
100
AcDbEntity
  8
Ｓ_１_１
  6
CONTINUOUS
 62
     3
100
AcDbVertex
100
AcDb2dVertex
 10
616.6313192183
 20
275.797127
 30
0.0
  0
VERTEX
  5
499
330
480
100
AcDbEntity
  8
Ｓ_１_１
  6
CONTINUOUS
 62
     3
100
AcDbVertex
100
AcDb2dVertex
 10
616.0207602183
 20
275.5890270000001
 30
0.0
  0
VERTEX
  5
49A
330
480
100
AcDbEntity
  8
Ｓ_１_１
  6
CONTINUOUS
 62
     3
100
AcDbVertex
100
AcDb2dVertex
 10
615.4419082183
 20
275.3526230000001
 30
0.0
  0
VERTEX
  5
49B
330
480
100
AcDbEntity
  8
Ｓ_１_１
  6
CONTINUOUS
 62
     3
100
AcDbVertex
100
AcDb2dVertex
 10
614.8991692183
 20
275.0897150000001
 30
0.0
  0
VERTEX
  5
49C
330
480
100
AcDbEntity
  8
Ｓ_１_１
  6
CONTINUOUS
 62
     3
100
AcDbVertex
100
AcDb2dVertex
 10
614.3966722183
 20
274.802304
 30
0.0
  0
VERTEX
  5
49D
330
480
100
AcDbEntity
  8
Ｓ_１_１
  6
CONTINUOUS
 62
     3
100
AcDbVertex
100
AcDb2dVertex
 10
613.9382442182999
 20
274.4925770000001
 30
0.0
  0
VERTEX
  5
49E
330
480
100
AcDbEntity
  8
Ｓ_１_１
  6
CONTINUOUS
 62
     3
100
AcDbVertex
100
AcDb2dVertex
 10
613.5273722183
 20
274.1628910000001
 30
0.0
  0
VERTEX
  5
49F
330
480
100
AcDbEntity
  8
Ｓ_１_１
  6
CONTINUOUS
 62
     3
100
AcDbVertex
100
AcDb2dVertex
 10
613.1671832183
 20
273.8157560000001
 30
0.0
  0
VERTEX
  5
4A0
330
480
100
AcDbEntity
  8
Ｓ_１_１
  6
CONTINUOUS
 62
     3
100
AcDbVertex
100
AcDb2dVertex
 10
612.8604192183
 20
273.4538130000001
 30
0.0
  0
VERTEX
  5
4A1
330
480
100
AcDbEntity
  8
Ｓ_１_１
  6
CONTINUOUS
 62
     3
100
AcDbVertex
100
AcDb2dVertex
 10
612.6094142183
 20
273.079817
 30
0.0
  0
VERTEX
  5
4A2
330
480
100
AcDbEntity
  8
Ｓ_１_１
  6
CONTINUOUS
 62
     3
100
AcDbVertex
100
AcDb2dVertex
 10
612.4160782183
 20
272.6966150000001
 30
0.0
  0
VERTEX
  5
4A3
330
480
100
AcDbEntity
  8
Ｓ_１_１
  6
CONTINUOUS
 62
     3
100
AcDbVertex
100
AcDb2dVertex
 10
612.2818842183
 20
272.307122
 30
0.0
  0
VERTEX
  5
4A4
330
480
100
AcDbEntity
  8
Ｓ_１_１
  6
CONTINUOUS
 62
     3
100
AcDbVertex
100
AcDb2dVertex
 10
612.2078522183
 20
271.914303
 30
0.0
  0
VERTEX
  5
4A5
330
480
100
AcDbEntity
  8
Ｓ_１_１
  6
CONTINUOUS
 62
     3
100
AcDbVertex
100
AcDb2dVertex
 10
612.1945462182999
 20
271.521147
 30
0.0
  0
VERTEX
  5
4A6
330
480
100
AcDbEntity
  8
Ｓ_１_１
  6
CONTINUOUS
 62
     3
100
AcDbVertex
100
AcDb2dVertex
 10
612.2420672183
 20
271.1306480000001
 30
0.0
  0
VERTEX
  5
4A7
330
480
100
AcDbEntity
  8
Ｓ_１_１
  6
CONTINUOUS
 62
     3
100
AcDbVertex
100
AcDb2dVertex
 10
612.3500532183
 20
270.7457760000001
 30
0.0
  0
VERTEX
  5
4A8
330
480
100
AcDbEntity
  8
Ｓ_１_１
  6
CONTINUOUS
 62
     3
100
AcDbVertex
100
AcDb2dVertex
 10
612.5176822183
 20
270.3694610000001
 30
0.0
  0
VERTEX
  5
4A9
330
480
100
AcDbEntity
  8
Ｓ_１_１
  6
CONTINUOUS
 62
     3
100
AcDbVertex
100
AcDb2dVertex
 10
612.7436802183
 20
270.0045660000001
 30
0.0
  0
VERTEX
  5
4AA
330
480
100
AcDbEntity
  8
Ｓ_１_１
  6
CONTINUOUS
 62
     3
100
AcDbVertex
100
AcDb2dVertex
 10
613.0263252183
 20
269.6538700000001
 30
0.0
  0
VERTEX
  5
4AB
330
480
100
AcDbEntity
  8
Ｓ_１_１
  6
CONTINUOUS
 62
     3
100
AcDbVertex
100
AcDb2dVertex
 10
613.3634662183
 20
269.3200400000001
 30
0.0
  0
VERTEX
  5
4AC
330
480
100
AcDbEntity
  8
Ｓ_１_１
  6
CONTINUOUS
 62
     3
100
AcDbVertex
100
AcDb2dVertex
 10
613.7525392183
 20
269.005617
 30
0.0
  0
VERTEX
  5
4AD
330
480
100
AcDbEntity
  8
Ｓ_１_１
  6
CONTINUOUS
 62
     3
100
AcDbVertex
100
AcDb2dVertex
 10
614.1905812182999
 20
268.7129960000001
 30
0.0
  0
VERTEX
  5
4AE
330
480
100
AcDbEntity
  8
Ｓ_１_１
  6
CONTINUOUS
 62
     3
100
AcDbVertex
100
AcDb2dVertex
 10
614.6742592183
 20
268.4444010000001
 30
0.0
  0
VERTEX
  5
4AF
330
480
100
AcDbEntity
  8
Ｓ_１_１
  6
CONTINUOUS
 62
     3
100
AcDbVertex
100
AcDb2dVertex
 10
615.1998932183
 20
268.2018780000001
 30
0.0
  0
VERTEX
  5
4B0
330
480
100
AcDbEntity
  8
Ｓ_１_１
  6
CONTINUOUS
 62
     3
100
AcDbVertex
100
AcDb2dVertex
 10
615.7634802183
 20
267.9872730000001
 30
0.0
  0
VERTEX
  5
4B1
330
480
100
AcDbEntity
  8
Ｓ_１_１
  6
CONTINUOUS
 62
     3
100
AcDbVertex
100
AcDb2dVertex
 10
616.3607332183
 20
267.802218
 30
0.0
  0
VERTEX
  5
4B2
330
480
100
AcDbEntity
  8
Ｓ_１_１
  6
CONTINUOUS
 62
     3
100
AcDbVertex
100
AcDb2dVertex
 10
616.9871062183
 20
267.6481220000001
 30
0.0
  0
VERTEX
  5
4B3
330
480
100
AcDbEntity
  8
Ｓ_１_１
  6
CONTINUOUS
 62
     3
100
AcDbVertex
100
AcDb2dVertex
 10
617.6378312183
 20
267.5261580000001
 30
0.0
  0
VERTEX
  5
4B4
330
480
100
AcDbEntity
  8
Ｓ_１_１
  6
CONTINUOUS
 62
     3
100
AcDbVertex
100
AcDb2dVertex
 10
618.3079572183
 20
267.4372540000001
 30
0.0
  0
VERTEX
  5
4B5
330
480
100
AcDbEntity
  8
Ｓ_１_１
  6
CONTINUOUS
 62
     3
100
AcDbVertex
100
AcDb2dVertex
 10
618.9923832183
 20
267.3820860000001
 30
0.0
  0
VERTEX
  5
4B6
330
480
100
AcDbEntity
  8
Ｓ_１_１
  6
CONTINUOUS
 62
     3
100
AcDbVertex
100
AcDb2dVertex
 10
619.6859002182999
 20
267.3610750000001
 30
0.0
  0
VERTEX
  5
4B7
330
480
100
AcDbEntity
  8
Ｓ_１_１
  6
CONTINUOUS
 62
     3
100
AcDbVertex
100
AcDb2dVertex
 10
620.3832312183
 20
267.3743810000001
 30
0.0
  0
VERTEX
  5
4B8
330
480
100
AcDbEntity
  8
Ｓ_１_１
  6
CONTINUOUS
 62
     3
100
AcDbVertex
100
AcDb2dVertex
 10
621.0790672183
 20
267.421901
 30
0.0
  0
VERTEX
  5
4B9
330
480
100
AcDbEntity
  8
Ｓ_１_１
  6
CONTINUOUS
 62
     3
100
AcDbVertex
100
AcDb2dVertex
 10
621.7681142183
 20
267.503275
 30
0.0
  0
VERTEX
  5
4BA
330
480
100
AcDbEntity
  8
Ｓ_１_１
  6
CONTINUOUS
 62
     3
100
AcDbVertex
100
AcDb2dVertex
 10
622.4451282182999
 20
267.6178830000001
 30
0.0
  0
VERTEX
  5
4BB
330
480
100
AcDbEntity
  8
Ｓ_１_１
  6
CONTINUOUS
 62
     3
100
AcDbVertex
100
AcDb2dVertex
 10
623.1049552183
 20
267.7648530000001
 30
0.0
  0
VERTEX
  5
4BC
330
480
100
AcDbEntity
  8
Ｓ_１_１
  6
CONTINUOUS
 62
     3
100
AcDbVertex
100
AcDb2dVertex
 10
623.7425752183
 20
267.943067
 30
0.0
  0
VERTEX
  5
4BD
330
480
100
AcDbEntity
  8
Ｓ_１_１
  6
CONTINUOUS
 62
     3
100
AcDbVertex
100
AcDb2dVertex
 10
624.3531342182999
 20
268.1511670000001
 30
0.0
  0
VERTEX
  5
4BE
330
480
100
AcDbEntity
  8
Ｓ_１_１
  6
CONTINUOUS
 62
     3
100
AcDbVertex
100
AcDb2dVertex
 10
624.9319862182999
 20
268.3875710000001
 30
0.0
  0
VERTEX
  5
4BF
330
480
100
AcDbEntity
  8
Ｓ_１_１
  6
CONTINUOUS
 62
     3
100
AcDbVertex
100
AcDb2dVertex
 10
625.4747252183
 20
268.650479
 30
0.0
  0
VERTEX
  5
4C0
330
480
100
AcDbEntity
  8
Ｓ_１_１
  6
CONTINUOUS
 62
     3
100
AcDbVertex
100
AcDb2dVertex
 10
625.9772212183
 20
268.93789
 30
0.0
  0
VERTEX
  5
4C1
330
480
100
AcDbEntity
  8
Ｓ_１_１
  6
CONTINUOUS
 62
     3
100
AcDbVertex
100
AcDb2dVertex
 10
626.4356502183
 20
269.2476170000001
 30
0.0
  0
VERTEX
  5
4C2
330
480
100
AcDbEntity
  8
Ｓ_１_１
  6
CONTINUOUS
 62
     3
100
AcDbVertex
100
AcDb2dVertex
 10
626.8465222182999
 20
269.577303
 30
0.0
  0
VERTEX
  5
4C3
330
480
100
AcDbEntity
  8
Ｓ_１_１
  6
CONTINUOUS
 62
     3
100
AcDbVertex
100
AcDb2dVertex
 10
627.2067112183
 20
269.9244380000001
 30
0.0
  0
VERTEX
  5
4C4
330
480
100
AcDbEntity
  8
Ｓ_１_１
  6
CONTINUOUS
 62
     3
100
AcDbVertex
100
AcDb2dVertex
 10
627.5134752183
 20
270.2863810000001
 30
0.0
  0
VERTEX
  5
4C5
330
480
100
AcDbEntity
  8
Ｓ_１_１
  6
CONTINUOUS
 62
     3
100
AcDbVertex
100
AcDb2dVertex
 10
627.7644802182999
 20
270.660377
 30
0.0
  0
VERTEX
  5
4C6
330
480
100
AcDbEntity
  8
Ｓ_１_１
  6
CONTINUOUS
 62
     3
100
AcDbVertex
100
AcDb2dVertex
 10
627.9578152183
 20
271.043579
 30
0.0
  0
VERTEX
  5
4C7
330
480
100
AcDbEntity
  8
Ｓ_１_１
  6
CONTINUOUS
 62
     3
100
AcDbVertex
100
AcDb2dVertex
 10
628.0920102183
 20
271.433072
 30
0.0
  0
VERTEX
  5
4C8
330
480
100
AcDbEntity
  8
Ｓ_１_１
  6
CONTINUOUS
 62
     3
100
AcDbVertex
100
AcDb2dVertex
 10
628.1660422182999
 20
271.8258910000001
 30
0.0
  0
VERTEX
  5
4C9
330
480
100
AcDbEntity
  8
Ｓ_１_１
  6
CONTINUOUS
 62
     3
100
AcDbVertex
100
AcDb2dVertex
 10
628.1793482183
 20
272.219046
 30
0.0
  0
SEQEND
  5
4CA
330
480
100
AcDbEntity
  8
Ｓ_１_１
  6
CONTINUOUS
 62
     3
  0
ARC
  5
4CB
330
1F
100
AcDbEntity
  8
Ｓ_１_１
  6
CONTINUOUS
 62
     3
100
AcDbCircle
 10
462.4394522182999
 20
249.3399420000001
 30
0.0
 40
6.133926000000002
100
AcDbArc
 50
148.1154390000002
 51
216.884584
  0
ARC
  5
4CC
330
1F
100
AcDbEntity
  8
Ｓ_１_１
  6
CONTINUOUS
 62
     3
100
AcDbCircle
 10
479.6707822183
 20
239.6900740000001
 30
0.0
 40
22.92794000000001
100
AcDbArc
 50
164.911858
 51
200.088165
  0
ARC
  5
4CD
330
1F
100
AcDbEntity
  8
Ｓ_１_１
  6
CONTINUOUS
 62
     3
100
AcDbCircle
 10
474.4835192182999
 20
248.5655200000001
 30
0.0
 40
5.367246000000002
100
AcDbArc
 50
328.1157790000002
 51
36.88406299999998
  0
ARC
  5
4CE
330
1F
100
AcDbEntity
  8
Ｓ_１_１
  6
CONTINUOUS
 62
     3
100
AcDbCircle
 10
475.2767852183
 20
230.3962700000001
 30
0.0
 40
5.367246000000002
100
AcDbArc
 50
328.1158610000001
 51
36.884145
  0
ARC
  5
4CF
330
1F
100
AcDbEntity
  8
Ｓ_１_１
  6
CONTINUOUS
 62
     3
100
AcDbCircle
 10
460.1991942183
 20
238.8399120000001
 30
0.0
 40
20.062196
100
AcDbArc
 50
344.9119940000003
 51
20.08787800000003
  0
ARC
  5
4D0
330
1F
100
AcDbEntity
  8
Ｓ_１_１
  6
CONTINUOUS
 62
     3
100
AcDbCircle
 10
477.0096502183001
 20
230.4719160000001
 30
0.0
 40
5.367246000000002
100
AcDbArc
 50
148.115794
 51
216.8840780000001
  0
ARC
  5
4D1
330
1F
100
AcDbEntity
  8
Ｓ_１_１
  6
CONTINUOUS
 62
     3
100
AcDbCircle
 10
476.2163452182999
 20
248.6411660000001
 30
0.0
 40
5.367246000000002
100
AcDbArc
 50
148.115876
 51
216.8841600000001
  0
ARC
  5
4D2
330
1F
100
AcDbEntity
  8
Ｓ_１_１
  6
CONTINUOUS
 62
     3
100
AcDbCircle
 10
491.2939742183
 20
240.1975430000001
 30
0.0
 40
20.062196
100
AcDbArc
 50
164.912062
 51
200.0879470000001
  0
ARC
  5
4D3
330
1F
100
AcDbEntity
  8
Ｓ_１_１
  6
CONTINUOUS
 62
     3
100
AcDbCircle
 10
458.0832202183001
 20
228.345298
 30
0.0
 40
6.133926000000002
100
AcDbArc
 50
328.115396
 51
36.884555
  0
ARC
  5
4D4
330
1F
100
AcDbEntity
  8
Ｓ_１_１
  6
CONTINUOUS
 62
     3
100
AcDbCircle
 10
419.9961772183
 20
232.580318
 30
0.0
 40
1.0
100
AcDbArc
 50
182.499981
 51
272.499963
  0
ARC
  5
4D5
330
1F
100
AcDbEntity
  8
Ｓ_１_１
  6
CONTINUOUS
 62
     3
100
AcDbCircle
 10
463.3460532183001
 20
228.5750760000001
 30
0.0
 40
6.133926000000002
100
AcDbArc
 50
148.1153710000001
 51
216.884516
  0
ARC
  5
4D6
330
1F
100
AcDbEntity
  8
Ｓ_１_１
  6
CONTINUOUS
 62
     3
100
AcDbCircle
 10
440.8518892183
 20
237.995204
 30
0.0
 40
22.927942
100
AcDbArc
 50
344.911824
 51
20.08811700000001
  0
ARC
  5
4D7
330
1F
100
AcDbEntity
  8
Ｓ_１_１
  6
CONTINUOUS
 62
     3
100
AcDbCircle
 10
457.1766192182999
 20
249.1101640000001
 30
0.0
 40
6.133926000000002
100
AcDbArc
 50
328.1154100000002
 51
36.88456499999999
  0
ARC
  5
4D8
330
1F
100
AcDbEntity
  8
Ｓ_１_１
  6
CONTINUOUS
 62
     3
100
AcDbCircle
 10
419.6036062183001
 20
241.57175
 30
0.0
 40
1.0
100
AcDbArc
 50
92.500002
 51
182.4999770000002
  0
ARC
  5
4D9
330
1F
100
AcDbEntity
  8
Ｓ_１_１
  6
CONTINUOUS
 62
     3
100
AcDbCircle
 10
489.6750162183
 20
433.172871
 30
0.0
 40
5.0
100
AcDbArc
 50
92.50000900000003
 51
182.500005
  0
ARC
  5
4DA
330
1F
100
AcDbEntity
  8
Ｓ_１_１
  6
CONTINUOUS
 62
     3
100
AcDbCircle
 10
493.6007602183
 20
343.2585500000001
 30
0.0
 40
5.0
100
AcDbArc
 50
182.5000080000001
 51
272.4999970000001
  0
ARC
  5
4DB
330
1F
100
AcDbEntity
  8
Ｓ_１_１
  6
CONTINUOUS
 62
     3
100
AcDbCircle
 10
531.5478032183
 20
437.002979
 30
0.0
 40
3.000000000000002
100
AcDbArc
 50
2.499999999999986
 51
92.50000900000003
  0
ARC
  5
4DC
330
1F
100
AcDbEntity
  8
Ｓ_１_１
  6
CONTINUOUS
 62
     3
100
AcDbCircle
 10
496.6117002183
 20
320.3680400000001
 30
0.0
 40
6.999947000000002
100
AcDbArc
 50
272.4999970000001
 51
310.7133620000002
  0
ARC
  5
4DD
330
1F
100
AcDbEntity
  8
Ｓ_１_１
  6
CONTINUOUS
 62
     3
100
AcDbCircle
 10
508.7718872183
 20
339.6670130000001
 30
0.0
 40
25.75013800000001
100
AcDbArc
 50
252.847193
 51
292.1528080000002
  0
ARC
  5
4DE
330
1F
100
AcDbEntity
  8
Ｓ_１_１
  6
CONTINUOUS
 62
     3
100
AcDbCircle
 10
496.5680982183
 20
321.3671860000001
 30
0.0
 40
6.999947000000002
100
AcDbArc
 50
54.286637
 51
92.50000900000003
  0
ARC
  5
4DF
330
1F
100
AcDbEntity
  8
Ｓ_１_１
  6
CONTINUOUS
 62
     3
100
AcDbCircle
 10
535.6480312182999
 20
343.0924580000001
 30
0.0
 40
3.000000000000002
100
AcDbArc
 50
272.4999970000001
 51
2.499999999999986
  0
ARC
  5
4E0
330
1F
100
AcDbEntity
  8
Ｓ_１_１
  6
CONTINUOUS
 62
     3
100
AcDbCircle
 10
522.5677772183001
 20
321.5013100000001
 30
0.0
 40
6.999947000000002
100
AcDbArc
 50
234.286639
 51
272.500004
  0
ARC
  5
4E1
330
1F
100
AcDbEntity
  8
Ｓ_１_１
  6
CONTINUOUS
 62
     3
100
AcDbCircle
 10
510.3639892183
 20
303.2014640000001
 30
0.0
 40
25.75013800000001
100
AcDbArc
 50
72.84719100000002
 51
112.152813
  0
ARC
  5
4E2
330
1F
100
AcDbEntity
  8
Ｓ_１_１
  6
CONTINUOUS
 62
     3
100
AcDbCircle
 10
522.5241372183
 20
322.5004560000001
 30
0.0
 40
6.999947000000002
100
AcDbArc
 50
92.499995
 51
130.7133600000001
  0
ARC
  5
4E3
330
1F
100
AcDbEntity
  8
Ｓ_１_１
  6
CONTINUOUS
 62
     3
100
AcDbCircle
 10
498.3565042183
 20
280.4061110000001
 30
0.0
 40
6.999947000000002
100
AcDbArc
 50
272.4999970000001
 51
310.7133620000002
  0
ARC
  5
4E4
330
1F
100
AcDbEntity
  8
Ｓ_１_１
  6
CONTINUOUS
 62
     3
100
AcDbCircle
 10
510.5166532183
 20
299.7050840000001
 30
0.0
 40
25.75013800000001
100
AcDbArc
 50
252.847193
 51
292.1528080000002
  0
ARC
  5
4E5
330
1F
100
AcDbEntity
  8
Ｓ_１_１
  6
CONTINUOUS
 62
     3
100
AcDbCircle
 10
497.6585672183
 20
296.390971
 30
0.0
 40
6.999947000000002
100
AcDbArc
 50
54.286637
 51
92.50000900000003
  0
ARC
  5
4E6
330
1F
100
AcDbEntity
  8
Ｓ_１_１
  6
CONTINUOUS
 62
     3
100
AcDbCircle
 10
524.3125432183
 20
281.5393620000001
 30
0.0
 40
6.999947000000002
100
AcDbArc
 50
234.286639
 51
272.500004
  0
ARC
  5
4E7
330
1F
100
AcDbEntity
  8
Ｓ_１_１
  6
CONTINUOUS
 62
     3
100
AcDbCircle
 10
511.4544582183
 20
278.2252870000001
 30
0.0
 40
25.75013800000001
100
AcDbArc
 50
72.84719100000002
 51
112.152813
  0
ARC
  5
4E8
330
1F
100
AcDbEntity
  8
Ｓ_１_１
  6
CONTINUOUS
 62
     3
100
AcDbCircle
 10
523.6146062183
 20
297.52426
 30
0.0
 40
6.999947000000002
100
AcDbArc
 50
92.499995
 51
130.7133600000001
  0
ARC
  5
4E9
330
1F
100
AcDbEntity
  8
Ｓ_１_１
  6
CONTINUOUS
 62
     3
100
AcDbCircle
 10
550.8697022183
 20
251.900596
 30
0.0
 40
5.367246000000002
100
AcDbArc
 50
148.115862
 51
216.884147
  0
ARC
  5
4EA
330
1F
100
AcDbEntity
  8
Ｓ_１_１
  6
CONTINUOUS
 62
     3
100
AcDbCircle
 10
565.9473312183001
 20
243.456935
 30
0.0
 40
20.062196
100
AcDbArc
 50
164.9119940000001
 51
200.087878
  0
ARC
  5
4EB
330
1F
100
AcDbEntity
  8
Ｓ_１_１
  6
CONTINUOUS
 62
     3
100
AcDbCircle
 10
549.1368762183
 20
251.8249310000001
 30
0.0
 40
5.367246000000002
100
AcDbArc
 50
328.1157990000002
 51
36.88408399999999
  0
ARC
  5
4EC
330
1F
100
AcDbEntity
  8
Ｓ_１_１
  6
CONTINUOUS
 62
     3
100
AcDbCircle
 10
549.9301432183
 20
233.655681
 30
0.0
 40
5.367246000000002
100
AcDbArc
 50
328.1158810000001
 51
36.88416600000001
  0
ARC
  5
4ED
330
1F
100
AcDbEntity
  8
Ｓ_１_１
  6
CONTINUOUS
 62
     3
100
AcDbCircle
 10
534.8525522183
 20
242.0993030000001
 30
0.0
 40
20.062196
100
AcDbArc
 50
344.912066
 51
20.08795000000001
  0
ARC
  5
4EE
330
1F
100
AcDbEntity
  8
Ｓ_１_１
  6
CONTINUOUS
 62
     3
100
AcDbCircle
 10
551.6630072183
 20
233.731345
 30
0.0
 40
5.367246000000002
100
AcDbArc
 50
148.11578
 51
216.884065
  0
ARC
  5
4EF
330
1F
100
AcDbEntity
  8
Ｓ_１_１
  6
CONTINUOUS
 62
     3
100
AcDbCircle
 10
504.1275692182999
 20
228.245944
 30
0.0
 40
2.0
100
AcDbArc
 50
92.499995
 51
182.500005
  0
ARC
  5
4F0
330
1F
100
AcDbEntity
  8
Ｓ_１_１
  6
CONTINUOUS
 62
     3
100
AcDbCircle
 10
523.1094642183
 20
229.0747260000001
 30
0.0
 40
2.0
100
AcDbArc
 50
2.499995000000021
 51
92.500002
  0
ARC
  5
4F1
330
1F
100
AcDbEntity
  8
Ｓ_１_１
  6
CONTINUOUS
 62
     3
100
AcDbCircle
 10
625.5288962183
 20
224.037399
 30
0.0
 40
2.0
100
AcDbArc
 50
92.500002
 51
180.000005
  0
ARC
  5
4F2
330
1F
100
AcDbEntity
  8
Ｓ_１_１
  6
CONTINUOUS
 62
     3
100
AcDbCircle
 10
613.4680062182999
 20
257.0629110000001
 30
0.0
 40
2.0
100
AcDbArc
 50
202.500004
 51
272.4999970000001
  0
ARC
  5
4F3
330
1F
100
AcDbEntity
  8
Ｓ_１_１
  6
CONTINUOUS
 62
     3
100
AcDbCircle
 10
646.7510872183
 20
259.5170580000001
 30
0.0
 40
3.000000000000002
100
AcDbArc
 50
272.4999970000001
 51
2.499999999999986
  0
ARC
  5
4F4
330
1F
100
AcDbEntity
  8
Ｓ_１_１
  6
CONTINUOUS
 62
     3
100
AcDbCircle
 10
568.4348952183001
 20
262.583693
 30
0.0
 40
2.0
100
AcDbArc
 50
272.4999970000001
 51
45.00000100000001
  0
ARC
  5
4F5
330
1F
100
AcDbEntity
  8
Ｓ_１_１
  6
CONTINUOUS
 62
     3
100
AcDbCircle
 10
609.7495162183
 20
257.3751440000001
 30
0.0
 40
2.0
100
AcDbArc
 50
22.50000199999999
 51
92.500002
  0
ARC
  5
4F6
330
1F
100
AcDbEntity
  8
Ｓ_１_１
  6
CONTINUOUS
 62
     3
100
AcDbCircle
 10
606.8965042182999
 20
264.2629420000001
 30
0.0
 40
2.0
100
AcDbArc
 50
272.4999970000001
 51
22.50000199999999
  0
ARC
  5
4F7
330
1F
100
AcDbEntity
  8
Ｓ_１_１
  6
CONTINUOUS
 62
     3
100
AcDbCircle
 10
556.8059822183001
 20
256.534881
 30
0.0
 40
5.0
100
AcDbArc
 50
2.499999999999986
 51
45.00000100000001
  0
ARC
  5
4F8
330
1F
100
AcDbEntity
  8
Ｓ_１_１
  6
CONTINUOUS
 62
     3
100
AcDbCircle
 10
575.0429812183
 20
265.8750520000001
 30
0.0
 40
5.0
100
AcDbArc
 50
225.0000000000001
 51
272.4999970000001
  0
ARC
  5
4F9
330
1F
100
AcDbEntity
  8
Ｓ_１_１
  6
CONTINUOUS
 62
     3
100
AcDbCircle
 10
612.0011032182999
 20
228.4733000000001
 30
0.0
 40
5.0
100
AcDbArc
 50
210.0000030000002
 51
269.999997
  0
ARC
  5
4FA
330
1F
100
AcDbEntity
  8
Ｓ_１_１
  6
CONTINUOUS
 62
     3
100
AcDbCircle
 10
602.7591592182999
 20
224.4808
 30
0.0
 40
5.0
100
AcDbArc
 50
30.00000099999998
 51
92.500002
  0
ARC
  5
4FB
330
1F
100
AcDbEntity
  8
Ｓ_１_１
  6
CONTINUOUS
 62
     3
100
AcDbCircle
 10
569.9891562183001
 20
279.065016
 30
0.0
 40
3.000000000000002
100
AcDbArc
 50
90.000003
 51
149.999997
  0
ARC
  5
4FC
330
1F
100
AcDbEntity
  8
Ｓ_１_１
  6
CONTINUOUS
 62
     3
100
AcDbCircle
 10
607.9134262183
 20
273.3159430000001
 30
0.0
 40
2.0
100
AcDbArc
 50
92.500002
 51
135.0000000000001
  0
ARC
  5
4FD
330
1F
100
AcDbEntity
  8
Ｓ_１_１
  6
CONTINUOUS
 62
     3
100
AcDbCircle
 10
604.0212142183
 20
275.080584
 30
0.0
 40
2.0
100
AcDbArc
 50
225.0000000000001
 51
314.9999990000001
  0
ARC
  5
4FE
330
1F
100
AcDbEntity
  8
Ｓ_１_１
  6
CONTINUOUS
 62
     3
100
AcDbCircle
 10
585.6476872183
 20
286.3830740000001
 30
0.0
 40
5.0
100
AcDbArc
 50
45.00000100000001
 51
135.0000000000001
  0
ARC
  5
4FF
330
1F
100
AcDbEntity
  8
Ｓ_１_１
  6
CONTINUOUS
 62
     3
100
AcDbCircle
 10
589.1337862183001
 20
321.197985
 30
0.0
 40
39.83839
100
AcDbArc
 50
281.336623
 51
307.0447540000001
  0
ARC
  5
500
330
1F
100
AcDbEntity
  8
Ｓ_１_１
  6
CONTINUOUS
 62
     3
100
AcDbCircle
 10
591.2041752183001
 20
273.7778460000001
 30
0.0
 40
39.83839
100
AcDbArc
 50
57.95524800000003
 51
118.768425
  0
ARC
  5
501
330
1F
100
AcDbEntity
  8
Ｓ_１_１
  6
CONTINUOUS
 62
     3
100
AcDbCircle
 10
568.9608282183
 20
307.5267200000001
 30
0.0
 40
3.000000000000002
100
AcDbArc
 50
60.00000200000001
 51
149.999997
  0
ARC
  5
502
330
1F
100
AcDbEntity
  8
Ｓ_１_１
  6
CONTINUOUS
 62
     3
100
AcDbCircle
 10
549.3884942183
 20
263.5589590000001
 30
0.0
 40
2.0
100
AcDbArc
 50
179.999991
 51
314.999992
  0
CIRCLE
  5
503
330
1F
100
AcDbEntity
  8
Ｓ_１_１
  6
CONTINUOUS
 62
     3
100
AcDbCircle
 10
568.3235442183001
 20
286.73662
 30
0.0
 40
4.0
  0
CIRCLE
  5
504
330
1F
100
AcDbEntity
  8
Ｓ_１_１
  6
CONTINUOUS
 62
     3
100
AcDbCircle
 10
554.8885242183
 20
273.3015620000001
 30
0.0
 40
3.000000000000002
  0
ARC
  5
505
330
1F
100
AcDbEntity
  8
Ｓ_１_１
  6
CONTINUOUS
 62
     3
100
AcDbCircle
 10
653.3933522182999
 20
222.2511290000001
 30
0.0
 40
5.0
100
AcDbArc
 50
2.499999999999986
 51
92.500002
  0
ARC
  5
506
330
1F
100
AcDbEntity
  8
Ｓ_１_１
  6
CONTINUOUS
 62
     3
100
AcDbCircle
 10
591.5288822183
 20
226.9933310000001
 30
0.0
 40
2.0
100
AcDbArc
 50
0.0
 51
92.500002
  0
ARC
  5
507
330
1F
100
AcDbEntity
  8
Ｓ_１_１
  6
CONTINUOUS
 62
     3
100
AcDbCircle
 10
647.0748972183
 20
275.025748
 30
0.0
 40
2.0
100
AcDbArc
 50
2.499999999999986
 51
92.500002
  0
ARC
  5
508
330
1F
100
AcDbEntity
  8
Ｓ_１_１
  6
CONTINUOUS
 62
     3
100
AcDbCircle
 10
651.1147192183
 20
274.2011630000001
 30
0.0
 40
2.0
100
AcDbArc
 50
182.499994
 51
272.4999970000001
  0
ARC
  5
509
330
1F
100
AcDbEntity
  8
Ｓ_１_１
  6
CONTINUOUS
 62
     3
100
AcDbCircle
 10
646.6638262183
 20
261.515159
 30
0.0
 40
3.000000000000002
100
AcDbArc
 50
272.4999970000001
 51
2.499999999999986
  0
ARC
  5
50A
330
1F
100
AcDbEntity
  8
Ｓ_１_１
  6
CONTINUOUS
 62
     3
100
AcDbCircle
 10
963.9250862183001
 20
253.3259
 30
0.0
 40
3.625000000000002
100
AcDbArc
 50
318.8971820000003
 51
2.499999999999986
  0
ARC
  5
50B
330
1F
100
AcDbEntity
  8
Ｓ_１_１
  6
CONTINUOUS
 62
     3
100
AcDbCircle
 10
963.2707842182999
 20
268.311633
 30
0.0
 40
3.625000000000002
100
AcDbArc
 50
318.8971820000003
 51
2.499999999999986
  0
ARC
  5
50C
330
1F
100
AcDbEntity
  8
Ｓ_１_１
  6
CONTINUOUS
 62
     3
100
AcDbCircle
 10
954.2318622183
 20
260.4098500000001
 30
0.0
 40
12.999999
100
AcDbArc
 50
339.8801360000003
 51
2.499999999999986
  0
ARC
  5
50D
330
1F
100
AcDbEntity
  8
Ｓ_１_１
  6
CONTINUOUS
 62
     3
100
AcDbCircle
 10
963.9250862183001
 20
253.3259
 30
0.0
 40
3.625000000000002
100
AcDbArc
 50
2.499999999999986
 51
46.10282100000002
  0
ARC
  5
50E
330
1F
100
AcDbEntity
  8
Ｓ_１_１
  6
CONTINUOUS
 62
     3
100
AcDbCircle
 10
954.2318622183
 20
260.4098500000001
 30
0.0
 40
12.999999
100
AcDbArc
 50
2.499999999999986
 51
25.11986499999998
  0
ARC
  5
50F
330
1F
100
AcDbEntity
  8
Ｓ_１_１
  6
CONTINUOUS
 62
     3
100
AcDbCircle
 10
963.2707842182999
 20
268.311633
 30
0.0
 40
3.625000000000002
100
AcDbArc
 50
2.499999999999986
 51
46.10282100000002
  0
ARC
  5
510
330
1F
100
AcDbEntity
  8
Ｓ_１_１
  6
CONTINUOUS
 62
     3
100
AcDbCircle
 10
613.3807642183
 20
259.0610300000001
 30
0.0
 40
2.0
100
AcDbArc
 50
202.500004
 51
272.4999970000001
  0
ARC
  5
511
330
1F
100
AcDbEntity
  8
Ｓ_１_１
  6
CONTINUOUS
 62
     3
100
AcDbCircle
 10
1046.9469272183
 20
304.638899
 30
0.0
 40
1.0
100
AcDbArc
 50
261.1900640000001
 51
2.499999999999986
  0
ARC
  5
512
330
1F
100
AcDbEntity
  8
Ｓ_１_１
  6
CONTINUOUS
 62
     3
100
AcDbCircle
 10
1045.8320252183
 20
330.1749780000001
 30
0.0
 40
1.0
100
AcDbArc
 50
2.499999999999986
 51
103.809935
  0
ARC
  5
513
330
1F
100
AcDbEntity
  8
Ｓ_１_１
  6
CONTINUOUS
 62
     3
100
AcDbCircle
 10
965.0250222182999
 20
301.062086
 30
0.0
 40
1.0
100
AcDbArc
 50
182.499994
 51
283.8099300000002
  0
ARC
  5
514
330
1F
100
AcDbEntity
  8
Ｓ_１_１
  6
CONTINUOUS
 62
     3
100
AcDbCircle
 10
963.9100732182999
 20
326.5981650000001
 30
0.0
 40
1.0
100
AcDbArc
 50
81.190069
 51
182.500005
  0
ARC
  5
515
330
1F
100
AcDbEntity
  8
Ｓ_１_１
  6
CONTINUOUS
 62
     3
100
AcDbCircle
 10
994.8289842183001
 20
558.3872550000001
 30
0.0
 40
257.000004
100
AcDbArc
 50
265.3473340000002
 51
279.652667
  0
ARC
  5
516
330
1F
100
AcDbEntity
  8
Ｓ_１_１
  6
CONTINUOUS
 62
     3
100
AcDbCircle
 10
1016.0280342183
 20
72.84982400000007
 30
0.0
 40
257.000004
100
AcDbArc
 50
85.347332
 51
99.65266500000001
  0
CIRCLE
  5
517
330
1F
100
AcDbEntity
  8
Ｓ_１_１
  6
CONTINUOUS
 62
     3
100
AcDbCircle
 10
967.2589012183
 20
282.9995900000001
 30
0.0
 40
2.5
  0
CIRCLE
  5
518
330
1F
100
AcDbEntity
  8
Ｓ_１_１
  6
CONTINUOUS
 62
     3
100
AcDbCircle
 10
967.2589012183
 20
282.9995900000001
 30
0.0
 40
3.000000000000002
  0
LINE
  5
519
330
1F
100
AcDbEntity
  8
Ｓ_１_１
  6
CONTINUOUS
 62
     3
100
AcDbLine
 10
486.9226332183
 20
232.568847
 30
0.0
 11
486.2743852183
 21
247.4161710000001
 31
0.0
  0
LINE
  5
51A
330
1F
100
AcDbEntity
  8
Ｓ_１_１
  6
CONTINUOUS
 62
     3
100
AcDbLine
 10
469.5599712183
 20
246.819318
 30
0.0
 11
470.8866342183001
 21
247.6644950000001
 31
0.0
  0
LINE
  5
51B
330
1F
100
AcDbEntity
  8
Ｓ_１_１
  6
CONTINUOUS
 62
     3
100
AcDbLine
 10
463.4448202183
 20
246.1683200000001
 30
0.0
 11
469.5599812183
 21
246.819288
 31
0.0
  0
LINE
  5
51C
330
1F
100
AcDbEntity
  8
Ｓ_１_１
  6
CONTINUOUS
 62
     3
100
AcDbLine
 10
464.0711832183
 20
231.822226
 30
0.0
 11
470.2198102182999
 21
231.7067070000001
 31
0.0
  0
LINE
  5
51D
330
1F
100
AcDbEntity
  8
Ｓ_１_１
  6
CONTINUOUS
 62
     3
100
AcDbLine
 10
470.2503862183
 20
231.0060240000001
 30
0.0
 11
469.5293702183001
 21
247.5200040000001
 31
0.0
  0
LINE
  5
51E
330
1F
100
AcDbEntity
  8
Ｓ_１_１
  6
CONTINUOUS
 62
     3
100
AcDbLine
 10
471.6150872182999
 20
230.9803710000001
 30
0.0
 11
470.2197932183001
 21
231.706715
 31
0.0
  0
LINE
  5
51F
330
1F
100
AcDbEntity
  8
Ｓ_１_１
  6
CONTINUOUS
 62
     3
100
AcDbLine
 10
496.9170392183
 20
313.3747500000001
 30
0.0
 11
522.8731082183
 21
314.5080170000001
 31
0.0
  0
LINE
  5
520
330
1F
100
AcDbEntity
  8
Ｓ_１_１
  6
CONTINUOUS
 62
     3
100
AcDbLine
 10
499.9045722183
 20
313.5051890000001
 30
0.0
 11
500.3407662183
 21
303.514707
 31
0.0
  0
LINE
  5
521
330
1F
100
AcDbEntity
  8
Ｓ_１_１
  6
CONTINUOUS
 62
     3
100
AcDbLine
 10
501.1775892183
 20
315.062214
 30
0.0
 11
500.6541562182999
 21
327.0508000000001
 31
0.0
  0
LINE
  5
522
330
1F
100
AcDbEntity
  8
Ｓ_１_１
  6
CONTINUOUS
 62
     3
100
AcDbLine
 10
496.2627482183
 20
328.3604730000001
 30
0.0
 11
522.2188172183
 21
329.4937400000001
 31
0.0
  0
LINE
  5
523
330
1F
100
AcDbEntity
  8
Ｓ_１_１
  6
CONTINUOUS
 62
     3
100
AcDbLine
 10
492.5256302183
 20
314.6844610000001
 30
0.0
 11
492.0021972183
 21
326.6730480000001
 31
0.0
  0
LINE
  5
524
330
1F
100
AcDbEntity
  8
Ｓ_１_１
  6
CONTINUOUS
 62
     3
100
AcDbLine
 10
498.8140882182999
 20
338.481394
 30
0.0
 11
499.2502822183001
 21
328.4909120000001
 31
0.0
  0
LINE
  5
525
330
1F
100
AcDbEntity
  8
Ｓ_１_１
  6
CONTINUOUS
 62
     3
100
AcDbLine
 10
493.8188472182999
 20
338.2632970000001
 30
0.0
 11
535.7788792183
 21
340.095311
 31
0.0
  0
LINE
  5
526
330
1F
100
AcDbEntity
  8
Ｓ_１_１
  6
CONTINUOUS
 62
     3
100
AcDbLine
 10
519.8855372183
 20
314.3775760000001
 30
0.0
 11
520.3217302183
 21
304.387094
 31
0.0
  0
LINE
  5
527
330
1F
100
AcDbEntity
  8
Ｓ_１_１
  6
CONTINUOUS
 62
     3
100
AcDbLine
 10
489.4569082182999
 20
438.168118
 30
0.0
 11
531.4169402182999
 21
440.0001320000001
 31
0.0
  0
LINE
  5
528
330
1F
100
AcDbEntity
  8
Ｓ_１_１
  6
CONTINUOUS
 62
     3
100
AcDbLine
 10
484.6797642183001
 20
432.95478
 30
0.0
 11
488.6055092183001
 21
343.0404410000001
 31
0.0
  0
LINE
  5
529
330
1F
100
AcDbEntity
  8
Ｓ_１_１
  6
CONTINUOUS
 62
     3
100
AcDbLine
 10
534.5449752183
 20
437.133817
 30
0.0
 11
538.6451952183
 21
343.2233460000001
 31
0.0
  0
LINE
  5
52A
330
1F
100
AcDbEntity
  8
Ｓ_１_１
  6
CONTINUOUS
 62
     3
100
AcDbLine
 10
509.4378722183001
 20
439.040505
 30
0.0
 11
513.7998112183
 21
339.1356850000001
 31
0.0
  0
LINE
  5
52B
330
1F
100
AcDbEntity
  8
Ｓ_１_１
  6
CONTINUOUS
 62
     3
100
AcDbLine
 10
518.4816602183
 20
315.8177260000001
 30
0.0
 11
517.9582292183
 21
327.806274
 31
0.0
  0
LINE
  5
52C
330
1F
100
AcDbEntity
  8
Ｓ_１_１
  6
CONTINUOUS
 62
     3
100
AcDbLine
 10
432.6805282183001
 20
228.6298390000001
 30
0.0
 11
434.6786322183
 21
228.7170780000001
 31
0.0
  0
LINE
  5
52D
330
1F
100
AcDbEntity
  8
Ｓ_１_１
  6
CONTINUOUS
 62
     3
100
AcDbLine
 10
429.0312062183
 20
231.9738440000001
 30
0.0
 11
428.5513932182999
 21
242.963378
 31
0.0
  0
LINE
  5
52E
330
1F
100
AcDbEntity
  8
Ｓ_１_１
  6
CONTINUOUS
 62
     3
100
AcDbLine
 10
496.9170332183
 20
313.374768
 30
0.0
 11
492.5256182183
 21
314.684464
 31
0.0
  0
LINE
  5
52F
330
1F
100
AcDbEntity
  8
Ｓ_１_１
  6
CONTINUOUS
 62
     3
100
AcDbLine
 10
496.2627542183
 20
328.360485
 30
0.0
 11
492.0021972183
 21
326.673036
 31
0.0
  0
LINE
  5
530
330
1F
100
AcDbEntity
  8
Ｓ_１_１
  6
CONTINUOUS
 62
     3
100
AcDbLine
 10
436.1117902182999
 20
230.2810760000001
 30
0.0
 11
437.6103782183001
 21
230.3465060000001
 31
0.0
  0
LINE
  5
531
330
1F
100
AcDbEntity
  8
Ｓ_１_１
  6
CONTINUOUS
 62
     3
100
AcDbLine
 10
439.1743562182999
 20
228.9133650000001
 30
0.0
 11
438.3892082183
 21
246.8962260000001
 31
0.0
  0
LINE
  5
532
330
1F
100
AcDbEntity
  8
Ｓ_１_１
  6
CONTINUOUS
 62
     3
100
AcDbLine
 10
527.1336582183001
 20
316.1954810000001
 30
0.0
 11
526.6102252183
 21
328.184067
 31
0.0
  0
LINE
  5
533
330
1F
100
AcDbEntity
  8
Ｓ_１_１
  6
CONTINUOUS
 62
     3
100
AcDbLine
 10
518.7950522183
 20
339.353782
 30
0.0
 11
519.2312462182999
 21
329.3633000000001
 31
0.0
  0
LINE
  5
534
330
1F
100
AcDbEntity
  8
Ｓ_１_１
  6
CONTINUOUS
 62
     3
100
AcDbLine
 10
522.8730982183
 20
314.50805
 30
0.0
 11
527.1336552183
 21
316.195499
 31
0.0
  0
LINE
  5
535
330
1F
100
AcDbEntity
  8
Ｓ_１_１
  6
CONTINUOUS
 62
     3
100
AcDbLine
 10
522.2188182182999
 20
329.4937390000001
 30
0.0
 11
526.6102342183
 21
328.1840430000001
 31
0.0
  0
LINE
  5
536
330
1F
100
AcDbEntity
  8
Ｓ_１_１
  6
CONTINUOUS
 62
     3
100
AcDbLine
 10
435.4574992183001
 20
245.2667990000001
 30
0.0
 11
436.9560872183
 21
245.3322290000001
 31
0.0
  0
LINE
  5
537
330
1F
100
AcDbEntity
  8
Ｓ_１_１
  6
CONTINUOUS
 62
     3
100
AcDbLine
 10
498.6618152183
 20
273.4128220000001
 30
0.0
 11
524.6178832183
 21
274.5460880000001
 31
0.0
  0
LINE
  5
538
330
1F
100
AcDbEntity
  8
Ｓ_１_１
  6
CONTINUOUS
 62
     3
100
AcDbLine
 10
502.9223652183
 20
275.100267
 30
0.0
 11
501.7446422182999
 21
302.0745760000001
 31
0.0
  0
LINE
  5
539
330
1F
100
AcDbEntity
  8
Ｓ_１_１
  6
CONTINUOUS
 62
     3
100
AcDbLine
 10
497.3532332182999
 20
303.384268
 30
0.0
 11
523.3093022183
 21
304.5175350000001
 31
0.0
  0
LINE
  5
53A
330
1F
100
AcDbEntity
  8
Ｓ_１_１
  6
CONTINUOUS
 62
     3
100
AcDbLine
 10
494.2704062183
 20
274.722514
 30
0.0
 11
493.0926822183001
 21
301.6968230000001
 31
0.0
  0
LINE
  5
53B
330
1F
100
AcDbEntity
  8
Ｓ_１_１
  6
CONTINUOUS
 62
     3
100
AcDbLine
 10
520.2264362183
 20
275.8557790000001
 30
0.0
 11
519.0487132183
 21
302.830088
 31
0.0
  0
LINE
  5
53C
330
1F
100
AcDbEntity
  8
Ｓ_１_１
  6
CONTINUOUS
 62
     3
100
AcDbLine
 10
420.0397952182998
 20
231.5812710000001
 30
0.0
 11
429.0312062183
 21
231.9738440000001
 31
0.0
  0
LINE
  5
53D
330
1F
100
AcDbEntity
  8
Ｓ_１_１
  6
CONTINUOUS
 62
     3
100
AcDbLine
 10
419.5599822183
 20
242.5708050000001
 30
0.0
 11
428.5513932182999
 21
242.963378
 31
0.0
  0
LINE
  5
53E
330
1F
100
AcDbEntity
  8
Ｓ_１_１
  6
CONTINUOUS
 62
     3
100
AcDbLine
 10
498.6618292182999
 20
273.4128240000001
 30
0.0
 11
494.2704142182999
 21
274.722519
 31
0.0
  0
LINE
  5
53F
330
1F
100
AcDbEntity
  8
Ｓ_１_１
  6
CONTINUOUS
 62
     3
100
AcDbLine
 10
497.3532332182999
 20
303.384266
 30
0.0
 11
493.0926762183001
 21
301.6968170000001
 31
0.0
  0
LINE
  5
540
330
1F
100
AcDbEntity
  8
Ｓ_１_１
  6
CONTINUOUS
 62
     3
100
AcDbLine
 10
432.6805162183001
 20
228.6298290000001
 30
0.0
 11
429.0311982182999
 21
231.9738130000001
 31
0.0
  0
LINE
  5
541
330
1F
100
AcDbEntity
  8
Ｓ_１_１
  6
CONTINUOUS
 62
     3
100
AcDbLine
 10
528.8784332183
 20
276.233552
 30
0.0
 11
527.7007102183
 21
303.207842
 31
0.0
  0
LINE
  5
542
330
1F
100
AcDbEntity
  8
Ｓ_１_１
  6
CONTINUOUS
 62
     3
100
AcDbLine
 10
524.6178722183
 20
274.5461110000001
 30
0.0
 11
528.8784302183001
 21
276.2335590000001
 31
0.0
  0
LINE
  5
543
330
1F
100
AcDbEntity
  8
Ｓ_１_１
  6
CONTINUOUS
 62
     3
100
AcDbLine
 10
523.3092762183
 20
304.5175400000001
 30
0.0
 11
527.7006912183
 21
303.207845
 31
0.0
  0
LINE
  5
544
330
1F
100
AcDbEntity
  8
Ｓ_１_１
  6
CONTINUOUS
 62
     3
100
AcDbLine
 10
428.5513762183
 20
242.9633560000001
 30
0.0
 11
431.8953862182998
 21
246.612703
 31
0.0
  0
LINE
  5
545
330
1F
100
AcDbEntity
  8
Ｓ_１_１
  6
CONTINUOUS
 62
     3
100
AcDbLine
 10
480.7003022183
 20
229.224983
 30
0.0
 11
479.7842942182999
 21
250.2050180000001
 31
0.0
  0
LINE
  5
546
330
1F
100
AcDbEntity
  8
Ｓ_１_１
  6
CONTINUOUS
 62
     3
100
AcDbLine
 10
471.7088532182999
 20
228.8324080000001
 30
0.0
 11
470.7928452183
 21
249.812443
 31
0.0
  0
LINE
  5
547
330
1F
100
AcDbEntity
  8
Ｓ_１_１
  6
CONTINUOUS
 62
     3
100
AcDbLine
 10
464.2814202183
 20
227.006694
 30
0.0
 11
463.2345542183
 21
250.983866
 31
0.0
  0
LINE
  5
548
330
1F
100
AcDbEntity
  8
Ｓ_１_１
  6
CONTINUOUS
 62
     3
100
AcDbLine
 10
471.9233712182999
 20
245.419747
 30
0.0
 11
479.0409182183
 21
245.7305060000001
 31
0.0
  0
LINE
  5
549
330
1F
100
AcDbEntity
  8
Ｓ_１_１
  6
CONTINUOUS
 62
     3
100
AcDbLine
 10
472.4522272182999
 20
233.3069390000001
 30
0.0
 11
479.5697752183
 21
233.6176980000001
 31
0.0
  0
LINE
  5
54A
330
1F
100
AcDbEntity
  8
Ｓ_１_１
  6
CONTINUOUS
 62
     3
100
AcDbLine
 10
472.7166182183
 20
227.250524
 30
0.0
 11
479.8342422183
 21
227.5612860000001
 31
0.0
  0
LINE
  5
54B
330
1F
100
AcDbEntity
  8
Ｓ_１_１
  6
CONTINUOUS
 62
     3
100
AcDbLine
 10
471.6589422183
 20
251.476161
 30
0.0
 11
478.7764902183001
 21
251.786919
 31
0.0
  0
LINE
  5
54C
330
1F
100
AcDbEntity
  8
Ｓ_１_１
  6
CONTINUOUS
 62
     3
100
AcDbLine
 10
470.7928462182999
 20
249.8124550000001
 30
0.0
 11
471.6589182183
 21
251.4761700000001
 31
0.0
  0
LINE
  5
54D
330
1F
100
AcDbEntity
  8
Ｓ_１_１
  6
CONTINUOUS
 62
     3
100
AcDbLine
 10
479.7842782183
 20
250.2050180000001
 30
0.0
 11
478.7764962183001
 21
251.7869260000001
 31
0.0
  0
LINE
  5
54E
330
1F
100
AcDbEntity
  8
Ｓ_１_１
  6
CONTINUOUS
 62
     3
100
AcDbLine
 10
471.7088572182999
 20
228.8323940000001
 30
0.0
 11
472.7166402183
 21
227.2504860000001
 31
0.0
  0
LINE
  5
54F
330
1F
100
AcDbEntity
  8
Ｓ_１_１
  6
CONTINUOUS
 62
     3
100
AcDbLine
 10
480.7002882183
 20
229.224987
 30
0.0
 11
479.8342132183
 21
227.561265
 31
0.0
  0
LINE
  5
550
330
1F
100
AcDbEntity
  8
Ｓ_１_１
  6
CONTINUOUS
 62
     3
100
AcDbLine
 10
486.2516282183001
 20
247.9373140000001
 30
0.0
 11
479.8780502183
 21
248.0570590000001
 31
0.0
  0
LINE
  5
551
330
1F
100
AcDbEntity
  8
Ｓ_１_１
  6
CONTINUOUS
 62
     3
100
AcDbLine
 10
486.9453812182999
 20
232.0477280000001
 30
0.0
 11
480.6065322183
 21
231.3729480000001
 31
0.0
  0
LINE
  5
552
330
1F
100
AcDbEntity
  8
Ｓ_１_１
  6
CONTINUOUS
 62
     3
100
AcDbLine
 10
416.8681422183
 20
235.4466190000001
 30
0.0
 11
416.7372852182999
 21
238.4437370000001
 31
0.0
  0
LINE
  5
553
330
1F
100
AcDbEntity
  8
Ｓ_１_１
  6
CONTINUOUS
 62
     3
100
AcDbLine
 10
418.9971042183
 20
232.5367020000001
 30
0.0
 11
418.6045302183001
 21
241.5281320000001
 31
0.0
  0
LINE
  5
554
330
1F
100
AcDbEntity
  8
Ｓ_１_１
  6
CONTINUOUS
 62
     3
100
AcDbLine
 10
457.2880742182999
 20
226.7013770000001
 30
0.0
 11
456.2412092183
 21
250.6785300000001
 31
0.0
  0
LINE
  5
555
330
1F
100
AcDbEntity
  8
Ｓ_１_１
  6
CONTINUOUS
 62
     3
100
AcDbLine
 10
458.4398442182999
 20
224.8935120000001
 30
0.0
 11
463.2916362183
 21
225.1053450000001
 31
0.0
  0
LINE
  5
556
330
1F
100
AcDbEntity
  8
Ｓ_１_１
  6
CONTINUOUS
 62
     3
100
AcDbLine
 10
458.1376402183
 20
231.8151130000001
 30
0.0
 11
462.9893942183
 21
232.026946
 31
0.0
  0
LINE
  5
557
330
1F
100
AcDbEntity
  8
Ｓ_１_１
  6
CONTINUOUS
 62
     3
100
AcDbLine
 10
457.5332332183
 20
245.658317
 30
0.0
 11
462.3849872183
 21
245.8701490000001
 31
0.0
  0
LINE
  5
558
330
1F
100
AcDbEntity
  8
Ｓ_１_１
  6
CONTINUOUS
 62
     3
100
AcDbLine
 10
457.2310282183
 20
252.5799380000001
 30
0.0
 11
462.0827832182999
 21
252.79177
 31
0.0
  0
LINE
  5
559
330
1F
100
AcDbEntity
  8
Ｓ_１_１
  6
CONTINUOUS
 62
     3
100
AcDbLine
 10
458.4398482183001
 20
224.8934780000001
 30
0.0
 11
457.2880972182999
 21
226.701366
 31
0.0
  0
LINE
  5
55A
330
1F
100
AcDbEntity
  8
Ｓ_１_１
  6
CONTINUOUS
 62
     3
100
AcDbLine
 10
463.2345562183
 20
250.983866
 30
0.0
 11
462.0828052183
 21
252.7917540000001
 31
0.0
  0
LINE
  5
55B
330
1F
100
AcDbEntity
  8
Ｓ_１_１
  6
CONTINUOUS
 62
     3
100
AcDbLine
 10
456.2412202183
 20
250.6785520000001
 30
0.0
 11
457.2310282183
 21
252.579954
 31
0.0
  0
LINE
  5
55C
330
1F
100
AcDbEntity
  8
Ｓ_１_１
  6
CONTINUOUS
 62
     3
100
AcDbLine
 10
463.2916592183001
 20
225.1053420000001
 30
0.0
 11
464.2814412183
 21
227.006696
 31
0.0
  0
LINE
  5
55D
330
1F
100
AcDbEntity
  8
Ｓ_１_１
  6
CONTINUOUS
 62
     3
100
AcDbLine
 10
448.7852752183001
 20
226.5803710000001
 30
0.0
 11
457.2771692183001
 21
226.9511350000001
 31
0.0
  0
LINE
  5
55E
330
1F
100
AcDbEntity
  8
Ｓ_１_１
  6
CONTINUOUS
 62
     3
100
AcDbLine
 10
447.7602192183
 20
250.0580080000001
 30
0.0
 11
456.2521142182999
 21
250.4287720000001
 31
0.0
  0
LINE
  5
55F
330
1F
100
AcDbEntity
  8
Ｓ_１_１
  6
CONTINUOUS
 62
     3
100
AcDbLine
 10
448.2639492183
 20
227.0580780000001
 30
0.0
 11
447.2825132182999
 21
249.5366630000001
 31
0.0
  0
LINE
  5
560
330
1F
100
AcDbEntity
  8
Ｓ_１_１
  6
CONTINUOUS
 62
     3
100
AcDbLine
 10
431.8954172182999
 20
246.612701
 30
0.0
 11
433.8934832183
 21
246.6999380000001
 31
0.0
  0
LINE
  5
561
330
1F
100
AcDbEntity
  8
Ｓ_１_１
  6
CONTINUOUS
 62
     3
100
AcDbLine
 10
562.0754542183
 20
250.4746130000001
 30
0.0
 11
555.9267512183
 21
250.590134
 31
0.0
  0
LINE
  5
562
330
1F
100
AcDbEntity
  8
Ｓ_１_１
  6
CONTINUOUS
 62
     3
100
AcDbLine
 10
554.5314242183
 20
251.3165620000001
 30
0.0
 11
555.9266842183
 21
250.5902360000001
 31
0.0
  0
LINE
  5
563
330
1F
100
AcDbEntity
  8
Ｓ_１_１
  6
CONTINUOUS
 62
     3
100
AcDbLine
 10
562.0447802182999
 20
251.175329
 30
0.0
 11
554.5314582183
 21
251.316488
 31
0.0
  0
LINE
  5
564
330
1F
100
AcDbEntity
  8
Ｓ_１_１
  6
CONTINUOUS
 62
     3
100
AcDbLine
 10
556.5865392183
 20
235.477557
 30
0.0
 11
555.2598282183
 21
234.6323490000001
 31
0.0
  0
LINE
  5
565
330
1F
100
AcDbEntity
  8
Ｓ_１_１
  6
CONTINUOUS
 62
     3
100
AcDbLine
 10
562.7323702182999
 20
235.4278270000001
 30
0.0
 11
555.2599412183
 21
234.6323770000001
 31
0.0
  0
LINE
  5
566
330
1F
100
AcDbEntity
  8
Ｓ_１_１
  6
CONTINUOUS
 62
     3
100
AcDbLine
 10
562.7017412183001
 20
236.128538
 30
0.0
 11
556.5866192183
 21
235.4775750000001
 31
0.0
  0
LINE
  5
567
330
1F
100
AcDbEntity
  8
Ｓ_１_１
  6
CONTINUOUS
 62
     3
100
AcDbLine
 10
555.8962162183001
 20
251.2908620000001
 30
0.0
 11
556.6172322183
 21
234.776863
 31
0.0
  0
LINE
  5
568
330
1F
100
AcDbEntity
  8
Ｓ_１_１
  6
CONTINUOUS
 62
     3
100
AcDbLine
 10
544.8731922183
 20
234.9661740000001
 30
0.0
 11
546.2684512183
 21
234.2398480000001
 31
0.0
  0
LINE
  5
569
330
1F
100
AcDbEntity
  8
Ｓ_１_１
  6
CONTINUOUS
 62
     3
100
AcDbLine
 10
539.8948962183
 20
234.3595660000001
 30
0.0
 11
546.2685502183
 21
234.2398190000001
 31
0.0
  0
LINE
  5
56A
330
1F
100
AcDbEntity
  8
Ｓ_１_１
  6
CONTINUOUS
 62
     3
100
AcDbLine
 10
539.8643742183
 20
235.0602600000001
 30
0.0
 11
544.8732562183001
 21
234.966154
 31
0.0
  0
LINE
  5
56B
330
1F
100
AcDbEntity
  8
Ｓ_１_１
  6
CONTINUOUS
 62
     3
100
AcDbLine
 10
545.5399982183
 20
250.9238280000001
 30
0.0
 11
544.2133512183
 21
250.0786610000001
 31
0.0
  0
LINE
  5
56C
330
1F
100
AcDbEntity
  8
Ｓ_１_１
  6
CONTINUOUS
 62
     3
100
AcDbLine
 10
544.1827512183
 20
250.779441
 30
0.0
 11
544.9037672183
 21
234.2654420000001
 31
0.0
  0
LINE
  5
56D
330
1F
100
AcDbEntity
  8
Ｓ_１_１
  6
CONTINUOUS
 62
     3
100
AcDbLine
 10
539.2012202183
 20
250.2491160000001
 30
0.0
 11
545.5400322183
 21
250.9238920000001
 31
0.0
  0
LINE
  5
56E
330
1F
100
AcDbEntity
  8
Ｓ_１_１
  6
CONTINUOUS
 62
     3
100
AcDbLine
 10
539.2317312183001
 20
249.5484310000001
 30
0.0
 11
544.2133502183
 21
250.0787320000001
 31
0.0
  0
LINE
  5
56F
330
1F
100
AcDbEntity
  8
Ｓ_１_１
  6
CONTINUOUS
 62
     3
100
AcDbLine
 10
545.4462552183
 20
253.0719050000001
 30
0.0
 11
546.3123422182999
 21
254.7356480000001
 31
0.0
  0
LINE
  5
570
330
1F
100
AcDbEntity
  8
Ｓ_１_１
  6
CONTINUOUS
 62
     3
100
AcDbLine
 10
554.4376582183
 20
253.464457
 30
0.0
 11
553.4298752183
 21
255.046365
 31
0.0
  0
LINE
  5
571
330
1F
100
AcDbEntity
  8
Ｓ_１_１
  6
CONTINUOUS
 62
     3
100
AcDbLine
 10
546.3622532183
 20
232.091843
 30
0.0
 11
547.3700562183
 21
230.5099030000001
 31
0.0
  0
LINE
  5
572
330
1F
100
AcDbEntity
  8
Ｓ_１_１
  6
CONTINUOUS
 62
     3
100
AcDbLine
 10
555.3537352183
 20
232.4844260000001
 30
0.0
 11
554.4876492183
 21
230.820684
 31
0.0
  0
LINE
  5
573
330
1F
100
AcDbEntity
  8
Ｓ_１_１
  6
CONTINUOUS
 62
     3
100
AcDbLine
 10
554.4875862183
 20
230.820683
 30
0.0
 11
547.3700002183
 21
230.509923
 31
0.0
  0
LINE
  5
574
330
1F
100
AcDbEntity
  8
Ｓ_１_１
  6
CONTINUOUS
 62
     3
100
AcDbLine
 10
553.4298712183
 20
255.046318
 30
0.0
 11
546.3122862183001
 21
254.7355580000001
 31
0.0
  0
LINE
  5
575
330
1F
100
AcDbEntity
  8
Ｓ_１_１
  6
CONTINUOUS
 62
     3
100
AcDbLine
 10
553.6942992183
 20
248.9899240000001
 30
0.0
 11
546.5767142183
 21
248.6791630000001
 31
0.0
  0
LINE
  5
576
330
1F
100
AcDbEntity
  8
Ｓ_１_１
  6
CONTINUOUS
 62
     3
100
AcDbLine
 10
554.2231562183
 20
236.8771160000001
 30
0.0
 11
547.1055702182999
 21
236.566355
 31
0.0
  0
LINE
  5
577
330
1F
100
AcDbEntity
  8
Ｓ_１_１
  6
CONTINUOUS
 62
     3
100
AcDbLine
 10
554.4377122183
 20
253.464457
 30
0.0
 11
555.3537212182999
 21
232.484403
 31
0.0
  0
LINE
  5
578
330
1F
100
AcDbEntity
  8
Ｓ_１_１
  6
CONTINUOUS
 62
     3
100
AcDbLine
 10
545.4462632183
 20
253.0718820000001
 30
0.0
 11
546.3622722183001
 21
232.0918270000001
 31
0.0
  0
LINE
  5
579
330
1F
100
AcDbEntity
  8
Ｓ_１_１
  6
CONTINUOUS
 62
     3
100
AcDbLine
 10
436.9560622183
 20
245.332205
 30
0.0
 11
438.3892152182999
 21
246.8962160000001
 31
0.0
  0
LINE
  5
57A
330
1F
100
AcDbEntity
  8
Ｓ_１_１
  6
CONTINUOUS
 62
     3
100
AcDbLine
 10
439.1743582182999
 20
228.9133560000001
 30
0.0
 11
437.6103602183001
 21
230.3464950000001
 31
0.0
  0
LINE
  5
57B
330
1F
100
AcDbEntity
  8
Ｓ_１_１
  6
CONTINUOUS
 62
     3
100
AcDbLine
 10
434.6786322183
 20
228.7170780000001
 30
0.0
 11
433.8934832183
 21
246.6999380000001
 31
0.0
  0
LINE
  5
57C
330
1F
100
AcDbEntity
  8
Ｓ_１_１
  6
CONTINUOUS
 62
     3
100
AcDbLine
 10
435.4575022183
 20
245.266779
 30
0.0
 11
433.8935042183001
 21
246.6999190000001
 31
0.0
  0
LINE
  5
57D
330
1F
100
AcDbEntity
  8
Ｓ_１_１
  6
CONTINUOUS
 62
     3
100
AcDbLine
 10
434.6786462183
 20
228.717066
 30
0.0
 11
436.1117852183
 21
230.2810640000001
 31
0.0
  0
LINE
  5
57E
330
1F
100
AcDbEntity
  8
Ｓ_１_１
  6
CONTINUOUS
 62
     3
100
AcDbLine
 10
439.1743562182999
 20
228.9133650000001
 30
0.0
 11
448.1658052183
 21
229.3059410000001
 31
0.0
  0
LINE
  5
57F
330
1F
100
AcDbEntity
  8
Ｓ_１_１
  6
CONTINUOUS
 62
     3
100
AcDbLine
 10
438.3892082183
 20
246.8962260000001
 30
0.0
 11
447.3806572183
 21
247.288801
 31
0.0
  0
LINE
  5
580
330
1F
100
AcDbEntity
  8
Ｓ_１_１
  6
CONTINUOUS
 62
     3
100
AcDbLine
 10
432.6805282183001
 20
228.6298390000001
 30
0.0
 11
431.8953792183
 21
246.612699
 31
0.0
  0
LINE
  5
581
330
1F
100
AcDbEntity
  8
Ｓ_１_１
  6
CONTINUOUS
 62
     3
100
AcDbLine
 10
436.1117902182999
 20
230.2810760000001
 30
0.0
 11
435.4574992183001
 21
245.2667990000001
 31
0.0
  0
LINE
  5
582
330
1F
100
AcDbEntity
  8
Ｓ_１_１
  6
CONTINUOUS
 62
     3
100
AcDbLine
 10
519.1614312183
 20
267.9394860000001
 30
0.0
 11
519.2555372183
 21
272.9483680000001
 31
0.0
  0
LINE
  5
583
330
1F
100
AcDbEntity
  8
Ｓ_１_１
  6
CONTINUOUS
 62
     3
100
AcDbLine
 10
519.8622032183
 20
267.9701010000001
 30
0.0
 11
519.9819482183
 21
274.3436600000001
 31
0.0
  0
LINE
  5
584
330
1F
100
AcDbEntity
  8
Ｓ_１_１
  6
CONTINUOUS
 62
     3
100
AcDbLine
 10
519.9563092183
 20
272.978957
 30
0.0
 11
503.4422342183
 21
272.2579370000001
 31
0.0
  0
LINE
  5
585
330
1F
100
AcDbEntity
  8
Ｓ_１_１
  6
CONTINUOUS
 62
     3
100
AcDbLine
 10
519.9818102183
 20
274.343654
 30
0.0
 11
519.2554812183
 21
272.948388
 31
0.0
  0
LINE
  5
586
330
1F
100
AcDbEntity
  8
Ｓ_１_１
  6
CONTINUOUS
 62
     3
100
AcDbLine
 10
498.9972792183
 20
254.0466600000001
 30
0.0
 11
500.5612482183
 21
252.613546
 31
0.0
  0
LINE
  5
587
330
1F
100
AcDbEntity
  8
Ｓ_１_１
  6
CONTINUOUS
 62
     3
100
AcDbLine
 10
523.0222322183
 20
231.0728170000001
 30
0.0
 11
504.0403392183
 21
230.2440500000001
 31
0.0
  0
LINE
  5
588
330
1F
100
AcDbEntity
  8
Ｓ_１_１
  6
CONTINUOUS
 62
     3
100
AcDbLine
 10
525.6507112183
 20
228.1847100000001
 30
0.0
 11
524.5384162183
 21
253.6604510000001
 31
0.0
  0
LINE
  5
589
330
1F
100
AcDbEntity
  8
Ｓ_１_１
  6
CONTINUOUS
 62
     3
100
AcDbLine
 10
502.1512382183
 20
227.659162
 30
0.0
 11
501.6735332183
 21
227.1378390000001
 31
0.0
  0
LINE
  5
58A
330
1F
100
AcDbEntity
  8
Ｓ_１_１
  6
CONTINUOUS
 62
     3
100
AcDbLine
 10
501.6735772183
 20
227.1378460000001
 30
0.0
 11
500.5612822182999
 21
252.613586
 31
0.0
  0
LINE
  5
58B
330
1F
100
AcDbEntity
  8
Ｓ_１_１
  6
CONTINUOUS
 62
     3
100
AcDbLine
 10
502.1512832183
 20
227.659191
 30
0.0
 11
501.0826092182999
 21
252.1358600000001
 31
0.0
  0
LINE
  5
58C
330
1F
100
AcDbEntity
  8
Ｓ_１_１
  6
CONTINUOUS
 62
     3
100
AcDbLine
 10
524.5384162183
 20
253.6604510000001
 30
0.0
 11
500.5612822182999
 21
252.613586
 31
0.0
  0
LINE
  5
58D
330
1F
100
AcDbEntity
  8
Ｓ_１_１
  6
CONTINUOUS
 62
     3
100
AcDbLine
 10
498.9972662182999
 20
254.046725
 30
0.0
 11
498.4520242183
 21
266.5348280000001
 31
0.0
  0
LINE
  5
58E
330
1F
100
AcDbEntity
  8
Ｓ_１_１
  6
CONTINUOUS
 62
     3
100
AcDbLine
 10
524.0607102183001
 20
253.1391060000001
 30
0.0
 11
501.0826092182999
 21
252.1358600000001
 31
0.0
  0
LINE
  5
58F
330
1F
100
AcDbEntity
  8
Ｓ_１_１
  6
CONTINUOUS
 62
     3
100
AcDbLine
 10
486.0314142183
 20
252.9801520000001
 30
0.0
 11
486.5091182183
 21
253.5014750000001
 31
0.0
  0
LINE
  5
590
330
1F
100
AcDbEntity
  8
Ｓ_１_１
  6
CONTINUOUS
 62
     3
100
AcDbLine
 10
487.6868752182999
 20
226.527168
 30
0.0
 11
487.1655522183
 21
227.0048730000001
 31
0.0
  0
LINE
  5
591
330
1F
100
AcDbEntity
  8
Ｓ_１_１
  6
CONTINUOUS
 62
     3
100
AcDbLine
 10
487.6868872182999
 20
226.527174
 30
0.0
 11
486.5091632183
 21
253.5014830000001
 31
0.0
  0
LINE
  5
592
330
1F
100
AcDbEntity
  8
Ｓ_１_１
  6
CONTINUOUS
 62
     3
100
AcDbLine
 10
498.9972662182999
 20
254.046725
 30
0.0
 11
486.5091632183
 21
253.5014830000001
 31
0.0
  0
LINE
  5
593
330
1F
100
AcDbEntity
  8
Ｓ_１_１
  6
CONTINUOUS
 62
     3
100
AcDbLine
 10
487.1655602183
 20
227.0049
 30
0.0
 11
486.0314562183
 21
252.9801570000001
 31
0.0
  0
LINE
  5
594
330
1F
100
AcDbEntity
  8
Ｓ_１_１
  6
CONTINUOUS
 62
     3
100
AcDbLine
 10
501.6735772183
 20
227.1378460000001
 30
0.0
 11
487.6868872182999
 21
226.527174
 31
0.0
  0
LINE
  5
595
330
1F
100
AcDbEntity
  8
Ｓ_１_１
  6
CONTINUOUS
 62
     3
100
AcDbLine
 10
504.6732622183
 20
267.306944
 30
0.0
 11
504.1429622182999
 21
272.2885640000001
 31
0.0
  0
LINE
  5
596
330
1F
100
AcDbEntity
  8
Ｓ_１_１
  6
CONTINUOUS
 62
     3
100
AcDbLine
 10
503.9724912182999
 20
267.2763480000001
 30
0.0
 11
503.2977132183
 21
273.6151790000001
 31
0.0
  0
LINE
  5
597
330
1F
100
AcDbEntity
  8
Ｓ_１_１
  6
CONTINUOUS
 62
     3
100
AcDbLine
 10
504.1429112183
 20
272.2885470000001
 30
0.0
 11
503.2977442183001
 21
273.6151930000001
 31
0.0
  0
LINE
  5
598
330
1F
100
AcDbEntity
  8
Ｓ_１_１
  6
CONTINUOUS
 62
     3
100
AcDbLine
 10
437.6103782183001
 20
230.3465060000001
 30
0.0
 11
436.9560872183
 21
245.3322290000001
 31
0.0
  0
LINE
  5
599
330
1F
100
AcDbEntity
  8
Ｓ_１_１
  6
CONTINUOUS
 62
     3
100
AcDbLine
 10
418.9535042183
 20
233.5357700000001
 30
0.0
 11
416.8681842182999
 21
235.4466140000001
 31
0.0
  0
LINE
  5
59A
330
1F
100
AcDbEntity
  8
Ｓ_１_１
  6
CONTINUOUS
 62
     3
100
AcDbLine
 10
416.7373132183001
 20
238.4437370000001
 30
0.0
 11
418.6481702182999
 21
240.529072
 31
0.0
  0
LINE
  5
59B
330
1F
100
AcDbEntity
  8
Ｓ_１_１
  6
CONTINUOUS
 62
     3
100
AcDbLine
 10
448.7852872183
 20
226.580358
 30
0.0
 11
448.2639302182999
 21
227.0580830000001
 31
0.0
  0
LINE
  5
59C
330
1F
100
AcDbEntity
  8
Ｓ_１_１
  6
CONTINUOUS
 62
     3
100
AcDbLine
 10
447.2825172183001
 20
249.5366600000001
 30
0.0
 11
447.7602342183001
 21
250.0579970000001
 31
0.0
  0
LINE
  5
59D
330
1F
100
AcDbEntity
  8
Ｓ_１_１
  6
CONTINUOUS
 62
     3
100
AcDbLine
 10
448.7852752183001
 20
226.5803710000001
 30
0.0
 11
447.7602192183
 21
250.0580080000001
 31
0.0
  0
LINE
  5
59E
330
1F
100
AcDbEntity
  8
Ｓ_１_１
  6
CONTINUOUS
 62
     3
100
AcDbLine
 10
464.1017812182999
 20
231.121531
 30
0.0
 11
471.6151042183001
 21
230.9803720000001
 31
0.0
  0
LINE
  5
59F
330
1F
100
AcDbEntity
  8
Ｓ_１_１
  6
CONTINUOUS
 62
     3
100
AcDbLine
 10
463.4142302183
 20
246.869035
 30
0.0
 11
470.8866592183
 21
247.664486
 31
0.0
  0
LINE
  5
5A0
330
1F
100
AcDbEntity
  8
Ｓ_１_１
  6
CONTINUOUS
 62
     3
100
AcDbLine
 10
486.2822252183
 20
247.236599
 30
0.0
 11
481.2733432182999
 21
247.3307050000001
 31
0.0
  0
LINE
  5
5A1
330
1F
100
AcDbEntity
  8
Ｓ_１_１
  6
CONTINUOUS
 62
     3
100
AcDbLine
 10
486.9147932183
 20
232.7484230000001
 30
0.0
 11
481.9331742183
 21
232.2181230000001
 31
0.0
  0
LINE
  5
5A2
330
1F
100
AcDbEntity
  8
Ｓ_１_１
  6
CONTINUOUS
 62
     3
100
AcDbLine
 10
481.2733352183
 20
247.3307080000001
 30
0.0
 11
479.8780762183001
 21
248.057034
 31
0.0
  0
LINE
  5
5A3
330
1F
100
AcDbEntity
  8
Ｓ_１_１
  6
CONTINUOUS
 62
     3
100
AcDbLine
 10
480.6065052183001
 20
231.3729530000001
 30
0.0
 11
481.9331842183001
 21
232.2181400000001
 31
0.0
  0
LINE
  5
5A4
330
1F
100
AcDbEntity
  8
Ｓ_１_１
  6
CONTINUOUS
 62
     3
100
AcDbLine
 10
481.9637752183
 20
231.5174420000001
 30
0.0
 11
481.2427592183001
 21
248.0314210000001
 31
0.0
  0
LINE
  5
5A5
330
1F
100
AcDbEntity
  8
Ｓ_１_１
  6
CONTINUOUS
 62
     3
100
AcDbLine
 10
525.1293852183001
 20
228.6624360000001
 30
0.0
 11
524.0607102183001
 21
253.1391060000001
 31
0.0
  0
LINE
  5
5A6
330
1F
100
AcDbEntity
  8
Ｓ_１_１
  6
CONTINUOUS
 62
     3
100
AcDbLine
 10
525.9715372183
 20
255.2244470000001
 30
0.0
 11
525.4262952183001
 21
267.7125500000001
 31
0.0
  0
LINE
  5
5A7
330
1F
100
AcDbEntity
  8
Ｓ_１_１
  6
CONTINUOUS
 62
     3
100
AcDbLine
 10
538.9810352183
 20
255.2919330000001
 30
0.0
 11
538.4597122183001
 21
255.7696380000001
 31
0.0
  0
LINE
  5
5A8
330
1F
100
AcDbEntity
  8
Ｓ_１_１
  6
CONTINUOUS
 62
     3
100
AcDbLine
 10
539.6374222183
 20
228.7953900000001
 30
0.0
 11
540.1151262183
 21
229.316713
 31
0.0
  0
LINE
  5
5A9
330
1F
100
AcDbEntity
  8
Ｓ_１_１
  6
CONTINUOUS
 62
     3
100
AcDbLine
 10
539.6373632183
 20
228.7953800000001
 30
0.0
 11
538.4596402183
 21
255.7696900000001
 31
0.0
  0
LINE
  5
5AA
330
1F
100
AcDbEntity
  8
Ｓ_１_１
  6
CONTINUOUS
 62
     3
100
AcDbLine
 10
525.9715372183
 20
255.2244470000001
 30
0.0
 11
538.4596402183
 21
255.7696900000001
 31
0.0
  0
LINE
  5
5AB
330
1F
100
AcDbEntity
  8
Ｓ_１_１
  6
CONTINUOUS
 62
     3
100
AcDbLine
 10
540.1150702183
 20
229.3167250000001
 30
0.0
 11
538.9809652183
 21
255.2919820000001
 31
0.0
  0
LINE
  5
5AC
330
1F
100
AcDbEntity
  8
Ｓ_１_１
  6
CONTINUOUS
 62
     3
100
AcDbLine
 10
525.6507112183
 20
228.1847100000001
 30
0.0
 11
539.6373632183
 21
228.7953800000001
 31
0.0
  0
LINE
  5
5AD
330
1F
100
AcDbEntity
  8
Ｓ_１_１
  6
CONTINUOUS
 62
     3
100
AcDbLine
 10
525.9715522183001
 20
255.2244450000001
 30
0.0
 11
524.5383992183
 21
253.660434
 31
0.0
  0
LINE
  5
5AE
330
1F
100
AcDbEntity
  8
Ｓ_１_１
  6
CONTINUOUS
 62
     3
100
AcDbLine
 10
498.4519792183
 20
266.5348190000001
 30
0.0
 11
498.9296832182999
 21
267.0561430000001
 31
0.0
  0
LINE
  5
5AF
330
1F
100
AcDbEntity
  8
Ｓ_１_１
  6
CONTINUOUS
 62
     3
100
AcDbLine
 10
525.4263532182999
 20
267.7125100000001
 30
0.0
 11
524.9049732183
 21
268.1902660000001
 31
0.0
  0
LINE
  5
5B0
330
1F
100
AcDbEntity
  8
Ｓ_１_１
  6
CONTINUOUS
 62
     3
100
AcDbLine
 10
525.4262952183001
 20
267.7125500000001
 30
0.0
 11
498.4520242183
 21
266.5348280000001
 31
0.0
  0
LINE
  5
5B1
330
1F
100
AcDbEntity
  8
Ｓ_１_１
  6
CONTINUOUS
 62
     3
100
AcDbLine
 10
524.9050072182999
 20
268.1902590000001
 30
0.0
 11
498.9297312183
 21
267.0561540000001
 31
0.0
  0
LINE
  5
5B2
330
1F
100
AcDbEntity
  8
Ｓ_１_１
  6
CONTINUOUS
 62
     3
100
AcDbLine
 10
525.1293742183
 20
228.662407
 30
0.0
 11
525.6507262183
 21
228.1846760000001
 31
0.0
  0
LINE
  5
5B3
330
1F
100
AcDbEntity
  8
Ｓ_１_１
  6
CONTINUOUS
 62
     3
100
AcDbLine
 10
680.2804162182999
 20
225.426947
 30
0.0
 11
678.3695582183
 21
223.3416130000001
 31
0.0
  0
LINE
  5
5B4
330
1F
100
AcDbEntity
  8
Ｓ_１_１
  6
CONTINUOUS
 62
     3
100
AcDbLine
 10
676.1885802183
 20
273.2940120000001
 30
0.0
 11
678.2739292182999
 21
271.383142
 31
0.0
  0
LINE
  5
5B5
330
1F
100
AcDbEntity
  8
Ｓ_１_１
  6
CONTINUOUS
 62
     3
100
AcDbLine
 10
676.1885992182999
 20
273.2939980000001
 30
0.0
 11
678.3695682183
 21
223.3416070000001
 31
0.0
  0
LINE
  5
5B6
330
1F
100
AcDbEntity
  8
Ｓ_１_１
  6
CONTINUOUS
 62
     3
100
AcDbLine
 10
959.5668162183
 20
321.6237850000001
 30
0.0
 11
963.1195562182999
 21
321.778901
 31
0.0
  0
LINE
  5
5B7
330
1F
100
AcDbEntity
  8
Ｓ_１_１
  6
CONTINUOUS
 62
     3
100
AcDbLine
 10
924.6789922183
 20
226.588564
 30
0.0
 11
959.6456812183001
 21
228.1152420000001
 31
0.0
  0
LINE
  5
5B8
330
1F
100
AcDbEntity
  8
Ｓ_１_１
  6
CONTINUOUS
 62
     3
100
AcDbLine
 10
924.9666562182999
 20
220.0
 30
0.0
 11
959.9999992182999
 21
220.0
 31
0.0
  0
LINE
  5
5B9
330
1F
100
AcDbEntity
  8
Ｓ_１_１
  6
CONTINUOUS
 62
     3
100
AcDbLine
 10
955.6667292182998
 20
319.248226
 30
0.0
 11
959.6629182183
 21
319.4227040000001
 31
0.0
  0
LINE
  5
5BA
330
1F
100
AcDbEntity
  8
Ｓ_１_１
  6
CONTINUOUS
 62
     3
100
AcDbLine
 10
960.2647252183
 20
305.6390480000001
 30
0.0
 11
961.7008062182999
 21
272.7473910000001
 31
0.0
  0
LINE
  5
5BB
330
1F
100
AcDbEntity
  8
Ｓ_１_１
  6
CONTINUOUS
 62
     3
100
AcDbLine
 10
956.2685362182998
 20
305.4645710000001
 30
0.0
 11
957.0285182182998
 21
288.058115
 31
0.0
  0
LINE
  5
5BC
330
1F
100
AcDbEntity
  8
Ｓ_１_１
  6
CONTINUOUS
 62
     3
100
AcDbLine
 10
611.5329832182999
 20
258.2956360000001
 30
0.0
 11
611.6202222183
 21
256.2975510000001
 31
0.0
  0
LINE
  5
5BD
330
1F
100
AcDbEntity
  8
Ｓ_１_１
  6
CONTINUOUS
 62
     3
100
AcDbLine
 10
613.5552592183
 20
255.064827
 30
0.0
 11
646.8819302183
 21
256.5199010000001
 31
0.0
  0
LINE
  5
5BE
330
1F
100
AcDbEntity
  8
Ｓ_１_１
  6
CONTINUOUS
 62
     3
100
AcDbLine
 10
585.6476592183
 20
289.2114950000001
 30
0.0
 11
587.0618812183001
 21
289.2114950000001
 31
0.0
  0
LINE
  5
5BF
330
1F
100
AcDbEntity
  8
Ｓ_１_１
  6
CONTINUOUS
 62
     3
100
AcDbLine
 10
565.8486742183001
 20
269.4124830000001
 30
0.0
 11
565.8486742183001
 21
267.9982600000001
 31
0.0
  0
LINE
  5
5C0
330
1F
100
AcDbEntity
  8
Ｓ_１_１
  6
CONTINUOUS
 62
     3
100
AcDbLine
 10
565.8486852182999
 20
267.9982790000001
 30
0.0
 11
587.0618882182999
 21
289.211482
 31
0.0
  0
LINE
  5
5C1
330
1F
100
AcDbEntity
  8
Ｓ_１_１
  6
CONTINUOUS
 62
     3
100
AcDbLine
 10
582.4656872183
 20
290.2721560000001
 30
0.0
 11
584.5870282183
 21
288.1508140000001
 31
0.0
  0
LINE
  5
5C2
330
1F
100
AcDbEntity
  8
Ｓ_１_１
  6
CONTINUOUS
 62
     3
100
AcDbLine
 10
563.0202542183
 20
274.3622570000001
 30
0.0
 11
566.9093632183
 21
270.473149
 31
0.0
  0
LINE
  5
5C3
330
1F
100
AcDbEntity
  8
Ｓ_１_１
  6
CONTINUOUS
 62
     3
100
AcDbLine
 10
608.7442802183
 20
265.0282990000001
 30
0.0
 11
607.0491862183
 21
275.2800740000001
 31
0.0
  0
LINE
  5
5C4
330
1F
100
AcDbEntity
  8
Ｓ_１_１
  6
CONTINUOUS
 62
     3
100
AcDbLine
 10
561.4289142183001
 20
265.2806320000001
 30
0.0
 11
563.4269792183001
 21
265.36787
 31
0.0
  0
LINE
  5
5C5
330
1F
100
AcDbEntity
  8
Ｓ_１_１
  6
CONTINUOUS
 62
     3
100
AcDbLine
 10
607.0893002183
 20
226.980787
 30
0.0
 11
607.6709652183
 21
225.973314
 31
0.0
  0
LINE
  5
5C6
330
1F
100
AcDbEntity
  8
Ｓ_１_１
  6
CONTINUOUS
 62
     3
100
AcDbLine
 10
641.7264702182999
 20
276.794113
 30
0.0
 11
646.9876472183
 21
277.0238210000001
 31
0.0
  0
LINE
  5
5C7
330
1F
100
AcDbEntity
  8
Ｓ_１_１
  6
CONTINUOUS
 62
     3
100
AcDbLine
 10
623.7436102183
 20
276.0089640000001
 30
0.0
 11
634.2659832183
 21
276.468381
 31
0.0
  0
LINE
  5
5C8
330
1F
100
AcDbEntity
  8
Ｓ_１_１
  6
CONTINUOUS
 62
     3
100
AcDbLine
 10
605.4354592183
 20
273.6663490000001
 30
0.0
 11
606.4992322183
 21
274.7301220000001
 31
0.0
  0
LINE
  5
5C9
330
1F
100
AcDbEntity
  8
Ｓ_１_１
  6
CONTINUOUS
 62
     3
100
AcDbLine
 10
554.5349672183
 20
265.8769710000001
 30
0.0
 11
560.3415482183
 21
260.0703890000001
 31
0.0
  0
LINE
  5
5CA
330
1F
100
AcDbEntity
  8
Ｓ_１_１
  6
CONTINUOUS
 62
     3
100
AcDbLine
 10
588.1225592183
 20
288.1508110000001
 30
0.0
 11
589.5367782183
 21
289.5650300000001
 31
0.0
  0
LINE
  5
5CB
330
1F
100
AcDbEntity
  8
Ｓ_１_１
  6
CONTINUOUS
 62
     3
100
AcDbLine
 10
591.6580662183
 20
284.615304
 30
0.0
 11
593.0722852183
 21
286.029523
 31
0.0
  0
LINE
  5
5CC
330
1F
100
AcDbEntity
  8
Ｓ_１_１
  6
CONTINUOUS
 62
     3
100
AcDbLine
 10
589.1832032183
 20
289.9186050000001
 30
0.0
 11
596.9649272183
 21
282.136881
 31
0.0
  0
LINE
  5
5CD
330
1F
100
AcDbEntity
  8
Ｓ_１_１
  6
CONTINUOUS
 62
     3
100
AcDbLine
 10
565.8486982183
 20
269.4124840000001
 30
0.0
 11
585.6476892183
 21
289.2114750000001
 31
0.0
  0
LINE
  5
5CE
330
1F
100
AcDbEntity
  8
Ｓ_１_１
  6
CONTINUOUS
 62
     3
100
AcDbLine
 10
586.3547922183001
 20
289.918578
 30
0.0
 11
602.6070212183
 21
273.6663490000001
 31
0.0
  0
LINE
  5
5CF
330
1F
100
AcDbEntity
  8
Ｓ_１_１
  6
CONTINUOUS
 62
     3
100
AcDbLine
 10
561.2524802183
 20
272.5944840000001
 30
0.0
 11
571.5074492182999
 21
262.3395150000001
 31
0.0
  0
LINE
  5
5D0
330
1F
100
AcDbEntity
  8
Ｓ_１_１
  6
CONTINUOUS
 62
     3
100
AcDbLine
 10
574.2585862183
 20
282.065056
 30
0.0
 11
582.1121352183001
 21
289.9186050000001
 31
0.0
  0
LINE
  5
5D1
330
1F
100
AcDbEntity
  8
Ｓ_１_１
  6
CONTINUOUS
 62
     3
100
AcDbLine
 10
569.9891562183001
 20
282.0650280000001
 30
0.0
 11
574.2586032183
 21
282.0650280000001
 31
0.0
  0
LINE
  5
5D2
330
1F
100
AcDbEntity
  8
Ｓ_１_１
  6
CONTINUOUS
 62
     3
100
AcDbLine
 10
564.8885282182999
 20
276.2305220000001
 30
0.0
 11
567.3910672183
 21
280.565047
 31
0.0
  0
LINE
  5
5D3
330
1F
100
AcDbEntity
  8
Ｓ_１_１
  6
CONTINUOUS
 62
     3
100
AcDbLine
 10
571.0821372183
 20
309.6480640000001
 30
0.0
 11
572.0311352182999
 21
308.699065
 31
0.0
  0
LINE
  5
5D4
330
1F
100
AcDbEntity
  8
Ｓ_１_１
  6
CONTINUOUS
 62
     3
100
AcDbLine
 10
613.0867972182999
 20
290.4809330000001
 30
0.0
 11
941.2828112182999
 21
304.81028
 31
0.0
  0
LINE
  5
5D5
330
1F
100
AcDbEntity
  8
Ｓ_１_１
  6
CONTINUOUS
 62
     3
100
AcDbLine
 10
612.3888882182999
 20
306.46567
 30
0.0
 11
955.5706272182999
 21
321.4493080000001
 31
0.0
  0
LINE
  5
5D6
330
1F
100
AcDbEntity
  8
Ｓ_１_１
  6
CONTINUOUS
 62
     3
100
AcDbLine
 10
550.8027392183
 20
262.1447430000001
 30
0.0
 11
564.8885262183
 21
276.230529
 31
0.0
  0
LINE
  5
5D7
330
1F
100
AcDbEntity
  8
Ｓ_１_１
  6
CONTINUOUS
 62
     3
100
AcDbLine
 10
612.3417112183
 20
307.5462220000001
 30
0.0
 11
613.1339742183
 21
289.4004000000001
 31
0.0
  0
LINE
  5
5D8
330
1F
100
AcDbEntity
  8
Ｓ_１_１
  6
CONTINUOUS
 62
     3
100
AcDbLine
 10
547.3885372183
 20
276.1624160000001
 30
0.0
 11
566.3627592183001
 21
309.026731
 31
0.0
  0
LINE
  5
5D9
330
1F
100
AcDbEntity
  8
Ｓ_１_１
  6
CONTINUOUS
 62
     3
100
AcDbLine
 10
547.3885242183
 20
276.1624320000001
 30
0.0
 11
547.3885242183
 21
263.5589590000001
 31
0.0
  0
LINE
  5
5DA
330
1F
100
AcDbEntity
  8
Ｓ_１_１
  6
CONTINUOUS
 62
     3
100
AcDbLine
 10
649.7482082183
 20
259.6479150000001
 30
0.0
 11
649.1166092183
 21
274.1139230000001
 31
0.0
  0
LINE
  5
5DB
330
1F
100
AcDbEntity
  8
Ｓ_１_１
  6
CONTINUOUS
 62
     3
100
AcDbLine
 10
649.0729892183
 20
275.1129750000001
 30
0.0
 11
649.1166092183
 21
274.1139230000001
 31
0.0
  0
LINE
  5
5DC
330
1F
100
AcDbEntity
  8
Ｓ_１_１
  6
CONTINUOUS
 62
     3
100
AcDbLine
 10
607.8261952183
 20
275.3139950000001
 30
0.0
 11
616.2831042183
 21
275.6832310000001
 31
0.0
  0
LINE
  5
5DD
330
1F
100
AcDbEntity
  8
Ｓ_１_１
  6
CONTINUOUS
 62
     3
100
AcDbLine
 10
625.4416402183
 20
226.0354870000001
 30
0.0
 11
653.1752662183
 21
227.2463640000001
 31
0.0
  0
LINE
  5
5DE
330
1F
100
AcDbEntity
  8
Ｓ_１_１
  6
CONTINUOUS
 62
     3
100
AcDbLine
 10
656.2076162183
 20
272.4216100000001
 30
0.0
 11
658.3885852183
 21
222.4692190000001
 31
0.0
  0
LINE
  5
5DF
330
1F
100
AcDbEntity
  8
Ｓ_１_１
  6
CONTINUOUS
 62
     3
100
AcDbLine
 10
651.2019522183
 20
272.2030580000001
 30
0.0
 11
676.1885992182999
 21
273.2939980000001
 31
0.0
  0
LINE
  5
5E0
330
1F
100
AcDbEntity
  8
Ｓ_１_１
  6
CONTINUOUS
 62
     3
100
AcDbLine
 10
658.3885852183
 20
222.4692190000001
 30
0.0
 11
678.3695682183
 21
223.3416070000001
 31
0.0
  0
LINE
  5
5E1
330
1F
100
AcDbEntity
  8
Ｓ_１_１
  6
CONTINUOUS
 62
     3
100
AcDbLine
 10
678.2739422183
 20
271.3831530000001
 30
0.0
 11
680.2804332183
 21
225.42695
 31
0.0
  0
LINE
  5
5E2
330
1F
100
AcDbEntity
  8
Ｓ_１_１
  6
CONTINUOUS
 62
     3
100
AcDbLine
 10
593.5288892182999
 20
223.4733000000001
 30
0.0
 11
623.5288892182999
 21
223.4733000000001
 31
0.0
  0
LINE
  5
5E3
330
1F
100
AcDbEntity
  8
Ｓ_１_１
  6
CONTINUOUS
 62
     3
100
AcDbLine
 10
593.5288892182999
 20
218.4733000000001
 30
0.0
 11
623.5288892182999
 21
218.4733000000001
 31
0.0
  0
LINE
  5
5E4
330
1F
100
AcDbEntity
  8
Ｓ_１_１
  6
CONTINUOUS
 62
     3
100
AcDbLine
 10
623.5288892182999
 20
224.037399
 30
0.0
 11
623.5288892182999
 21
218.4733000000001
 31
0.0
  0
LINE
  5
5E5
330
1F
100
AcDbEntity
  8
Ｓ_１_１
  6
CONTINUOUS
 62
     3
100
AcDbLine
 10
593.5288892182999
 20
226.9933310000001
 30
0.0
 11
593.5288892182999
 21
218.4733000000001
 31
0.0
  0
LINE
  5
5E6
330
1F
100
AcDbEntity
  8
Ｓ_１_１
  6
CONTINUOUS
 62
     3
100
AcDbLine
 10
618.5288892182999
 20
223.4733000000001
 30
0.0
 11
618.5288892182999
 21
218.4733000000001
 31
0.0
  0
LINE
  5
5E7
330
1F
100
AcDbEntity
  8
Ｓ_１_１
  6
CONTINUOUS
 62
     3
100
AcDbLine
 10
598.5288892182999
 20
223.4733000000001
 30
0.0
 11
598.5288892182999
 21
218.4733000000001
 31
0.0
  0
LINE
  5
5E8
330
1F
100
AcDbEntity
  8
Ｓ_１_１
  6
CONTINUOUS
 62
     3
100
AcDbLine
 10
564.3866052183
 20
243.3888200000001
 30
0.0
 11
565.0845162183
 21
227.4040450000001
 31
0.0
  0
LINE
  5
5E9
330
1F
100
AcDbEntity
  8
Ｓ_１_１
  6
CONTINUOUS
 62
     3
100
AcDbLine
 10
957.0285182182998
 20
288.058115
 30
0.0
 11
960.0000002183001
 21
219.999995
 31
0.0
  0
LINE
  5
5EA
330
1F
100
AcDbEntity
  8
Ｓ_１_１
  6
CONTINUOUS
 62
     3
100
AcDbLine
 10
924.4608952182999
 20
231.5838050000001
 30
0.0
 11
959.4275842183
 21
233.110483
 31
0.0
  0
LINE
  5
5EB
330
1F
100
AcDbEntity
  8
Ｓ_１_１
  6
CONTINUOUS
 62
     3
100
AcDbLine
 10
922.0618302183
 20
286.5314370000001
 30
0.0
 11
957.0285182182998
 21
288.058115
 31
0.0
  0
LINE
  5
5EC
330
1F
100
AcDbEntity
  8
Ｓ_１_１
  6
CONTINUOUS
 62
     3
100
AcDbLine
 10
678.3393712183
 20
269.884584
 30
0.0
 11
922.3235452183
 21
280.5371630000001
 31
0.0
  0
LINE
  5
5ED
330
1F
100
AcDbEntity
  8
Ｓ_１_１
  6
CONTINUOUS
 62
     3
100
AcDbLine
 10
680.2150042183
 20
226.9255190000001
 30
0.0
 11
924.1991792183001
 21
237.5780980000001
 31
0.0
  0
LINE
  5
5EE
330
1F
100
AcDbEntity
  8
Ｓ_１_１
  6
CONTINUOUS
 62
     3
100
AcDbLine
 10
632.1755282183
 20
272.3935200000001
 30
0.0
 11
634.8212792183
 21
269.5061900000001
 31
0.0
  0
LINE
  5
5EF
330
1F
100
AcDbEntity
  8
Ｓ_１_１
  6
CONTINUOUS
 62
     3
100
AcDbLine
 10
641.7800732183
 20
269.8099830000001
 30
0.0
 11
644.1641292183
 21
272.9169450000001
 31
0.0
  0
LINE
  5
5F0
330
1F
100
AcDbEntity
  8
Ｓ_１_１
  6
CONTINUOUS
 62
     3
100
AcDbLine
 10
632.1755312183
 20
272.3935030000001
 30
0.0
 11
634.5595872183
 21
275.5004650000001
 31
0.0
  0
LINE
  5
5F1
330
1F
100
AcDbEntity
  8
Ｓ_１_１
  6
CONTINUOUS
 62
     3
100
AcDbLine
 10
641.5183432183
 20
275.804297
 30
0.0
 11
644.1641192183
 21
272.9169390000001
 31
0.0
  0
LINE
  5
5F2
330
1F
100
AcDbEntity
  8
Ｓ_１_１
  6
CONTINUOUS
 62
     3
100
AcDbLine
 10
634.5595842183
 20
275.50048
 30
0.0
 11
641.5183632183
 21
275.8043070000001
 31
0.0
  0
LINE
  5
5F3
330
1F
100
AcDbEntity
  8
Ｓ_１_１
  6
CONTINUOUS
 62
     3
100
AcDbLine
 10
634.8213012182999
 20
269.5061870000001
 30
0.0
 11
641.7800792183
 21
269.810014
 31
0.0
  0
LINE
  5
5F4
330
1F
100
AcDbEntity
  8
Ｓ_１_１
  6
CONTINUOUS
 62
     3
100
AcDbLine
 10
614.1926582182999
 20
271.6084080000001
 30
0.0
 11
616.8384352183
 21
268.7210500000001
 31
0.0
  0
LINE
  5
5F5
330
1F
100
AcDbEntity
  8
Ｓ_１_１
  6
CONTINUOUS
 62
     3
100
AcDbLine
 10
623.5354992183
 20
275.0191570000001
 30
0.0
 11
626.1812752183
 21
272.1317990000001
 31
0.0
  0
LINE
  5
5F6
330
1F
100
AcDbEntity
  8
Ｓ_１_１
  6
CONTINUOUS
 62
     3
100
AcDbLine
 10
623.7972122182999
 20
269.0248350000001
 30
0.0
 11
626.1812532183
 21
272.1317780000001
 31
0.0
  0
LINE
  5
5F7
330
1F
100
AcDbEntity
  8
Ｓ_１_１
  6
CONTINUOUS
 62
     3
100
AcDbLine
 10
614.1926692183
 20
271.6083540000001
 30
0.0
 11
616.5767252183
 21
274.715315
 31
0.0
  0
LINE
  5
5F8
330
1F
100
AcDbEntity
  8
Ｓ_１_１
  6
CONTINUOUS
 62
     3
100
AcDbLine
 10
616.8384412183
 20
268.721039
 30
0.0
 11
623.7972192183
 21
269.0248660000001
 31
0.0
  0
LINE
  5
5F9
330
1F
100
AcDbEntity
  8
Ｓ_１_１
  6
CONTINUOUS
 62
     3
100
AcDbLine
 10
616.5767242183
 20
274.7153320000001
 30
0.0
 11
623.5355032182999
 21
275.0191590000001
 31
0.0
  0
LINE
  5
5FA
330
1F
100
AcDbEntity
  8
Ｓ_１_１
  6
CONTINUOUS
 62
     3
100
AcDbLine
 10
562.6502282183
 20
243.3072810000001
 30
0.0
 11
615.0465612183
 21
245.594954
 31
0.0
  0
LINE
  5
5FB
330
1F
100
AcDbEntity
  8
Ｓ_１_１
  6
CONTINUOUS
 62
     3
100
AcDbLine
 10
562.0395552183
 20
257.2939900000001
 30
0.0
 11
609.6622992183
 21
259.3732440000001
 31
0.0
  0
LINE
  5
5FC
330
1F
100
AcDbEntity
  8
Ｓ_１_１
  6
CONTINUOUS
 62
     3
100
AcDbLine
 10
611.5330272182999
 20
258.295648
 30
0.0
 11
611.5972882182999
 21
258.1405070000001
 31
0.0
  0
LINE
  5
5FD
330
1F
100
AcDbEntity
  8
Ｓ_１_１
  6
CONTINUOUS
 62
     3
100
AcDbLine
 10
562.9992252183
 20
229.3148770000001
 30
0.0
 11
565.0845172183
 21
227.4040590000001
 31
0.0
  0
LINE
  5
5FE
330
1F
100
AcDbEntity
  8
Ｓ_１_１
  6
CONTINUOUS
 62
     3
100
AcDbLine
 10
563.4269792183001
 20
265.36787
 30
0.0
 11
563.7761822183
 21
257.3698130000001
 31
0.0
  0
LINE
  5
5FF
330
1F
100
AcDbEntity
  8
Ｓ_１_１
  6
CONTINUOUS
 62
     3
100
AcDbLine
 10
646.1622102183
 20
273.0041930000001
 30
0.0
 11
646.5984042183
 21
263.0137100000001
 31
0.0
  0
LINE
  5
600
330
1F
100
AcDbEntity
  8
Ｓ_１_１
  6
CONTINUOUS
 62
     3
100
AcDbLine
 10
630.1774352182999
 20
272.3062820000001
 30
0.0
 11
630.6136292182999
 21
262.3158000000001
 31
0.0
  0
LINE
  5
601
330
1F
100
AcDbEntity
  8
Ｓ_１_１
  6
CONTINUOUS
 62
     3
100
AcDbLine
 10
628.1793692182999
 20
272.2190450000001
 30
0.0
 11
628.6155632182999
 21
262.2285630000001
 31
0.0
  0
LINE
  5
602
330
1F
100
AcDbEntity
  8
Ｓ_１_１
  6
CONTINUOUS
 62
     3
100
AcDbLine
 10
612.1945562183
 20
271.5211330000001
 30
0.0
 11
612.6307502183
 21
261.530651
 31
0.0
  0
LINE
  5
603
330
1F
100
AcDbEntity
  8
Ｓ_１_１
  6
CONTINUOUS
 62
     3
100
AcDbLine
 10
613.4680202183
 20
257.062931
 30
0.0
 11
646.7946912182999
 21
258.5180050000001
 31
0.0
  0
LINE
  5
604
330
1F
100
AcDbEntity
  8
Ｓ_１_１
  6
CONTINUOUS
 62
     3
100
AcDbLine
 10
563.6451142183
 20
260.3726300000001
 30
0.0
 11
606.9837242182999
 21
262.2648350000001
 31
0.0
  0
LINE
  5
605
330
1F
100
AcDbEntity
  8
Ｓ_１_１
  6
CONTINUOUS
 62
     3
100
AcDbLine
 10
1037.9214552183
 20
305.025783
 30
0.0
 11
1046.7937662183
 21
303.650702
 31
0.0
  0
LINE
  5
606
330
1F
100
AcDbEntity
  8
Ｓ_１_１
  6
CONTINUOUS
 62
     3
100
AcDbLine
 10
1036.8746082183
 20
329.0029450000001
 30
0.0
 11
1045.5933072183
 21
331.146066
 31
0.0
  0
LINE
  5
607
330
1F
100
AcDbEntity
  8
Ｓ_１_１
  6
CONTINUOUS
 62
     3
100
AcDbLine
 10
964.0632032183
 20
327.5863890000001
 30
0.0
 11
972.9355172183
 21
326.211307
 31
0.0
  0
LINE
  5
608
330
1F
100
AcDbEntity
  8
Ｓ_１_１
  6
CONTINUOUS
 62
     3
100
AcDbLine
 10
965.2636962183001
 20
300.0910190000001
 30
0.0
 11
973.9823992183001
 21
302.23414
 31
0.0
  0
LINE
  5
609
330
1F
100
AcDbEntity
  8
Ｓ_１_１
  6
CONTINUOUS
 62
     3
100
AcDbLine
 10
1036.8746472183
 20
329.002963
 30
0.0
 11
1037.9215142183
 21
305.0257720000001
 31
0.0
  0
LINE
  5
60A
330
1F
100
AcDbEntity
  8
Ｓ_１_１
  6
CONTINUOUS
 62
     3
100
AcDbLine
 10
972.9355592183
 20
326.2113220000001
 30
0.0
 11
973.9824252183
 21
302.234131
 31
0.0
  0
LINE
  5
60B
330
1F
100
AcDbEntity
  8
Ｓ_１_１
  6
CONTINUOUS
 62
     3
100
AcDbLine
 10
1046.8310712183
 20
330.2185760000001
 30
0.0
 11
1047.9459992183
 21
304.6825250000001
 31
0.0
  0
LINE
  5
60C
330
1F
100
AcDbEntity
  8
Ｓ_１_１
  6
CONTINUOUS
 62
     3
100
AcDbLine
 10
962.9110462183
 20
326.5545490000001
 30
0.0
 11
964.0259742182999
 21
301.018498
 31
0.0
  0
LINE
  5
60D
330
1F
100
AcDbEntity
  8
Ｓ_１_１
  6
CONTINUOUS
 62
     3
100
AcDbLine
 10
941.2828112182999
 20
304.81028
 30
0.0
 11
963.8174642183001
 21
305.794164
 31
0.0
  0
LINE
  5
60E
330
1F
100
AcDbEntity
  8
Ｓ_１_１
  6
CONTINUOUS
 62
     3
100
AcDbLine
 10
561.4365682183001
 20
265.1053230000001
 30
0.0
 11
562.9992112183
 21
229.314912
 31
0.0
  0
LINE
  5
60F
330
1F
100
AcDbEntity
  8
Ｓ_１_１
  6
CONTINUOUS
 62
     3
100
AcDbLine
 10
565.0654892183001
 20
227.8398220000001
 30
0.0
 11
602.5410782183
 21
229.476041
 31
0.0
  0
LINE
  5
610
330
1F
100
AcDbEntity
  8
Ｓ_１_１
  6
CONTINUOUS
 62
     3
100
AcDbLine
 10
960.0080582183
 20
265.6668080000001
 30
0.0
 11
966.0023532183
 21
265.928525
 31
0.0
  0
LINE
  5
611
330
1F
100
AcDbEntity
  8
Ｓ_１_１
  6
CONTINUOUS
 62
     3
100
AcDbLine
 10
960.4442522183
 20
255.676326
 30
0.0
 11
966.4385472183001
 21
255.9380430000001
 31
0.0
  0
LINE
  5
612
330
1F
100
AcDbEntity
  8
Ｓ_１_１
  6
CONTINUOUS
 62
     3
100
AcDbLine
 10
966.8923472183
 20
268.469726
 30
0.0
 11
967.5466372183
 21
253.4840220000001
 31
0.0
  0
LINE
  5
613
330
1F
100
AcDbEntity
  8
Ｓ_１_１
  6
CONTINUOUS
 62
     3
100
AcDbLine
 10
959.7899632183
 20
270.6620110000001
 30
0.0
 11
960.6623502182998
 21
250.6810660000001
 31
0.0
  0
LINE
  5
614
330
1F
100
AcDbEntity
  8
Ｓ_１_１
  6
CONTINUOUS
 62
     3
100
AcDbLine
 10
959.7899632183
 20
270.6620110000001
 30
0.0
 11
965.7842582182999
 21
270.9237280000001
 31
0.0
  0
LINE
  5
615
330
1F
100
AcDbEntity
  8
Ｓ_１_１
  6
CONTINUOUS
 62
     3
100
AcDbLine
 10
960.6623502182998
 20
250.6810660000001
 30
0.0
 11
966.6566452182999
 21
250.9427830000001
 31
0.0
  0
LINE
  5
616
330
1F
100
AcDbEntity
  8
Ｓ_１_１
  6
CONTINUOUS
 62
     3
100
AcDbLine
 10
957.8354752183
 20
269.5757580000001
 30
0.0
 11
959.8335812182999
 21
269.662997
 31
0.0
  0
LINE
  5
617
330
1F
100
AcDbEntity
  8
Ｓ_１_１
  6
CONTINUOUS
 62
     3
100
AcDbLine
 10
958.6206242182999
 20
251.5928980000001
 30
0.0
 11
960.6187292183
 21
251.680137
 31
0.0
  0
LINE
  5
618
330
1F
100
AcDbEntity
  8
Ｓ_１_１
  6
CONTINUOUS
 62
     3
100
AcDbLine
 10
954.9470082183
 20
335.7325370000001
 30
0.0
 11
958.9431972182999
 21
335.9070140000001
 31
0.0
  0
LINE
  5
619
330
1F
100
AcDbEntity
  8
Ｓ_１_１
  6
CONTINUOUS
 62
     3
100
AcDbLine
 10
961.9147232182999
 20
290.7738330000001
 30
0.0
 11
962.6126322183
 21
274.789077
 31
0.0
  0
LINE
  5
61A
330
1F
100
AcDbEntity
  8
Ｓ_１_１
  6
CONTINUOUS
 62
     3
100
AcDbLine
 10
961.5699762183001
 20
275.7445200000001
 30
0.0
 11
962.6126232183001
 21
274.789111
 31
0.0
  0
LINE
  5
61B
330
1F
100
AcDbEntity
  8
Ｓ_１_１
  6
CONTINUOUS
 62
     3
100
AcDbLine
 10
960.9592602182998
 20
289.7311880000001
 30
0.0
 11
961.9146952182999
 21
290.7738630000001
 31
0.0
  0
LINE
  5
61C
330
1F
100
AcDbEntity
  8
Ｓ_１_１
  6
CONTINUOUS
 62
     3
100
AcDbLine
 10
971.9052062183
 20
291.2100270000001
 30
0.0
 11
972.6031162183
 21
275.225271
 31
0.0
  0
LINE
  5
61D
330
1F
100
AcDbEntity
  8
Ｓ_１_１
  6
CONTINUOUS
 62
     3
100
AcDbLine
 10
962.6126322183
 20
274.789077
 30
0.0
 11
972.6031162183
 21
275.225271
 31
0.0
  0
LINE
  5
61E
330
1F
100
AcDbEntity
  8
Ｓ_１_１
  6
CONTINUOUS
 62
     3
100
AcDbLine
 10
961.9147232182999
 20
290.7738330000001
 30
0.0
 11
971.9052062183
 21
291.2100270000001
 31
0.0
  0
LINE
  5
61F
330
1F
100
AcDbEntity
  8
Ｓ_１_１
  6
CONTINUOUS
 62
     3
100
AcDbLine
 10
957.7046172182999
 20
272.5729140000001
 30
0.0
 11
961.7008062182999
 21
272.7473910000001
 31
0.0
  0
LINE
  5
620
330
1F
100
AcDbEntity
  8
Ｓ_１_１
  6
CONTINUOUS
 62
     3
100
AcDbLine
 10
958.9431972182999
 20
335.9070140000001
 30
0.0
 11
959.6629182183
 21
319.4227040000001
 31
0.0
  0
LINE
  5
621
330
1F
100
AcDbEntity
  8
Ｓ_１_１
  6
CONTINUOUS
 62
     3
100
AcDbLine
 10
954.9470082183
 20
335.7325370000001
 30
0.0
 11
955.6667292182998
 21
319.248226
 31
0.0
  0
LINE
  5
622
330
1F
100
AcDbEntity
  8
Ｓ_１_１
  6
CONTINUOUS
 62
     3
100
AcDbLine
 10
922.0618302183
 20
286.5314370000001
 30
0.0
 11
924.9666562182999
 21
219.9999730000001
 31
0.0
  0
LINE
  5
623
330
1F
100
AcDbEntity
  8
Ｓ_１_１
  6
EXLTYPE2
 62
     1
100
AcDbLine
 10
260.0
 20
448.0941730000001
 30
0.0
 11
260.0
 21
225.924816
 31
0.0
  0
LINE
  5
624
330
1F
100
AcDbEntity
  8
Ｓ_１_１
  6
EXLTYPE2
 62
     1
100
AcDbLine
 10
240.564957
 20
286.73662
 30
0.0
 11
282.413329
 21
286.73662
 31
0.0
  0
LINE
  5
625
330
1F
100
AcDbEntity
  8
Ｓ_１_１
  6
EXLTYPE2
 62
     1
100
AcDbLine
 10
237.0584870000002
 20
273.3015620000001
 30
0.0
 11
283.224334
 21
273.3015620000001
 31
0.0
  0
LINE
  5
626
330
1F
100
AcDbEntity
  8
Ｓ_１_１
  6
EXLTYPE2
 62
     1
100
AcDbLine
 10
226.7854050000001
 20
285.0002750000001
 30
0.0
 11
231.1244550000001
 21
274.1513100000001
 31
0.0
  0
LINE
  5
627
330
1F
100
AcDbEntity
  8
Ｓ_１_１
  6
EXLTYPE2
 62
     1
100
AcDbLine
 10
284.6498770000001
 20
259.1646640000001
 30
0.0
 11
291.004897
 21
274.893893
 31
0.0
  0
LINE
  5
628
330
1F
100
AcDbEntity
  8
Ｓ_１_１
  6
EXLTYPE2
 62
     1
100
AcDbLine
 10
280.999908
 20
258.5921660000001
 30
0.0
 11
280.999908
 21
241.5097800000001
 31
0.0
  0
LINE
  5
629
330
1F
100
AcDbEntity
  8
Ｓ_１_１
  6
EXLTYPE2
 62
     1
100
AcDbLine
 10
260.0
 20
321.311453
 30
0.0
 11
260.0
 21
212.3254390000001
 31
0.0
  0
LINE
  5
62A
330
1F
100
AcDbEntity
  8
Ｓ_１_１
  6
EXLTYPE2
 62
     1
100
AcDbLine
 10
180.7822430000001
 20
253.4733000000001
 30
0.0
 11
227.9213720000002
 21
253.4733000000001
 31
0.0
  0
ARC
  5
62B
330
1F
100
AcDbEntity
  8
Ｓ_１_１
  6
CONTINUOUS
 62
     3
100
AcDbCircle
 10
272.9999540000001
 20
252.3015780000001
 30
0.0
 40
2.5
100
AcDbArc
 50
90.000003
 51
180.000005
  0
CIRCLE
  5
62C
330
1F
100
AcDbEntity
  8
Ｓ_１_１
  6
CONTINUOUS
 62
     3
100
AcDbCircle
 10
260.0
 20
243.3015820000001
 30
0.0
 40
12.00000000000001
  0
ARC
  5
62D
330
1F
100
AcDbEntity
  8
Ｓ_１_１
  6
CONTINUOUS
 62
     3
100
AcDbCircle
 10
260.0
 20
243.3015820000001
 30
0.0
 40
13.50000000000001
100
AcDbArc
 50
152.733958
 51
207.2660380000002
  0
ARC
  5
62E
330
1F
100
AcDbEntity
  8
Ｓ_１_１
  6
CONTINUOUS
 62
     3
100
AcDbCircle
 10
260.0
 20
243.3015820000001
 30
0.0
 40
13.50000000000001
100
AcDbArc
 50
212.7339500000001
 51
267.266044
  0
ARC
  5
62F
330
1F
100
AcDbEntity
  8
Ｓ_１_１
  6
CONTINUOUS
 62
     3
100
AcDbCircle
 10
260.0
 20
243.3015820000001
 30
0.0
 40
13.50000000000001
100
AcDbArc
 50
272.733958
 51
327.2660450000002
  0
ARC
  5
630
330
1F
100
AcDbEntity
  8
Ｓ_１_１
  6
CONTINUOUS
 62
     3
100
AcDbCircle
 10
260.0
 20
243.3015820000001
 30
0.0
 40
13.50000000000001
100
AcDbArc
 50
332.7339550000003
 51
27.26604499999998
  0
ARC
  5
631
330
1F
100
AcDbEntity
  8
Ｓ_１_１
  6
CONTINUOUS
 62
     3
100
AcDbCircle
 10
260.0
 20
243.3015820000001
 30
0.0
 40
13.50000000000001
100
AcDbArc
 50
32.73395500000003
 51
87.26604200000003
  0
CIRCLE
  5
632
330
1F
100
AcDbEntity
  8
Ｓ_１_１
  6
CONTINUOUS
 62
     3
100
AcDbCircle
 10
260.0
 20
243.3015820000001
 30
0.0
 40
3.499998
  0
CIRCLE
  5
633
330
1F
100
AcDbEntity
  8
Ｓ_１_１
  6
CONTINUOUS
 62
     3
100
AcDbCircle
 10
260.0
 20
243.3015820000001
 30
0.0
 40
1.499996
  0
ARC
  5
634
330
1F
100
AcDbEntity
  8
Ｓ_１_１
  6
CONTINUOUS
 62
     3
100
AcDbCircle
 10
247.0095820000001
 20
323.1638320000001
 30
0.0
 40
6.999947000000002
100
AcDbArc
 50
269.999997
 51
308.2133620000001
  0
ARC
  5
635
330
1F
100
AcDbEntity
  8
Ｓ_１_１
  6
CONTINUOUS
 62
     3
100
AcDbCircle
 10
260.0
 20
341.914022
 30
0.0
 40
25.75013800000001
100
AcDbArc
 50
250.347194
 51
289.652808
  0
ARC
  5
636
330
1F
100
AcDbEntity
  8
Ｓ_１_１
  6
CONTINUOUS
 62
     3
100
AcDbCircle
 10
247.0095820000001
 20
324.163931
 30
0.0
 40
6.999947000000002
100
AcDbArc
 50
51.78663799999998
 51
90.00000900000005
  0
ARC
  5
637
330
1F
100
AcDbEntity
  8
Ｓ_１_１
  6
CONTINUOUS
 62
     3
100
AcDbCircle
 10
272.9903409999999
 20
323.1638320000001
 30
0.0
 40
6.999947000000002
100
AcDbArc
 50
231.78664
 51
270.000004
  0
ARC
  5
638
330
1F
100
AcDbEntity
  8
Ｓ_１_１
  6
CONTINUOUS
 62
     3
100
AcDbCircle
 10
259.9999230000001
 20
305.4137400000001
 30
0.0
 40
25.75013800000001
100
AcDbArc
 50
70.34719200000002
 51
109.652813
  0
ARC
  5
639
330
1F
100
AcDbEntity
  8
Ｓ_１_１
  6
CONTINUOUS
 62
     3
100
AcDbCircle
 10
272.9903409999999
 20
324.1639500000001
 30
0.0
 40
6.999947000000002
100
AcDbArc
 50
89.99999600000004
 51
128.21336
  0
ARC
  5
63A
330
1F
100
AcDbEntity
  8
Ｓ_１_１
  6
CONTINUOUS
 62
     3
100
AcDbCircle
 10
247.0095820000001
 20
283.1638320000001
 30
0.0
 40
6.999947000000002
100
AcDbArc
 50
269.999997
 51
308.2133620000001
  0
ARC
  5
63B
330
1F
100
AcDbEntity
  8
Ｓ_１_１
  6
CONTINUOUS
 62
     3
100
AcDbCircle
 10
260.0
 20
301.914023
 30
0.0
 40
25.75013800000001
100
AcDbArc
 50
250.347194
 51
289.652808
  0
ARC
  5
63C
330
1F
100
AcDbEntity
  8
Ｓ_１_１
  6
CONTINUOUS
 62
     3
100
AcDbCircle
 10
247.0095820000001
 20
299.163931
 30
0.0
 40
6.999947000000002
100
AcDbArc
 50
51.78663799999998
 51
90.00000900000005
  0
ARC
  5
63D
330
1F
100
AcDbEntity
  8
Ｓ_１_１
  6
CONTINUOUS
 62
     3
100
AcDbCircle
 10
272.9903409999999
 20
283.1638320000001
 30
0.0
 40
6.999947000000002
100
AcDbArc
 50
231.78664
 51
270.000004
  0
ARC
  5
63E
330
1F
100
AcDbEntity
  8
Ｓ_１_１
  6
CONTINUOUS
 62
     3
100
AcDbCircle
 10
260.0
 20
280.41376
 30
0.0
 40
25.75013800000001
100
AcDbArc
 50
70.34719200000002
 51
109.652813
  0
ARC
  5
63F
330
1F
100
AcDbEntity
  8
Ｓ_１_１
  6
CONTINUOUS
 62
     3
100
AcDbCircle
 10
272.9903409999999
 20
299.163931
 30
0.0
 40
6.999947000000002
100
AcDbArc
 50
89.99999600000004
 51
128.21336
  0
ARC
  5
640
330
1F
100
AcDbEntity
  8
Ｓ_１_１
  6
CONTINUOUS
 62
     3
100
AcDbCircle
 10
246.9999689999999
 20
252.3015780000001
 30
0.0
 40
2.5
100
AcDbArc
 50
0.0
 51
90.000003
  0
ARC
  5
641
330
1F
100
AcDbEntity
  8
Ｓ_１_１
  6
CONTINUOUS
 62
     3
100
AcDbCircle
 10
260.0
 20
243.3015820000001
 30
0.0
 40
13.50000000000001
100
AcDbArc
 50
92.73395600000002
 51
147.2660500000001
  0
CIRCLE
  5
642
330
1F
100
AcDbEntity
  8
Ｓ_１_１
  6
CONTINUOUS
 62
     3
100
AcDbCircle
 10
260.0
 20
243.3015820000001
 30
0.0
 40
11.749999
  0
CIRCLE
  5
643
330
1F
100
AcDbEntity
  8
Ｓ_１_１
  6
CONTINUOUS
 62
     3
100
AcDbCircle
 10
260.0
 20
243.3015820000001
 30
0.0
 40
9.0
  0
CIRCLE
  5
644
330
1F
100
AcDbEntity
  8
Ｓ_１_１
  6
CONTINUOUS
 62
     3
100
AcDbCircle
 10
260.0
 20
391.163899
 30
0.0
 40
49.999985
  0
CIRCLE
  5
645
330
1F
100
AcDbEntity
  8
Ｓ_１_１
  6
CONTINUOUS
 62
     3
100
AcDbCircle
 10
260.0
 20
243.3015820000001
 30
0.0
 40
5.5
  0
ARC
  5
646
330
1F
100
AcDbEntity
  8
Ｓ_１_１
  6
CONTINUOUS
 62
     3
100
AcDbCircle
 10
232.1499640000002
 20
233.455905
 30
0.0
 40
2.0
100
AcDbArc
 50
90.000003
 51
180.000005
  0
ARC
  5
647
330
1F
100
AcDbEntity
  8
Ｓ_１_１
  6
CONTINUOUS
 62
     3
100
AcDbCircle
 10
292.999877
 20
223.455905
 30
0.0
 40
2.0
100
AcDbArc
 50
0.0
 51
90.000003
  0
ARC
  5
648
330
1F
100
AcDbEntity
  8
Ｓ_１_１
  6
CONTINUOUS
 62
     3
100
AcDbCircle
 10
226.9998930000002
 20
223.455905
 30
0.0
 40
2.0
100
AcDbArc
 50
90.000003
 51
180.000005
  0
ARC
  5
649
330
1F
100
AcDbEntity
  8
Ｓ_１_１
  6
CONTINUOUS
 62
     3
100
AcDbCircle
 10
280.999908
 20
249.9660100000001
 30
0.0
 40
6.000000000000004
100
AcDbArc
 50
269.999997
 51
90.000003
  0
CIRCLE
  5
64A
330
1F
100
AcDbEntity
  8
Ｓ_１_１
  6
CONTINUOUS
 62
     3
100
AcDbCircle
 10
280.999908
 20
249.9660100000001
 30
0.0
 40
3.000000000000002
  0
ARC
  5
64B
330
1F
100
AcDbEntity
  8
Ｓ_１_１
  6
CONTINUOUS
 62
     3
100
AcDbCircle
 10
194.9974830000001
 20
246.4733120000001
 30
0.0
 40
2.0
100
AcDbArc
 50
0.0
 51
90.000003
  0
ARC
  5
64C
330
1F
100
AcDbEntity
  8
Ｓ_１_１
  6
CONTINUOUS
 62
     3
100
AcDbCircle
 10
194.9974830000001
 20
240.4733080000001
 30
0.0
 40
2.0
100
AcDbArc
 50
269.999997
 51
0.0
  0
ARC
  5
64D
330
1F
100
AcDbEntity
  8
Ｓ_１_１
  6
CONTINUOUS
 62
     3
100
AcDbCircle
 10
194.9974830000001
 20
237.473296
 30
0.0
 40
2.0
100
AcDbArc
 50
269.999997
 51
0.0
  0
ARC
  5
64E
330
1F
100
AcDbEntity
  8
Ｓ_１_１
  6
CONTINUOUS
 62
     3
100
AcDbCircle
 10
184.9974830000001
 20
238.4733000000001
 30
0.0
 40
3.000000000000002
100
AcDbArc
 50
179.999991
 51
270.0000010000001
  0
ARC
  5
64F
330
1F
100
AcDbEntity
  8
Ｓ_１_１
  6
CONTINUOUS
 62
     3
100
AcDbCircle
 10
184.9974830000001
 20
241.4733120000001
 30
0.0
 40
3.000000000000002
100
AcDbArc
 50
179.999991
 51
270.0000010000001
  0
ARC
  5
650
330
1F
100
AcDbEntity
  8
Ｓ_１_１
  6
CONTINUOUS
 62
     3
100
AcDbCircle
 10
193.9974980000001
 20
267.275294
 30
0.0
 40
3.000000000000002
100
AcDbArc
 50
285.0000010000003
 51
0.0
  0
ARC
  5
651
330
1F
100
AcDbEntity
  8
Ｓ_１_１
  6
CONTINUOUS
 62
     3
100
AcDbCircle
 10
198.9974980000002
 20
266.9733040000001
 30
0.0
 40
2.0
100
AcDbArc
 50
179.999991
 51
270.0000010000001
  0
ARC
  5
652
330
1F
100
AcDbEntity
  8
Ｓ_１_１
  6
CONTINUOUS
 62
     3
100
AcDbCircle
 10
183.9974980000002
 20
274.9733150000001
 30
0.0
 40
2.0
100
AcDbArc
 50
90.000003
 51
180.000005
  0
ARC
  5
653
330
1F
100
AcDbEntity
  8
Ｓ_１_１
  6
CONTINUOUS
 62
     3
100
AcDbCircle
 10
194.9974830000001
 20
274.9733150000001
 30
0.0
 40
2.0
100
AcDbArc
 50
0.0
 51
90.000003
  0
ARC
  5
654
330
1F
100
AcDbEntity
  8
Ｓ_１_１
  6
CONTINUOUS
 62
     3
100
AcDbCircle
 10
201.9974520000001
 20
261.9733040000001
 30
0.0
 40
3.000000000000002
100
AcDbArc
 50
0.0
 51
90.000003
  0
ARC
  5
655
330
1F
100
AcDbEntity
  8
Ｓ_１_１
  6
CONTINUOUS
 62
     3
100
AcDbCircle
 10
201.9974520000001
 20
244.973296
 30
0.0
 40
3.000000000000002
100
AcDbArc
 50
269.999997
 51
0.0
  0
ARC
  5
656
330
1F
100
AcDbEntity
  8
Ｓ_１_１
  6
CONTINUOUS
 62
     3
100
AcDbCircle
 10
215.028687
 20
261.2232960000001
 30
0.0
 40
3.031250000000002
100
AcDbArc
 50
132.0750260000001
 51
227.9249840000001
  0
ARC
  5
657
330
1F
100
AcDbEntity
  8
Ｓ_１_１
  6
CONTINUOUS
 62
     3
100
AcDbCircle
 10
215.028687
 20
245.7233040000001
 30
0.0
 40
3.031250000000002
100
AcDbArc
 50
132.0750260000001
 51
227.9249840000001
  0
ARC
  5
658
330
1F
100
AcDbEntity
  8
Ｓ_１_１
  6
CONTINUOUS
 62
     3
100
AcDbCircle
 10
227.622452
 20
253.4733000000001
 30
0.0
 40
15.62500000000001
100
AcDbArc
 50
159.390305
 51
200.6096910000002
  0
ARC
  5
659
330
1F
100
AcDbEntity
  8
Ｓ_１_１
  6
CONTINUOUS
 62
     3
100
AcDbCircle
 10
222.5971220000001
 20
271.85171
 30
0.0
 40
2.0
100
AcDbArc
 50
111.798968
 51
201.7989640000002
  0
ARC
  5
65A
330
1F
100
AcDbEntity
  8
Ｓ_１_１
  6
CONTINUOUS
 62
     3
100
AcDbCircle
 10
273.9999379999999
 20
308.5267240000001
 30
0.0
 40
2.0
100
AcDbArc
 50
0.0
 51
90.000003
  0
ARC
  5
65B
330
1F
100
AcDbEntity
  8
Ｓ_１_１
  6
CONTINUOUS
 62
     3
100
AcDbCircle
 10
245.9999080000002
 20
308.5267240000001
 30
0.0
 40
2.0
100
AcDbArc
 50
90.000003
 51
180.000005
  0
ARC
  5
65C
330
1F
100
AcDbEntity
  8
Ｓ_１_１
  6
CONTINUOUS
 62
     3
100
AcDbCircle
 10
290.4182430000001
 20
254.7556870000001
 30
0.0
 40
4.0
100
AcDbArc
 50
338.0000000000002
 51
67.99999700000004
  0
ARC
  5
65D
330
1F
100
AcDbEntity
  8
Ｓ_１_１
  6
CONTINUOUS
 62
     3
100
AcDbCircle
 10
255.999908
 20
225.1418490000001
 30
0.0
 40
4.0
100
AcDbArc
 50
0.0
 51
87.12192500000002
  0
ARC
  5
65E
330
1F
100
AcDbEntity
  8
Ｓ_１_１
  6
CONTINUOUS
 62
     3
100
AcDbCircle
 10
236.1499020000001
 20
234.647083
 30
0.0
 40
4.0
100
AcDbArc
 50
11.66600699999999
 51
87.12192500000002
  0
ARC
  5
65F
330
1F
100
AcDbEntity
  8
Ｓ_１_１
  6
CONTINUOUS
 62
     3
100
AcDbCircle
 10
260.0
 20
244.9660100000001
 30
0.0
 40
16.0
100
AcDbArc
 50
142.186275
 51
37.81374000000002
  0
LINE
  5
660
330
1F
100
AcDbEntity
  8
Ｓ_１_１
  6
CONTINUOUS
 62
     3
100
AcDbLine
 10
270.0
 20
310.526732
 30
0.0
 11
273.9999379999999
 21
310.526732
 31
0.0
  0
LINE
  5
661
330
1F
100
AcDbEntity
  8
Ｓ_１_１
  6
CONTINUOUS
 62
     3
100
AcDbLine
 10
275.999908
 20
277.2064580000001
 30
0.0
 11
275.999908
 21
261.5589510000001
 31
0.0
  0
LINE
  5
662
330
1F
100
AcDbEntity
  8
Ｓ_１_１
  6
CONTINUOUS
 62
     3
100
AcDbLine
 10
243.9999389999998
 20
277.2064770000001
 30
0.0
 11
243.9999389999998
 21
261.5589510000001
 31
0.0
  0
LINE
  5
663
330
1F
100
AcDbEntity
  8
Ｓ_１_１
  6
CONTINUOUS
 62
     3
100
AcDbLine
 10
246.4999389999998
 20
269.301585
 30
0.0
 11
273.499908
 21
269.301585
 31
0.0
  0
LINE
  5
664
330
1F
100
AcDbEntity
  8
Ｓ_１_１
  6
CONTINUOUS
 62
     3
100
AcDbLine
 10
246.9999470000002
 20
254.8016170000001
 30
0.0
 11
246.499957
 21
255.3016070000001
 31
0.0
  0
LINE
  5
665
330
1F
100
AcDbEntity
  8
Ｓ_１_１
  6
CONTINUOUS
 62
     3
100
AcDbLine
 10
246.4999389999998
 20
255.301589
 30
0.0
 11
253.8153069999998
 21
255.301589
 31
0.0
  0
LINE
  5
666
330
1F
100
AcDbEntity
  8
Ｓ_１_１
  6
CONTINUOUS
 62
     3
100
AcDbLine
 10
272.9999460000001
 20
254.801574
 30
0.0
 11
273.499949
 21
255.3015770000001
 31
0.0
  0
LINE
  5
667
330
1F
100
AcDbEntity
  8
Ｓ_１_１
  6
CONTINUOUS
 62
     3
100
AcDbLine
 10
272.999926
 20
269.8016050000001
 30
0.0
 11
273.499916
 21
269.3016160000001
 31
0.0
  0
LINE
  5
668
330
1F
100
AcDbEntity
  8
Ｓ_１_１
  6
CONTINUOUS
 62
     3
100
AcDbLine
 10
266.184616
 20
255.301589
 30
0.0
 11
273.499908
 21
255.301589
 31
0.0
  0
LINE
  5
669
330
1F
100
AcDbEntity
  8
Ｓ_１_１
  6
CONTINUOUS
 62
     3
100
AcDbLine
 10
246.4999980000002
 20
269.3015760000001
 30
0.0
 11
246.999988
 21
269.8015660000001
 31
0.0
  0
LINE
  5
66A
330
1F
100
AcDbEntity
  8
Ｓ_１_１
  6
CONTINUOUS
 62
     3
100
AcDbLine
 10
272.9999540000001
 20
254.801578
 30
0.0
 11
267.0710750000001
 21
254.801578
 31
0.0
  0
LINE
  5
66B
330
1F
100
AcDbEntity
  8
Ｓ_１_１
  6
CONTINUOUS
 62
     3
100
AcDbLine
 10
249.499969
 20
251.78686
 30
0.0
 11
249.499969
 21
252.3015780000001
 31
0.0
  0
LINE
  5
66C
330
1F
100
AcDbEntity
  8
Ｓ_１_１
  6
CONTINUOUS
 62
     3
100
AcDbLine
 10
270.4999540000001
 20
251.7868990000001
 30
0.0
 11
270.4999540000001
 21
252.3015780000001
 31
0.0
  0
LINE
  5
66D
330
1F
100
AcDbEntity
  8
Ｓ_１_１
  6
CONTINUOUS
 62
     3
100
AcDbLine
 10
247.0095820000001
 20
316.1638810000001
 30
0.0
 11
272.9903409999999
 21
316.1638810000001
 31
0.0
  0
LINE
  5
66E
330
1F
100
AcDbEntity
  8
Ｓ_１_１
  6
CONTINUOUS
 62
     3
100
AcDbLine
 10
250.0
 20
316.1639000000001
 30
0.0
 11
250.0
 21
306.1639010000001
 31
0.0
  0
LINE
  5
66F
330
1F
100
AcDbEntity
  8
Ｓ_１_１
  6
CONTINUOUS
 62
     3
100
AcDbLine
 10
251.3397220000002
 20
317.663897
 30
0.0
 11
251.3397220000002
 21
329.6638850000001
 31
0.0
  0
LINE
  5
670
330
1F
100
AcDbEntity
  8
Ｓ_１_１
  6
CONTINUOUS
 62
     3
100
AcDbLine
 10
247.0095820000001
 20
331.1638810000001
 30
0.0
 11
272.9903409999999
 21
331.1638810000001
 31
0.0
  0
LINE
  5
671
330
1F
100
AcDbEntity
  8
Ｓ_１_１
  6
CONTINUOUS
 62
     3
100
AcDbLine
 10
242.679443
 20
317.663897
 30
0.0
 11
242.679443
 21
329.6638850000001
 31
0.0
  0
LINE
  5
672
330
1F
100
AcDbEntity
  8
Ｓ_１_１
  6
CONTINUOUS
 62
     3
100
AcDbLine
 10
250.0
 20
342.174108
 30
0.0
 11
250.0
 21
331.1638810000001
 31
0.0
  0
LINE
  5
673
330
1F
100
AcDbEntity
  8
Ｓ_１_１
  6
CONTINUOUS
 62
     3
100
AcDbLine
 10
270.0
 20
316.1639000000001
 30
0.0
 11
270.0
 21
306.1639010000001
 31
0.0
  0
LINE
  5
674
330
1F
100
AcDbEntity
  8
Ｓ_１_１
  6
CONTINUOUS
 62
     3
100
AcDbLine
 10
268.6602780000001
 20
317.663897
 30
0.0
 11
268.6602780000001
 21
329.6638850000001
 31
0.0
  0
LINE
  5
675
330
1F
100
AcDbEntity
  8
Ｓ_１_１
  6
CONTINUOUS
 62
     3
100
AcDbLine
 10
247.0095759999999
 20
316.163886
 30
0.0
 11
242.6795040000002
 21
317.6638730000001
 31
0.0
  0
LINE
  5
676
330
1F
100
AcDbEntity
  8
Ｓ_１_１
  6
CONTINUOUS
 62
     3
100
AcDbLine
 10
247.0095959999998
 20
331.1639030000001
 30
0.0
 11
242.6794880000002
 21
329.6639030000001
 31
0.0
  0
LINE
  5
677
330
1F
100
AcDbEntity
  8
Ｓ_１_１
  6
CONTINUOUS
 62
     3
100
AcDbLine
 10
277.3204800000001
 20
317.663897
 30
0.0
 11
277.3204800000001
 21
329.6638850000001
 31
0.0
  0
LINE
  5
678
330
1F
100
AcDbEntity
  8
Ｓ_１_１
  6
CONTINUOUS
 62
     3
100
AcDbLine
 10
270.0
 20
342.174108
 30
0.0
 11
270.0
 21
331.1638810000001
 31
0.0
  0
LINE
  5
679
330
1F
100
AcDbEntity
  8
Ｓ_１_１
  6
CONTINUOUS
 62
     3
100
AcDbLine
 10
272.990372
 20
316.1638840000001
 30
0.0
 11
277.3204800000001
 21
317.6638830000001
 31
0.0
  0
LINE
  5
67A
330
1F
100
AcDbEntity
  8
Ｓ_１_１
  6
CONTINUOUS
 62
     3
100
AcDbLine
 10
272.990348
 20
331.163889
 30
0.0
 11
277.3204920000001
 21
329.6638760000001
 31
0.0
  0
LINE
  5
67B
330
1F
100
AcDbEntity
  8
Ｓ_１_１
  6
CONTINUOUS
 62
     3
100
AcDbLine
 10
247.0095820000001
 20
276.1638820000001
 30
0.0
 11
272.9903409999999
 21
276.1638820000001
 31
0.0
  0
LINE
  5
67C
330
1F
100
AcDbEntity
  8
Ｓ_１_１
  6
CONTINUOUS
 62
     3
100
AcDbLine
 10
251.3397220000002
 20
277.6638780000001
 30
0.0
 11
251.3397220000002
 21
304.6638850000001
 31
0.0
  0
LINE
  5
67D
330
1F
100
AcDbEntity
  8
Ｓ_１_１
  6
CONTINUOUS
 62
     3
100
AcDbLine
 10
247.0095820000001
 20
306.1638810000001
 30
0.0
 11
272.9903409999999
 21
306.1638810000001
 31
0.0
  0
LINE
  5
67E
330
1F
100
AcDbEntity
  8
Ｓ_１_１
  6
CONTINUOUS
 62
     3
100
AcDbLine
 10
242.679443
 20
277.6638780000001
 30
0.0
 11
242.679443
 21
304.6638850000001
 31
0.0
  0
LINE
  5
67F
330
1F
100
AcDbEntity
  8
Ｓ_１_１
  6
CONTINUOUS
 62
     3
100
AcDbLine
 10
268.6602780000001
 20
277.6638780000001
 30
0.0
 11
268.6602780000001
 21
304.6639040000001
 31
0.0
  0
LINE
  5
680
330
1F
100
AcDbEntity
  8
Ｓ_１_１
  6
CONTINUOUS
 62
     3
100
AcDbLine
 10
247.0095620000002
 20
276.1638840000001
 30
0.0
 11
242.67949
 21
277.6638710000001
 31
0.0
  0
LINE
  5
681
330
1F
100
AcDbEntity
  8
Ｓ_１_１
  6
CONTINUOUS
 62
     3
100
AcDbLine
 10
247.0095890000002
 20
306.163889
 30
0.0
 11
242.679482
 21
304.66389
 31
0.0
  0
LINE
  5
682
330
1F
100
AcDbEntity
  8
Ｓ_１_１
  6
CONTINUOUS
 62
     3
100
AcDbLine
 10
277.3204800000001
 20
277.663897
 30
0.0
 11
277.3204800000001
 21
304.6638850000001
 31
0.0
  0
LINE
  5
683
330
1F
100
AcDbEntity
  8
Ｓ_１_１
  6
CONTINUOUS
 62
     3
100
AcDbLine
 10
272.9903400000001
 20
276.1639030000001
 30
0.0
 11
277.3204479999999
 21
277.6639030000001
 31
0.0
  0
LINE
  5
684
330
1F
100
AcDbEntity
  8
Ｓ_１_１
  6
CONTINUOUS
 62
     3
100
AcDbLine
 10
272.990358
 20
306.1638840000001
 30
0.0
 11
277.3204290000001
 21
304.663897
 31
0.0
  0
LINE
  5
685
330
1F
100
AcDbEntity
  8
Ｓ_１_１
  6
CONTINUOUS
 62
     3
100
AcDbLine
 10
267.2509480000001
 20
269.8015830000001
 30
0.0
 11
267.5634480000001
 21
274.801592
 31
0.0
  0
LINE
  5
686
330
1F
100
AcDbEntity
  8
Ｓ_１_１
  6
CONTINUOUS
 62
     3
100
AcDbLine
 10
267.952387
 20
269.8015830000001
 30
0.0
 11
268.3500300000001
 21
276.1638710000001
 31
0.0
  0
LINE
  5
687
330
1F
100
AcDbEntity
  8
Ｓ_１_１
  6
CONTINUOUS
 62
     3
100
AcDbLine
 10
268.264846
 20
274.8015770000001
 30
0.0
 11
251.7350769999998
 21
274.8015770000001
 31
0.0
  0
LINE
  5
688
330
1F
100
AcDbEntity
  8
Ｓ_１_１
  6
CONTINUOUS
 62
     3
100
AcDbLine
 10
268.349858
 20
276.1638790000001
 30
0.0
 11
267.5633580000001
 21
274.8016210000001
 31
0.0
  0
LINE
  5
689
330
1F
100
AcDbEntity
  8
Ｓ_１_１
  6
CONTINUOUS
 62
     3
100
AcDbLine
 10
246.4999389999998
 20
255.301589
 30
0.0
 11
246.4999389999998
 21
269.301585
 31
0.0
  0
LINE
  5
68A
330
1F
100
AcDbEntity
  8
Ｓ_１_１
  6
CONTINUOUS
 62
     3
100
AcDbLine
 10
252.7489839999998
 20
269.8016070000001
 30
0.0
 11
252.436483
 21
274.8016160000001
 31
0.0
  0
LINE
  5
68B
330
1F
100
AcDbEntity
  8
Ｓ_１_１
  6
CONTINUOUS
 62
     3
100
AcDbLine
 10
252.0475449999999
 20
269.8016070000001
 30
0.0
 11
251.649907
 21
276.1638190000001
 31
0.0
  0
LINE
  5
68C
330
1F
100
AcDbEntity
  8
Ｓ_１_１
  6
CONTINUOUS
 62
     3
100
AcDbLine
 10
252.4364110000001
 20
274.8016190000001
 30
0.0
 11
251.6499159999998
 21
276.1638690000001
 31
0.0
  0
LINE
  5
68D
330
1F
100
AcDbEntity
  8
Ｓ_１_１
  6
CONTINUOUS
 62
     3
100
AcDbLine
 10
273.499908
 20
255.301589
 30
0.0
 11
273.499908
 21
269.301585
 31
0.0
  0
LINE
  5
68E
330
1F
100
AcDbEntity
  8
Ｓ_１_１
  6
CONTINUOUS
 62
     3
100
AcDbLine
 10
252.9289239999998
 20
254.801578
 30
0.0
 11
246.9999689999999
 21
254.801578
 31
0.0
  0
LINE
  5
68F
330
1F
100
AcDbEntity
  8
Ｓ_１_１
  6
CONTINUOUS
 62
     3
100
AcDbLine
 10
272.9999540000001
 20
269.8015770000001
 30
0.0
 11
246.9999689999999
 21
269.8015770000001
 31
0.0
  0
LINE
  5
690
330
1F
100
AcDbEntity
  8
Ｓ_１_１
  6
CONTINUOUS
 62
     3
100
AcDbLine
 10
259.999967
 20
229.4451580000001
 30
0.0
 11
271.9999869999999
 21
236.3733730000001
 31
0.0
  0
LINE
  5
691
330
1F
100
AcDbEntity
  8
Ｓ_１_１
  6
CONTINUOUS
 62
     3
100
AcDbLine
 10
247.9999590000002
 20
250.229781
 30
0.0
 11
259.9999789999999
 21
257.1579960000001
 31
0.0
  0
LINE
  5
692
330
1F
100
AcDbEntity
  8
Ｓ_１_１
  6
CONTINUOUS
 62
     3
100
AcDbLine
 10
247.9999659999999
 20
236.3733890000001
 30
0.0
 11
259.9999869999999
 21
229.445174
 31
0.0
  0
LINE
  5
693
330
1F
100
AcDbEntity
  8
Ｓ_１_１
  6
CONTINUOUS
 62
     3
100
AcDbLine
 10
259.999969
 20
257.1580030000001
 30
0.0
 11
271.9999889999999
 21
250.2297880000001
 31
0.0
  0
LINE
  5
694
330
1F
100
AcDbEntity
  8
Ｓ_１_１
  6
CONTINUOUS
 62
     3
100
AcDbLine
 10
247.9999539999999
 20
250.2297960000001
 30
0.0
 11
247.9999539999999
 21
236.3733860000001
 31
0.0
  0
LINE
  5
695
330
1F
100
AcDbEntity
  8
Ｓ_１_１
  6
CONTINUOUS
 62
     3
100
AcDbLine
 10
271.999969
 20
250.2297960000001
 30
0.0
 11
271.999969
 21
236.3733860000001
 31
0.0
  0
LINE
  5
696
330
1F
100
AcDbEntity
  8
Ｓ_１_１
  6
CONTINUOUS
 62
     3
100
AcDbLine
 10
294.1269600000001
 20
253.257279
 30
0.0
 11
278.0758390000001
 21
225.4559230000001
 31
0.0
  0
LINE
  5
697
330
1F
100
AcDbEntity
  8
Ｓ_１_１
  6
CONTINUOUS
 62
     3
100
AcDbLine
 10
280.999908
 20
243.9660060000001
 30
0.0
 11
275.9687040000001
 21
243.9660060000001
 31
0.0
  0
LINE
  5
698
330
1F
100
AcDbEntity
  8
Ｓ_１_１
  6
CONTINUOUS
 62
     3
100
AcDbLine
 10
280.999908
 20
255.9660140000001
 30
0.0
 11
273.499908
 21
255.9660140000001
 31
0.0
  0
LINE
  5
699
330
1F
100
AcDbEntity
  8
Ｓ_１_１
  6
CONTINUOUS
 62
     3
100
AcDbLine
 10
224.9999240000002
 20
223.455905
 30
0.0
 11
224.9999240000002
 21
218.4733000000001
 31
0.0
  0
LINE
  5
69A
330
1F
100
AcDbEntity
  8
Ｓ_１_１
  6
CONTINUOUS
 62
     3
100
AcDbLine
 10
294.9999230000001
 20
223.455905
 30
0.0
 11
294.9999230000001
 21
218.4733000000001
 31
0.0
  0
LINE
  5
69B
330
1F
100
AcDbEntity
  8
Ｓ_１_１
  6
CONTINUOUS
 62
     3
100
AcDbLine
 10
183.9974830000001
 20
248.473285
 30
0.0
 11
181.9974700000002
 21
246.4732720000001
 31
0.0
  0
LINE
  5
69C
330
1F
100
AcDbEntity
  8
Ｓ_１_１
  6
CONTINUOUS
 62
     3
100
AcDbLine
 10
196.9974520000001
 20
241.9733040000001
 30
0.0
 11
201.9974520000001
 21
241.9733040000001
 31
0.0
  0
LINE
  5
69D
330
1F
100
AcDbEntity
  8
Ｓ_１_１
  6
CONTINUOUS
 62
     3
100
AcDbLine
 10
184.9974830000001
 20
235.4733080000001
 30
0.0
 11
194.9974830000001
 21
235.4733080000001
 31
0.0
  0
LINE
  5
69E
330
1F
100
AcDbEntity
  8
Ｓ_１_１
  6
CONTINUOUS
 62
     3
100
AcDbLine
 10
184.9974830000001
 20
238.4733000000001
 30
0.0
 11
194.9974830000001
 21
238.4733000000001
 31
0.0
  0
LINE
  5
69F
330
1F
100
AcDbEntity
  8
Ｓ_１_１
  6
CONTINUOUS
 62
     3
100
AcDbLine
 10
196.9974520000001
 20
267.275294
 30
0.0
 11
196.9974520000001
 21
274.9733150000001
 31
0.0
  0
LINE
  5
6A0
330
1F
100
AcDbEntity
  8
Ｓ_１_１
  6
CONTINUOUS
 62
     3
100
AcDbLine
 10
181.997453
 20
238.4733000000001
 30
0.0
 11
181.997453
 21
246.4733120000001
 31
0.0
  0
LINE
  5
6A1
330
1F
100
AcDbEntity
  8
Ｓ_１_１
  6
CONTINUOUS
 62
     3
100
AcDbLine
 10
183.9974980000002
 20
248.4733000000001
 30
0.0
 11
194.9974830000001
 21
248.4733000000001
 31
0.0
  0
LINE
  5
6A2
330
1F
100
AcDbEntity
  8
Ｓ_１_１
  6
CONTINUOUS
 62
     3
100
AcDbLine
 10
181.997453
 20
263.4899760000001
 30
0.0
 11
183.9974659999998
 21
261.4899630000001
 31
0.0
  0
LINE
  5
6A3
330
1F
100
AcDbEntity
  8
Ｓ_１_１
  6
CONTINUOUS
 62
     3
100
AcDbLine
 10
183.9974780000002
 20
261.4899640000001
 30
0.0
 11
194.7739419999998
 21
264.377508
 31
0.0
  0
LINE
  5
6A4
330
1F
100
AcDbEntity
  8
Ｓ_１_１
  6
CONTINUOUS
 62
     3
100
AcDbLine
 10
183.9974980000002
 20
276.9733230000001
 30
0.0
 11
194.9974830000001
 21
276.9733230000001
 31
0.0
  0
LINE
  5
6A5
330
1F
100
AcDbEntity
  8
Ｓ_１_１
  6
CONTINUOUS
 62
     3
100
AcDbLine
 10
196.9974520000001
 20
237.473296
 30
0.0
 11
196.9974520000001
 21
246.4733120000001
 31
0.0
  0
LINE
  5
6A6
330
1F
100
AcDbEntity
  8
Ｓ_１_１
  6
CONTINUOUS
 62
     3
100
AcDbLine
 10
198.9974980000002
 20
264.9732960000001
 30
0.0
 11
201.9974520000001
 21
264.9732960000001
 31
0.0
  0
LINE
  5
6A7
330
1F
100
AcDbEntity
  8
Ｓ_１_１
  6
CONTINUOUS
 62
     3
100
AcDbLine
 10
183.9974980000002
 20
248.4733000000001
 30
0.0
 11
183.9974980000002
 21
261.2232960000001
 31
0.0
  0
LINE
  5
6A8
330
1F
100
AcDbEntity
  8
Ｓ_１_１
  6
CONTINUOUS
 62
     3
100
AcDbLine
 10
181.997453
 20
263.4899700000001
 30
0.0
 11
181.997453
 21
274.9733150000001
 31
0.0
  0
LINE
  5
6A9
330
1F
100
AcDbEntity
  8
Ｓ_１_１
  6
CONTINUOUS
 62
     3
100
AcDbLine
 10
204.9974830000001
 20
258.4733000000001
 30
0.0
 11
211.9974520000001
 21
258.4733000000001
 31
0.0
  0
LINE
  5
6AA
330
1F
100
AcDbEntity
  8
Ｓ_１_１
  6
CONTINUOUS
 62
     3
100
AcDbLine
 10
204.9974830000001
 20
248.4733000000001
 30
0.0
 11
211.9974520000001
 21
248.4733000000001
 31
0.0
  0
LINE
  5
6AB
330
1F
100
AcDbEntity
  8
Ｓ_１_１
  6
CONTINUOUS
 62
     3
100
AcDbLine
 10
204.9974830000001
 20
244.973296
 30
0.0
 11
204.9974830000001
 21
261.9733040000001
 31
0.0
  0
LINE
  5
6AC
330
1F
100
AcDbEntity
  8
Ｓ_１_１
  6
CONTINUOUS
 62
     3
100
AcDbLine
 10
277.3204800000001
 20
282.7366240000001
 30
0.0
 11
278.9999379999999
 21
282.7366240000001
 31
0.0
  0
LINE
  5
6AD
330
1F
100
AcDbEntity
  8
Ｓ_１_１
  6
CONTINUOUS
 62
     3
100
AcDbLine
 10
277.3204800000001
 20
290.736617
 30
0.0
 11
278.9999379999999
 21
290.736617
 31
0.0
  0
LINE
  5
6AE
330
1F
100
AcDbEntity
  8
Ｓ_１_１
  6
CONTINUOUS
 62
     3
100
AcDbLine
 10
278.9999379999999
 20
290.736617
 30
0.0
 11
278.9999379999999
 21
282.7366240000001
 31
0.0
  0
LINE
  5
6AF
330
1F
100
AcDbEntity
  8
Ｓ_１_１
  6
CONTINUOUS
 62
     3
100
AcDbLine
 10
240.9999080000002
 20
290.736617
 30
0.0
 11
240.9999080000002
 21
282.7366240000001
 31
0.0
  0
LINE
  5
6B0
330
1F
100
AcDbEntity
  8
Ｓ_１_１
  6
CONTINUOUS
 62
     3
100
AcDbLine
 10
240.9999080000002
 20
290.736617
 30
0.0
 11
242.679443
 21
290.736617
 31
0.0
  0
LINE
  5
6B1
330
1F
100
AcDbEntity
  8
Ｓ_１_１
  6
CONTINUOUS
 62
     3
100
AcDbLine
 10
240.9999080000002
 20
282.7366240000001
 30
0.0
 11
242.679443
 21
282.7366240000001
 31
0.0
  0
LINE
  5
6B2
330
1F
100
AcDbEntity
  8
Ｓ_１_１
  6
CONTINUOUS
 62
     3
100
AcDbLine
 10
250.9999080000002
 20
276.3015730000001
 30
0.0
 11
252.9999539999999
 21
276.3015730000001
 31
0.0
  0
LINE
  5
6B3
330
1F
100
AcDbEntity
  8
Ｓ_１_１
  6
CONTINUOUS
 62
     3
100
AcDbLine
 10
266.999969
 20
276.3015730000001
 30
0.0
 11
268.999939
 21
276.3015730000001
 31
0.0
  0
LINE
  5
6B4
330
1F
100
AcDbEntity
  8
Ｓ_１_１
  6
CONTINUOUS
 62
     3
100
AcDbLine
 10
275.999908
 20
276.3015730000001
 30
0.0
 11
278.9999379999999
 21
276.3015730000001
 31
0.0
  0
LINE
  5
6B5
330
1F
100
AcDbEntity
  8
Ｓ_１_１
  6
CONTINUOUS
 62
     3
100
AcDbLine
 10
275.999908
 20
270.3015700000001
 30
0.0
 11
278.9999379999999
 21
270.3015700000001
 31
0.0
  0
LINE
  5
6B6
330
1F
100
AcDbEntity
  8
Ｓ_１_１
  6
CONTINUOUS
 62
     3
100
AcDbLine
 10
266.999969
 20
270.3015700000001
 30
0.0
 11
268.999939
 21
270.3015700000001
 31
0.0
  0
LINE
  5
6B7
330
1F
100
AcDbEntity
  8
Ｓ_１_１
  6
CONTINUOUS
 62
     3
100
AcDbLine
 10
250.9999080000002
 20
270.3015700000001
 30
0.0
 11
252.9999539999999
 21
270.3015700000001
 31
0.0
  0
LINE
  5
6B8
330
1F
100
AcDbEntity
  8
Ｓ_１_１
  6
CONTINUOUS
 62
     3
100
AcDbLine
 10
278.9999379999999
 20
276.3015730000001
 30
0.0
 11
278.9999379999999
 21
270.3015700000001
 31
0.0
  0
LINE
  5
6B9
330
1F
100
AcDbEntity
  8
Ｓ_１_１
  6
CONTINUOUS
 62
     3
100
AcDbLine
 10
240.9999080000002
 20
276.3015730000001
 30
0.0
 11
240.9999080000002
 21
270.3015700000001
 31
0.0
  0
LINE
  5
6BA
330
1F
100
AcDbEntity
  8
Ｓ_１_１
  6
CONTINUOUS
 62
     3
100
AcDbLine
 10
240.9999080000002
 20
276.3015730000001
 30
0.0
 11
243.9999389999998
 21
276.3015730000001
 31
0.0
  0
LINE
  5
6BB
330
1F
100
AcDbEntity
  8
Ｓ_１_１
  6
CONTINUOUS
 62
     3
100
AcDbLine
 10
240.9999080000002
 20
270.3015700000001
 30
0.0
 11
243.9999389999998
 21
270.3015700000001
 31
0.0
  0
LINE
  5
6BC
330
1F
100
AcDbEntity
  8
Ｓ_１_１
  6
CONTINUOUS
 62
     3
100
AcDbLine
 10
273.499908
 20
261.5589510000001
 30
0.0
 11
275.999908
 21
261.5589510000001
 31
0.0
  0
LINE
  5
6BD
330
1F
100
AcDbEntity
  8
Ｓ_１_１
  6
CONTINUOUS
 62
     3
100
AcDbLine
 10
243.9999389999998
 20
261.5589510000001
 30
0.0
 11
246.4999389999998
 21
261.5589510000001
 31
0.0
  0
LINE
  5
6BE
330
1F
100
AcDbEntity
  8
Ｓ_１_１
  6
CONTINUOUS
 62
     3
100
AcDbLine
 10
232.1499640000002
 20
235.455913
 30
0.0
 11
247.1330259999999
 21
235.455913
 31
0.0
  0
LINE
  5
6BF
330
1F
100
AcDbEntity
  8
Ｓ_１_１
  6
CONTINUOUS
 62
     3
100
AcDbLine
 10
230.149918
 20
233.455905
 30
0.0
 11
230.149918
 21
225.4559130000001
 31
0.0
  0
LINE
  5
6C0
330
1F
100
AcDbEntity
  8
Ｓ_１_１
  6
CONTINUOUS
 62
     3
100
AcDbLine
 10
212.997437
 20
247.9733080000001
 30
0.0
 11
217.997437
 21
247.9733080000001
 31
0.0
  0
LINE
  5
6C1
330
1F
100
AcDbEntity
  8
Ｓ_１_１
  6
CONTINUOUS
 62
     3
100
AcDbLine
 10
212.997437
 20
258.9733110000001
 30
0.0
 11
217.997437
 21
258.9733110000001
 31
0.0
  0
LINE
  5
6C2
330
1F
100
AcDbEntity
  8
Ｓ_１_１
  6
CONTINUOUS
 62
     3
100
AcDbLine
 10
229.0704409999998
 20
281.979809
 30
0.0
 11
229.4417859999999
 21
281.0513310000001
 31
0.0
  0
LINE
  5
6C3
330
1F
100
AcDbEntity
  8
Ｓ_１_１
  6
CONTINUOUS
 62
     3
100
AcDbLine
 10
227.2134839999999
 20
281.2371180000001
 30
0.0
 11
227.5848289999999
 21
280.3086400000001
 31
0.0
  0
LINE
  5
6C4
330
1F
100
AcDbEntity
  8
Ｓ_１_１
  6
CONTINUOUS
 62
     3
100
AcDbLine
 10
227.5848289999999
 20
280.3086400000001
 30
0.0
 11
229.4417859999999
 21
281.0513310000001
 31
0.0
  0
LINE
  5
6C5
330
1F
100
AcDbEntity
  8
Ｓ_１_１
  6
CONTINUOUS
 62
     3
100
AcDbLine
 10
297.1517880000001
 20
268.7524750000001
 30
0.0
 11
296.875505
 21
269.403357
 31
0.0
  0
LINE
  5
6C6
330
1F
100
AcDbEntity
  8
Ｓ_１_１
  6
CONTINUOUS
 62
     3
100
AcDbLine
 10
282.3168949999999
 20
274.7461440000001
 30
0.0
 11
282.9677770000001
 21
275.0224270000001
 31
0.0
  0
LINE
  5
6C7
330
1F
100
AcDbEntity
  8
Ｓ_１_１
  6
CONTINUOUS
 62
     3
100
AcDbLine
 10
282.3168860000001
 20
274.7461290000001
 30
0.0
 11
297.1518140000001
 21
268.7524300000001
 31
0.0
  0
LINE
  5
6C8
330
1F
100
AcDbEntity
  8
Ｓ_１_１
  6
CONTINUOUS
 62
     3
100
AcDbLine
 10
278.0089150000001
 20
264.0835260000001
 30
0.0
 11
282.3168860000001
 21
274.7461290000001
 31
0.0
  0
LINE
  5
6C9
330
1F
100
AcDbEntity
  8
Ｓ_１_１
  6
CONTINUOUS
 62
     3
100
AcDbLine
 10
292.8438430000001
 20
258.0898260000001
 30
0.0
 11
297.1518140000001
 21
268.7524300000001
 31
0.0
  0
LINE
  5
6CA
330
1F
100
AcDbEntity
  8
Ｓ_１_１
  6
CONTINUOUS
 62
     3
100
AcDbLine
 10
282.9677380000001
 20
275.0224310000001
 30
0.0
 11
296.875495
 21
269.4033330000001
 31
0.0
  0
LINE
  5
6CB
330
1F
100
AcDbEntity
  8
Ｓ_１_１
  6
CONTINUOUS
 62
     3
100
AcDbLine
 10
221.642507
 20
279.0090040000001
 30
0.0
 11
223.4992489999999
 21
274.3665760000001
 31
0.0
  0
LINE
  5
6CC
330
1F
100
AcDbEntity
  8
Ｓ_１_１
  6
CONTINUOUS
 62
     3
100
AcDbLine
 10
234.6414169999998
 20
284.207924
 30
0.0
 11
236.4981579999999
 21
279.5654970000001
 31
0.0
  0
LINE
  5
6CD
330
1F
100
AcDbEntity
  8
Ｓ_１_１
  6
CONTINUOUS
 62
     3
100
AcDbLine
 10
221.642507
 20
279.0090040000001
 30
0.0
 11
234.6414169999998
 21
284.207924
 31
0.0
  0
LINE
  5
6CE
330
1F
100
AcDbEntity
  8
Ｓ_１_１
  6
CONTINUOUS
 62
     3
100
AcDbLine
 10
217.9974870000001
 20
240.564784
 30
0.0
 11
219.0504439999999
 21
239.511828
 31
0.0
  0
LINE
  5
6CF
330
1F
100
AcDbEntity
  8
Ｓ_１_１
  6
CONTINUOUS
 62
     3
100
AcDbLine
 10
217.9975079999999
 20
266.3722570000001
 30
0.0
 11
219.0507069999999
 21
267.4254560000001
 31
0.0
  0
LINE
  5
6D0
330
1F
100
AcDbEntity
  8
Ｓ_１_１
  6
CONTINUOUS
 62
     3
100
AcDbLine
 10
218.9974980000002
 20
239.5144650000001
 30
0.0
 11
218.9974980000002
 21
267.422808
 31
0.0
  0
LINE
  5
6D1
330
1F
100
AcDbEntity
  8
Ｓ_１_１
  6
CONTINUOUS
 62
     3
100
AcDbLine
 10
220.7401800000002
 20
271.109007
 30
0.0
 11
222.150779
 21
267.582071
 31
0.0
  0
LINE
  5
6D2
330
1F
100
AcDbEntity
  8
Ｓ_１_１
  6
CONTINUOUS
 62
     3
100
AcDbLine
 10
221.854417
 20
273.7087250000001
 30
0.0
 11
242.679478
 21
282.037719
 31
0.0
  0
LINE
  5
6D3
330
1F
100
AcDbEntity
  8
Ｓ_１_１
  6
CONTINUOUS
 62
     3
100
AcDbLine
 10
250.9999080000002
 20
276.1638820000001
 30
0.0
 11
250.9999080000002
 21
269.8015770000001
 31
0.0
  0
LINE
  5
6D4
330
1F
100
AcDbEntity
  8
Ｓ_１_１
  6
CONTINUOUS
 62
     3
100
AcDbLine
 10
268.999939
 20
276.1638820000001
 30
0.0
 11
268.999939
 21
269.8015770000001
 31
0.0
  0
LINE
  5
6D5
330
1F
100
AcDbEntity
  8
Ｓ_１_１
  6
CONTINUOUS
 62
     3
100
AcDbLine
 10
275.999908
 20
308.5267240000001
 30
0.0
 11
275.999908
 21
305.1213250000001
 31
0.0
  0
LINE
  5
6D6
330
1F
100
AcDbEntity
  8
Ｓ_１_１
  6
CONTINUOUS
 62
     3
100
AcDbLine
 10
243.9999389999998
 20
308.5267240000001
 30
0.0
 11
243.9999389999998
 21
305.1213060000001
 31
0.0
  0
LINE
  5
6D7
330
1F
100
AcDbEntity
  8
Ｓ_１_１
  6
CONTINUOUS
 62
     3
100
AcDbLine
 10
275.9999419999999
 20
264.895204
 30
0.0
 11
291.9166729999999
 21
258.4644270000001
 31
0.0
  0
LINE
  5
6D8
330
1F
100
AcDbEntity
  8
Ｓ_１_１
  6
CONTINUOUS
 62
     3
100
AcDbLine
 10
219.0504139999998
 20
239.5118100000001
 30
0.0
 11
236.350723
 21
238.64205
 31
0.0
  0
LINE
  5
6D9
330
1F
100
AcDbEntity
  8
Ｓ_１_１
  6
CONTINUOUS
 62
     3
100
AcDbLine
 10
219.0506540000001
 20
267.4255190000001
 30
0.0
 11
243.9999309999998
 21
268.6856280000001
 31
0.0
  0
LINE
  5
6DA
330
1F
100
AcDbEntity
  8
Ｓ_１_１
  6
CONTINUOUS
 62
     3
100
AcDbLine
 10
212.997437
 20
263.4733000000001
 30
0.0
 11
217.997437
 21
263.4733000000001
 31
0.0
  0
LINE
  5
6DB
330
1F
100
AcDbEntity
  8
Ｓ_１_１
  6
CONTINUOUS
 62
     3
100
AcDbLine
 10
212.997437
 20
243.4733000000001
 30
0.0
 11
217.997437
 21
243.4733000000001
 31
0.0
  0
LINE
  5
6DC
330
1F
100
AcDbEntity
  8
Ｓ_１_１
  6
CONTINUOUS
 62
     3
100
AcDbLine
 10
211.9974520000001
 20
245.7233040000001
 30
0.0
 11
211.9974520000001
 21
261.2232960000001
 31
0.0
  0
LINE
  5
6DD
330
1F
100
AcDbEntity
  8
Ｓ_１_１
  6
CONTINUOUS
 62
     3
100
AcDbLine
 10
217.997437
 20
240.564746
 30
0.0
 11
217.997437
 21
266.3722980000001
 31
0.0
  0
LINE
  5
6DE
330
1F
100
AcDbEntity
  8
Ｓ_１_１
  6
CONTINUOUS
 62
     3
100
AcDbLine
 10
245.9999080000002
 20
310.526732
 30
0.0
 11
250.0
 21
310.526732
 31
0.0
  0
LINE
  5
6DF
330
1F
100
AcDbEntity
  8
Ｓ_１_１
  6
CONTINUOUS
 62
     3
100
AcDbLine
 10
226.9998930000002
 20
225.4559130000001
 30
0.0
 11
292.999877
 21
225.4559130000001
 31
0.0
  0
LINE
  5
6E0
330
1F
100
AcDbEntity
  8
Ｓ_１_１
  6
CONTINUOUS
 62
     3
100
AcDbLine
 10
224.9999240000002
 20
218.4733000000001
 30
0.0
 11
294.9999230000001
 21
218.4733000000001
 31
0.0
  0
LINE
  5
6E1
330
1F
100
AcDbEntity
  8
Ｓ_１_１
  6
EXLTYPE2
 62
     1
100
AcDbLine
 10
553.5782772183001
 20
295.8903290000001
 30
0.0
 11
1053.073437439556
 21
317.6987591484879
 31
0.0
  0
DIMENSION
  5
6E2
330
1F
100
AcDbEntity
  8
Ｓ_１_１
  6
CONTINUOUS
 62
     2
100
AcDbDimension
  2
*D20
 10
960.0
 20
160.0
 30
0.0
 11
776.76444460915
 21
168.25
 31
0.0
 70
   160
  1
366
  3
ISO-25
100
AcDbAlignedDimension
 13
593.5288892183
 23
218.4733
 33
0.0
 14
960.0
 24
220.0
 34
0.0
100
AcDbRotatedDimension
1001
ACAD
1000
DSTYLE
1002
{
1070
   270
1070
     2
1070
     6
1000
EX_NORM
1070
     7
1000
EX_NORM
1070
    41
1040
9.0
1070
    42
1040
4.5
1070
    44
1040
3.0
1070
    73
1070
     0
1070
    74
1070
     0
1070
    75
1070
     0
1070
    76
1070
     0
1070
    77
1070
     1
1070
    78
1070
     8
1070
   140
1040
10.38871247113164
1070
   147
1040
0.0
1070
   173
1070
     1
1070
   176
1070
     2
1070
   177
1070
     2
1070
   178
1070
     2
1070
   271
1070
     2
1070
   277
1070
     2
1070
   279
1070
     2
1070
   280
1070
     0
1070
   287
1070
     5
1070
   340
1005
109
1002
}
  0
ENDSEC
  0
SECTION
  2
OBJECTS
  0
DICTIONARY
  5
C
330
0
100
AcDbDictionary
  3
ACAD_GROUP
350
D
  3
ACAD_LAYOUT
350
1A
  3
ACAD_MATERIAL
350
43
  3
ACAD_MLEADERSTYLE
350
6B
  3
ACAD_MLINESTYLE
350
17
  3
ACAD_PLOTSETTINGS
350
19
  3
ACAD_SCALELIST
350
47
  3
ACAD_VISUALSTYLE
350
2A
  3
ACDBHEADERROUNDTRIPXREC
350
6EF
  3
ACDBVARIABLEDICTIONARY
350
710
  0
DICTIONARY
  5
71B
330
8
100
AcDbDictionary
280
     1
  3
ACAD_XREC_ROUNDTRIP
360
71C
  0
DICTIONARY
  5
D
102
{ACAD_REACTORS
330
C
102
}
330
C
100
AcDbDictionary
  0
DICTIONARY
  5
1A
102
{ACAD_REACTORS
330
C
102
}
330
C
100
AcDbDictionary
  0
DICTIONARY
  5
43
102
{ACAD_REACTORS
330
C
102
}
330
C
100
AcDbDictionary
  3
BYBLOCK
350
45
  3
BYLAYER
350
44
  3
GLOBAL
350
46
  0
DICTIONARY
  5
6B
102
{ACAD_REACTORS
330
C
102
}
330
C
100
AcDbDictionary
  3
STANDARD
350
6C
  0
DICTIONARY
  5
17
102
{ACAD_REACTORS
330
C
102
}
330
C
100
AcDbDictionary
  3
STANDARD
350
18
  0
DICTIONARY
  5
19
102
{ACAD_REACTORS
330
C
102
}
330
C
100
AcDbDictionary
  0
DICTIONARY
  5
47
102
{ACAD_REACTORS
330
C
102
}
330
C
100
AcDbDictionary
  3
A0
350
48
  3
A1
350
49
  3
A2
350
4A
  3
A3
350
4B
  3
A4
350
4C
  3
A5
350
4D
  3
A6
350
4E
  3
A7
350
4F
  3
A8
350
50
  3
A9
350
51
  3
B0
350
52
  3
B1
350
53
  3
B2
350
54
  3
B3
350
55
  3
B4
350
56
  3
B5
350
57
  3
B6
350
58
  3
B7
350
59
  3
B8
350
5A
  3
B9
350
5B
  3
C0
350
5C
  3
C1
350
5D
  3
C2
350
5E
  3
C3
350
5F
  3
C4
350
60
  3
C5
350
61
  3
C6
350
62
  3
C7
350
63
  3
C8
350
64
  3
C9
350
65
  3
D0
350
66
  3
D1
350
67
  3
D2
350
68
  0
DICTIONARY
  5
2A
102
{ACAD_REACTORS
330
C
102
}
330
C
100
AcDbDictionary
  3
2DWIREFRAME
350
2F
  3
BASIC
350
32
  3
BRIGHTEN
350
36
  3
COLORCHANGE
350
3A
  3
CONCEPTUAL
350
34
  3
DIM
350
35
  3
EDGECOLOROFF
350
3D
  3
FACEPATTERN
350
39
  3
FLAT
350
2B
  3
FLATWITHEDGES
350
2C
  3
GOURAUD
350
2D
  3
GOURAUDWITHEDGES
350
2E
  3
HIDDEN
350
31
  3
JITTEROFF
350
3B
  3
LINEPATTERN
350
38
  3
OVERHANGOFF
350
3C
  3
REALISTIC
350
33
  3
SHADED
350
42
  3
SHADED_WITH_EDGES
350
41
  3
SHADES_OF_GRAY
350
3E
  3
SKETCHY
350
3F
  3
THICKEN
350
37
  3
WIREFRAME
350
30
  3
X-RAY
350
40
  0
DICTIONARY
  5
6EF
102
{ACAD_REACTORS
330
C
102
}
330
C
100
AcDbDictionary
  3
CEPSNID
350
6F9
  3
CEPSNTYPE
350
6F8
  3
DIMSTYLEDATA
350
70F
  3
FINGERPRINTGUID
350
6FA
  3
HYPERLINKBASE
350
6F2
  3
INSUNITS
350
6F7
  3
LAYOUTDICT
350
6F4
  3
LWETCUNION
350
6F6
  3
PLOTSETDICT
350
6F5
  3
PSVPSCALE
350
6FC
  3
PUCSBASE
350
6FF
  3
PUCSORGBACK
350
705
  3
PUCSORGBOTTOM
350
701
  3
PUCSORGFRONT
350
704
  3
PUCSORGLEFT
350
702
  3
PUCSORGRIGHT
350
703
  3
PUCSORGTOP
350
700
  3
PUCSORTHOREF
350
6FD
  3
PUCSORTHOVIEW
350
6FE
  3
STYLESHEET
350
6F3
  3
TSTACKALIGN
350
6F0
  3
TSTACKSIZE
350
6F1
  3
UCSBASE
350
708
  3
UCSORGBACK
350
70E
  3
UCSORGBOTTOM
350
70A
  3
UCSORGFRONT
350
70D
  3
UCSORGLEFT
350
70B
  3
UCSORGRIGHT
350
70C
  3
UCSORGTOP
350
709
  3
UCSORTHOREF
350
706
  3
UCSORTHOVIEW
350
707
  3
VERSIONGUID
350
6FB
  0
DICTIONARY
  5
710
102
{ACAD_REACTORS
330
C
102
}
330
C
100
AcDbDictionary
  3
CANNOSCALE
350
71D
  3
CENTEREXE
350
717
  3
CENTERLTYPEFILE
350
718
  3
CMLEADERSTYLE
350
712
  3
CTABLESTYLE
350
711
  3
DIMASSOC
350
719
  3
HIDETEXT
350
71A
  3
MSLTSCALE
350
71E
  3
PSOLHEIGHT
350
714
  3
PSOLWIDTH
350
713
  0
XRECORD
  5
71C
102
{ACAD_REACTORS
330
71B
102
}
330
71B
100
AcDbXrecord
102
VTR_0.000_0.000_1.000_1.000_VISUALSTYLE
340
2F
102
VTR_0.000_0.000_1.000_1.000_GRIDDISPLAY
 70
     3
102
VTR_0.000_0.000_1.000_1.000_GRIDMAJOR
 70
     5
102
VTR_0.000_0.000_1.000_1.000_DEFAULTLIGHTING
280
     1
102
VTR_0.000_0.000_1.000_1.000_DEFAULTLIGHTINGTYPE
 70
     1
102
VTR_0.000_0.000_1.000_1.000_BRIGHTNESS
141
0.0
102
VTR_0.000_0.000_1.000_1.000_CONTRAST
142
0.0
  0
MATERIAL
  5
45
102
{ACAD_REACTORS
330
43
102
}
102
{ACAD_XDICTIONARY
360
721
102
}
330
43
100
AcDbMaterial
  1
BYBLOCK
  0
MATERIAL
  5
44
102
{ACAD_REACTORS
330
43
102
}
102
{ACAD_XDICTIONARY
360
71F
102
}
330
43
100
AcDbMaterial
  1
BYLAYER
  0
MATERIAL
  5
46
102
{ACAD_REACTORS
330
43
102
}
102
{ACAD_XDICTIONARY
360
723
102
}
330
43
100
AcDbMaterial
  1
GLOBAL
  0
ACAD_PROXY_OBJECT
  5
6C
102
{ACAD_REACTORS
330
6B
102
}
330
6B
100
AcDbProxyObject
 90
      499
 91
      505
 93
      610
310
40901902A4063FBFFFFFE0000000000000020400000000000020404214DD185B99185C990000000000000104090141901A00000000000004100000000000000041025764000000000000039000
340
14
340
0
340
11
340
0
 94
        0
1001
ACAD_MLEADERVER
1070
     2
  0
MLINESTYLE
  5
18
102
{ACAD_REACTORS
330
17
102
}
330
17
100
AcDbMlineStyle
  2
Standard
 70
     0
  3

 62
   256
 51
90.0
 52
90.0
 71
     2
 49
0.5
 62
   256
  6
BYLAYER
 49
-0.5
 62
   256
  6
BYLAYER
  0
ACAD_PROXY_OBJECT
  5
48
102
{ACAD_REACTORS
330
47
102
}
330
47
100
AcDbProxyObject
 90
      499
 91
      503
 93
       41
310
903313A31580
  0
ACAD_PROXY_OBJECT
  5
49
102
{ACAD_REACTORS
330
47
102
}
330
47
100
AcDbProxyObject
 90
      499
 91
      503
 93
      105
310
903313A324000000000000004000
  0
ACAD_PROXY_OBJECT
  5
4A
102
{ACAD_REACTORS
330
47
102
}
330
47
100
AcDbProxyObject
 90
      499
 91
      503
 93
      105
310
903313A344000000000000104000
  0
ACAD_PROXY_OBJECT
  5
4B
102
{ACAD_REACTORS
330
47
102
}
330
47
100
AcDbProxyObject
 90
      499
 91
      503
 93
      105
310
903313A354000000000000144000
  0
ACAD_PROXY_OBJECT
  5
4C
102
{ACAD_REACTORS
330
47
102
}
330
47
100
AcDbProxyObject
 90
      499
 91
      503
 93
      105
310
903313A384000000000000204000
  0
ACAD_PROXY_OBJECT
  5
4D
102
{ACAD_REACTORS
330
47
102
}
330
47
100
AcDbProxyObject
 90
      499
 91
      503
 93
      113
310
904313A31304000000000000244000
  0
ACAD_PROXY_OBJECT
  5
4E
102
{ACAD_REACTORS
330
47
102
}
330
47
100
AcDbProxyObject
 90
      499
 91
      503
 93
      113
310
904313A31364000000000000304000
  0
ACAD_PROXY_OBJECT
  5
4F
102
{ACAD_REACTORS
330
47
102
}
330
47
100
AcDbProxyObject
 90
      499
 91
      503
 93
      113
310
904313A32304000000000000344000
  0
ACAD_PROXY_OBJECT
  5
50
102
{ACAD_REACTORS
330
47
102
}
330
47
100
AcDbProxyObject
 90
      499
 91
      503
 93
      113
310
904313A333040000000000003E4000
  0
ACAD_PROXY_OBJECT
  5
51
102
{ACAD_REACTORS
330
47
102
}
330
47
100
AcDbProxyObject
 90
      499
 91
      503
 93
      113
310
904313A34304000000000000444000
  0
ACAD_PROXY_OBJECT
  5
52
102
{ACAD_REACTORS
330
47
102
}
330
47
100
AcDbProxyObject
 90
      499
 91
      503
 93
      113
310
904313A35304000000000000494000
  0
ACAD_PROXY_OBJECT
  5
53
102
{ACAD_REACTORS
330
47
102
}
330
47
100
AcDbProxyObject
 90
      499
 91
      503
 93
      121
310
905313A3130304000000000000594000
  0
ACAD_PROXY_OBJECT
  5
54
102
{ACAD_REACTORS
330
47
102
}
330
47
100
AcDbProxyObject
 90
      499
 91
      503
 93
      105
310
903323A310000000000000010100
  0
ACAD_PROXY_OBJECT
  5
55
102
{ACAD_REACTORS
330
47
102
}
330
47
100
AcDbProxyObject
 90
      499
 91
      503
 93
      105
310
903343A310000000000000410100
  0
ACAD_PROXY_OBJECT
  5
56
102
{ACAD_REACTORS
330
47
102
}
330
47
100
AcDbProxyObject
 90
      499
 91
      503
 93
      105
310
903383A310000000000000810100
  0
ACAD_PROXY_OBJECT
  5
57
102
{ACAD_REACTORS
330
47
102
}
330
47
100
AcDbProxyObject
 90
      499
 91
      503
 93
      113
310
90431303A310000000000000910100
  0
ACAD_PROXY_OBJECT
  5
58
102
{ACAD_REACTORS
330
47
102
}
330
47
100
AcDbProxyObject
 90
      499
 91
      503
 93
      121
310
9053130303A310000000000001650100
  0
ACAD_PROXY_OBJECT
  5
59
102
{ACAD_REACTORS
330
47
102
}
330
47
100
AcDbProxyObject
 90
      499
 91
      503
 93
      257
310
90E312F31323822203D2031272D3022000000000000200FC000000000000284000
  0
ACAD_PROXY_OBJECT
  5
5A
102
{ACAD_REACTORS
330
47
102
}
330
47
100
AcDbProxyObject
 90
      499
 91
      503
 93
      249
310
90D312F363422203D2031272D3022000000000000240FC000000000000284000
  0
ACAD_PROXY_OBJECT
  5
5B
102
{ACAD_REACTORS
330
47
102
}
330
47
100
AcDbProxyObject
 90
      499
 91
      503
 93
      249
310
90D312F333222203D2031272D3022000000000000280FC000000000000284000
  0
ACAD_PROXY_OBJECT
  5
5C
102
{ACAD_REACTORS
330
47
102
}
330
47
100
AcDbProxyObject
 90
      499
 91
      503
 93
      249
310
90D312F313622203D2031272D30220000000000002C0FC000000000000284000
  0
ACAD_PROXY_OBJECT
  5
5D
102
{ACAD_REACTORS
330
47
102
}
330
47
100
AcDbProxyObject
 90
      499
 91
      503
 93
      249
310
90D332F333222203D2031272D30220000000000002E0FC000000000000284000
  0
ACAD_PROXY_OBJECT
  5
5E
102
{ACAD_REACTORS
330
47
102
}
330
47
100
AcDbProxyObject
 90
      499
 91
      503
 93
      241
310
90C312F3822203D2031272D3022000000000000300FC000000000000284000
  0
ACAD_PROXY_OBJECT
  5
5F
102
{ACAD_REACTORS
330
47
102
}
330
47
100
AcDbProxyObject
 90
      499
 91
      503
 93
      249
310
90D332F313622203D2031272D3022000000000000320FC000000000000284000
  0
ACAD_PROXY_OBJECT
  5
60
102
{ACAD_REACTORS
330
47
102
}
330
47
100
AcDbProxyObject
 90
      499
 91
      503
 93
      241
310
90C312F3422203D2031272D3022000000000000340FC000000000000284000
  0
ACAD_PROXY_OBJECT
  5
61
102
{ACAD_REACTORS
330
47
102
}
330
47
100
AcDbProxyObject
 90
      499
 91
      503
 93
      241
310
90C332F3822203D2031272D3022000000000000360FC000000000000284000
  0
ACAD_PROXY_OBJECT
  5
62
102
{ACAD_REACTORS
330
47
102
}
330
47
100
AcDbProxyObject
 90
      499
 91
      503
 93
      241
310
90C312F3222203D2031272D3022000000000000380FC000000000000284000
  0
ACAD_PROXY_OBJECT
  5
63
102
{ACAD_REACTORS
330
47
102
}
330
47
100
AcDbProxyObject
 90
      499
 91
      503
 93
      241
310
90C332F3422203D2031272D30220000000000003A0FC000000000000284000
  0
ACAD_PROXY_OBJECT
  5
64
102
{ACAD_REACTORS
330
47
102
}
330
47
100
AcDbProxyObject
 90
      499
 91
      503
 93
      161
310
90A3122203D2031272D30224000000000000284000
  0
ACAD_PROXY_OBJECT
  5
65
102
{ACAD_REACTORS
330
47
102
}
330
47
100
AcDbProxyObject
 90
      499
 91
      503
 93
      257
310
90E312D312F3222203D2031272D30220000000000003E0FC000000000000284000
  0
ACAD_PROXY_OBJECT
  5
66
102
{ACAD_REACTORS
330
47
102
}
330
47
100
AcDbProxyObject
 90
      499
 91
      503
 93
      225
310
90A3322203D2031272D302200000000000002100000000000000284000
  0
ACAD_PROXY_OBJECT
  5
67
102
{ACAD_REACTORS
330
47
102
}
330
47
100
AcDbProxyObject
 90
      499
 91
      503
 93
      225
310
90A3622203D2031272D302200000000000006100000000000000284000
  0
ACAD_PROXY_OBJECT
  5
68
102
{ACAD_REACTORS
330
47
102
}
330
47
100
AcDbProxyObject
 90
      499
 91
      503
 93
      249
310
90D31272D3022203D2031272D30220000000000000A100000000000000284000
  0
ACAD_PROXY_OBJECT
  5
2F
102
{ACAD_REACTORS
330
2A
102
}
330
2A
100
AcDbProxyObject
 90
      499
 91
      501
 93
      436
310
42CC9915DA5C99599C985B595049028333333333333E33F0000000000000F90107901411070040501600405405064090741402480A0340
1001
ACAD
1000
AcDbSavedByObjectVersion
1070
     0
  0
ACAD_PROXY_OBJECT
  5
32
102
{ACAD_REACTORS
330
2A
102
}
330
2A
100
AcDbProxyObject
 90
      499
 91
      501
 93
      388
310
4150985CDA58D07406404333333333333E33F0000000000000F90107A41107004050150841D405064090741402480A0350
1001
ACAD
1000
AcDbSavedByObjectVersion
1070
     0
  0
ACAD_PROXY_OBJECT
  5
36
102
{ACAD_REACTORS
330
2A
102
}
330
2A
100
AcDbProxyObject
 90
      499
 91
      501
 93
      428
310
42109C9A59DA1D195B90C409028333333333333E33F0000000000000F9010790141107004050150841D405064090741402480A029950
1001
ACAD
1000
AcDbSavedByObjectVersion
1070
     0
  0
ACAD_PROXY_OBJECT
  5
3A
102
{ACAD_REACTORS
330
2A
102
}
330
2A
100
AcDbProxyObject
 90
      499
 91
      501
 93
      452
310
42D0DBDB1BDC90DA185B99D95104090240C333333333333E33F0000000000000F90108901411070040501508421405064090741402480A0350
1001
ACAD
1000
AcDbSavedByObjectVersion
1070
     0
  0
ACAD_PROXY_OBJECT
  5
34
102
{ACAD_REACTORS
330
2A
102
}
330
2A
100
AcDbProxyObject
 90
      499
 91
      501
 93
      500
310
4290DBDB98D95C1D1D585B10940D028333333333333E33F0000000000000F90107902409070040501000000000018199010841D405064090740C02480A0340
1001
ACAD
1000
AcDbSavedByObjectVersion
1070
     0
  0
ACAD_PROXY_OBJECT
  5
35
102
{ACAD_REACTORS
330
2A
102
}
330
2A
100
AcDbProxyObject
 90
      499
 91
      501
 93
      412
310
40D11A5B50B409028333333333333E33F0000000000000F9010790141107004050150841D405064090741402480A02677FFFFFD0
1001
ACAD
1000
AcDbSavedByObjectVersion
1070
     0
  0
ACAD_PROXY_OBJECT
  5
3D
102
{ACAD_REACTORS
330
2A
102
}
330
2A
100
AcDbProxyObject
 90
      499
 91
      501
 93
      452
310
43115919D950DBDB1BDC93D999916409028333333333333E33F0000000000000F9010790141107004050150841D405064090741402480A0350
1001
ACAD
1000
AcDbSavedByObjectVersion
1070
     0
  0
ACAD_PROXY_OBJECT
  5
39
102
{ACAD_REACTORS
330
2A
102
}
330
2A
100
AcDbProxyObject
 90
      499
 91
      501
 93
      444
310
42D19858D95C185D1D195C9B90F409028333333333333E33F0000000000000F9010790141107004050150841D405064090741402480A0350
1001
ACAD
1000
AcDbSavedByObjectVersion
1070
     0
  0
ACAD_PROXY_OBJECT
  5
2B
102
{ACAD_REACTORS
330
2A
102
}
330
2A
100
AcDbProxyObject
 90
      499
 91
      501
 93
      380
310
41119B185D240901404333333333333E33F0000000000000F9010740A907004050150841D405064090741402480A1B50
1001
ACAD
1000
AcDbSavedByObjectVersion
1070
     0
  0
ACAD_PROXY_OBJECT
  5
2C
102
{ACAD_REACTORS
330
2A
102
}
330
2A
100
AcDbProxyObject
 90
      499
 91
      501
 93
      468
310
43519B185D15DA5D1A115919D95CD0140901404333333333333E33F0000000000000F90107409019070040501600405405064090741402480A1B50
1001
ACAD
1000
AcDbSavedByObjectVersion
1070
     0
  0
ACAD_PROXY_OBJECT
  5
2D
102
{ACAD_REACTORS
330
2A
102
}
330
2A
100
AcDbProxyObject
 90
      499
 91
      501
 93
      404
310
41D1DBDD5C985D5910240902404333333333333E33F0000000000000F9010740A9070040501641D405064090741402480A1B50
1001
ACAD
1000
AcDbSavedByObjectVersion
1070
     0
  0
ACAD_PROXY_OBJECT
  5
2E
102
{ACAD_REACTORS
330
2A
102
}
330
2A
100
AcDbProxyObject
 90
      499
 91
      501
 93
      492
310
4411DBDD5C985D5915DA5D1A115919D95CD0340902404333333333333E33F0000000000000F90107409019070040501600405405064090741402480A1B50
1001
ACAD
1000
AcDbSavedByObjectVersion
1070
     0
  0
ACAD_PROXY_OBJECT
  5
31
102
{ACAD_REACTORS
330
2A
102
}
330
2A
100
AcDbProxyObject
 90
      499
 91
      501
 93
      476
310
41921A5919195B90640502408333333333333E33F0000000000000F901079024090700405020000000000001110200405405064090740C02480A0340
1001
ACAD
1000
AcDbSavedByObjectVersion
1070
     0
  0
ACAD_PROXY_OBJECT
  5
3B
102
{ACAD_REACTORS
330
2A
102
}
330
2A
100
AcDbProxyObject
 90
      499
 91
      501
 93
      428
310
42529A5D1D195C93D999914409028333333333333E33F0000000000000F9010790141107004050150A41D405064090741402480A0350
1001
ACAD
1000
AcDbSavedByObjectVersion
1070
     0
  0
ACAD_PROXY_OBJECT
  5
38
102
{ACAD_REACTORS
330
2A
102
}
330
2A
100
AcDbProxyObject
 90
      499
 91
      501
 93
      444
310
42D31A5B995C185D1D195C9B90E409028333333333333E33F0000000000000F9010790141107004050750841D405064090741402483A0350
1001
ACAD
1000
AcDbSavedByObjectVersion
1070
     0
  0
ACAD_PROXY_OBJECT
  5
3C
102
{ACAD_REACTORS
330
2A
102
}
330
2A
100
AcDbProxyObject
 90
      499
 91
      501
 93
      444
310
42D3DD995C9A185B99D3D999915409028333333333333E33F0000000000000F9010790141107004050150941D405064090741402480A0350
1001
ACAD
1000
AcDbSavedByObjectVersion
1070
     0
  0
ACAD_PROXY_OBJECT
  5
33
102
{ACAD_REACTORS
330
2A
102
}
330
2A
100
AcDbProxyObject
 90
      499
 91
      501
 93
      428
310
425499585B1A5CDD1A58D08409038333333333333E33F0000000000000F9010740A907004050150800405405064090740C02480A1B40
1001
ACAD
1000
AcDbSavedByObjectVersion
1070
     0
  0
ACAD_PROXY_OBJECT
  5
42
102
{ACAD_REACTORS
330
2A
102
}
330
2A
100
AcDbProxyObject
 90
      499
 91
      501
 93
      420
310
4194DA1859195911B40902404333333333333E33F0000000000000F9010740A41107004050150800405405064090840C02480A0B40
1001
ACAD
1000
AcDbSavedByObjectVersion
1070
     0
  0
ACAD_PROXY_OBJECT
  5
41
102
{ACAD_REACTORS
330
2A
102
}
330
2A
100
AcDbProxyObject
 90
      499
 91
      501
 93
      516
310
4454DA18591959081DDA5D1A08195919D95CD1A40902404333333333333E33F0000000000000F901074090142907004050250800405405064090740C02480A0B40
1001
ACAD
1000
AcDbSavedByObjectVersion
1070
     0
  0
ACAD_PROXY_OBJECT
  5
3E
102
{ACAD_REACTORS
330
2A
102
}
330
2A
100
AcDbProxyObject
 90
      499
 91
      501
 93
      532
310
4394DA1859195CC81BD98811DC985E5174090240C333333333333E33F0000000000000F901079024090741D01000000000000111010841D405064090740C02480A0340
1001
ACAD
1000
AcDbSavedByObjectVersion
1070
     0
  0
ACAD_PROXY_OBJECT
  5
3F
102
{ACAD_REACTORS
330
2A
102
}
330
2A
100
AcDbProxyObject
 90
      499
 91
      501
 93
      476
310
41D4DAD95D18DA1E51840502408333333333333E33F0000000000000F901079024090741D01000000000000111010B41D405064090741802480A0340
1001
ACAD
1000
AcDbSavedByObjectVersion
1070
     0
  0
ACAD_PROXY_OBJECT
  5
37
102
{ACAD_REACTORS
330
2A
102
}
330
2A
100
AcDbProxyObject
 90
      499
 91
      501
 93
      412
310
41D51A1A58DAD95B90D409028333333333333E33F0000000000000F9010790141107004050150C41D405064090741402480A0350
1001
ACAD
1000
AcDbSavedByObjectVersion
1070
     0
  0
ACAD_PROXY_OBJECT
  5
30
102
{ACAD_REACTORS
330
2A
102
}
330
2A
100
AcDbProxyObject
 90
      499
 91
      501
 93
      420
310
4255DA5C99599C985B595059028333333333333E33F0000000000000F90107901411070040501600405405064090740C02480A0340
1001
ACAD
1000
AcDbSavedByObjectVersion
1070
     0
  0
ACAD_PROXY_OBJECT
  5
40
102
{ACAD_REACTORS
330
2A
102
}
330
2A
100
AcDbProxyObject
 90
      499
 91
      501
 93
      404
310
41560B54985E51940902404000000000000E03F0000000000000F9010740501907004050150841D405064090740C02480A1B40
1001
ACAD
1000
AcDbSavedByObjectVersion
1070
     0
  0
XRECORD
  5
6F9
102
{ACAD_REACTORS
330
6EF
102
}
330
6EF
100
AcDbXrecord
340
0
  0
XRECORD
  5
6F8
102
{ACAD_REACTORS
330
6EF
102
}
330
6EF
100
AcDbXrecord
 90
        0
  0
XRECORD
  5
70F
102
{ACAD_REACTORS
330
6EF
102
}
330
6EF
100
AcDbXrecord
1000
DSTYLE
1002
{
1070
   340
340
11
1002
}
  0
XRECORD
  5
6FA
102
{ACAD_REACTORS
330
6EF
102
}
330
6EF
100
AcDbXrecord
  1
{4ded8f35-649d-4306-9c4b-7f43a56cb021}
  0
XRECORD
  5
6F2
102
{ACAD_REACTORS
330
6EF
102
}
330
6EF
100
AcDbXrecord
  1

  0
XRECORD
  5
6F7
102
{ACAD_REACTORS
330
6EF
102
}
330
6EF
100
AcDbXrecord
 90
        4
  0
XRECORD
  5
6F4
102
{ACAD_REACTORS
330
6EF
102
}
330
6EF
100
AcDbXrecord
340
1A
  0
XRECORD
  5
6F6
102
{ACAD_REACTORS
330
6EF
102
}
330
6EF
100
AcDbXrecord
 90
    10781
  0
XRECORD
  5
6F5
102
{ACAD_REACTORS
330
6EF
102
}
330
6EF
100
AcDbXrecord
340
19
  0
XRECORD
  5
6FC
102
{ACAD_REACTORS
330
6EF
102
}
330
6EF
100
AcDbXrecord
 40
0.0
  0
XRECORD
  5
6FF
102
{ACAD_REACTORS
330
6EF
102
}
330
6EF
100
AcDbXrecord
340
0
  0
XRECORD
  5
705
102
{ACAD_REACTORS
330
6EF
102
}
330
6EF
100
AcDbXrecord
 10
0.0
 20
0.0
 30
0.0
  0
XRECORD
  5
701
102
{ACAD_REACTORS
330
6EF
102
}
330
6EF
100
AcDbXrecord
 10
0.0
 20
0.0
 30
0.0
  0
XRECORD
  5
704
102
{ACAD_REACTORS
330
6EF
102
}
330
6EF
100
AcDbXrecord
 10
0.0
 20
0.0
 30
0.0
  0
XRECORD
  5
702
102
{ACAD_REACTORS
330
6EF
102
}
330
6EF
100
AcDbXrecord
 10
0.0
 20
0.0
 30
0.0
  0
XRECORD
  5
703
102
{ACAD_REACTORS
330
6EF
102
}
330
6EF
100
AcDbXrecord
 10
0.0
 20
0.0
 30
0.0
  0
XRECORD
  5
700
102
{ACAD_REACTORS
330
6EF
102
}
330
6EF
100
AcDbXrecord
 10
0.0
 20
0.0
 30
0.0
  0
XRECORD
  5
6FD
102
{ACAD_REACTORS
330
6EF
102
}
330
6EF
100
AcDbXrecord
340
0
  0
XRECORD
  5
6FE
102
{ACAD_REACTORS
330
6EF
102
}
330
6EF
100
AcDbXrecord
 70
     0
  0
XRECORD
  5
6F3
102
{ACAD_REACTORS
330
6EF
102
}
330
6EF
100
AcDbXrecord
  1

  0
XRECORD
  5
6F0
102
{ACAD_REACTORS
330
6EF
102
}
330
6EF
100
AcDbXrecord
 90
        1
  0
XRECORD
  5
6F1
102
{ACAD_REACTORS
330
6EF
102
}
330
6EF
100
AcDbXrecord
 90
       70
  0
XRECORD
  5
708
102
{ACAD_REACTORS
330
6EF
102
}
330
6EF
100
AcDbXrecord
340
0
  0
XRECORD
  5
70E
102
{ACAD_REACTORS
330
6EF
102
}
330
6EF
100
AcDbXrecord
 10
0.0
 20
0.0
 30
0.0
  0
XRECORD
  5
70A
102
{ACAD_REACTORS
330
6EF
102
}
330
6EF
100
AcDbXrecord
 10
0.0
 20
0.0
 30
0.0
  0
XRECORD
  5
70D
102
{ACAD_REACTORS
330
6EF
102
}
330
6EF
100
AcDbXrecord
 10
0.0
 20
0.0
 30
0.0
  0
XRECORD
  5
70B
102
{ACAD_REACTORS
330
6EF
102
}
330
6EF
100
AcDbXrecord
 10
0.0
 20
0.0
 30
0.0
  0
XRECORD
  5
70C
102
{ACAD_REACTORS
330
6EF
102
}
330
6EF
100
AcDbXrecord
 10
0.0
 20
0.0
 30
0.0
  0
XRECORD
  5
709
102
{ACAD_REACTORS
330
6EF
102
}
330
6EF
100
AcDbXrecord
 10
0.0
 20
0.0
 30
0.0
  0
XRECORD
  5
706
102
{ACAD_REACTORS
330
6EF
102
}
330
6EF
100
AcDbXrecord
340
0
  0
XRECORD
  5
707
102
{ACAD_REACTORS
330
6EF
102
}
330
6EF
100
AcDbXrecord
 70
     0
  0
XRECORD
  5
6FB
102
{ACAD_REACTORS
330
6EF
102
}
330
6EF
100
AcDbXrecord
  1
{FAEB1C32-E019-11D5-929B-00C0DF256EC4}
  0
DICTIONARYVAR
  5
71D
102
{ACAD_REACTORS
330
710
102
}
330
710
100
DictionaryVariables
280
     0
  1
1:1
  0
DICTIONARYVAR
  5
717
102
{ACAD_REACTORS
330
710
102
}
330
710
100
DictionaryVariables
280
     0
  1
3.500000
  0
DICTIONARYVAR
  5
718
102
{ACAD_REACTORS
330
710
102
}
330
710
100
DictionaryVariables
280
     0
  1
acadiso.lin
  0
DICTIONARYVAR
  5
712
102
{ACAD_REACTORS
330
710
102
}
330
710
100
DictionaryVariables
280
     0
  1
Standard
  0
DICTIONARYVAR
  5
711
102
{ACAD_REACTORS
330
710
102
}
330
710
100
DictionaryVariables
280
     0
  1
Standard
  0
DICTIONARYVAR
  5
719
102
{ACAD_REACTORS
330
710
102
}
330
710
100
DictionaryVariables
280
     0
  1
2
  0
DICTIONARYVAR
  5
71A
102
{ACAD_REACTORS
330
710
102
}
330
710
100
DictionaryVariables
280
     0
  1
1
  0
DICTIONARYVAR
  5
71E
102
{ACAD_REACTORS
330
710
102
}
330
710
100
DictionaryVariables
280
     0
  1
1
  0
DICTIONARYVAR
  5
714
102
{ACAD_REACTORS
330
710
102
}
330
710
100
DictionaryVariables
280
     0
  1
80.000000
  0
DICTIONARYVAR
  5
713
102
{ACAD_REACTORS
330
710
102
}
330
710
100
DictionaryVariables
280
     0
  1
5.000000
  0
DICTIONARY
  5
721
330
45
100
AcDbDictionary
280
     1
  3
ACAD_XREC_ROUNDTRIP
360
722
  0
DICTIONARY
  5
71F
330
44
100
AcDbDictionary
280
     1
  3
ACAD_XREC_ROUNDTRIP
360
720
  0
DICTIONARY
  5
723
330
46
100
AcDbDictionary
280
     1
  3
ACAD_XREC_ROUNDTRIP
360
724
  0
XRECORD
  5
722
102
{ACAD_REACTORS
330
721
102
}
330
721
100
AcDbXrecord
102
MATERIAL
148
0.0
149
0.0
149
0.0
 93
        0
 94
      127
282
     0
 72
     1
 77
     1
171
     1
175
     1
179
     1
273
     0
  0
XRECORD
  5
720
102
{ACAD_REACTORS
330
71F
102
}
330
71F
100
AcDbXrecord
102
MATERIAL
148
0.0
149
0.0
149
0.0
 93
        0
 94
      127
282
     0
 72
     1
 77
     1
171
     1
175
     1
179
     1
273
     0
  0
XRECORD
  5
724
102
{ACAD_REACTORS
330
723
102
}
330
723
100
AcDbXrecord
102
MATERIAL
148
0.0
149
0.0
149
0.0
 93
        0
 94
      127
282
     0
 72
     1
 77
     1
171
     1
175
     1
179
     1
273
     0
  0
ENDSEC
  0
EOF
