  0
SECTION
  2
HEADER
  9
$ACADVER
  1
AC1014
  9
$ACADMAINTVER
 70
     9
  9
$DWGCODEPAGE
  3
ANSI_932
  9
$INSBASE
 10
0.0
 20
0.0
 30
0.0
  9
$EXTMIN
 10
50.0
 20
50.0
 30
0.0
  9
$EXTMAX
 10
2050.0
 20
1435.0
 30
0.0
  9
$LIMMIN
 10
0.0
 20
0.0
  9
$LIMMAX
 10
420.0
 20
297.0
  9
$ORTHOMODE
 70
     0
  9
$REGENMODE
 70
     1
  9
$FILLMODE
 70
     1
  9
$QTEXTMODE
 70
     0
  9
$MIRRTEXT
 70
     1
  9
$DRAGMODE
 70
     2
  9
$LTSCALE
 40
1.0
  9
$OSMODE
 70
    37
  9
$ATTMODE
 70
     1
  9
$TEXTSIZE
 40
2.5
  9
$TRACEWID
 40
1.0
  9
$TEXTSTYLE
  7
STANDARD
  9
$CLAYER
  8
Ｓ_１_１
  9
$CELTYPE
  6
BYLAYER
  9
$CECOLOR
 62
   256
  9
$CELTSCALE
 40
1.0
  9
$DELOBJ
 70
     1
  9
$DISPSILH
 70
     0
  9
$DIMSCALE
 40
1.0
  9
$DIMASZ
 40
2.5
  9
$DIMEXO
 40
0.625
  9
$DIMDLI
 40
3.75
  9
$DIMRND
 40
0.0
  9
$DIMDLE
 40
0.0
  9
$DIMEXE
 40
1.25
  9
$DIMTP
 40
0.0
  9
$DIMTM
 40
0.0
  9
$DIMTXT
 40
2.5
  9
$DIMCEN
 40
2.5
  9
$DIMTSZ
 40
0.0
  9
$DIMTOL
 70
     0
  9
$DIMLIM
 70
     0
  9
$DIMTIH
 70
     0
  9
$DIMTOH
 70
     0
  9
$DIMSE1
 70
     0
  9
$DIMSE2
 70
     0
  9
$DIMTAD
 70
     1
  9
$DIMZIN
 70
     8
  9
$DIMBLK
  1

  9
$DIMASO
 70
     1
  9
$DIMSHO
 70
     1
  9
$DIMPOST
  1

  9
$DIMAPOST
  1

  9
$DIMALT
 70
     0
  9
$DIMALTD
 70
     3
  9
$DIMALTF
 40
0.03937007874016
  9
$DIMLFAC
 40
1.0
  9
$DIMTOFL
 70
     1
  9
$DIMTVP
 40
0.0
  9
$DIMTIX
 70
     0
  9
$DIMSOXD
 70
     0
  9
$DIMSAH
 70
     0
  9
$DIMBLK1
  1

  9
$DIMBLK2
  1

  9
$DIMSTYLE
  2
ISO-25
  9
$DIMCLRD
 70
     0
  9
$DIMCLRE
 70
     0
  9
$DIMCLRT
 70
     0
  9
$DIMTFAC
 40
1.0
  9
$DIMGAP
 40
0.625
  9
$DIMJUST
 70
     0
  9
$DIMSD1
 70
     0
  9
$DIMSD2
 70
     0
  9
$DIMTOLJ
 70
     0
  9
$DIMTZIN
 70
     8
  9
$DIMALTZ
 70
     0
  9
$DIMALTTZ
 70
     0
  9
$DIMFIT
 70
     3
  9
$DIMUPT
 70
     0
  9
$DIMUNIT
 70
     2
  9
$DIMDEC
 70
     2
  9
$DIMTDEC
 70
     2
  9
$DIMALTU
 70
     2
  9
$DIMALTTD
 70
     3
  9
$DIMTXSTY
  7
STANDARD
  9
$DIMAUNIT
 70
     0
  9
$LUNITS
 70
     2
  9
$LUPREC
 70
     4
  9
$SKETCHINC
 40
1.0
  9
$FILLETRAD
 40
10.0
  9
$AUNITS
 70
     0
  9
$AUPREC
 70
     0
  9
$MENU
  1
.
  9
$ELEVATION
 40
0.0
  9
$PELEVATION
 40
0.0
  9
$THICKNESS
 40
0.0
  9
$LIMCHECK
 70
     0
  9
$CHAMFERA
 40
0.0
  9
$CHAMFERB
 40
0.0
  9
$CHAMFERC
 40
0.0
  9
$CHAMFERD
 40
0.0
  9
$SKPOLY
 70
     0
  9
$TDCREATE
 40
2459586.418881933
  9
$TDUPDATE
 40
2459586.418884213
  9
$TDINDWG
 40
0.0000000116
  9
$TDUSRTIMER
 40
0.0000000116
  9
$USRTIMER
 70
     1
  9
$ANGBASE
 50
0.0
  9
$ANGDIR
 70
     0
  9
$PDMODE
 70
     0
  9
$PDSIZE
 40
0.0
  9
$PLINEWID
 40
0.0
  9
$COORDS
 70
     1
  9
$SPLFRAME
 70
     0
  9
$SPLINETYPE
 70
     6
  9
$SPLINESEGS
 70
     8
  9
$ATTDIA
 70
     0
  9
$ATTREQ
 70
     1
  9
$HANDLING
 70
     1
  9
$HANDSEED
  5
71B
  9
$SURFTAB1
 70
     6
  9
$SURFTAB2
 70
     6
  9
$SURFTYPE
 70
     6
  9
$SURFU
 70
     6
  9
$SURFV
 70
     6
  9
$UCSNAME
  2

  9
$UCSORG
 10
0.0
 20
0.0
 30
0.0
  9
$UCSXDIR
 10
1.0
 20
0.0
 30
0.0
  9
$UCSYDIR
 10
0.0
 20
1.0
 30
0.0
  9
$PUCSNAME
  2

  9
$PUCSORG
 10
0.0
 20
0.0
 30
0.0
  9
$PUCSXDIR
 10
1.0
 20
0.0
 30
0.0
  9
$PUCSYDIR
 10
0.0
 20
1.0
 30
0.0
  9
$USERI1
 70
     0
  9
$USERI2
 70
     0
  9
$USERI3
 70
     0
  9
$USERI4
 70
     0
  9
$USERI5
 70
     0
  9
$USERR1
 40
0.0
  9
$USERR2
 40
0.0
  9
$USERR3
 40
0.0
  9
$USERR4
 40
0.0
  9
$USERR5
 40
0.0
  9
$WORLDVIEW
 70
     1
  9
$SHADEDGE
 70
     3
  9
$SHADEDIF
 70
    70
  9
$TILEMODE
 70
     1
  9
$MAXACTVP
 70
    64
  9
$PINSBASE
 10
0.0
 20
0.0
 30
0.0
  9
$PLIMCHECK
 70
     0
  9
$PEXTMIN
 10
1.000000000000000E+20
 20
1.000000000000000E+20
 30
1.000000000000000E+20
  9
$PEXTMAX
 10
-1.000000000000000E+20
 20
-1.000000000000000E+20
 30
-1.000000000000000E+20
  9
$PLIMMIN
 10
0.0
 20
0.0
  9
$PLIMMAX
 10
420.0
 20
297.0
  9
$UNITMODE
 70
     0
  9
$VISRETAIN
 70
     1
  9
$PLINEGEN
 70
     0
  9
$PSLTSCALE
 70
     1
  9
$TREEDEPTH
 70
  3020
  9
$PICKSTYLE
 70
     1
  9
$CMLSTYLE
  2
STANDARD
  9
$CMLJUST
 70
     0
  9
$CMLSCALE
 40
20.0
  9
$PROXYGRAPHICS
 70
     1
  9
$MEASUREMENT
 70
     1
  0
ENDSEC
  0
SECTION
  2
CLASSES
  0
CLASS
  1
ACDBDICTIONARYWDFLT
  2
AcDbDictionaryWithDefault
  3
ObjectDBX Classes
 90
        0
280
     0
281
     0
  0
CLASS
  1
VISUALSTYLE
  2
AcDbVisualStyle
  3
ObjectDBX Classes
 90
     4095
280
     0
281
     0
  0
CLASS
  1
MATERIAL
  2
AcDbMaterial
  3
ObjectDBX Classes
 90
     1153
280
     0
281
     0
  0
CLASS
  1
SCALE
  2
AcDbScale
  3
ObjectDBX Classes
 90
     1153
280
     0
281
     0
  0
CLASS
  1
TABLESTYLE
  2
AcDbTableStyle
  3
ObjectDBX Classes
 90
     4095
280
     0
281
     0
  0
CLASS
  1
MLEADERSTYLE
  2
AcDbMLeaderStyle
  3
ACDB_MLEADERSTYLE_CLASS
 90
     4095
280
     0
281
     0
  0
CLASS
  1
SUN
  2
AcDbSun
  3
SCENEOE
 90
     1153
280
     0
281
     0
  0
CLASS
  1
DICTIONARYVAR
  2
AcDbDictionaryVar
  3
ObjectDBX Classes
 90
        0
280
     0
281
     0
  0
CLASS
  1
XRECORD
  2
AcDbXrecord
  3
ObjectDBX Classes
 90
        0
280
     0
281
     0
  0
CLASS
  1
LWPOLYLINE
  2
AcDbPolyline
  3
ObjectDBX Classes
 90
        0
280
     0
281
     1
  0
CLASS
  1
HATCH
  2
AcDbHatch
  3
ObjectDBX Classes
 90
        0
280
     0
281
     1
  0
CLASS
  1
ACDBPLACEHOLDER
  2
AcDbPlaceHolder
  3
ObjectDBX Classes
 90
        0
280
     0
281
     0
  0
CLASS
  1
LAYOUT
  2
AcDbLayout
  3
ObjectDBX Classes
 90
        0
280
     0
281
     0
  0
ENDSEC
  0
SECTION
  2
TABLES
  0
TABLE
  2
VPORT
  5
8
102
{ACAD_XDICTIONARY
360
710
102
}
330
0
100
AcDbSymbolTable
 70
     1
  0
VPORT
  5
29
330
8
100
AcDbSymbolTableRecord
100
AcDbViewportTableRecord
  2
*ACTIVE
 70
     0
 10
0.0
 20
0.0
 11
1.0
 21
1.0
 12
1050.0
 22
742.5
 13
0.0
 23
0.0
 14
10.0
 24
10.0
 15
10.0
 25
10.0
 16
0.0
 26
0.0
 36
1.0
 17
0.0
 27
0.0
 37
0.0
 40
1385.0
 41
1.444043321299639
 42
50.0
 43
0.0
 44
0.0
 50
0.0
 51
0.0
 71
     0
 72
  1000
 73
     1
 74
     3
 75
     0
 76
     0
 77
     0
 78
     0
  0
ENDTAB
  0
TABLE
  2
LTYPE
  5
5
330
0
100
AcDbSymbolTable
 70
     7
  0
LTYPE
  5
14
330
5
100
AcDbSymbolTableRecord
100
AcDbLinetypeTableRecord
  2
BYBLOCK
 70
     0
  3

 72
    65
 73
     0
 40
0.0
  0
LTYPE
  5
15
330
5
100
AcDbSymbolTableRecord
100
AcDbLinetypeTableRecord
  2
BYLAYER
 70
     0
  3

 72
    65
 73
     0
 40
0.0
  0
LTYPE
  5
16
330
5
100
AcDbSymbolTableRecord
100
AcDbLinetypeTableRecord
  2
CONTINUOUS
 70
     0
  3
Solid line
 72
    65
 73
     0
 40
0.0
  0
LTYPE
  5
6E
330
5
100
AcDbSymbolTableRecord
100
AcDbLinetypeTableRecord
  2
EXLTYPE0
 70
     0
  3
破線
 72
    65
 73
     2
 40
4.0
 49
3.0
 74
     0
 49
-1.0
 74
     0
  0
LTYPE
  5
6F
330
5
100
AcDbSymbolTableRecord
100
AcDbLinetypeTableRecord
  2
EXLTYPE1
 70
     0
  3
点線
 72
    65
 73
     2
 40
2.0
 49
1.0
 74
     0
 49
-1.0
 74
     0
  0
LTYPE
  5
70
330
5
100
AcDbSymbolTableRecord
100
AcDbLinetypeTableRecord
  2
EXLTYPE2
 70
     0
  3
一点鎖線
 72
    65
 73
     4
 40
13.0
 49
10.0
 74
     0
 49
-1.0
 74
     0
 49
1.0
 74
     0
 49
-1.0
 74
     0
  0
LTYPE
  5
71
330
5
100
AcDbSymbolTableRecord
100
AcDbLinetypeTableRecord
  2
EXLTYPE3
 70
     0
  3
二点鎖線
 72
    65
 73
     6
 40
15.0
 49
10.0
 74
     0
 49
-1.0
 74
     0
 49
1.0
 74
     0
 49
-1.0
 74
     0
 49
1.0
 74
     0
 49
-1.0
 74
     0
  0
LTYPE
  5
72
330
5
100
AcDbSymbolTableRecord
100
AcDbLinetypeTableRecord
  2
EXLTYPE4
 70
     0
  3
一点鎖線2
 72
    65
 73
     4
 40
3.5
 49
2.0
 74
     0
 49
-0.5
 74
     0
 49
0.5
 74
     0
 49
-0.5
 74
     0
  0
LTYPE
  5
73
330
5
100
AcDbSymbolTableRecord
100
AcDbLinetypeTableRecord
  2
EXLTYPE5
 70
     0
  3
二点鎖線2
 72
    65
 73
     6
 40
4.5
 49
2.0
 74
     0
 49
-0.5
 74
     0
 49
0.5
 74
     0
 49
-0.5
 74
     0
 49
0.5
 74
     0
 49
-0.5
 74
     0
  0
ENDTAB
  0
TABLE
  2
LAYER
  5
2
330
0
100
AcDbSymbolTable
 70
     4
  0
LAYER
  5
10
330
2
100
AcDbSymbolTableRecord
100
AcDbLayerTableRecord
  2
0
 70
     0
 62
     7
  6
CONTINUOUS
  0
LAYER
  5
76
330
2
100
AcDbSymbolTableRecord
100
AcDbLayerTableRecord
  2
図面枠
 70
     4
 62
     7
  6
CONTINUOUS
  0
LAYER
  5
77
330
2
100
AcDbSymbolTableRecord
100
AcDbLayerTableRecord
  2
Ｓ_１_１
 70
     0
 62
     7
  6
CONTINUOUS
  0
LAYER
  5
10B
330
2
100
AcDbSymbolTableRecord
100
AcDbLayerTableRecord
  2
DEFPOINTS
 70
     0
 62
     7
  6
CONTINUOUS
  0
ENDTAB
  0
TABLE
  2
STYLE
  5
3
330
0
100
AcDbSymbolTable
 70
     5
  0
STYLE
  5
11
330
3
100
AcDbSymbolTableRecord
100
AcDbTextStyleTableRecord
  2
STANDARD
 70
     0
 40
0.0
 41
1.0
 50
0.0
 71
     0
 42
2.5
  3
monotxt
  4
extfont
  0
STYLE
  5
74
330
3
100
AcDbSymbolTableRecord
100
AcDbTextStyleTableRecord
  2
EXCADSTD
 70
     0
 40
0.0
 41
1.0
 50
0.0
 71
     0
 42
2.5
  3
monotxt
  4
extfont
  0
STYLE
  5
75
330
3
100
AcDbSymbolTableRecord
100
AcDbTextStyleTableRecord
  2
EXCADVERT
 70
     4
 40
0.0
 41
1.0
 50
0.0
 71
     0
 42
2.5
  3
monotxt
  4
extfont
  0
STYLE
  5
DC
330
3
100
AcDbSymbolTableRecord
100
AcDbTextStyleTableRecord
  2
EXCADTTF1
 70
     0
 40
0.0
 41
1.0
 50
0.0
 71
     0
 42
2.5
  3
msgothic.ttc
  4

1001
ACAD
1000
MS Gothic
1071
    32817
  0
STYLE
  5
109
330
3
100
AcDbSymbolTableRecord
100
AcDbTextStyleTableRecord
  2
EXCADDIM1
 70
     0
 40
0.0
 41
1.0
 50
0.0
 71
     0
 42
2.5
  3
msgothic.ttc
  4

1001
ACAD
1000
MS Gothic
1071
    32817
  0
ENDTAB
  0
TABLE
  2
VIEW
  5
6
330
0
100
AcDbSymbolTable
 70
     0
  0
ENDTAB
  0
TABLE
  2
UCS
  5
7
330
0
100
AcDbSymbolTable
 70
     0
  0
ENDTAB
  0
TABLE
  2
APPID
  5
9
330
0
100
AcDbSymbolTable
 70
     2
  0
APPID
  5
12
330
9
100
AcDbSymbolTableRecord
100
AcDbRegAppTableRecord
  2
ACAD
 70
     0
  0
APPID
  5
71A
330
9
100
AcDbSymbolTableRecord
100
AcDbRegAppTableRecord
  2
ACAD_MLEADERVER
 70
     0
  0
ENDTAB
  0
TABLE
  2
DIMSTYLE
  5
A
330
0
100
AcDbSymbolTable
 70
     1
  0
DIMSTYLE
105
27
102
{ACAD_REACTORS
330
10A
330
118
330
125
330
132
102
}
330
A
100
AcDbSymbolTableRecord
100
AcDbDimStyleTableRecord
  2
ISO-25
 70
     0
  3

  4

  5

  6

  7

 40
1.0
 41
2.5
 42
0.625
 43
3.75
 44
1.25
 45
0.0
 46
0.0
 47
0.0
 48
0.0
140
2.5
141
2.5
142
0.0
143
0.03937007874016
144
1.0
145
0.0
146
1.0
147
0.625
 71
     0
 72
     0
 73
     0
 74
     0
 75
     0
 76
     0
 77
     1
 78
     8
170
     0
171
     3
172
     1
173
     0
174
     0
175
     0
176
     0
177
     0
178
     0
270
     2
271
     2
272
     2
273
     2
274
     3
340
11
275
     0
280
     0
281
     0
282
     0
283
     0
284
     8
285
     0
286
     0
287
     5
288
     0
  0
ENDTAB
  0
TABLE
  2
BLOCK_RECORD
  5
1
330
0
100
AcDbSymbolTable
 70
    18
  0
BLOCK_RECORD
  5
1F
330
1
100
AcDbSymbolTableRecord
100
AcDbBlockTableRecord
  2
*MODEL_SPACE
  0
BLOCK_RECORD
  5
1B
330
1
100
AcDbSymbolTableRecord
100
AcDbBlockTableRecord
  2
*PAPER_SPACE
  0
BLOCK_RECORD
  5
78
330
1
100
AcDbSymbolTableRecord
100
AcDbBlockTableRecord
  2
EX_NORM
  0
BLOCK_RECORD
  5
7B
330
1
100
AcDbSymbolTableRecord
100
AcDbBlockTableRecord
  2
EX_BNORM
  0
BLOCK_RECORD
  5
7E
330
1
100
AcDbSymbolTableRecord
100
AcDbBlockTableRecord
  2
EX_BCIR
  0
BLOCK_RECORD
  5
81
330
1
100
AcDbSymbolTableRecord
100
AcDbBlockTableRecord
  2
EX_RCIVIL
  0
BLOCK_RECORD
  5
84
330
1
100
AcDbSymbolTableRecord
100
AcDbBlockTableRecord
  2
EX_SLANT
  0
BLOCK_RECORD
  5
87
330
1
100
AcDbSymbolTableRecord
100
AcDbBlockTableRecord
  2
EX_NONE
  0
BLOCK_RECORD
  5
8A
330
1
100
AcDbSymbolTableRecord
100
AcDbBlockTableRecord
  2
EX_CIVIL
  0
BLOCK_RECORD
  5
8D
330
1
100
AcDbSymbolTableRecord
100
AcDbBlockTableRecord
  2
EX_WCIR
  0
BLOCK_RECORD
  5
90
330
1
100
AcDbSymbolTableRecord
100
AcDbBlockTableRecord
  2
EX_WCIR2
  0
BLOCK_RECORD
  5
93
330
1
100
AcDbSymbolTableRecord
100
AcDbBlockTableRecord
  2
EX_WNORM
  0
BLOCK_RECORD
  5
96
330
1
100
AcDbSymbolTableRecord
100
AcDbBlockTableRecord
  2
EX_NNORM
  0
BLOCK_RECORD
  5
99
330
1
100
AcDbSymbolTableRecord
100
AcDbBlockTableRecord
  2
EX_BBOX
  0
BLOCK_RECORD
  5
9C
330
1
100
AcDbSymbolTableRecord
100
AcDbBlockTableRecord
  2
EX_WBOX
  0
BLOCK_RECORD
  5
9F
330
1
100
AcDbSymbolTableRecord
100
AcDbBlockTableRecord
  2
EX_INTEGRAL
  0
BLOCK_RECORD
  5
10C
330
1
100
AcDbSymbolTableRecord
100
AcDbBlockTableRecord
  2
*D15
  0
BLOCK_RECORD
  5
119
330
1
100
AcDbSymbolTableRecord
100
AcDbBlockTableRecord
  2
*D16
  0
BLOCK_RECORD
  5
126
330
1
100
AcDbSymbolTableRecord
100
AcDbBlockTableRecord
  2
*D17
  0
BLOCK_RECORD
  5
133
330
1
100
AcDbSymbolTableRecord
100
AcDbBlockTableRecord
  2
*D18
  0
ENDTAB
  0
ENDSEC
  0
SECTION
  2
BLOCKS
  0
BLOCK
  5
20
330
1F
100
AcDbEntity
  8
0
100
AcDbBlockBegin
  2
*MODEL_SPACE
 70
     0
 10
0.0
 20
0.0
 30
0.0
  3
*MODEL_SPACE
  1

  0
ENDBLK
  5
21
330
1F
100
AcDbEntity
  8
0
100
AcDbBlockEnd
  0
BLOCK
  5
1C
330
1B
100
AcDbEntity
 67
     1
  8
0
100
AcDbBlockBegin
  2
*PAPER_SPACE
 70
     0
 10
0.0
 20
0.0
 30
0.0
  3
*PAPER_SPACE
  1

  0
ENDBLK
  5
1D
330
1B
100
AcDbEntity
 67
     1
  8
0
100
AcDbBlockEnd
  0
BLOCK
  5
79
330
78
100
AcDbEntity
  8
0
100
AcDbBlockBegin
  2
EX_NORM
 70
     0
 10
0.0
 20
0.0
 30
0.0
  3
EX_NORM
  1

  0
LINE
  5
A2
330
78
100
AcDbEntity
  8
0
  6
CONTINUOUS
 62
     0
100
AcDbLine
 10
0.0
 20
0.0
 30
0.0
 11
-1.0
 21
0.0
 31
0.0
  0
LINE
  5
A3
330
78
100
AcDbEntity
  8
0
  6
CONTINUOUS
 62
     0
100
AcDbLine
 10
0.0
 20
0.0
 30
0.0
 11
-1.0
 21
0.166666667
 31
0.0
  0
LINE
  5
A4
330
78
100
AcDbEntity
  8
0
  6
CONTINUOUS
 62
     0
100
AcDbLine
 10
0.0
 20
0.0
 30
0.0
 11
-1.0
 21
-0.166666667
 31
0.0
  0
ENDBLK
  5
7A
330
78
100
AcDbEntity
  8
0
100
AcDbBlockEnd
  0
BLOCK
  5
7C
330
7B
100
AcDbEntity
  8
0
100
AcDbBlockBegin
  2
EX_BNORM
 70
     0
 10
0.0
 20
0.0
 30
0.0
  3
EX_BNORM
  1

  0
LINE
  5
A5
330
7B
100
AcDbEntity
  8
0
  6
CONTINUOUS
 62
     0
100
AcDbLine
 10
0.0
 20
0.0
 30
0.0
 11
-1.0
 21
0.0
 31
0.0
  0
LINE
  5
A6
330
7B
100
AcDbEntity
  8
0
  6
CONTINUOUS
 62
     0
100
AcDbLine
 10
0.0
 20
0.0
 30
0.0
 11
-1.0
 21
0.166666667
 31
0.0
  0
LINE
  5
A7
330
7B
100
AcDbEntity
  8
0
  6
CONTINUOUS
 62
     0
100
AcDbLine
 10
0.0
 20
0.0
 30
0.0
 11
-1.0
 21
-0.166666667
 31
0.0
  0
LINE
  5
A8
330
7B
100
AcDbEntity
  8
0
  6
CONTINUOUS
 62
     0
100
AcDbLine
 10
0.0
 20
0.0
 30
0.0
 11
-1.0
 21
0.083333333
 31
0.0
  0
LINE
  5
A9
330
7B
100
AcDbEntity
  8
0
  6
CONTINUOUS
 62
     0
100
AcDbLine
 10
0.0
 20
0.0
 30
0.0
 11
-1.0
 21
-0.083333333
 31
0.0
  0
LINE
  5
AA
330
7B
100
AcDbEntity
  8
0
  6
CONTINUOUS
 62
     0
100
AcDbLine
 10
-1.0
 20
0.166666667
 30
0.0
 11
-1.0
 21
-0.166666667
 31
0.0
  0
ENDBLK
  5
7D
330
7B
100
AcDbEntity
  8
0
100
AcDbBlockEnd
  0
BLOCK
  5
7F
330
7E
100
AcDbEntity
  8
0
100
AcDbBlockBegin
  2
EX_BCIR
 70
     0
 10
0.0
 20
0.0
 30
0.0
  3
EX_BCIR
  1

  0
LINE
  5
AB
330
7E
100
AcDbEntity
  8
0
  6
CONTINUOUS
 62
     0
100
AcDbLine
 10
0.0
 20
0.0
 30
0.0
 11
-1.0
 21
0.0
 31
0.0
  0
CIRCLE
  5
AC
330
7E
100
AcDbEntity
  8
0
  6
CONTINUOUS
 62
     0
100
AcDbCircle
 10
0.0
 20
0.0
 30
0.0
 40
0.5
  0
CIRCLE
  5
AD
330
7E
100
AcDbEntity
  8
0
  6
CONTINUOUS
 62
     0
100
AcDbCircle
 10
0.0
 20
0.0
 30
0.0
 40
0.25
  0
ENDBLK
  5
80
330
7E
100
AcDbEntity
  8
0
100
AcDbBlockEnd
  0
BLOCK
  5
82
330
81
100
AcDbEntity
  8
0
100
AcDbBlockBegin
  2
EX_RCIVIL
 70
     0
 10
0.0
 20
0.0
 30
0.0
  3
EX_RCIVIL
  1

  0
LINE
  5
AE
330
81
100
AcDbEntity
  8
0
  6
CONTINUOUS
 62
     0
100
AcDbLine
 10
0.0
 20
0.0
 30
0.0
 11
-1.0
 21
0.0
 31
0.0
  0
LINE
  5
AF
330
81
100
AcDbEntity
  8
0
  6
CONTINUOUS
 62
     0
100
AcDbLine
 10
-1.0
 20
-0.25
 30
0.0
 11
0.0
 21
-0.25
 31
0.0
  0
LINE
  5
B0
330
81
100
AcDbEntity
  8
0
  6
CONTINUOUS
 62
     0
100
AcDbLine
 10
-1.0
 20
-0.125
 30
0.0
 11
0.0
 21
-0.125
 31
0.0
  0
ENDBLK
  5
83
330
81
100
AcDbEntity
  8
0
100
AcDbBlockEnd
  0
BLOCK
  5
85
330
84
100
AcDbEntity
  8
0
100
AcDbBlockBegin
  2
EX_SLANT
 70
     0
 10
0.0
 20
0.0
 30
0.0
  3
EX_SLANT
  1

  0
LINE
  5
B1
330
84
100
AcDbEntity
  8
0
  6
CONTINUOUS
 62
     0
100
AcDbLine
 10
0.0
 20
0.0
 30
0.0
 11
-1.0
 21
0.0
 31
0.0
  0
LINE
  5
B2
330
84
100
AcDbEntity
  8
0
  6
CONTINUOUS
 62
     0
100
AcDbLine
 10
0.707106781
 20
0.707106781
 30
0.0
 11
-0.707106781
 21
-0.707106781
 31
0.0
  0
ENDBLK
  5
86
330
84
100
AcDbEntity
  8
0
100
AcDbBlockEnd
  0
BLOCK
  5
88
330
87
100
AcDbEntity
  8
0
100
AcDbBlockBegin
  2
EX_NONE
 70
     0
 10
0.0
 20
0.0
 30
0.0
  3
EX_NONE
  1

  0
LINE
  5
B3
330
87
100
AcDbEntity
  8
0
  6
CONTINUOUS
 62
     0
100
AcDbLine
 10
0.0
 20
0.0
 30
0.0
 11
-1.0
 21
0.0
 31
0.0
  0
ENDBLK
  5
89
330
87
100
AcDbEntity
  8
0
100
AcDbBlockEnd
  0
BLOCK
  5
8B
330
8A
100
AcDbEntity
  8
0
100
AcDbBlockBegin
  2
EX_CIVIL
 70
     0
 10
0.0
 20
0.0
 30
0.0
  3
EX_CIVIL
  1

  0
LINE
  5
B4
330
8A
100
AcDbEntity
  8
0
  6
CONTINUOUS
 62
     0
100
AcDbLine
 10
0.0
 20
0.0
 30
0.0
 11
-1.0
 21
0.0
 31
0.0
  0
LINE
  5
B5
330
8A
100
AcDbEntity
  8
0
  6
CONTINUOUS
 62
     0
100
AcDbLine
 10
-1.0
 20
0.25
 30
0.0
 11
0.0
 21
0.25
 31
0.0
  0
LINE
  5
B6
330
8A
100
AcDbEntity
  8
0
  6
CONTINUOUS
 62
     0
100
AcDbLine
 10
-1.0
 20
0.125
 30
0.0
 11
0.0
 21
0.125
 31
0.0
  0
ENDBLK
  5
8C
330
8A
100
AcDbEntity
  8
0
100
AcDbBlockEnd
  0
BLOCK
  5
8E
330
8D
100
AcDbEntity
  8
0
100
AcDbBlockBegin
  2
EX_WCIR
 70
     0
 10
0.0
 20
0.0
 30
0.0
  3
EX_WCIR
  1

  0
LINE
  5
B7
330
8D
100
AcDbEntity
  8
0
  6
CONTINUOUS
 62
     0
100
AcDbLine
 10
0.0
 20
0.0
 30
0.0
 11
-1.0
 21
0.0
 31
0.0
  0
CIRCLE
  5
B8
330
8D
100
AcDbEntity
  8
0
  6
CONTINUOUS
 62
     0
100
AcDbCircle
 10
0.0
 20
0.0
 30
0.0
 40
0.5
  0
ENDBLK
  5
8F
330
8D
100
AcDbEntity
  8
0
100
AcDbBlockEnd
  0
BLOCK
  5
91
330
90
100
AcDbEntity
  8
0
100
AcDbBlockBegin
  2
EX_WCIR2
 70
     0
 10
0.0
 20
0.0
 30
0.0
  3
EX_WCIR2
  1

  0
LINE
  5
B9
330
90
100
AcDbEntity
  8
0
  6
CONTINUOUS
 62
     0
100
AcDbLine
 10
-0.5
 20
0.0
 30
0.0
 11
-1.0
 21
0.0
 31
0.0
  0
CIRCLE
  5
BA
330
90
100
AcDbEntity
  8
0
  6
CONTINUOUS
 62
     0
100
AcDbCircle
 10
0.0
 20
0.0
 30
0.0
 40
0.5
  0
ENDBLK
  5
92
330
90
100
AcDbEntity
  8
0
100
AcDbBlockEnd
  0
BLOCK
  5
94
330
93
100
AcDbEntity
  8
0
100
AcDbBlockBegin
  2
EX_WNORM
 70
     0
 10
0.0
 20
0.0
 30
0.0
  3
EX_WNORM
  1

  0
LINE
  5
BB
330
93
100
AcDbEntity
  8
0
  6
CONTINUOUS
 62
     0
100
AcDbLine
 10
-1.0
 20
0.0
 30
0.0
 11
-1.0
 21
0.0
 31
0.0
  0
LINE
  5
BC
330
93
100
AcDbEntity
  8
0
  6
CONTINUOUS
 62
     0
100
AcDbLine
 10
0.0
 20
0.0
 30
0.0
 11
-1.0
 21
0.166666667
 31
0.0
  0
LINE
  5
BD
330
93
100
AcDbEntity
  8
0
  6
CONTINUOUS
 62
     0
100
AcDbLine
 10
0.0
 20
0.0
 30
0.0
 11
-1.0
 21
-0.166666667
 31
0.0
  0
LINE
  5
BE
330
93
100
AcDbEntity
  8
0
  6
CONTINUOUS
 62
     0
100
AcDbLine
 10
-1.0
 20
0.166666667
 30
0.0
 11
-1.0
 21
-0.166666667
 31
0.0
  0
ENDBLK
  5
95
330
93
100
AcDbEntity
  8
0
100
AcDbBlockEnd
  0
BLOCK
  5
97
330
96
100
AcDbEntity
  8
0
100
AcDbBlockBegin
  2
EX_NNORM
 70
     0
 10
0.0
 20
0.0
 30
0.0
  3
EX_NNORM
  1

  0
LINE
  5
BF
330
96
100
AcDbEntity
  8
0
  6
CONTINUOUS
 62
     0
100
AcDbLine
 10
0.0
 20
0.0
 30
0.0
 11
-1.0
 21
0.0
 31
0.0
  0
LINE
  5
C0
330
96
100
AcDbEntity
  8
0
  6
CONTINUOUS
 62
     0
100
AcDbLine
 10
0.0
 20
0.0
 30
0.0
 11
-1.0
 21
0.166666667
 31
0.0
  0
LINE
  5
C1
330
96
100
AcDbEntity
  8
0
  6
CONTINUOUS
 62
     0
100
AcDbLine
 10
0.0
 20
0.0
 30
0.0
 11
-1.0
 21
-0.166666667
 31
0.0
  0
LINE
  5
C2
330
96
100
AcDbEntity
  8
0
  6
CONTINUOUS
 62
     0
100
AcDbLine
 10
-1.0
 20
0.166666667
 30
0.0
 11
-1.0
 21
-0.166666667
 31
0.0
  0
ENDBLK
  5
98
330
96
100
AcDbEntity
  8
0
100
AcDbBlockEnd
  0
BLOCK
  5
9A
330
99
100
AcDbEntity
  8
0
100
AcDbBlockBegin
  2
EX_BBOX
 70
     0
 10
0.0
 20
0.0
 30
0.0
  3
EX_BBOX
  1

  0
LINE
  5
C3
330
99
100
AcDbEntity
  8
0
  6
CONTINUOUS
 62
     0
100
AcDbLine
 10
0.0
 20
0.0
 30
0.0
 11
-1.0
 21
0.0
 31
0.0
  0
LINE
  5
C4
330
99
100
AcDbEntity
  8
0
  6
CONTINUOUS
 62
     0
100
AcDbLine
 10
-0.5
 20
0.5
 30
0.0
 11
0.5
 21
0.5
 31
0.0
  0
LINE
  5
C5
330
99
100
AcDbEntity
  8
0
  6
CONTINUOUS
 62
     0
100
AcDbLine
 10
0.5
 20
0.5
 30
0.0
 11
0.5
 21
-0.5
 31
0.0
  0
LINE
  5
C6
330
99
100
AcDbEntity
  8
0
  6
CONTINUOUS
 62
     0
100
AcDbLine
 10
0.5
 20
-0.5
 30
0.0
 11
-0.5
 21
-0.5
 31
0.0
  0
LINE
  5
C7
330
99
100
AcDbEntity
  8
0
  6
CONTINUOUS
 62
     0
100
AcDbLine
 10
-0.5
 20
-0.5
 30
0.0
 11
-0.5
 21
0.5
 31
0.0
  0
LINE
  5
C8
330
99
100
AcDbEntity
  8
0
  6
CONTINUOUS
 62
     0
100
AcDbLine
 10
-0.25
 20
0.25
 30
0.0
 11
0.25
 21
0.25
 31
0.0
  0
LINE
  5
C9
330
99
100
AcDbEntity
  8
0
  6
CONTINUOUS
 62
     0
100
AcDbLine
 10
0.25
 20
0.25
 30
0.0
 11
0.25
 21
-0.25
 31
0.0
  0
LINE
  5
CA
330
99
100
AcDbEntity
  8
0
  6
CONTINUOUS
 62
     0
100
AcDbLine
 10
0.25
 20
-0.25
 30
0.0
 11
-0.25
 21
-0.25
 31
0.0
  0
LINE
  5
CB
330
99
100
AcDbEntity
  8
0
  6
CONTINUOUS
 62
     0
100
AcDbLine
 10
-0.25
 20
-0.25
 30
0.0
 11
-0.25
 21
0.25
 31
0.0
  0
ENDBLK
  5
9B
330
99
100
AcDbEntity
  8
0
100
AcDbBlockEnd
  0
BLOCK
  5
9D
330
9C
100
AcDbEntity
  8
0
100
AcDbBlockBegin
  2
EX_WBOX
 70
     0
 10
0.0
 20
0.0
 30
0.0
  3
EX_WBOX
  1

  0
LINE
  5
CC
330
9C
100
AcDbEntity
  8
0
  6
CONTINUOUS
 62
     0
100
AcDbLine
 10
-0.5
 20
0.0
 30
0.0
 11
-1.0
 21
0.0
 31
0.0
  0
LINE
  5
CD
330
9C
100
AcDbEntity
  8
0
  6
CONTINUOUS
 62
     0
100
AcDbLine
 10
-0.5
 20
0.5
 30
0.0
 11
0.5
 21
0.5
 31
0.0
  0
LINE
  5
CE
330
9C
100
AcDbEntity
  8
0
  6
CONTINUOUS
 62
     0
100
AcDbLine
 10
0.5
 20
0.5
 30
0.0
 11
0.5
 21
-0.5
 31
0.0
  0
LINE
  5
CF
330
9C
100
AcDbEntity
  8
0
  6
CONTINUOUS
 62
     0
100
AcDbLine
 10
0.5
 20
-0.5
 30
0.0
 11
-0.5
 21
-0.5
 31
0.0
  0
LINE
  5
D0
330
9C
100
AcDbEntity
  8
0
  6
CONTINUOUS
 62
     0
100
AcDbLine
 10
-0.5
 20
-0.5
 30
0.0
 11
-0.5
 21
0.5
 31
0.0
  0
ENDBLK
  5
9E
330
9C
100
AcDbEntity
  8
0
100
AcDbBlockEnd
  0
BLOCK
  5
A0
330
9F
100
AcDbEntity
  8
0
100
AcDbBlockBegin
  2
EX_INTEGRAL
 70
     0
 10
0.0
 20
0.0
 30
0.0
  3
EX_INTEGRAL
  1

  0
LINE
  5
D1
330
9F
100
AcDbEntity
  8
0
  6
CONTINUOUS
 62
     0
100
AcDbLine
 10
0.0
 20
0.0
 30
0.0
 11
-1.0
 21
0.0
 31
0.0
  0
ARC
  5
D2
330
9F
100
AcDbEntity
  8
0
  6
CONTINUOUS
 62
     0
100
AcDbCircle
 10
0.542115
 20
0.164992
 30
0.0
 40
0.56667
100
AcDbArc
 50
73.07249033629006
 51
196.9275130221199
  0
ARC
  5
D3
330
9F
100
AcDbEntity
  8
0
  6
CONTINUOUS
 62
     0
100
AcDbCircle
 10
-0.542115
 20
-0.164992
 30
0.0
 40
0.56667
100
AcDbArc
 50
253.0724869220464
 51
16.9275130559125
  0
ENDBLK
  5
A1
330
9F
100
AcDbEntity
  8
0
100
AcDbBlockEnd
  0
BLOCK
  5
10D
330
10C
100
AcDbEntity
  8
0
100
AcDbBlockBegin
  2
*D15
 70
     1
 10
0.0
 20
0.0
 30
0.0
  3
*D15
  1

  0
LINE
  5
10F
330
10C
100
AcDbEntity
  8
Ｓ_１_１
  6
CONTINUOUS
 62
     2
100
AcDbLine
 10
474.999998
 20
292.5000000000001
 30
0.0
 11
474.999998
 21
205.0
 31
0.0
  0
LINE
  5
110
330
10C
100
AcDbEntity
  8
Ｓ_１_１
  6
CONTINUOUS
 62
     2
100
AcDbLine
 10
185.0000020000002
 20
292.5000000000001
 30
0.0
 11
185.0000020000002
 21
205.0
 31
0.0
  0
LINE
  5
111
330
10C
100
AcDbEntity
  8
Ｓ_１_１
  6
CONTINUOUS
 62
     2
100
AcDbLine
 10
459.999998
 20
210.0
 30
0.0
 11
200.0000020000002
 21
210.0
 31
0.0
  0
INSERT
  5
112
330
10C
100
AcDbEntity
  8
Ｓ_１_１
 62
     2
100
AcDbBlockReference
  2
EX_NORM
 10
474.999998
 20
210.0
 30
0.0
 41
15.0
 42
15.0
 43
15.0
  0
INSERT
  5
113
330
10C
100
AcDbEntity
  8
Ｓ_１_１
 62
     2
100
AcDbBlockReference
  2
EX_NORM
 10
185.0000020000002
 20
210.0
 30
0.0
 41
15.0
 42
15.0
 43
15.0
 50
180.0
  0
MTEXT
  5
114
330
10C
100
AcDbEntity
  8
Ｓ_１_１
 62
     2
100
AcDbMText
 10
330.0000000000001
 20
223.75
 30
0.0
 40
17.3145207852194
 41
0.0
 71
     5
 72
     1
  1
290
  7
EXCADDIM1
  0
POINT
  5
115
330
10C
100
AcDbEntity
  8
DEFPOINTS
 62
     0
100
AcDbPoint
 10
474.999998
 20
300.0000000000001
 30
0.0
  0
POINT
  5
116
330
10C
100
AcDbEntity
  8
DEFPOINTS
 62
     0
100
AcDbPoint
 10
185.0000020000002
 20
300.0000000000001
 30
0.0
  0
POINT
  5
117
330
10C
100
AcDbEntity
  8
DEFPOINTS
 62
     0
100
AcDbPoint
 10
185.0000020000002
 20
210.0
 30
0.0
  0
ENDBLK
  5
10E
330
10C
100
AcDbEntity
  8
0
100
AcDbBlockEnd
  0
BLOCK
  5
11A
330
119
100
AcDbEntity
  8
0
100
AcDbBlockBegin
  2
*D16
 70
     1
 10
0.0
 20
0.0
 30
0.0
  3
*D16
  1

  0
LINE
  5
11C
330
119
100
AcDbEntity
  8
Ｓ_１_１
  6
CONTINUOUS
 62
     2
100
AcDbLine
 10
814.9897770000002
 20
292.5
 30
0.0
 11
814.9897770000002
 21
205.0
 31
0.0
  0
LINE
  5
11D
330
119
100
AcDbEntity
  8
Ｓ_１_１
  6
CONTINUOUS
 62
     2
100
AcDbLine
 10
1776.8828668733
 20
292.5
 30
0.0
 11
1776.8828668733
 21
205.0
 31
0.0
  0
LINE
  5
11E
330
119
100
AcDbEntity
  8
Ｓ_１_１
  6
CONTINUOUS
 62
     2
100
AcDbLine
 10
829.9897770000002
 20
210.0
 30
0.0
 11
1761.8828668733
 21
210.0
 31
0.0
  0
INSERT
  5
11F
330
119
100
AcDbEntity
  8
Ｓ_１_１
 62
     2
100
AcDbBlockReference
  2
EX_NORM
 10
814.9897770000002
 20
210.0
 30
0.0
 41
15.0
 42
15.0
 43
15.0
 50
180.0
  0
INSERT
  5
120
330
119
100
AcDbEntity
  8
Ｓ_１_１
 62
     2
100
AcDbBlockReference
  2
EX_NORM
 10
1776.8828668733
 20
210.0
 30
0.0
 41
15.0
 42
15.0
 43
15.0
  0
MTEXT
  5
121
330
119
100
AcDbEntity
  8
Ｓ_１_１
 62
     2
100
AcDbMText
 10
1295.93632193665
 20
223.75
 30
0.0
 40
17.3145207852194
 41
0.0
 71
     5
 72
     1
  1
962
  7
EXCADDIM1
  0
POINT
  5
122
330
119
100
AcDbEntity
  8
DEFPOINTS
 62
     0
100
AcDbPoint
 10
814.9897770000002
 20
300.0
 30
0.0
  0
POINT
  5
123
330
119
100
AcDbEntity
  8
DEFPOINTS
 62
     0
100
AcDbPoint
 10
1776.8828668733
 20
300.0
 30
0.0
  0
POINT
  5
124
330
119
100
AcDbEntity
  8
DEFPOINTS
 62
     0
100
AcDbPoint
 10
1776.8828668733
 20
210.0
 30
0.0
  0
ENDBLK
  5
11B
330
119
100
AcDbEntity
  8
0
100
AcDbBlockEnd
  0
BLOCK
  5
127
330
126
100
AcDbEntity
  8
0
100
AcDbBlockBegin
  2
*D17
 70
     1
 10
0.0
 20
0.0
 30
0.0
  3
*D17
  1

  0
LINE
  5
129
330
126
100
AcDbEntity
  8
Ｓ_１_１
  6
CONTINUOUS
 62
     2
100
AcDbLine
 10
773.1152181416201
 20
547.40407004776
 30
0.0
 11
773.1152181416201
 21
665.0
 31
0.0
  0
LINE
  5
12A
330
126
100
AcDbEntity
  8
Ｓ_１_１
  6
CONTINUOUS
 62
     2
100
AcDbLine
 10
1923.2883608904
 20
557.78555633259
 30
0.0
 11
1923.2883608904
 21
665.0
 31
0.0
  0
LINE
  5
12B
330
126
100
AcDbEntity
  8
Ｓ_１_１
  6
CONTINUOUS
 62
     2
100
AcDbLine
 10
788.1152181416201
 20
660.0
 30
0.0
 11
1908.2883608904
 21
660.0
 31
0.0
  0
INSERT
  5
12C
330
126
100
AcDbEntity
  8
Ｓ_１_１
 62
     2
100
AcDbBlockReference
  2
EX_NORM
 10
773.1152181416201
 20
660.0
 30
0.0
 41
15.0
 42
15.0
 43
15.0
 50
180.0
  0
INSERT
  5
12D
330
126
100
AcDbEntity
  8
Ｓ_１_１
 62
     2
100
AcDbBlockReference
  2
EX_NORM
 10
1923.2883608904
 20
660.0
 30
0.0
 41
15.0
 42
15.0
 43
15.0
  0
MTEXT
  5
12E
330
126
100
AcDbEntity
  8
Ｓ_１_１
 62
     2
100
AcDbMText
 10
1348.20178951601
 20
673.75
 30
0.0
 40
17.3145207852194
 41
0.0
 71
     5
 72
     1
  1
1150
  7
EXCADDIM1
  0
POINT
  5
12F
330
126
100
AcDbEntity
  8
DEFPOINTS
 62
     0
100
AcDbPoint
 10
773.1152181416201
 20
539.90407004776
 30
0.0
  0
POINT
  5
130
330
126
100
AcDbEntity
  8
DEFPOINTS
 62
     0
100
AcDbPoint
 10
1923.2883608904
 20
550.28555633259
 30
0.0
  0
POINT
  5
131
330
126
100
AcDbEntity
  8
DEFPOINTS
 62
     0
100
AcDbPoint
 10
1923.2883608904
 20
660.0
 30
0.0
  0
ENDBLK
  5
128
330
126
100
AcDbEntity
  8
0
100
AcDbBlockEnd
  0
BLOCK
  5
134
330
133
100
AcDbEntity
  8
0
100
AcDbBlockBegin
  2
*D18
 70
     1
 10
0.0
 20
0.0
 30
0.0
  3
*D18
  1

  0
LINE
  5
136
330
133
100
AcDbEntity
  8
Ｓ_１_１
  6
CONTINUOUS
 62
     2
100
AcDbLine
 10
482.499998
 20
300.0
 30
0.0
 11
545.0
 21
300.0000000000001
 31
0.0
  0
LINE
  5
137
330
133
100
AcDbEntity
  8
Ｓ_１_１
  6
CONTINUOUS
 62
     2
100
AcDbLine
 10
363.499984
 20
542.999994
 30
0.0
 11
545.0
 21
542.999994
 31
0.0
  0
LINE
  5
138
330
133
100
AcDbEntity
  8
Ｓ_１_１
  6
CONTINUOUS
 62
     2
100
AcDbLine
 10
540.0
 20
315.0000000000001
 30
0.0
 11
540.0
 21
527.999994
 31
0.0
  0
INSERT
  5
139
330
133
100
AcDbEntity
  8
Ｓ_１_１
 62
     2
100
AcDbBlockReference
  2
EX_NORM
 10
540.0
 20
300.0000000000001
 30
0.0
 41
15.0
 42
15.0
 43
15.0
 50
270.0
  0
INSERT
  5
13A
330
133
100
AcDbEntity
  8
Ｓ_１_１
 62
     2
100
AcDbBlockReference
  2
EX_NORM
 10
540.0
 20
542.999994
 30
0.0
 41
15.0
 42
15.0
 43
15.0
 50
90.0
  0
MTEXT
  5
13B
330
133
100
AcDbEntity
  8
Ｓ_１_１
 62
     2
100
AcDbMText
 10
526.25
 20
421.499997
 30
0.0
 40
17.3145207852194
 41
0.0
 71
     5
 72
     1
  1
243
  7
EXCADDIM1
 11
0.0
 21
1.0
 31
0.0
  0
POINT
  5
13C
330
133
100
AcDbEntity
  8
DEFPOINTS
 62
     0
100
AcDbPoint
 10
474.999998
 20
300.0
 30
0.0
  0
POINT
  5
13D
330
133
100
AcDbEntity
  8
DEFPOINTS
 62
     0
100
AcDbPoint
 10
355.999984
 20
542.999994
 30
0.0
  0
POINT
  5
13E
330
133
100
AcDbEntity
  8
DEFPOINTS
 62
     0
100
AcDbPoint
 10
540.0
 20
542.999994
 30
0.0
  0
ENDBLK
  5
135
330
133
100
AcDbEntity
  8
0
100
AcDbBlockEnd
  0
ENDSEC
  0
SECTION
  2
ENTITIES
  0
LINE
  5
D4
330
1F
100
AcDbEntity
  8
図面枠
  6
CONTINUOUS
 62
     5
100
AcDbLine
 10
50.0
 20
50.0
 30
0.0
 11
2050.0
 21
50.0
 31
0.0
  0
LINE
  5
D5
330
1F
100
AcDbEntity
  8
図面枠
  6
CONTINUOUS
 62
     5
100
AcDbLine
 10
2050.0
 20
50.0
 30
0.0
 11
2050.0
 21
1435.0
 31
0.0
  0
LINE
  5
D6
330
1F
100
AcDbEntity
  8
図面枠
  6
CONTINUOUS
 62
     5
100
AcDbLine
 10
2050.0
 20
1435.0
 30
0.0
 11
50.00000000000026
 21
1435.0
 31
0.0
  0
LINE
  5
D7
330
1F
100
AcDbEntity
  8
図面枠
  6
CONTINUOUS
 62
     5
100
AcDbLine
 10
50.00000000000026
 20
1435.0
 30
0.0
 11
50.0
 21
50.0
 31
0.0
  0
LINE
  5
D8
330
1F
100
AcDbEntity
  8
図面枠
  6
CONTINUOUS
 62
     3
100
AcDbLine
 10
75.0
 20
1410.0
 30
0.0
 11
75.0
 21
1365.0
 31
0.0
  0
LINE
  5
D9
330
1F
100
AcDbEntity
  8
図面枠
  6
CONTINUOUS
 62
     3
100
AcDbLine
 10
450.0
 20
1410.0
 30
0.0
 11
450.0
 21
1365.0
 31
0.0
  0
LINE
  5
DA
330
1F
100
AcDbEntity
  8
図面枠
  6
CONTINUOUS
 62
     3
100
AcDbLine
 10
75.0
 20
1410.0
 30
0.0
 11
450.0
 21
1410.0
 31
0.0
  0
LINE
  5
DB
330
1F
100
AcDbEntity
  8
図面枠
  6
CONTINUOUS
 62
     3
100
AcDbLine
 10
75.0
 20
1365.0
 30
0.0
 11
450.0
 21
1365.0
 31
0.0
  0
TEXT
  5
DD
330
1F
100
AcDbEntity
  8
図面枠
  6
CONTINUOUS
 62
     4
100
AcDbText
 10
90.0
 20
1376.71875
 30
0.0
 40
23.08602771362587
  1
手動油圧ポンプ（複動型）
 41
0.9992307692307693
  7
EXCADTTF1
 72
     5
 11
450.0
 21
1376.71875
 31
0.0
100
AcDbText
  0
LINE
  5
DE
330
1F
100
AcDbEntity
  8
図面枠
  6
CONTINUOUS
 62
     3
100
AcDbLine
 10
1525.0
 20
1410.0
 30
0.0
 11
2025.0
 21
1410.0
 31
0.0
  0
LINE
  5
DF
330
1F
100
AcDbEntity
  8
図面枠
  6
CONTINUOUS
 62
     3
100
AcDbLine
 10
1525.0
 20
1380.0
 30
0.0
 11
2025.0
 21
1380.0
 31
0.0
  0
TEXT
  5
E0
330
1F
100
AcDbEntity
  8
図面枠
  6
CONTINUOUS
 62
     4
100
AcDbText
 10
1535.0
 20
1356.9140625
 30
0.0
 40
17.3145207852194
  1
最高使用圧力
 41
0.9992307692307691
  7
EXCADTTF1
 72
     5
 11
1670.0
 21
1356.9140625
 31
0.0
100
AcDbText
  0
TEXT
  5
E1
330
1F
100
AcDbEntity
  8
図面枠
  6
CONTINUOUS
 62
     4
100
AcDbText
 10
1735.0
 20
1356.9140625
 30
0.0
 40
17.3145207852194
  1
高圧
 41
0.999230769230769
  7
EXCADTTF1
 72
     5
 11
1780.0
 21
1356.9140625
 31
0.0
100
AcDbText
  0
TEXT
  5
E2
330
1F
100
AcDbEntity
  8
図面枠
  6
CONTINUOUS
 62
     4
100
AcDbText
 10
1718.75
 20
1386.9140625
 30
0.0
 40
17.3145207852194
  1
仕　　　様
 41
0.9992307692307691
  7
EXCADTTF1
 72
     5
 11
1831.25
 21
1386.9140625
 31
0.0
100
AcDbText
  0
TEXT
  5
E3
330
1F
100
AcDbEntity
  8
図面枠
  6
CONTINUOUS
 62
     4
100
AcDbText
 10
1935.0
 20
1356.9140625
 30
0.0
 40
17.3145207852194
  1
MPa
 41
0.9992307692307689
  7
EXCADTTF1
 72
     5
 11
1968.75
 21
1356.9140625
 31
0.0
100
AcDbText
  0
TEXT
  5
E4
330
1F
100
AcDbEntity
  8
図面枠
  6
CONTINUOUS
 62
     4
100
AcDbText
 10
1892.5
 20
1356.9140625
 30
0.0
 40
17.3145207852194
  1
70
 41
0.999230769230769
  7
EXCADTTF1
 72
     5
 11
1915.0
 21
1356.9140625
 31
0.0
100
AcDbText
  0
LINE
  5
E5
330
1F
100
AcDbEntity
  8
図面枠
  6
CONTINUOUS
 62
     3
100
AcDbLine
 10
2025.0
 20
120.0
 30
0.0
 11
2025.0
 21
75.0
 31
0.0
  0
LINE
  5
E6
330
1F
100
AcDbEntity
  8
図面枠
  6
CONTINUOUS
 62
     3
100
AcDbLine
 10
1890.0
 20
120.0
 30
0.0
 11
1890.0
 21
75.0
 31
0.0
  0
TEXT
  5
E7
330
1F
100
AcDbEntity
  8
図面枠
  6
CONTINUOUS
 62
     4
100
AcDbText
 10
1905.0
 20
86.71875
 30
0.0
 40
23.08602771362587
  1
OHP-10W
 41
0.9992307692307693
  7
EXCADTTF1
 72
     5
 11
2010.0
 21
86.71875
 31
0.0
100
AcDbText
  0
LINE
  5
E8
330
1F
100
AcDbEntity
  8
図面枠
  6
CONTINUOUS
 62
     3
100
AcDbLine
 10
1890.0
 20
120.0
 30
0.0
 11
2025.0
 21
120.0
 31
0.0
  0
LINE
  5
E9
330
1F
100
AcDbEntity
  8
図面枠
  6
CONTINUOUS
 62
     3
100
AcDbLine
 10
1890.0
 20
75.0
 30
0.0
 11
2025.0
 21
75.0
 31
0.0
  0
LINE
  5
EA
330
1F
100
AcDbEntity
  8
図面枠
  6
CONTINUOUS
 62
     2
100
AcDbLine
 10
1725.0
 20
1350.0
 30
0.0
 11
2025.0
 21
1350.0
 31
0.0
  0
TEXT
  5
EB
330
1F
100
AcDbEntity
  8
図面枠
  6
CONTINUOUS
 62
     4
100
AcDbText
 10
1735.0
 20
1326.9140625
 30
0.0
 40
17.3145207852194
  1
低圧
 41
0.999230769230769
  7
EXCADTTF1
 72
     5
 11
1780.0
 21
1326.9140625
 31
0.0
100
AcDbText
  0
TEXT
  5
EC
330
1F
100
AcDbEntity
  8
図面枠
  6
CONTINUOUS
 62
     4
100
AcDbText
 10
1935.0
 20
1326.9140625
 30
0.0
 40
17.3145207852194
  1
MPa
 41
0.9992307692307689
  7
EXCADTTF1
 72
     5
 11
1968.75
 21
1326.9140625
 31
0.0
100
AcDbText
  0
TEXT
  5
ED
330
1F
100
AcDbEntity
  8
図面枠
  6
CONTINUOUS
 62
     4
100
AcDbText
 10
1903.75
 20
1326.9140625
 30
0.0
 40
17.3145207852194
  1
6
 41
0.999230769230769
  7
EXCADTTF1
 72
     5
 11
1915.0
 21
1326.9140625
 31
0.0
100
AcDbText
  0
LINE
  5
EE
330
1F
100
AcDbEntity
  8
図面枠
  6
CONTINUOUS
 62
     2
100
AcDbLine
 10
1525.0
 20
1260.0
 30
0.0
 11
2025.0
 21
1260.0
 31
0.0
  0
LINE
  5
EF
330
1F
100
AcDbEntity
  8
図面枠
  6
CONTINUOUS
 62
     2
100
AcDbLine
 10
1525.0
 20
1230.0
 30
0.0
 11
2025.0
 21
1230.0
 31
0.0
  0
LINE
  5
F0
330
1F
100
AcDbEntity
  8
図面枠
  6
CONTINUOUS
 62
     2
100
AcDbLine
 10
1525.0
 20
1200.0
 30
0.0
 11
2025.0
 21
1200.0
 31
0.0
  0
LINE
  5
F1
330
1F
100
AcDbEntity
  8
図面枠
  6
CONTINUOUS
 62
     2
100
AcDbLine
 10
1725.0
 20
1290.0
 30
0.0
 11
2025.0
 21
1290.0
 31
0.0
  0
TEXT
  5
F2
330
1F
100
AcDbEntity
  8
図面枠
  6
CONTINUOUS
 62
     4
100
AcDbText
 10
1535.0
 20
1296.9140625
 30
0.0
 40
17.3145207852194
  1
吐出量
 41
0.9992307692307689
  7
EXCADTTF1
 72
     5
 11
1602.5
 21
1296.9140625
 31
0.0
100
AcDbText
  0
TEXT
  5
F3
330
1F
100
AcDbEntity
  8
図面枠
  6
CONTINUOUS
 62
     4
100
AcDbText
 10
1535.0
 20
1236.9140625
 30
0.0
 40
17.3145207852194
  1
型式
 41
0.999230769230769
  7
EXCADTTF1
 72
     5
 11
1580.0
 21
1236.9140625
 31
0.0
100
AcDbText
  0
TEXT
  5
F4
330
1F
100
AcDbEntity
  8
図面枠
  6
CONTINUOUS
 62
     4
100
AcDbText
 10
1535.0
 20
1206.9140625
 30
0.0
 40
17.3145207852194
  1
貯油量
 41
0.9992307692307689
  7
EXCADTTF1
 72
     5
 11
1602.5
 21
1206.9140625
 31
0.0
100
AcDbText
  0
TEXT
  5
F5
330
1F
100
AcDbEntity
  8
図面枠
  6
CONTINUOUS
 62
     4
100
AcDbText
 10
1535.0
 20
1176.9140625
 30
0.0
 40
17.3145207852194
  1
重量
 41
0.999230769230769
  7
EXCADTTF1
 72
     5
 11
1580.0
 21
1176.9140625
 31
0.0
100
AcDbText
  0
LINE
  5
F6
330
1F
100
AcDbEntity
  8
図面枠
  6
CONTINUOUS
 62
     3
100
AcDbLine
 10
1525.0
 20
1170.0
 30
0.0
 11
2025.0
 21
1170.0
 31
0.0
  0
TEXT
  5
F7
330
1F
100
AcDbEntity
  8
図面枠
  6
CONTINUOUS
 62
     4
100
AcDbText
 10
1735.0
 20
1296.9140625
 30
0.0
 40
17.3145207852194
  1
高圧
 41
0.999230769230769
  7
EXCADTTF1
 72
     5
 11
1780.0
 21
1296.9140625
 31
0.0
100
AcDbText
  0
TEXT
  5
F8
330
1F
100
AcDbEntity
  8
図面枠
  6
CONTINUOUS
 62
     4
100
AcDbText
 10
1735.0
 20
1266.9140625
 30
0.0
 40
17.3145207852194
  1
低圧
 41
0.999230769230769
  7
EXCADTTF1
 72
     5
 11
1780.0
 21
1266.9140625
 31
0.0
100
AcDbText
  0
LINE
  5
F9
330
1F
100
AcDbEntity
  8
図面枠
  6
CONTINUOUS
 62
     2
100
AcDbLine
 10
1925.0
 20
1230.0
 30
0.0
 11
1925.0
 21
1170.0
 31
0.0
  0
TEXT
  5
FA
330
1F
100
AcDbEntity
  8
図面枠
  6
CONTINUOUS
 62
     4
100
AcDbText
 10
1935.0
 20
1176.9140625
 30
0.0
 40
17.3145207852194
  1
kg
 41
0.999230769230769
  7
EXCADTTF1
 72
     5
 11
1957.5
 21
1176.9140625
 31
0.0
100
AcDbText
  0
TEXT
  5
FB
330
1F
100
AcDbEntity
  8
図面枠
  6
CONTINUOUS
 62
     4
100
AcDbText
 10
1835.0
 20
1236.9140625
 30
0.0
 40
17.3145207852194
  1
高圧自動切換
 41
0.9992307692307691
  7
EXCADTTF1
 72
     5
 11
1970.0
 21
1236.9140625
 31
0.0
100
AcDbText
  0
TEXT
  5
FC
330
1F
100
AcDbEntity
  8
図面枠
  6
CONTINUOUS
 62
     4
100
AcDbText
 10
1881.25
 20
1296.9140625
 30
0.0
 40
17.3145207852194
  1
3.7
 41
0.9992307692307689
  7
EXCADTTF1
 72
     5
 11
1915.0
 21
1296.9140625
 31
0.0
100
AcDbText
  0
TEXT
  5
FD
330
1F
100
AcDbEntity
  8
図面枠
  6
CONTINUOUS
 62
     4
100
AcDbText
 10
1870.0
 20
1266.9140625
 30
0.0
 40
17.3145207852194
  1
42.5
 41
0.999230769230769
  7
EXCADTTF1
 72
     5
 11
1915.0
 21
1266.9140625
 31
0.0
100
AcDbText
  0
TEXT
  5
FE
330
1F
100
AcDbEntity
  8
図面枠
  6
CONTINUOUS
 62
     4
100
AcDbText
 10
1870.0
 20
1176.9140625
 30
0.0
 40
17.3145207852194
  1
約45
 41
0.999230769230769
  7
EXCADTTF1
 72
     5
 11
1915.0
 21
1176.9140625
 31
0.0
100
AcDbText
  0
LINE
  5
FF
330
1F
100
AcDbEntity
  8
図面枠
  6
CONTINUOUS
 62
     2
100
AcDbLine
 10
1525.0
 20
1320.0
 30
0.0
 11
2025.0
 21
1320.0
 31
0.0
  0
LINE
  5
100
330
1F
100
AcDbEntity
  8
図面枠
  6
CONTINUOUS
 62
     3
100
AcDbLine
 10
1525.0
 20
1410.0
 30
0.0
 11
1525.0
 21
1170.0
 31
0.0
  0
LINE
  5
101
330
1F
100
AcDbEntity
  8
図面枠
  6
CONTINUOUS
 62
     3
100
AcDbLine
 10
2025.0
 20
1410.0
 30
0.0
 11
2025.0
 21
1170.0
 31
0.0
  0
LINE
  5
102
330
1F
100
AcDbEntity
  8
図面枠
  6
CONTINUOUS
 62
     2
100
AcDbLine
 10
1725.0
 20
1380.0
 30
0.0
 11
1725.0
 21
1260.0
 31
0.0
  0
LINE
  5
103
330
1F
100
AcDbEntity
  8
図面枠
  6
CONTINUOUS
 62
     2
100
AcDbLine
 10
1825.0
 20
1380.0
 30
0.0
 11
1825.0
 21
1170.0
 31
0.0
  0
LINE
  5
104
330
1F
100
AcDbEntity
  8
図面枠
  6
CONTINUOUS
 62
     2
100
AcDbLine
 10
1925.0
 20
1380.0
 30
0.0
 11
1925.0
 21
1260.0
 31
0.0
  0
TEXT
  5
105
330
1F
100
AcDbEntity
  8
図面枠
  6
CONTINUOUS
 62
     4
100
AcDbText
 10
1935.0
 20
1296.9140625
 30
0.0
 40
17.3145207852194
  1
mL
 41
0.999230769230769
  7
EXCADTTF1
 72
     5
 11
1957.5
 21
1296.9140625
 31
0.0
100
AcDbText
  0
TEXT
  5
106
330
1F
100
AcDbEntity
  8
図面枠
  6
CONTINUOUS
 62
     4
100
AcDbText
 10
1935.0
 20
1266.9140625
 30
0.0
 40
17.3145207852194
  1
mL
 41
0.999230769230769
  7
EXCADTTF1
 72
     5
 11
1957.5
 21
1266.9140625
 31
0.0
100
AcDbText
  0
TEXT
  5
107
330
1F
100
AcDbEntity
  8
図面枠
  6
CONTINUOUS
 62
     4
100
AcDbText
 10
1935.0
 20
1206.9140625
 30
0.0
 40
17.3145207852194
  1
L
 41
0.999230769230769
  7
EXCADTTF1
 72
     5
 11
1946.25
 21
1206.9140625
 31
0.0
100
AcDbText
  0
TEXT
  5
108
330
1F
100
AcDbEntity
  8
図面枠
  6
CONTINUOUS
 62
     4
100
AcDbText
 10
1892.5
 20
1206.9140625
 30
0.0
 40
17.3145207852194
  1
10
 41
0.999230769230769
  7
EXCADTTF1
 72
     5
 11
1915.0
 21
1206.9140625
 31
0.0
100
AcDbText
  0
DIMENSION
  5
10A
330
1F
100
AcDbEntity
  8
Ｓ_１_１
  6
CONTINUOUS
 62
     2
100
AcDbDimension
  2
*D15
 10
185.0000020000002
 20
210.0
 30
0.0
 11
330.0000000000001
 21
223.75
 31
0.0
 70
   160
  3
ISO-25
100
AcDbAlignedDimension
 13
474.999998
 23
300.0000000000001
 33
0.0
 14
185.0000020000002
 24
300.0000000000001
 34
0.0
100
AcDbRotatedDimension
1001
ACAD
1000
DSTYLE
1002
{
1070
   270
1070
     2
1070
     6
1000
EX_NORM
1070
     7
1000
EX_NORM
1070
    41
1040
15.0
1070
    42
1040
7.5
1070
    44
1040
5.0
1070
    73
1070
     0
1070
    74
1070
     0
1070
    75
1070
     0
1070
    76
1070
     0
1070
    77
1070
     1
1070
    78
1070
     8
1070
   140
1040
17.3145207852194
1070
   147
1040
0.0
1070
   173
1070
     1
1070
   176
1070
     2
1070
   177
1070
     2
1070
   178
1070
     2
1070
   271
1070
     2
1070
   277
1070
     2
1070
   279
1070
     2
1070
   280
1070
     0
1070
   287
1070
     5
1070
   340
1005
109
1002
}
  0
DIMENSION
  5
118
330
1F
100
AcDbEntity
  8
Ｓ_１_１
  6
CONTINUOUS
 62
     2
100
AcDbDimension
  2
*D16
 10
1776.8828668733
 20
210.0
 30
0.0
 11
1295.93632193665
 21
223.75
 31
0.0
 70
   160
  1
962
  3
ISO-25
100
AcDbAlignedDimension
 13
814.9897770000002
 23
300.0
 33
0.0
 14
1776.8828668733
 24
300.0
 34
0.0
100
AcDbRotatedDimension
1001
ACAD
1000
DSTYLE
1002
{
1070
   270
1070
     2
1070
     6
1000
EX_NORM
1070
     7
1000
EX_NORM
1070
    41
1040
15.0
1070
    42
1040
7.5
1070
    44
1040
5.0
1070
    73
1070
     0
1070
    74
1070
     0
1070
    75
1070
     0
1070
    76
1070
     0
1070
    77
1070
     1
1070
    78
1070
     8
1070
   140
1040
17.3145207852194
1070
   147
1040
0.0
1070
   173
1070
     1
1070
   176
1070
     2
1070
   177
1070
     2
1070
   178
1070
     2
1070
   271
1070
     2
1070
   277
1070
     2
1070
   279
1070
     2
1070
   280
1070
     0
1070
   287
1070
     5
1070
   340
1005
109
1002
}
  0
DIMENSION
  5
125
330
1F
100
AcDbEntity
  8
Ｓ_１_１
  6
CONTINUOUS
 62
     2
100
AcDbDimension
  2
*D17
 10
1923.2883608904
 20
660.0
 30
0.0
 11
1348.20178951601
 21
673.75
 31
0.0
 70
   160
  1
1150
  3
ISO-25
100
AcDbAlignedDimension
 13
773.1152181416201
 23
539.90407004776
 33
0.0
 14
1923.2883608904
 24
550.28555633259
 34
0.0
100
AcDbRotatedDimension
1001
ACAD
1000
DSTYLE
1002
{
1070
   270
1070
     2
1070
     6
1000
EX_NORM
1070
     7
1000
EX_NORM
1070
    41
1040
15.0
1070
    42
1040
7.5
1070
    44
1040
5.0
1070
    73
1070
     0
1070
    74
1070
     0
1070
    75
1070
     0
1070
    76
1070
     0
1070
    77
1070
     1
1070
    78
1070
     8
1070
   140
1040
17.3145207852194
1070
   147
1040
0.0
1070
   173
1070
     1
1070
   176
1070
     2
1070
   177
1070
     2
1070
   178
1070
     2
1070
   271
1070
     2
1070
   277
1070
     2
1070
   279
1070
     2
1070
   280
1070
     0
1070
   287
1070
     5
1070
   340
1005
109
1002
}
  0
DIMENSION
  5
132
330
1F
100
AcDbEntity
  8
Ｓ_１_１
  6
CONTINUOUS
 62
     2
100
AcDbDimension
  2
*D18
 10
540.0
 20
542.999994
 30
0.0
 11
526.25
 21
421.499997
 31
0.0
 70
   160
  3
ISO-25
100
AcDbAlignedDimension
 13
474.999998
 23
300.0
 33
0.0
 14
355.999984
 24
542.999994
 34
0.0
 50
90.0
100
AcDbRotatedDimension
1001
ACAD
1000
DSTYLE
1002
{
1070
   270
1070
     2
1070
     6
1000
EX_NORM
1070
     7
1000
EX_NORM
1070
    41
1040
15.0
1070
    42
1040
7.5
1070
    44
1040
5.0
1070
    73
1070
     0
1070
    74
1070
     0
1070
    75
1070
     0
1070
    76
1070
     0
1070
    77
1070
     1
1070
    78
1070
     8
1070
   140
1040
17.3145207852194
1070
   147
1040
0.0
1070
   173
1070
     1
1070
   176
1070
     2
1070
   177
1070
     2
1070
   178
1070
     2
1070
   271
1070
     2
1070
   277
1070
     2
1070
   279
1070
     2
1070
   280
1070
     0
1070
   287
1070
     5
1070
   340
1005
109
1002
}
  0
LINE
  5
13F
330
1F
100
AcDbEntity
  8
Ｓ_１_１
  6
EXLTYPE2
 62
     1
100
AcDbLine
 10
847.189483
 20
958.447485
 30
0.0
 11
847.189483
 21
872.485687
 31
0.0
  0
LINE
  5
140
330
1F
100
AcDbEntity
  8
Ｓ_１_１
  6
EXLTYPE2
 62
     1
100
AcDbLine
 10
808.6894610000002
 20
958.2684230000001
 30
0.0
 11
808.6894610000002
 21
871.411201
 31
0.0
  0
LINE
  5
141
330
1F
100
AcDbEntity
  8
Ｓ_１_１
  6
EXLTYPE2
 62
     1
100
AcDbLine
 10
826.689491
 20
964.2904190000002
 30
0.0
 11
826.689491
 21
1014.534101
 31
0.0
  0
LINE
  5
142
330
1F
100
AcDbEntity
  8
Ｓ_１_１
  6
EXLTYPE2
 62
     1
100
AcDbLine
 10
866.689452
 20
876.5807639999999
 30
0.0
 11
896.6894900000001
 21
876.5807639999999
 31
0.0
  0
LINE
  5
143
330
1F
100
AcDbEntity
  8
Ｓ_１_１
  6
EXLTYPE2
 62
     1
100
AcDbLine
 10
881.6894900000001
 20
891.5807639999999
 30
0.0
 11
881.6894900000001
 21
861.580765
 31
0.0
  0
LINE
  5
144
330
1F
100
AcDbEntity
  8
Ｓ_１_１
  6
EXLTYPE2
 62
     1
100
AcDbLine
 10
861.689491
 20
964.9524600000001
 30
0.0
 11
861.689491
 21
987.85224
 31
0.0
  0
LINE
  5
145
330
1F
100
AcDbEntity
  8
Ｓ_１_１
  6
EXLTYPE2
 62
     1
100
AcDbLine
 10
968.189428
 20
937.5807860000001
 30
0.0
 11
968.189428
 21
890.5807410000001
 31
0.0
  0
LINE
  5
146
330
1F
100
AcDbEntity
  8
Ｓ_１_１
  6
EXLTYPE2
 62
     1
100
AcDbLine
 10
706.103594
 20
891.5807639999999
 30
0.0
 11
779.4549180000001
 21
891.5807639999999
 31
0.0
  0
POLYLINE
  5
147
330
1F
100
AcDbEntity
  8
Ｓ_１_１
  6
CONTINUOUS
 62
     3
100
AcDb2dPolyline
 66
     1
 10
0.0
 20
0.0
 30
0.0
 70
   128
  0
VERTEX
  5
148
330
147
100
AcDbEntity
  8
Ｓ_１_１
  6
CONTINUOUS
 62
     3
100
AcDbVertex
100
AcDb2dVertex
 10
763.519631
 20
1076.580761
 30
0.0
  0
VERTEX
  5
149
330
147
100
AcDbEntity
  8
Ｓ_１_１
  6
CONTINUOUS
 62
     3
100
AcDbVertex
100
AcDb2dVertex
 10
760.256474
 20
1076.153005
 30
0.0
  0
VERTEX
  5
14A
330
147
100
AcDbEntity
  8
Ｓ_１_１
  6
CONTINUOUS
 62
     3
100
AcDbVertex
100
AcDb2dVertex
 10
757.04915
 20
1074.877053
 30
0.0
  0
VERTEX
  5
14B
330
147
100
AcDbEntity
  8
Ｓ_１_１
  6
CONTINUOUS
 62
     3
100
AcDbVertex
100
AcDb2dVertex
 10
753.9525380000001
 20
1072.774738
 30
0.0
  0
VERTEX
  5
14C
330
147
100
AcDbEntity
  8
Ｓ_１_１
  6
CONTINUOUS
 62
     3
100
AcDbVertex
100
AcDb2dVertex
 10
751.0196220000001
 20
1069.882032
 30
0.0
  0
VERTEX
  5
14D
330
147
100
AcDbEntity
  8
Ｓ_１_１
  6
CONTINUOUS
 62
     3
100
AcDbVertex
100
AcDb2dVertex
 10
748.300584
 20
1066.248429
 30
0.0
  0
VERTEX
  5
14E
330
147
100
AcDbEntity
  8
Ｓ_１_１
  6
CONTINUOUS
 62
     3
100
AcDbVertex
100
AcDb2dVertex
 10
745.8419480000001
 20
1061.936101
 30
0.0
  0
VERTEX
  5
14F
330
147
100
AcDbEntity
  8
Ｓ_１_１
  6
CONTINUOUS
 62
     3
100
AcDbVertex
100
AcDb2dVertex
 10
743.685783
 20
1057.018833
 30
0.0
  0
VERTEX
  5
150
330
147
100
AcDbEntity
  8
Ｓ_１_１
  6
CONTINUOUS
 62
     3
100
AcDbVertex
100
AcDb2dVertex
 10
741.8689800000001
 20
1051.580762
 30
0.0
  0
VERTEX
  5
151
330
147
100
AcDbEntity
  8
Ｓ_１_１
  6
CONTINUOUS
 62
     3
100
AcDbVertex
100
AcDb2dVertex
 10
740.4226259999999
 20
1045.714934
 30
0.0
  0
VERTEX
  5
152
330
147
100
AcDbEntity
  8
Ｓ_１_１
  6
CONTINUOUS
 62
     3
100
AcDbVertex
100
AcDb2dVertex
 10
739.3714680000002
 20
1039.521714
 30
0.0
  0
VERTEX
  5
153
330
147
100
AcDbEntity
  8
Ｓ_１_１
  6
CONTINUOUS
 62
     3
100
AcDbVertex
100
AcDb2dVertex
 10
738.7334910000001
 20
1033.107072
 30
0.0
  0
VERTEX
  5
154
330
147
100
AcDbEntity
  8
Ｓ_１_１
  6
CONTINUOUS
 62
     3
100
AcDbVertex
100
AcDb2dVertex
 10
738.519613
 20
1026.580762
 30
0.0
  0
VERTEX
  5
155
330
147
100
AcDbEntity
  8
Ｓ_１_１
  6
CONTINUOUS
 62
     3
100
AcDbVertex
100
AcDb2dVertex
 10
738.7334910000001
 20
1020.054453
 30
0.0
  0
VERTEX
  5
156
330
147
100
AcDbEntity
  8
Ｓ_１_１
  6
CONTINUOUS
 62
     3
100
AcDbVertex
100
AcDb2dVertex
 10
739.3714680000002
 20
1013.63981
 30
0.0
  0
VERTEX
  5
157
330
147
100
AcDbEntity
  8
Ｓ_１_１
  6
CONTINUOUS
 62
     3
100
AcDbVertex
100
AcDb2dVertex
 10
740.4226259999999
 20
1007.446591
 30
0.0
  0
VERTEX
  5
158
330
147
100
AcDbEntity
  8
Ｓ_１_１
  6
CONTINUOUS
 62
     3
100
AcDbVertex
100
AcDb2dVertex
 10
741.8689800000001
 20
1001.580763
 30
0.0
  0
VERTEX
  5
159
330
147
100
AcDbEntity
  8
Ｓ_１_１
  6
CONTINUOUS
 62
     3
100
AcDbVertex
100
AcDb2dVertex
 10
743.685783
 20
996.1426910000001
 30
0.0
  0
VERTEX
  5
15A
330
147
100
AcDbEntity
  8
Ｓ_１_１
  6
CONTINUOUS
 62
     3
100
AcDbVertex
100
AcDb2dVertex
 10
745.8419480000001
 20
991.2254239999999
 30
0.0
  0
VERTEX
  5
15B
330
147
100
AcDbEntity
  8
Ｓ_１_１
  6
CONTINUOUS
 62
     3
100
AcDbVertex
100
AcDb2dVertex
 10
748.300584
 20
986.9130959999999
 30
0.0
  0
VERTEX
  5
15C
330
147
100
AcDbEntity
  8
Ｓ_１_１
  6
CONTINUOUS
 62
     3
100
AcDbVertex
100
AcDb2dVertex
 10
751.0196220000001
 20
983.2794930000001
 30
0.0
  0
VERTEX
  5
15D
330
147
100
AcDbEntity
  8
Ｓ_１_１
  6
CONTINUOUS
 62
     3
100
AcDbVertex
100
AcDb2dVertex
 10
753.9525380000001
 20
980.3867859999999
 30
0.0
  0
VERTEX
  5
15E
330
147
100
AcDbEntity
  8
Ｓ_１_１
  6
CONTINUOUS
 62
     3
100
AcDbVertex
100
AcDb2dVertex
 10
757.04915
 20
978.2844719999999
 30
0.0
  0
VERTEX
  5
15F
330
147
100
AcDbEntity
  8
Ｓ_１_１
  6
CONTINUOUS
 62
     3
100
AcDbVertex
100
AcDb2dVertex
 10
760.256474
 20
977.00852
 30
0.0
  0
VERTEX
  5
160
330
147
100
AcDbEntity
  8
Ｓ_１_１
  6
CONTINUOUS
 62
     3
100
AcDbVertex
100
AcDb2dVertex
 10
763.519631
 20
976.580763
 30
0.0
  0
SEQEND
  5
161
330
147
100
AcDbEntity
  8
Ｓ_１_１
  6
CONTINUOUS
 62
     3
  0
POLYLINE
  5
162
330
1F
100
AcDbEntity
  8
Ｓ_１_１
  6
CONTINUOUS
 62
     3
100
AcDb2dPolyline
 66
     1
 10
0.0
 20
0.0
 30
0.0
 70
   128
  0
VERTEX
  5
163
330
162
100
AcDbEntity
  8
Ｓ_１_１
  6
CONTINUOUS
 62
     3
100
AcDbVertex
100
AcDb2dVertex
 10
785.17025
 20
1076.580761
 30
0.0
  0
VERTEX
  5
164
330
162
100
AcDbEntity
  8
Ｓ_１_１
  6
CONTINUOUS
 62
     3
100
AcDbVertex
100
AcDb2dVertex
 10
782.9913570000002
 20
1076.390496
 30
0.0
  0
VERTEX
  5
165
330
162
100
AcDbEntity
  8
Ｓ_１_１
  6
CONTINUOUS
 62
     3
100
AcDbVertex
100
AcDb2dVertex
 10
780.8290460000002
 20
1075.821149
 30
0.0
  0
VERTEX
  5
166
330
162
100
AcDbEntity
  8
Ｓ_１_１
  6
CONTINUOUS
 62
     3
100
AcDbVertex
100
AcDb2dVertex
 10
778.699774
 20
1074.877053
 30
0.0
  0
VERTEX
  5
167
330
162
100
AcDbEntity
  8
Ｓ_１_１
  6
CONTINUOUS
 62
     3
100
AcDbVertex
100
AcDb2dVertex
 10
776.6197470000001
 20
1073.565393
 30
0.0
  0
VERTEX
  5
168
330
162
100
AcDbEntity
  8
Ｓ_１_１
  6
CONTINUOUS
 62
     3
100
AcDbVertex
100
AcDb2dVertex
 10
774.6047940000002
 20
1071.896151
 30
0.0
  0
VERTEX
  5
169
330
162
100
AcDbEntity
  8
Ｓ_１_１
  6
CONTINUOUS
 62
     3
100
AcDbVertex
100
AcDb2dVertex
 10
772.6702509999999
 20
1069.882032
 30
0.0
  0
VERTEX
  5
16A
330
162
100
AcDbEntity
  8
Ｓ_１_１
  6
CONTINUOUS
 62
     3
100
AcDbVertex
100
AcDb2dVertex
 10
770.83084
 20
1067.538364
 30
0.0
  0
VERTEX
  5
16B
330
162
100
AcDbEntity
  8
Ｓ_１_１
  6
CONTINUOUS
 62
     3
100
AcDbVertex
100
AcDb2dVertex
 10
769.1005600000002
 20
1064.882984
 30
0.0
  0
VERTEX
  5
16C
330
162
100
AcDbEntity
  8
Ｓ_１_１
  6
CONTINUOUS
 62
     3
100
AcDbVertex
100
AcDb2dVertex
 10
767.492581
 20
1061.936101
 30
0.0
  0
VERTEX
  5
16D
330
162
100
AcDbEntity
  8
Ｓ_１_１
  6
CONTINUOUS
 62
     3
100
AcDbVertex
100
AcDb2dVertex
 10
766.0191400000002
 20
1058.720142
 30
0.0
  0
VERTEX
  5
16E
330
162
100
AcDbEntity
  8
Ｓ_１_１
  6
CONTINUOUS
 62
     3
100
AcDbVertex
100
AcDb2dVertex
 10
764.69145
 20
1055.259584
 30
0.0
  0
VERTEX
  5
16F
330
162
100
AcDbEntity
  8
Ｓ_１_１
  6
CONTINUOUS
 62
     3
100
AcDbVertex
100
AcDb2dVertex
 10
763.5196159999999
 20
1051.580762
 30
0.0
  0
VERTEX
  5
170
330
162
100
AcDbEntity
  8
Ｓ_１_１
  6
CONTINUOUS
 62
     3
100
AcDbVertex
100
AcDb2dVertex
 10
762.512556
 20
1047.711675
 30
0.0
  0
VERTEX
  5
171
330
162
100
AcDbEntity
  8
Ｓ_１_１
  6
CONTINUOUS
 62
     3
100
AcDbVertex
100
AcDb2dVertex
 10
761.6779349999999
 20
1043.681769
 30
0.0
  0
VERTEX
  5
172
330
162
100
AcDbEntity
  8
Ｓ_１_１
  6
CONTINUOUS
 62
     3
100
AcDbVertex
100
AcDb2dVertex
 10
761.0221049999999
 20
1039.521714
 30
0.0
  0
VERTEX
  5
173
330
162
100
AcDbEntity
  8
Ｓ_１_１
  6
CONTINUOUS
 62
     3
100
AcDbVertex
100
AcDb2dVertex
 10
760.550057
 20
1035.263171
 30
0.0
  0
VERTEX
  5
174
330
162
100
AcDbEntity
  8
Ｓ_１_１
  6
CONTINUOUS
 62
     3
100
AcDbVertex
100
AcDb2dVertex
 10
760.265383
 20
1030.938549
 30
0.0
  0
VERTEX
  5
175
330
162
100
AcDbEntity
  8
Ｓ_１_１
  6
CONTINUOUS
 62
     3
100
AcDbVertex
100
AcDb2dVertex
 10
760.1702509999999
 20
1026.580762
 30
0.0
  0
VERTEX
  5
176
330
162
100
AcDbEntity
  8
Ｓ_１_１
  6
CONTINUOUS
 62
     3
100
AcDbVertex
100
AcDb2dVertex
 10
760.265383
 20
1022.222975
 30
0.0
  0
VERTEX
  5
177
330
162
100
AcDbEntity
  8
Ｓ_１_１
  6
CONTINUOUS
 62
     3
100
AcDbVertex
100
AcDb2dVertex
 10
760.550057
 20
1017.898353
 30
0.0
  0
VERTEX
  5
178
330
162
100
AcDbEntity
  8
Ｓ_１_１
  6
CONTINUOUS
 62
     3
100
AcDbVertex
100
AcDb2dVertex
 10
761.0221049999999
 20
1013.63981
 30
0.0
  0
VERTEX
  5
179
330
162
100
AcDbEntity
  8
Ｓ_１_１
  6
CONTINUOUS
 62
     3
100
AcDbVertex
100
AcDb2dVertex
 10
761.6779349999999
 20
1009.479755
 30
0.0
  0
VERTEX
  5
17A
330
162
100
AcDbEntity
  8
Ｓ_１_１
  6
CONTINUOUS
 62
     3
100
AcDbVertex
100
AcDb2dVertex
 10
762.512556
 20
1005.449849
 30
0.0
  0
VERTEX
  5
17B
330
162
100
AcDbEntity
  8
Ｓ_１_１
  6
CONTINUOUS
 62
     3
100
AcDbVertex
100
AcDb2dVertex
 10
763.5196159999999
 20
1001.580763
 30
0.0
  0
VERTEX
  5
17C
330
162
100
AcDbEntity
  8
Ｓ_１_１
  6
CONTINUOUS
 62
     3
100
AcDbVertex
100
AcDb2dVertex
 10
764.69145
 20
997.9019410000001
 30
0.0
  0
VERTEX
  5
17D
330
162
100
AcDbEntity
  8
Ｓ_１_１
  6
CONTINUOUS
 62
     3
100
AcDbVertex
100
AcDb2dVertex
 10
766.0191400000002
 20
994.4413820000001
 30
0.0
  0
VERTEX
  5
17E
330
162
100
AcDbEntity
  8
Ｓ_１_１
  6
CONTINUOUS
 62
     3
100
AcDbVertex
100
AcDb2dVertex
 10
767.492581
 20
991.2254239999999
 30
0.0
  0
VERTEX
  5
17F
330
162
100
AcDbEntity
  8
Ｓ_１_１
  6
CONTINUOUS
 62
     3
100
AcDbVertex
100
AcDb2dVertex
 10
769.1005600000002
 20
988.278541
 30
0.0
  0
VERTEX
  5
180
330
162
100
AcDbEntity
  8
Ｓ_１_１
  6
CONTINUOUS
 62
     3
100
AcDbVertex
100
AcDb2dVertex
 10
770.83084
 20
985.6231610000001
 30
0.0
  0
VERTEX
  5
181
330
162
100
AcDbEntity
  8
Ｓ_１_１
  6
CONTINUOUS
 62
     3
100
AcDbVertex
100
AcDb2dVertex
 10
772.6702509999999
 20
983.2794930000001
 30
0.0
  0
VERTEX
  5
182
330
162
100
AcDbEntity
  8
Ｓ_１_１
  6
CONTINUOUS
 62
     3
100
AcDbVertex
100
AcDb2dVertex
 10
774.6047940000002
 20
981.265374
 30
0.0
  0
VERTEX
  5
183
330
162
100
AcDbEntity
  8
Ｓ_１_１
  6
CONTINUOUS
 62
     3
100
AcDbVertex
100
AcDb2dVertex
 10
776.6197470000001
 20
979.596132
 30
0.0
  0
VERTEX
  5
184
330
162
100
AcDbEntity
  8
Ｓ_１_１
  6
CONTINUOUS
 62
     3
100
AcDbVertex
100
AcDb2dVertex
 10
778.699774
 20
978.2844719999999
 30
0.0
  0
VERTEX
  5
185
330
162
100
AcDbEntity
  8
Ｓ_１_１
  6
CONTINUOUS
 62
     3
100
AcDbVertex
100
AcDb2dVertex
 10
780.8290460000002
 20
977.340375
 30
0.0
  0
VERTEX
  5
186
330
162
100
AcDbEntity
  8
Ｓ_１_１
  6
CONTINUOUS
 62
     3
100
AcDbVertex
100
AcDb2dVertex
 10
782.9913570000002
 20
976.771028
 30
0.0
  0
VERTEX
  5
187
330
162
100
AcDbEntity
  8
Ｓ_１_１
  6
CONTINUOUS
 62
     3
100
AcDbVertex
100
AcDb2dVertex
 10
785.17025
 20
976.580763
 30
0.0
  0
VERTEX
  5
188
330
162
100
AcDbEntity
  8
Ｓ_１_１
  6
CONTINUOUS
 62
     3
100
AcDbVertex
100
AcDb2dVertex
 10
787.3491440000001
 20
976.771028
 30
0.0
  0
VERTEX
  5
189
330
162
100
AcDbEntity
  8
Ｓ_１_１
  6
CONTINUOUS
 62
     3
100
AcDbVertex
100
AcDb2dVertex
 10
789.5114550000002
 20
977.340375
 30
0.0
  0
VERTEX
  5
18A
330
162
100
AcDbEntity
  8
Ｓ_１_１
  6
CONTINUOUS
 62
     3
100
AcDbVertex
100
AcDb2dVertex
 10
791.640726
 20
978.2844719999999
 30
0.0
  0
VERTEX
  5
18B
330
162
100
AcDbEntity
  8
Ｓ_１_１
  6
CONTINUOUS
 62
     3
100
AcDbVertex
100
AcDb2dVertex
 10
793.720754
 20
979.596132
 30
0.0
  0
VERTEX
  5
18C
330
162
100
AcDbEntity
  8
Ｓ_１_１
  6
CONTINUOUS
 62
     3
100
AcDbVertex
100
AcDb2dVertex
 10
795.7357070000002
 20
981.265374
 30
0.0
  0
VERTEX
  5
18D
330
162
100
AcDbEntity
  8
Ｓ_１_１
  6
CONTINUOUS
 62
     3
100
AcDbVertex
100
AcDb2dVertex
 10
797.67025
 20
983.2794930000001
 30
0.0
  0
VERTEX
  5
18E
330
162
100
AcDbEntity
  8
Ｓ_１_１
  6
CONTINUOUS
 62
     3
100
AcDbVertex
100
AcDb2dVertex
 10
799.5096609999999
 20
985.6231610000001
 30
0.0
  0
VERTEX
  5
18F
330
162
100
AcDbEntity
  8
Ｓ_１_１
  6
CONTINUOUS
 62
     3
100
AcDbVertex
100
AcDb2dVertex
 10
801.23994
 20
988.278541
 30
0.0
  0
VERTEX
  5
190
330
162
100
AcDbEntity
  8
Ｓ_１_１
  6
CONTINUOUS
 62
     3
100
AcDbVertex
100
AcDb2dVertex
 10
802.84792
 20
991.2254239999999
 30
0.0
  0
VERTEX
  5
191
330
162
100
AcDbEntity
  8
Ｓ_１_１
  6
CONTINUOUS
 62
     3
100
AcDbVertex
100
AcDb2dVertex
 10
804.3213610000001
 20
994.4413820000001
 30
0.0
  0
VERTEX
  5
192
330
162
100
AcDbEntity
  8
Ｓ_１_１
  6
CONTINUOUS
 62
     3
100
AcDbVertex
100
AcDb2dVertex
 10
805.6490510000003
 20
997.9019410000001
 30
0.0
  0
VERTEX
  5
193
330
162
100
AcDbEntity
  8
Ｓ_１_１
  6
CONTINUOUS
 62
     3
100
AcDbVertex
100
AcDb2dVertex
 10
806.820885
 20
1001.580763
 30
0.0
  0
VERTEX
  5
194
330
162
100
AcDbEntity
  8
Ｓ_１_１
  6
CONTINUOUS
 62
     3
100
AcDbVertex
100
AcDb2dVertex
 10
807.8279450000002
 20
1005.449849
 30
0.0
  0
VERTEX
  5
195
330
162
100
AcDbEntity
  8
Ｓ_１_１
  6
CONTINUOUS
 62
     3
100
AcDbVertex
100
AcDb2dVertex
 10
808.6625660000001
 20
1009.479755
 30
0.0
  0
VERTEX
  5
196
330
162
100
AcDbEntity
  8
Ｓ_１_１
  6
CONTINUOUS
 62
     3
100
AcDbVertex
100
AcDb2dVertex
 10
809.318396
 20
1013.63981
 30
0.0
  0
VERTEX
  5
197
330
162
100
AcDbEntity
  8
Ｓ_１_１
  6
CONTINUOUS
 62
     3
100
AcDbVertex
100
AcDb2dVertex
 10
809.7904440000002
 20
1017.898353
 30
0.0
  0
VERTEX
  5
198
330
162
100
AcDbEntity
  8
Ｓ_１_１
  6
CONTINUOUS
 62
     3
100
AcDbVertex
100
AcDb2dVertex
 10
810.0751170000002
 20
1022.222975
 30
0.0
  0
VERTEX
  5
199
330
162
100
AcDbEntity
  8
Ｓ_１_１
  6
CONTINUOUS
 62
     3
100
AcDbVertex
100
AcDb2dVertex
 10
810.17025
 20
1026.580762
 30
0.0
  0
VERTEX
  5
19A
330
162
100
AcDbEntity
  8
Ｓ_１_１
  6
CONTINUOUS
 62
     3
100
AcDbVertex
100
AcDb2dVertex
 10
810.0751170000002
 20
1030.938549
 30
0.0
  0
VERTEX
  5
19B
330
162
100
AcDbEntity
  8
Ｓ_１_１
  6
CONTINUOUS
 62
     3
100
AcDbVertex
100
AcDb2dVertex
 10
809.7904440000002
 20
1035.263171
 30
0.0
  0
VERTEX
  5
19C
330
162
100
AcDbEntity
  8
Ｓ_１_１
  6
CONTINUOUS
 62
     3
100
AcDbVertex
100
AcDb2dVertex
 10
809.318396
 20
1039.521714
 30
0.0
  0
VERTEX
  5
19D
330
162
100
AcDbEntity
  8
Ｓ_１_１
  6
CONTINUOUS
 62
     3
100
AcDbVertex
100
AcDb2dVertex
 10
808.6625660000001
 20
1043.681769
 30
0.0
  0
VERTEX
  5
19E
330
162
100
AcDbEntity
  8
Ｓ_１_１
  6
CONTINUOUS
 62
     3
100
AcDbVertex
100
AcDb2dVertex
 10
807.8279450000002
 20
1047.711675
 30
0.0
  0
VERTEX
  5
19F
330
162
100
AcDbEntity
  8
Ｓ_１_１
  6
CONTINUOUS
 62
     3
100
AcDbVertex
100
AcDb2dVertex
 10
806.820885
 20
1051.580762
 30
0.0
  0
VERTEX
  5
1A0
330
162
100
AcDbEntity
  8
Ｓ_１_１
  6
CONTINUOUS
 62
     3
100
AcDbVertex
100
AcDb2dVertex
 10
805.6490510000003
 20
1055.259584
 30
0.0
  0
VERTEX
  5
1A1
330
162
100
AcDbEntity
  8
Ｓ_１_１
  6
CONTINUOUS
 62
     3
100
AcDbVertex
100
AcDb2dVertex
 10
804.3213610000001
 20
1058.720142
 30
0.0
  0
VERTEX
  5
1A2
330
162
100
AcDbEntity
  8
Ｓ_１_１
  6
CONTINUOUS
 62
     3
100
AcDbVertex
100
AcDb2dVertex
 10
802.84792
 20
1061.936101
 30
0.0
  0
VERTEX
  5
1A3
330
162
100
AcDbEntity
  8
Ｓ_１_１
  6
CONTINUOUS
 62
     3
100
AcDbVertex
100
AcDb2dVertex
 10
801.23994
 20
1064.882984
 30
0.0
  0
VERTEX
  5
1A4
330
162
100
AcDbEntity
  8
Ｓ_１_１
  6
CONTINUOUS
 62
     3
100
AcDbVertex
100
AcDb2dVertex
 10
799.5096609999999
 20
1067.538364
 30
0.0
  0
VERTEX
  5
1A5
330
162
100
AcDbEntity
  8
Ｓ_１_１
  6
CONTINUOUS
 62
     3
100
AcDbVertex
100
AcDb2dVertex
 10
797.67025
 20
1069.882032
 30
0.0
  0
VERTEX
  5
1A6
330
162
100
AcDbEntity
  8
Ｓ_１_１
  6
CONTINUOUS
 62
     3
100
AcDbVertex
100
AcDb2dVertex
 10
795.7357070000002
 20
1071.896151
 30
0.0
  0
VERTEX
  5
1A7
330
162
100
AcDbEntity
  8
Ｓ_１_１
  6
CONTINUOUS
 62
     3
100
AcDbVertex
100
AcDb2dVertex
 10
793.720754
 20
1073.565393
 30
0.0
  0
VERTEX
  5
1A8
330
162
100
AcDbEntity
  8
Ｓ_１_１
  6
CONTINUOUS
 62
     3
100
AcDbVertex
100
AcDb2dVertex
 10
791.640726
 20
1074.877053
 30
0.0
  0
VERTEX
  5
1A9
330
162
100
AcDbEntity
  8
Ｓ_１_１
  6
CONTINUOUS
 62
     3
100
AcDbVertex
100
AcDb2dVertex
 10
789.5114550000002
 20
1075.821149
 30
0.0
  0
VERTEX
  5
1AA
330
162
100
AcDbEntity
  8
Ｓ_１_１
  6
CONTINUOUS
 62
     3
100
AcDbVertex
100
AcDb2dVertex
 10
787.3491440000001
 20
1076.390496
 30
0.0
  0
VERTEX
  5
1AB
330
162
100
AcDbEntity
  8
Ｓ_１_１
  6
CONTINUOUS
 62
     3
100
AcDbVertex
100
AcDb2dVertex
 10
785.17025
 20
1076.580761
 30
0.0
  0
SEQEND
  5
1AC
330
162
100
AcDbEntity
  8
Ｓ_１_１
  6
CONTINUOUS
 62
     3
  0
POLYLINE
  5
1AD
330
1F
100
AcDbEntity
  8
Ｓ_１_１
  6
CONTINUOUS
 62
     3
100
AcDb2dPolyline
 66
     1
 10
0.0
 20
0.0
 30
0.0
 70
   128
  0
VERTEX
  5
1AE
330
1AD
100
AcDbEntity
  8
Ｓ_１_１
  6
CONTINUOUS
 62
     3
100
AcDbVertex
100
AcDb2dVertex
 10
741.868974
 20
1076.580761
 30
0.0
  0
VERTEX
  5
1AF
330
1AD
100
AcDbEntity
  8
Ｓ_１_１
  6
CONTINUOUS
 62
     3
100
AcDbVertex
100
AcDb2dVertex
 10
738.6058190000002
 20
1076.153005
 30
0.0
  0
VERTEX
  5
1B0
330
1AD
100
AcDbEntity
  8
Ｓ_１_１
  6
CONTINUOUS
 62
     3
100
AcDbVertex
100
AcDb2dVertex
 10
735.3984979999999
 20
1074.877053
 30
0.0
  0
VERTEX
  5
1B1
330
1AD
100
AcDbEntity
  8
Ｓ_１_１
  6
CONTINUOUS
 62
     3
100
AcDbVertex
100
AcDb2dVertex
 10
732.3018880000001
 20
1072.774738
 30
0.0
  0
VERTEX
  5
1B2
330
1AD
100
AcDbEntity
  8
Ｓ_１_１
  6
CONTINUOUS
 62
     3
100
AcDbVertex
100
AcDb2dVertex
 10
729.368974
 20
1069.882032
 30
0.0
  0
VERTEX
  5
1B3
330
1AD
100
AcDbEntity
  8
Ｓ_１_１
  6
CONTINUOUS
 62
     3
100
AcDbVertex
100
AcDb2dVertex
 10
726.6499379999999
 20
1066.248429
 30
0.0
  0
VERTEX
  5
1B4
330
1AD
100
AcDbEntity
  8
Ｓ_１_１
  6
CONTINUOUS
 62
     3
100
AcDbVertex
100
AcDb2dVertex
 10
724.1913050000002
 20
1061.936101
 30
0.0
  0
VERTEX
  5
1B5
330
1AD
100
AcDbEntity
  8
Ｓ_１_１
  6
CONTINUOUS
 62
     3
100
AcDbVertex
100
AcDb2dVertex
 10
722.0351410000002
 20
1057.018833
 30
0.0
  0
VERTEX
  5
1B6
330
1AD
100
AcDbEntity
  8
Ｓ_１_１
  6
CONTINUOUS
 62
     3
100
AcDbVertex
100
AcDb2dVertex
 10
720.2183389999999
 20
1051.580762
 30
0.0
  0
VERTEX
  5
1B7
330
1AD
100
AcDbEntity
  8
Ｓ_１_１
  6
CONTINUOUS
 62
     3
100
AcDbVertex
100
AcDb2dVertex
 10
718.7719860000001
 20
1045.714934
 30
0.0
  0
VERTEX
  5
1B8
330
1AD
100
AcDbEntity
  8
Ｓ_１_１
  6
CONTINUOUS
 62
     3
100
AcDbVertex
100
AcDb2dVertex
 10
717.7208290000002
 20
1039.521714
 30
0.0
  0
VERTEX
  5
1B9
330
1AD
100
AcDbEntity
  8
Ｓ_１_１
  6
CONTINUOUS
 62
     3
100
AcDbVertex
100
AcDb2dVertex
 10
717.0828530000002
 20
1033.107072
 30
0.0
  0
VERTEX
  5
1BA
330
1AD
100
AcDbEntity
  8
Ｓ_１_１
  6
CONTINUOUS
 62
     3
100
AcDbVertex
100
AcDb2dVertex
 10
716.868974
 20
1026.580762
 30
0.0
  0
VERTEX
  5
1BB
330
1AD
100
AcDbEntity
  8
Ｓ_１_１
  6
CONTINUOUS
 62
     3
100
AcDbVertex
100
AcDb2dVertex
 10
717.0828530000002
 20
1020.054453
 30
0.0
  0
VERTEX
  5
1BC
330
1AD
100
AcDbEntity
  8
Ｓ_１_１
  6
CONTINUOUS
 62
     3
100
AcDbVertex
100
AcDb2dVertex
 10
717.7208290000002
 20
1013.63981
 30
0.0
  0
VERTEX
  5
1BD
330
1AD
100
AcDbEntity
  8
Ｓ_１_１
  6
CONTINUOUS
 62
     3
100
AcDbVertex
100
AcDb2dVertex
 10
718.7719860000001
 20
1007.446591
 30
0.0
  0
VERTEX
  5
1BE
330
1AD
100
AcDbEntity
  8
Ｓ_１_１
  6
CONTINUOUS
 62
     3
100
AcDbVertex
100
AcDb2dVertex
 10
720.2183389999999
 20
1001.580763
 30
0.0
  0
VERTEX
  5
1BF
330
1AD
100
AcDbEntity
  8
Ｓ_１_１
  6
CONTINUOUS
 62
     3
100
AcDbVertex
100
AcDb2dVertex
 10
722.0351410000002
 20
996.1426910000001
 30
0.0
  0
VERTEX
  5
1C0
330
1AD
100
AcDbEntity
  8
Ｓ_１_１
  6
CONTINUOUS
 62
     3
100
AcDbVertex
100
AcDb2dVertex
 10
724.1913050000002
 20
991.2254239999999
 30
0.0
  0
VERTEX
  5
1C1
330
1AD
100
AcDbEntity
  8
Ｓ_１_１
  6
CONTINUOUS
 62
     3
100
AcDbVertex
100
AcDb2dVertex
 10
726.6499379999999
 20
986.9130959999999
 30
0.0
  0
VERTEX
  5
1C2
330
1AD
100
AcDbEntity
  8
Ｓ_１_１
  6
CONTINUOUS
 62
     3
100
AcDbVertex
100
AcDb2dVertex
 10
729.368974
 20
983.2794930000001
 30
0.0
  0
VERTEX
  5
1C3
330
1AD
100
AcDbEntity
  8
Ｓ_１_１
  6
CONTINUOUS
 62
     3
100
AcDbVertex
100
AcDb2dVertex
 10
732.3018880000001
 20
980.3867859999999
 30
0.0
  0
VERTEX
  5
1C4
330
1AD
100
AcDbEntity
  8
Ｓ_１_１
  6
CONTINUOUS
 62
     3
100
AcDbVertex
100
AcDb2dVertex
 10
735.3984979999999
 20
978.2844719999999
 30
0.0
  0
VERTEX
  5
1C5
330
1AD
100
AcDbEntity
  8
Ｓ_１_１
  6
CONTINUOUS
 62
     3
100
AcDbVertex
100
AcDb2dVertex
 10
738.6058190000002
 20
977.00852
 30
0.0
  0
VERTEX
  5
1C6
330
1AD
100
AcDbEntity
  8
Ｓ_１_１
  6
CONTINUOUS
 62
     3
100
AcDbVertex
100
AcDb2dVertex
 10
741.868974
 20
976.580763
 30
0.0
  0
SEQEND
  5
1C7
330
1AD
100
AcDbEntity
  8
Ｓ_１_１
  6
CONTINUOUS
 62
     3
  0
ARC
  5
1C8
330
1F
100
AcDbEntity
  8
Ｓ_１_１
  6
CONTINUOUS
 62
     3
100
AcDbCircle
 10
846.1894599999999
 20
819.580758
 30
0.0
 40
3.000000000000003
100
AcDbArc
 50
269.999997
 51
0.0000030000000252
  0
ARC
  5
1C9
330
1F
100
AcDbEntity
  8
Ｓ_１_１
  6
CONTINUOUS
 62
     3
100
AcDbCircle
 10
853.6894980000001
 20
834.5807570000001
 30
0.0
 40
3.000000000000003
100
AcDbArc
 50
269.999997
 51
0.0000030000000252
  0
ARC
  5
1CA
330
1F
100
AcDbEntity
  8
Ｓ_１_１
  6
CONTINUOUS
 62
     3
100
AcDbCircle
 10
836.1894599999999
 20
798.580773
 30
0.0
 40
3.000000000000003
100
AcDbArc
 50
359.9999620000001
 51
89.99994800000002
  0
ARC
  5
1CB
330
1F
100
AcDbEntity
  8
Ｓ_１_１
  6
CONTINUOUS
 62
     3
100
AcDbCircle
 10
864.6894450000002
 20
786.5807659999999
 30
0.0
 40
3.000000000000003
100
AcDbArc
 50
269.999984
 51
359.9999620000001
  0
ARC
  5
1CC
330
1F
100
AcDbEntity
  8
Ｓ_１_１
  6
CONTINUOUS
 62
     3
100
AcDbCircle
 10
841.6894530000002
 20
786.5807659999999
 30
0.0
 40
3.000000000000003
100
AcDbArc
 50
179.999991
 51
269.999973
  0
ARC
  5
1CD
330
1F
100
AcDbEntity
  8
Ｓ_１_１
  6
CONTINUOUS
 62
     3
100
AcDbCircle
 10
822.1894840000001
 20
798.580773
 30
0.0
 40
3.000000000000003
100
AcDbArc
 50
90.00002300000003
 51
179.999991
  0
ARC
  5
1CE
330
1F
100
AcDbEntity
  8
Ｓ_１_１
  6
CONTINUOUS
 62
     3
100
AcDbCircle
 10
793.6894610000002
 20
786.5807659999999
 30
0.0
 40
3.000000000000003
100
AcDbArc
 50
179.999991
 51
269.999973
  0
ARC
  5
1CF
330
1F
100
AcDbEntity
  8
Ｓ_１_１
  6
CONTINUOUS
 62
     3
100
AcDbCircle
 10
816.6894530000002
 20
786.5807659999999
 30
0.0
 40
3.000000000000003
100
AcDbArc
 50
269.999984
 51
359.9999620000001
  0
ARC
  5
1D0
330
1F
100
AcDbEntity
  8
Ｓ_１_１
  6
CONTINUOUS
 62
     3
100
AcDbCircle
 10
812.189522
 20
819.580758
 30
0.0
 40
3.000000000000003
100
AcDbArc
 50
179.999991
 51
270.0000010000001
  0
ARC
  5
1D1
330
1F
100
AcDbEntity
  8
Ｓ_１_１
  6
CONTINUOUS
 62
     3
100
AcDbCircle
 10
826.689491
 20
970.3932860000001
 30
0.0
 40
16.187498
100
AcDbArc
 50
61.21680000000001
 51
118.783205
  0
ARC
  5
1D2
330
1F
100
AcDbEntity
  8
Ｓ_１_１
  6
CONTINUOUS
 62
     3
100
AcDbCircle
 10
838.3808130000001
 20
981.783934
 30
0.0
 40
4.796875
100
AcDbArc
 50
90.000003
 51
144.3338090000001
  0
ARC
  5
1D3
330
1F
100
AcDbEntity
  8
Ｓ_１_１
  6
CONTINUOUS
 62
     3
100
AcDbCircle
 10
814.9981310000002
 20
981.783934
 30
0.0
 40
4.796875
100
AcDbArc
 50
35.66618900000001
 51
90.000003
  0
ARC
  5
1D4
330
1F
100
AcDbEntity
  8
Ｓ_１_１
  6
CONTINUOUS
 62
     3
100
AcDbCircle
 10
881.6894900000001
 20
876.5807639999999
 30
0.0
 40
9.5
100
AcDbArc
 50
127.8636410000001
 51
52.136347
  0
CIRCLE
  5
1D5
330
1F
100
AcDbEntity
  8
Ｓ_１_１
  6
CONTINUOUS
 62
     3
100
AcDbCircle
 10
881.6894900000001
 20
876.5807639999999
 30
0.0
 40
6.500000000000004
  0
ARC
  5
1D6
330
1F
100
AcDbEntity
  8
Ｓ_１_１
  6
CONTINUOUS
 62
     3
100
AcDbCircle
 10
861.6818990000002
 20
965.497465
 30
0.0
 40
15.58327800000001
100
AcDbArc
 50
69.36241500000003
 51
110.637583
  0
ARC
  5
1D7
330
1F
100
AcDbEntity
  8
Ｓ_１_１
  6
CONTINUOUS
 62
     3
100
AcDbCircle
 10
869.916724
 20
976.8203259999999
 30
0.0
 40
4.260417000000001
100
AcDbArc
 50
90.000003
 51
130.067989
  0
ARC
  5
1D8
330
1F
100
AcDbEntity
  8
Ｓ_１_１
  6
CONTINUOUS
 62
     3
100
AcDbCircle
 10
867.3186490000002
 20
982.309942
 30
0.0
 40
3.770833
100
AcDbArc
 50
90.000003
 51
119.841721
  0
ARC
  5
1D9
330
1F
100
AcDbEntity
  8
Ｓ_１_１
  6
CONTINUOUS
 62
     3
100
AcDbCircle
 10
853.454627
 20
976.8411159999999
 30
0.0
 40
4.239641000000004
100
AcDbArc
 50
49.82974100000002
 51
90.000003
  0
ARC
  5
1DA
330
1F
100
AcDbEntity
  8
Ｓ_１_１
  6
CONTINUOUS
 62
     3
100
AcDbCircle
 10
881.6894900000001
 20
876.5807639999999
 30
0.0
 40
11.999999
100
AcDbArc
 50
141.317816
 51
38.68218500000001
  0
CIRCLE
  5
1DB
330
1F
100
AcDbEntity
  8
Ｓ_１_１
  6
CONTINUOUS
 62
     3
100
AcDbCircle
 10
881.6894900000001
 20
876.5807639999999
 30
0.0
 40
3.000000000000003
  0
CIRCLE
  5
1DC
330
1F
100
AcDbEntity
  8
Ｓ_１_１
  6
CONTINUOUS
 62
     3
100
AcDbCircle
 10
881.6894900000001
 20
876.5807639999999
 30
0.0
 40
2.0
  0
ARC
  5
1DD
330
1F
100
AcDbEntity
  8
Ｓ_１_１
  6
CONTINUOUS
 62
     3
100
AcDbCircle
 10
861.689491
 20
971.7474269999999
 30
0.0
 40
14.333333
100
AcDbArc
 50
74.82182000000002
 51
105.178179
  0
ARC
  5
1DE
330
1F
100
AcDbEntity
  8
Ｓ_１_１
  6
CONTINUOUS
 62
     3
100
AcDbCircle
 10
856.060333
 20
982.309942
 30
0.0
 40
3.770833
100
AcDbArc
 50
60.15827800000005
 51
90.000003
  0
ARC
  5
1DF
330
1F
100
AcDbEntity
  8
Ｓ_１_１
  6
CONTINUOUS
 62
     3
100
AcDbCircle
 10
867.3186490000002
 20
984.851599
 30
0.0
 40
3.770833
100
AcDbArc
 50
240.158279
 51
269.999997
  0
ARC
  5
1E0
330
1F
100
AcDbEntity
  8
Ｓ_１_１
  6
CONTINUOUS
 62
     3
100
AcDbCircle
 10
856.060333
 20
984.851599
 30
0.0
 40
3.770833
100
AcDbArc
 50
269.999997
 51
299.8417220000001
  0
ARC
  5
1E1
330
1F
100
AcDbEntity
  8
Ｓ_１_１
  6
CONTINUOUS
 62
     3
100
AcDbCircle
 10
861.689491
 20
995.4140759999999
 30
0.0
 40
14.333333
100
AcDbArc
 50
254.8218210000003
 51
285.1781800000001
  0
ARC
  5
1E2
330
1F
100
AcDbEntity
  8
Ｓ_１_１
  6
CONTINUOUS
 62
     3
100
AcDbCircle
 10
804.6894840000001
 20
834.5807570000001
 30
0.0
 40
3.000000000000003
100
AcDbArc
 50
179.999991
 51
270.0000010000001
  0
ARC
  5
1E3
330
1F
100
AcDbEntity
  8
Ｓ_１_１
  6
CONTINUOUS
 62
     3
100
AcDbCircle
 10
925.1894740000001
 20
980.080748
 30
0.0
 40
4.0
100
AcDbArc
 50
90.000003
 51
180.000005
  0
ARC
  5
1E4
330
1F
100
AcDbEntity
  8
Ｓ_１_１
  6
CONTINUOUS
 62
     3
100
AcDbCircle
 10
917.189444
 20
965.58074
 30
0.0
 40
4.0
100
AcDbArc
 50
270.000004
 51
0.0
  0
ARC
  5
1E5
330
1F
100
AcDbEntity
  8
Ｓ_１_１
  6
CONTINUOUS
 62
     3
100
AcDbCircle
 10
968.1126380000001
 20
914.123717
 30
0.0
 40
8.4
100
AcDbArc
 50
9.989025000000023
 51
170.0109900000001
  0
ARC
  5
1E6
330
1F
100
AcDbEntity
  8
Ｓ_１_１
  6
CONTINUOUS
 62
     3
100
AcDbCircle
 10
968.1126380000001
 20
914.123717
 30
0.0
 40
8.4
100
AcDbArc
 50
190.584384
 51
349.415621
  0
CIRCLE
  5
1E7
330
1F
100
AcDbEntity
  8
Ｓ_１_１
  6
CONTINUOUS
 62
     3
100
AcDbCircle
 10
968.1126380000001
 20
914.123717
 30
0.0
 40
6.000000000000005
  0
ARC
  5
1E8
330
1F
100
AcDbEntity
  8
Ｓ_１_１
  6
CONTINUOUS
 62
     3
100
AcDbCircle
 10
786.4599609999999
 20
882.4874800000001
 30
0.0
 40
5.367244999999999
100
AcDbArc
 50
0.0
 51
17.26861500000002
  0
ARC
  5
1E9
330
1F
100
AcDbEntity
  8
Ｓ_１_１
  6
CONTINUOUS
 62
     3
100
AcDbCircle
 10
788.1944280000001
 20
882.4874800000001
 30
0.0
 40
5.367244999999999
100
AcDbArc
 50
162.7313880000002
 51
180.000005
  0
ARC
  5
1EA
330
1F
100
AcDbEntity
  8
Ｓ_１_１
  6
CONTINUOUS
 62
     3
100
AcDbCircle
 10
777.189522
 20
940.0807860000001
 30
0.0
 40
4.0
100
AcDbArc
 50
90.000003
 51
180.000005
  0
ARC
  5
1EB
330
1F
100
AcDbEntity
  8
Ｓ_１_１
  6
CONTINUOUS
 62
     3
100
AcDbCircle
 10
777.189522
 20
888.0807800000002
 30
0.0
 40
4.0
100
AcDbArc
 50
179.999991
 51
270.0000010000001
  0
ARC
  5
1EC
330
1F
100
AcDbEntity
  8
Ｓ_１_１
  6
CONTINUOUS
 62
     3
100
AcDbCircle
 10
925.1894740000001
 20
848.080742
 30
0.0
 40
4.0
100
AcDbArc
 50
179.999991
 51
270.0000010000001
  0
ARC
  5
1ED
330
1F
100
AcDbEntity
  8
Ｓ_１_１
  6
CONTINUOUS
 62
     3
100
AcDbCircle
 10
784.766655
 20
891.5807639999999
 30
0.0
 40
21.93943500000001
100
AcDbArc
 50
166.8265100000001
 51
193.1734730000001
  0
ARC
  5
1EE
330
1F
100
AcDbEntity
  8
Ｓ_１_１
  6
CONTINUOUS
 62
     3
100
AcDbCircle
 10
1858.189377
 20
1520.080701
 30
0.0
 40
625.999975
100
AcDbArc
 50
265.4187780000001
 51
274.581217
  0
ARC
  5
1EF
330
1F
100
AcDbEntity
  8
Ｓ_１_１
  6
CONTINUOUS
 62
     3
100
AcDbCircle
 10
1796.18937
 20
931.080771
 30
0.0
 40
3.000000000000003
100
AcDbArc
 50
90.000003
 51
180.000005
  0
ARC
  5
1F0
330
1F
100
AcDbEntity
  8
Ｓ_１_１
  6
CONTINUOUS
 62
     3
100
AcDbCircle
 10
1920.189383
 20
897.080756
 30
0.0
 40
3.000000000000003
100
AcDbArc
 50
269.999997
 51
0.0
  0
ARC
  5
1F1
330
1F
100
AcDbEntity
  8
Ｓ_１_１
  6
CONTINUOUS
 62
     3
100
AcDbCircle
 10
1920.18946
 20
931.080771
 30
0.0
 40
3.000000000000003
100
AcDbArc
 50
0.0
 51
90.000003
  0
ARC
  5
1F2
330
1F
100
AcDbEntity
  8
Ｓ_１_１
  6
CONTINUOUS
 62
     3
100
AcDbCircle
 10
1796.18937
 20
897.080756
 30
0.0
 40
3.000000000000003
100
AcDbArc
 50
179.999991
 51
270.0000010000001
  0
ARC
  5
1F3
330
1F
100
AcDbEntity
  8
Ｓ_１_１
  6
CONTINUOUS
 62
     3
100
AcDbCircle
 10
1858.189415000001
 20
308.0807880000001
 30
0.0
 40
625.999975
100
AcDbArc
 50
85.41878300000002
 51
94.581222
  0
ARC
  5
1F4
330
1F
100
AcDbEntity
  8
Ｓ_１_１
  6
CONTINUOUS
 62
     3
100
AcDbCircle
 10
917.189444
 20
862.5807490000001
 30
0.0
 40
4.0
100
AcDbArc
 50
0.0
 51
89.99999600000004
  0
ARC
  5
1F5
330
1F
100
AcDbEntity
  8
Ｓ_１_１
  6
CONTINUOUS
 62
     3
100
AcDbCircle
 10
1761.18937
 20
964.080763
 30
0.0
 40
19.99999900000001
100
AcDbArc
 50
0.0
 51
89.99999600000004
  0
ARC
  5
1F6
330
1F
100
AcDbEntity
  8
Ｓ_１_１
  6
CONTINUOUS
 62
     3
100
AcDbCircle
 10
1761.189409
 20
864.080765
 30
0.0
 40
19.99999900000001
100
AcDbArc
 50
269.999997
 51
0.0
  0
LINE
  5
1F7
330
1F
100
AcDbEntity
  8
Ｓ_１_１
  6
CONTINUOUS
 62
     3
100
AcDbLine
 10
852.1894450000002
 20
884.0807639999999
 30
0.0
 11
885.689467
 21
884.0807639999999
 31
0.0
  0
LINE
  5
1F8
330
1F
100
AcDbEntity
  8
Ｓ_１_１
  6
CONTINUOUS
 62
     3
100
AcDbLine
 10
852.1894450000002
 20
944.080763
 30
0.0
 11
885.689467
 21
944.080763
 31
0.0
  0
LINE
  5
1F9
330
1F
100
AcDbEntity
  8
Ｓ_１_１
  6
CONTINUOUS
 62
     3
100
AcDbLine
 10
813.6894610000002
 20
944.080763
 30
0.0
 11
842.1894450000002
 21
944.080763
 31
0.0
  0
LINE
  5
1FA
330
1F
100
AcDbEntity
  8
Ｓ_１_１
  6
CONTINUOUS
 62
     3
100
AcDbLine
 10
813.6894610000002
 20
884.0807639999999
 30
0.0
 11
842.1894450000002
 21
884.0807639999999
 31
0.0
  0
LINE
  5
1FB
330
1F
100
AcDbEntity
  8
Ｓ_１_１
  6
CONTINUOUS
 62
     3
100
AcDbLine
 10
842.1894450000002
 20
949.080725
 30
0.0
 11
852.1894450000002
 21
949.080725
 31
0.0
  0
LINE
  5
1FC
330
1F
100
AcDbEntity
  8
Ｓ_１_１
  6
CONTINUOUS
 62
     3
100
AcDbLine
 10
842.1894450000002
 20
879.0807639999999
 30
0.0
 11
852.1894450000002
 21
879.0807639999999
 31
0.0
  0
LINE
  5
1FD
330
1F
100
AcDbEntity
  8
Ｓ_１_１
  6
CONTINUOUS
 62
     3
100
AcDbLine
 10
842.1894450000002
 20
949.080725
 30
0.0
 11
842.1894450000002
 21
879.0807639999999
 31
0.0
  0
LINE
  5
1FE
330
1F
100
AcDbEntity
  8
Ｓ_１_１
  6
CONTINUOUS
 62
     3
100
AcDbLine
 10
852.1894450000002
 20
949.080725
 30
0.0
 11
852.1894450000002
 21
879.0807639999999
 31
0.0
  0
LINE
  5
1FF
330
1F
100
AcDbEntity
  8
Ｓ_１_１
  6
CONTINUOUS
 62
     3
100
AcDbLine
 10
803.6894230000001
 20
949.080725
 30
0.0
 11
803.6894230000001
 21
879.0807639999999
 31
0.0
  0
LINE
  5
200
330
1F
100
AcDbEntity
  8
Ｓ_１_１
  6
CONTINUOUS
 62
     3
100
AcDbLine
 10
813.6894610000002
 20
949.080725
 30
0.0
 11
813.6894610000002
 21
879.0807639999999
 31
0.0
  0
LINE
  5
201
330
1F
100
AcDbEntity
  8
Ｓ_１_１
  6
CONTINUOUS
 62
     3
100
AcDbLine
 10
803.6894230000001
 20
879.0807639999999
 30
0.0
 11
813.6894610000002
 21
879.0807639999999
 31
0.0
  0
LINE
  5
202
330
1F
100
AcDbEntity
  8
Ｓ_１_１
  6
CONTINUOUS
 62
     3
100
AcDbLine
 10
803.6894230000001
 20
949.080725
 30
0.0
 11
813.6894610000002
 21
949.080725
 31
0.0
  0
LINE
  5
203
330
1F
100
AcDbEntity
  8
Ｓ_１_１
  6
CONTINUOUS
 62
     3
100
AcDbLine
 10
849.189491
 20
819.080746
 30
0.0
 11
858.18943
 21
819.080746
 31
0.0
  0
LINE
  5
204
330
1F
100
AcDbEntity
  8
Ｓ_１_１
  6
CONTINUOUS
 62
     3
100
AcDbLine
 10
834.689483
 20
1009.080724
 30
0.0
 11
858.18943
 21
1009.080724
 31
0.0
  0
LINE
  5
205
330
1F
100
AcDbEntity
  8
Ｓ_１_１
  6
CONTINUOUS
 62
     3
100
AcDbLine
 10
808.18943
 20
971.5808010000001
 30
0.0
 11
808.18943
 21
1009.080724
 31
0.0
  0
LINE
  5
206
330
1F
100
AcDbEntity
  8
Ｓ_１_１
  6
CONTINUOUS
 62
     3
100
AcDbLine
 10
798.1894690000001
 20
884.080726
 30
0.0
 11
798.1894690000001
 21
856.580765
 31
0.0
  0
LINE
  5
207
330
1F
100
AcDbEntity
  8
Ｓ_１_１
  6
CONTINUOUS
 62
     3
100
AcDbLine
 10
858.18943
 20
856.580765
 30
0.0
 11
858.18943
 21
819.080746
 31
0.0
  0
LINE
  5
208
330
1F
100
AcDbEntity
  8
Ｓ_１_１
  6
CONTINUOUS
 62
     3
100
AcDbLine
 10
808.18943
 20
819.080746
 30
0.0
 11
809.189491
 21
819.080746
 31
0.0
  0
LINE
  5
209
330
1F
100
AcDbEntity
  8
Ｓ_１_１
  6
CONTINUOUS
 62
     3
100
AcDbLine
 10
808.18943
 20
831.580765
 30
0.0
 11
808.18943
 21
819.080746
 31
0.0
  0
LINE
  5
20A
330
1F
100
AcDbEntity
  8
Ｓ_１_１
  6
CONTINUOUS
 62
     3
100
AcDbLine
 10
858.18943
 20
986.080809
 30
0.0
 11
858.18943
 21
1009.080724
 31
0.0
  0
LINE
  5
20B
330
1F
100
AcDbEntity
  8
Ｓ_１_１
  6
CONTINUOUS
 62
     3
100
AcDbLine
 10
808.18943
 20
1009.080724
 30
0.0
 11
818.6894610000002
 21
1009.080724
 31
0.0
  0
LINE
  5
20C
330
1F
100
AcDbEntity
  8
Ｓ_１_１
  6
CONTINUOUS
 62
     3
100
AcDbLine
 10
798.1894690000001
 20
971.5808010000001
 30
0.0
 11
913.189467
 21
971.5808010000001
 31
0.0
  0
LINE
  5
20D
330
1F
100
AcDbEntity
  8
Ｓ_１_１
  6
CONTINUOUS
 62
     3
100
AcDbLine
 10
829.1894530000002
 20
831.580765
 30
0.0
 11
853.6894980000001
 21
831.580765
 31
0.0
  0
LINE
  5
20E
330
1F
100
AcDbEntity
  8
Ｓ_１_１
  6
CONTINUOUS
 62
     3
100
AcDbLine
 10
856.689491
 20
834.5807570000001
 30
0.0
 11
856.689491
 21
856.580765
 31
0.0
  0
LINE
  5
20F
330
1F
100
AcDbEntity
  8
Ｓ_１_１
  6
CONTINUOUS
 62
     3
100
AcDbLine
 10
849.189491
 20
819.580758
 30
0.0
 11
849.189491
 21
831.580765
 31
0.0
  0
LINE
  5
210
330
1F
100
AcDbEntity
  8
Ｓ_１_１
  6
CONTINUOUS
 62
     3
100
AcDbLine
 10
829.1894530000002
 20
816.580765
 30
0.0
 11
846.1894599999999
 21
816.580765
 31
0.0
  0
LINE
  5
211
330
1F
100
AcDbEntity
  8
Ｓ_１_１
  6
CONTINUOUS
 62
     3
100
AcDbLine
 10
829.1894530000002
 20
801.5807659999999
 30
0.0
 11
822.1894840000001
 21
801.5807659999999
 31
0.0
  0
LINE
  5
212
330
1F
100
AcDbEntity
  8
Ｓ_１_１
  6
CONTINUOUS
 62
     3
100
AcDbLine
 10
829.1894530000002
 20
798.580773
 30
0.0
 11
790.6894690000001
 21
798.580773
 31
0.0
  0
LINE
  5
213
330
1F
100
AcDbEntity
  8
Ｓ_１_１
  6
CONTINUOUS
 62
     3
100
AcDbLine
 10
790.6894690000001
 20
786.5807659999999
 30
0.0
 11
790.6894690000001
 21
798.580773
 31
0.0
  0
LINE
  5
214
330
1F
100
AcDbEntity
  8
Ｓ_１_１
  6
CONTINUOUS
 62
     3
100
AcDbLine
 10
793.6894610000002
 20
783.580793
 30
0.0
 11
816.6894530000002
 21
783.580793
 31
0.0
  0
LINE
  5
215
330
1F
100
AcDbEntity
  8
Ｓ_１_１
  6
CONTINUOUS
 62
     3
100
AcDbLine
 10
824.189491
 20
801.5807659999999
 30
0.0
 11
824.189491
 21
816.580765
 31
0.0
  0
LINE
  5
216
330
1F
100
AcDbEntity
  8
Ｓ_１_１
  6
CONTINUOUS
 62
     3
100
AcDbLine
 10
821.189477
 20
798.5807860000001
 30
0.0
 11
824.1894820000001
 21
783.5807570000001
 31
0.0
  0
LINE
  5
217
330
1F
100
AcDbEntity
  8
Ｓ_１_１
  6
CONTINUOUS
 62
     3
100
AcDbLine
 10
819.6894840000001
 20
787.3307920000002
 30
0.0
 11
819.6894840000001
 21
786.5807659999999
 31
0.0
  0
LINE
  5
218
330
1F
100
AcDbEntity
  8
Ｓ_１_１
  6
CONTINUOUS
 62
     3
100
AcDbLine
 10
824.189491
 20
783.580793
 30
0.0
 11
829.1894530000002
 21
783.580793
 31
0.0
  0
LINE
  5
219
330
1F
100
AcDbEntity
  8
Ｓ_１_１
  6
CONTINUOUS
 62
     3
100
AcDbLine
 10
823.4394840000001
 20
787.3307920000002
 30
0.0
 11
819.6894840000001
 21
787.3307920000002
 31
0.0
  0
LINE
  5
21A
330
1F
100
AcDbEntity
  8
Ｓ_１_１
  6
CONTINUOUS
 62
     3
100
AcDbLine
 10
829.1894530000002
 20
801.5807659999999
 30
0.0
 11
836.1894599999999
 21
801.5807659999999
 31
0.0
  0
LINE
  5
21B
330
1F
100
AcDbEntity
  8
Ｓ_１_１
  6
CONTINUOUS
 62
     3
100
AcDbLine
 10
829.1894530000002
 20
798.580773
 30
0.0
 11
867.689475
 21
798.580773
 31
0.0
  0
LINE
  5
21C
330
1F
100
AcDbEntity
  8
Ｓ_１_１
  6
CONTINUOUS
 62
     3
100
AcDbLine
 10
867.689475
 20
786.5807659999999
 30
0.0
 11
867.689475
 21
798.580773
 31
0.0
  0
LINE
  5
21D
330
1F
100
AcDbEntity
  8
Ｓ_１_１
  6
CONTINUOUS
 62
     3
100
AcDbLine
 10
864.6894450000002
 20
783.580793
 30
0.0
 11
841.6894530000002
 21
783.580793
 31
0.0
  0
LINE
  5
21E
330
1F
100
AcDbEntity
  8
Ｓ_１_１
  6
CONTINUOUS
 62
     3
100
AcDbLine
 10
834.189491
 20
801.5807659999999
 30
0.0
 11
834.189491
 21
816.580765
 31
0.0
  0
LINE
  5
21F
330
1F
100
AcDbEntity
  8
Ｓ_１_１
  6
CONTINUOUS
 62
     3
100
AcDbLine
 10
837.1894390000001
 20
798.5807599999999
 30
0.0
 11
834.189444
 21
783.580787
 31
0.0
  0
LINE
  5
220
330
1F
100
AcDbEntity
  8
Ｓ_１_１
  6
CONTINUOUS
 62
     3
100
AcDbLine
 10
838.6894599999999
 20
787.3307920000002
 30
0.0
 11
838.6894599999999
 21
786.5807659999999
 31
0.0
  0
LINE
  5
221
330
1F
100
AcDbEntity
  8
Ｓ_１_１
  6
CONTINUOUS
 62
     3
100
AcDbLine
 10
834.189491
 20
783.580793
 30
0.0
 11
829.1894530000002
 21
783.580793
 31
0.0
  0
LINE
  5
222
330
1F
100
AcDbEntity
  8
Ｓ_１_１
  6
CONTINUOUS
 62
     3
100
AcDbLine
 10
834.939422
 20
787.3307920000002
 30
0.0
 11
838.6894599999999
 21
787.3307920000002
 31
0.0
  0
LINE
  5
223
330
1F
100
AcDbEntity
  8
Ｓ_１_１
  6
CONTINUOUS
 62
     3
100
AcDbLine
 10
829.1894530000002
 20
831.580765
 30
0.0
 11
804.6894840000001
 21
831.580765
 31
0.0
  0
LINE
  5
224
330
1F
100
AcDbEntity
  8
Ｓ_１_１
  6
CONTINUOUS
 62
     3
100
AcDbLine
 10
801.689491
 20
834.5807570000001
 30
0.0
 11
801.689491
 21
856.580765
 31
0.0
  0
LINE
  5
225
330
1F
100
AcDbEntity
  8
Ｓ_１_１
  6
CONTINUOUS
 62
     3
100
AcDbLine
 10
818.6894610000002
 20
986.580763
 30
0.0
 11
818.6894610000002
 21
1013.08074
 31
0.0
  0
LINE
  5
226
330
1F
100
AcDbEntity
  8
Ｓ_１_１
  6
CONTINUOUS
 62
     3
100
AcDbLine
 10
811.1009700000001
 20
984.5808089999999
 30
0.0
 11
814.9981059999999
 21
986.58082
 31
0.0
  0
LINE
  5
227
330
1F
100
AcDbEntity
  8
Ｓ_１_１
  6
CONTINUOUS
 62
     3
100
AcDbLine
 10
834.689483
 20
986.580763
 30
0.0
 11
834.689483
 21
1013.980703
 31
0.0
  0
LINE
  5
228
330
1F
100
AcDbEntity
  8
Ｓ_１_１
  6
CONTINUOUS
 62
     3
100
AcDbLine
 10
811.1009980000002
 20
974.5807550000001
 30
0.0
 11
811.1009980000002
 21
984.5807550000001
 31
0.0
  0
LINE
  5
229
330
1F
100
AcDbEntity
  8
Ｓ_１_１
  6
CONTINUOUS
 62
     3
100
AcDbLine
 10
818.8952250000001
 20
974.5807550000001
 30
0.0
 11
818.8952250000001
 21
984.5807550000001
 31
0.0
  0
LINE
  5
22A
330
1F
100
AcDbEntity
  8
Ｓ_１_１
  6
CONTINUOUS
 62
     3
100
AcDbLine
 10
811.1009980000002
 20
974.5807550000001
 30
0.0
 11
842.277946
 21
974.5807550000001
 31
0.0
  0
LINE
  5
22B
330
1F
100
AcDbEntity
  8
Ｓ_１_１
  6
CONTINUOUS
 62
     3
100
AcDbLine
 10
741.868974
 20
1076.580761
 30
0.0
 11
785.17025
 21
1076.580761
 31
0.0
  0
LINE
  5
22C
330
1F
100
AcDbEntity
  8
Ｓ_１_１
  6
CONTINUOUS
 62
     3
100
AcDbLine
 10
741.868974
 20
976.580763
 30
0.0
 11
785.17025
 21
976.580763
 31
0.0
  0
LINE
  5
22D
330
1F
100
AcDbEntity
  8
Ｓ_１_１
  6
CONTINUOUS
 62
     3
100
AcDbLine
 10
809.2417530000001
 20
1013.08074
 30
0.0
 11
816.6895290000002
 21
1013.08074
 31
0.0
  0
LINE
  5
22E
330
1F
100
AcDbEntity
  8
Ｓ_１_１
  6
CONTINUOUS
 62
     3
100
AcDbLine
 10
809.2417530000001
 20
1040.080785
 30
0.0
 11
816.6895290000002
 21
1040.080785
 31
0.0
  0
LINE
  5
22F
330
1F
100
AcDbEntity
  8
Ｓ_１_１
  6
CONTINUOUS
 62
     3
100
AcDbLine
 10
829.189413
 20
1026.580753
 30
0.0
 11
821.6894490000001
 21
1013.080761
 31
0.0
  0
LINE
  5
230
330
1F
100
AcDbEntity
  8
Ｓ_１_１
  6
CONTINUOUS
 62
     3
100
AcDbLine
 10
841.689434
 20
1026.580791
 30
0.0
 11
834.189471
 21
1040.080782
 31
0.0
  0
LINE
  5
231
330
1F
100
AcDbEntity
  8
Ｓ_１_１
  6
CONTINUOUS
 62
     3
100
AcDbLine
 10
829.1894400000001
 20
1026.580752
 30
0.0
 11
821.689477
 21
1040.080744
 31
0.0
  0
LINE
  5
232
330
1F
100
AcDbEntity
  8
Ｓ_１_１
  6
CONTINUOUS
 62
     3
100
AcDbLine
 10
824.1894249999999
 20
1026.580831
 30
0.0
 11
816.689461
 21
1040.080823
 31
0.0
  0
LINE
  5
233
330
1F
100
AcDbEntity
  8
Ｓ_１_１
  6
CONTINUOUS
 62
     3
100
AcDbLine
 10
841.6894940000001
 20
1026.580753
 30
0.0
 11
834.1895109999999
 21
1013.080728
 31
0.0
  0
LINE
  5
234
330
1F
100
AcDbEntity
  8
Ｓ_１_１
  6
CONTINUOUS
 62
     3
100
AcDbLine
 10
824.1894190000002
 20
1026.580792
 30
0.0
 11
816.689456
 21
1013.0808
 31
0.0
  0
LINE
  5
235
330
1F
100
AcDbEntity
  8
Ｓ_１_１
  6
CONTINUOUS
 62
     3
100
AcDbLine
 10
816.689426
 20
1026.580766
 30
0.0
 11
809.1894620000002
 21
1013.080774
 31
0.0
  0
LINE
  5
236
330
1F
100
AcDbEntity
  8
Ｓ_１_１
  6
CONTINUOUS
 62
     3
100
AcDbLine
 10
816.6894430000002
 20
1026.580799
 30
0.0
 11
809.189479
 21
1040.08079
 31
0.0
  0
LINE
  5
237
330
1F
100
AcDbEntity
  8
Ｓ_１_１
  6
CONTINUOUS
 62
     3
100
AcDbLine
 10
816.6895290000002
 20
1013.08074
 30
0.0
 11
834.189491
 21
1013.08074
 31
0.0
  0
LINE
  5
238
330
1F
100
AcDbEntity
  8
Ｓ_１_１
  6
CONTINUOUS
 62
     3
100
AcDbLine
 10
816.6895290000002
 20
1040.080785
 30
0.0
 11
834.189491
 21
1040.080785
 31
0.0
  0
LINE
  5
239
330
1F
100
AcDbEntity
  8
Ｓ_１_１
  6
CONTINUOUS
 62
     3
100
AcDbLine
 10
887.174292
 20
867.0807719999999
 30
0.0
 11
892.6591139999999
 21
876.5807619999999
 31
0.0
  0
LINE
  5
23A
330
1F
100
AcDbEntity
  8
Ｓ_１_１
  6
CONTINUOUS
 62
     3
100
AcDbLine
 10
874.1838900000001
 20
876.5807820000001
 30
0.0
 11
877.9366630000001
 21
883.080775
 31
0.0
  0
LINE
  5
23B
330
1F
100
AcDbEntity
  8
Ｓ_１_１
  6
CONTINUOUS
 62
     3
100
AcDbLine
 10
888.3290030000002
 20
884.080768
 30
0.0
 11
892.659123
 21
876.5807800000001
 31
0.0
  0
LINE
  5
23C
330
1F
100
AcDbEntity
  8
Ｓ_１_１
  6
CONTINUOUS
 62
     3
100
AcDbLine
 10
877.9367060000001
 20
883.0807410000001
 30
0.0
 11
885.4422370000001
 21
883.0807410000001
 31
0.0
  0
LINE
  5
23D
330
1F
100
AcDbEntity
  8
Ｓ_１_１
  6
CONTINUOUS
 62
     3
100
AcDbLine
 10
885.442214
 20
870.0807850000001
 30
0.0
 11
889.1949870000002
 21
876.5807780000001
 31
0.0
  0
LINE
  5
23E
330
1F
100
AcDbEntity
  8
Ｓ_１_１
  6
CONTINUOUS
 62
     3
100
AcDbLine
 10
876.2046420000001
 20
867.0807570000001
 30
0.0
 11
887.1743
 21
867.0807570000001
 31
0.0
  0
LINE
  5
23F
330
1F
100
AcDbEntity
  8
Ｓ_１_１
  6
CONTINUOUS
 62
     3
100
AcDbLine
 10
877.9367060000001
 20
870.080787
 30
0.0
 11
885.4422370000001
 21
870.080787
 31
0.0
  0
LINE
  5
240
330
1F
100
AcDbEntity
  8
Ｓ_１_１
  6
CONTINUOUS
 62
     3
100
AcDbLine
 10
869.1950599999999
 20
981.580763
 30
0.0
 11
869.1950599999999
 21
985.5807780000001
 31
0.0
  0
LINE
  5
241
330
1F
100
AcDbEntity
  8
Ｓ_１_１
  6
CONTINUOUS
 62
     3
100
AcDbLine
 10
853.4546260000002
 20
981.0807570000001
 30
0.0
 11
850.7198430000002
 21
980.080773
 31
0.0
  0
LINE
  5
242
330
1F
100
AcDbEntity
  8
Ｓ_１_１
  6
CONTINUOUS
 62
     3
100
AcDbLine
 10
867.318648
 20
986.0807289999999
 30
0.0
 11
869.1950070000001
 21
985.5807369999999
 31
0.0
  0
LINE
  5
243
330
1F
100
AcDbEntity
  8
Ｓ_１_１
  6
CONTINUOUS
 62
     3
100
AcDbLine
 10
856.0602710000002
 20
986.0807390000002
 30
0.0
 11
854.1839120000001
 21
985.580746
 31
0.0
  0
LINE
  5
244
330
1F
100
AcDbEntity
  8
Ｓ_１_１
  6
CONTINUOUS
 62
     3
100
AcDbLine
 10
809.189491
 20
819.580758
 30
0.0
 11
809.189491
 21
831.580765
 31
0.0
  0
LINE
  5
245
330
1F
100
AcDbEntity
  8
Ｓ_１_１
  6
CONTINUOUS
 62
     3
100
AcDbLine
 10
849.189491
 20
974.080763
 30
0.0
 11
874.1894900000001
 21
974.080763
 31
0.0
  0
LINE
  5
246
330
1F
100
AcDbEntity
  8
Ｓ_１_１
  6
CONTINUOUS
 62
     3
100
AcDbLine
 10
874.1894900000001
 20
971.5808010000001
 30
0.0
 11
874.1894900000001
 21
974.080763
 31
0.0
  0
LINE
  5
247
330
1F
100
AcDbEntity
  8
Ｓ_１_１
  6
CONTINUOUS
 62
     3
100
AcDbLine
 10
849.189491
 20
971.5808010000001
 30
0.0
 11
849.189491
 21
974.080763
 31
0.0
  0
LINE
  5
248
330
1F
100
AcDbEntity
  8
Ｓ_１_１
  6
CONTINUOUS
 62
     3
100
AcDbLine
 10
867.174339
 20
974.080763
 30
0.0
 11
867.174339
 21
980.080748
 31
0.0
  0
LINE
  5
249
330
1F
100
AcDbEntity
  8
Ｓ_１_１
  6
CONTINUOUS
 62
     3
100
AcDbLine
 10
869.9167020000001
 20
981.080754
 30
0.0
 11
872.659078
 21
980.0807679999999
 31
0.0
  0
LINE
  5
24A
330
1F
100
AcDbEntity
  8
Ｓ_１_１
  6
CONTINUOUS
 62
     3
100
AcDbLine
 10
857.9367060000001
 20
981.580763
 30
0.0
 11
857.9367060000001
 21
985.5807780000001
 31
0.0
  0
LINE
  5
24B
330
1F
100
AcDbEntity
  8
Ｓ_１_１
  6
CONTINUOUS
 62
     3
100
AcDbLine
 10
872.6591099999999
 20
974.080763
 30
0.0
 11
872.6591099999999
 21
980.080748
 31
0.0
  0
LINE
  5
24C
330
1F
100
AcDbEntity
  8
Ｓ_１_１
  6
CONTINUOUS
 62
     3
100
AcDbLine
 10
853.454627
 20
981.0807699999999
 30
0.0
 11
869.916724
 21
981.0807699999999
 31
0.0
  0
LINE
  5
24D
330
1F
100
AcDbEntity
  8
Ｓ_１_１
  6
CONTINUOUS
 62
     3
100
AcDbLine
 10
856.1894599999999
 20
980.080748
 30
0.0
 11
856.1894599999999
 21
974.080763
 31
0.0
  0
LINE
  5
24E
330
1F
100
AcDbEntity
  8
Ｓ_１_１
  6
CONTINUOUS
 62
     3
100
AcDbLine
 10
854.1839210000002
 20
981.580763
 30
0.0
 11
854.1839210000002
 21
985.5807780000001
 31
0.0
  0
LINE
  5
24F
330
1F
100
AcDbEntity
  8
Ｓ_１_１
  6
CONTINUOUS
 62
     3
100
AcDbLine
 10
856.060333
 20
986.080809
 30
0.0
 11
867.3186490000002
 21
986.080809
 31
0.0
  0
LINE
  5
250
330
1F
100
AcDbEntity
  8
Ｓ_１_１
  6
CONTINUOUS
 62
     3
100
AcDbLine
 10
850.719833
 20
974.080763
 30
0.0
 11
850.719833
 21
980.080748
 31
0.0
  0
LINE
  5
251
330
1F
100
AcDbEntity
  8
Ｓ_１_１
  6
CONTINUOUS
 62
     3
100
AcDbLine
 10
865.4422750000003
 20
981.580763
 30
0.0
 11
865.4422750000003
 21
985.5807780000001
 31
0.0
  0
LINE
  5
252
330
1F
100
AcDbEntity
  8
Ｓ_１_１
  6
CONTINUOUS
 62
     3
100
AcDbLine
 10
867.3186280000001
 20
981.08075
 30
0.0
 11
869.195024
 21
981.580752
 31
0.0
  0
LINE
  5
253
330
1F
100
AcDbEntity
  8
Ｓ_１_１
  6
CONTINUOUS
 62
     3
100
AcDbLine
 10
856.0602910000001
 20
981.0807409999999
 30
0.0
 11
854.183895
 21
981.5807430000001
 31
0.0
  0
LINE
  5
254
330
1F
100
AcDbEntity
  8
Ｓ_１_１
  6
CONTINUOUS
 62
     3
100
AcDbLine
 10
829.1894530000002
 20
816.580765
 30
0.0
 11
812.189522
 21
816.580765
 31
0.0
  0
LINE
  5
255
330
1F
100
AcDbEntity
  8
Ｓ_１_１
  6
CONTINUOUS
 62
     3
100
AcDbLine
 10
836.9837190000002
 20
971.5808010000001
 30
0.0
 11
836.9837190000002
 21
974.5807550000001
 31
0.0
  0
LINE
  5
256
330
1F
100
AcDbEntity
  8
Ｓ_１_１
  6
CONTINUOUS
 62
     3
100
AcDbLine
 10
816.3952640000002
 20
971.5808010000001
 30
0.0
 11
816.3952640000002
 21
974.5807550000001
 31
0.0
  0
LINE
  5
257
330
1F
100
AcDbEntity
  8
Ｓ_１_１
  6
CONTINUOUS
 62
     3
100
AcDbLine
 10
838.3808110000001
 20
986.580775
 30
0.0
 11
842.2779140000001
 21
984.580781
 31
0.0
  0
LINE
  5
258
330
1F
100
AcDbEntity
  8
Ｓ_１_１
  6
CONTINUOUS
 62
     3
100
AcDbLine
 10
834.4837190000002
 20
974.5807550000001
 30
0.0
 11
834.4837190000002
 21
984.5807550000001
 31
0.0
  0
LINE
  5
259
330
1F
100
AcDbEntity
  8
Ｓ_１_１
  6
CONTINUOUS
 62
     3
100
AcDbLine
 10
842.277946
 20
974.5807550000001
 30
0.0
 11
842.277946
 21
984.5807550000001
 31
0.0
  0
LINE
  5
25A
330
1F
100
AcDbEntity
  8
Ｓ_１_１
  6
CONTINUOUS
 62
     3
100
AcDbLine
 10
814.9981310000002
 20
986.580763
 30
0.0
 11
838.3808130000001
 21
986.580763
 31
0.0
  0
LINE
  5
25B
330
1F
100
AcDbEntity
  8
Ｓ_１_１
  6
CONTINUOUS
 62
     3
100
AcDbLine
 10
870.7197960000002
 20
876.580779
 30
0.0
 11
875.0499210000002
 21
884.080775
 31
0.0
  0
LINE
  5
25C
330
1F
100
AcDbEntity
  8
Ｓ_１_１
  6
CONTINUOUS
 62
     3
100
AcDbLine
 10
870.7198340000002
 20
876.5807510000002
 30
0.0
 11
876.204644
 21
867.0807820000001
 31
0.0
  0
LINE
  5
25D
330
1F
100
AcDbEntity
  8
Ｓ_１_１
  6
CONTINUOUS
 62
     3
100
AcDbLine
 10
874.183899
 20
876.5807599999999
 30
0.0
 11
877.9366840000001
 21
870.080746
 31
0.0
  0
LINE
  5
25E
330
1F
100
AcDbEntity
  8
Ｓ_１_１
  6
CONTINUOUS
 62
     3
100
AcDbLine
 10
885.4422390000002
 20
883.0807659999999
 30
0.0
 11
889.195024
 21
876.580752
 31
0.0
  0
LINE
  5
25F
330
1F
100
AcDbEntity
  8
Ｓ_１_１
  6
CONTINUOUS
 62
     3
100
AcDbLine
 10
893.1894290000002
 20
944.080763
 30
0.0
 11
893.1894290000002
 21
971.580725
 31
0.0
  0
LINE
  5
260
330
1F
100
AcDbEntity
  8
Ｓ_１_１
  6
CONTINUOUS
 62
     3
100
AcDbLine
 10
913.189467
 20
942.4179370000002
 30
0.0
 11
913.189467
 21
971.580725
 31
0.0
  0
LINE
  5
261
330
1F
100
AcDbEntity
  8
Ｓ_１_１
  6
CONTINUOUS
 62
     3
100
AcDbLine
 10
921.189459
 20
941.9342330000001
 30
0.0
 11
921.189459
 21
980.080748
 31
0.0
  0
LINE
  5
262
330
1F
100
AcDbEntity
  8
Ｓ_１_１
  6
CONTINUOUS
 62
     3
100
AcDbLine
 10
798.1894690000001
 20
944.080763
 30
0.0
 11
798.1894690000001
 21
971.5808010000001
 31
0.0
  0
LINE
  5
263
330
1F
100
AcDbEntity
  8
Ｓ_１_１
  6
CONTINUOUS
 62
     3
100
AcDbLine
 10
913.189467
 20
961.580763
 30
0.0
 11
917.189444
 21
961.580763
 31
0.0
  0
LINE
  5
264
330
1F
100
AcDbEntity
  8
Ｓ_１_１
  6
CONTINUOUS
 62
     3
100
AcDbLine
 10
925.189436
 20
984.080725
 30
0.0
 11
1761.18937
 21
984.080725
 31
0.0
  0
LINE
  5
265
330
1F
100
AcDbEntity
  8
Ｓ_１_１
  6
CONTINUOUS
 62
     3
100
AcDbLine
 10
973.910825
 20
912.580787
 30
0.0
 11
988.1894660000002
 21
912.580787
 31
0.0
  0
LINE
  5
266
330
1F
100
AcDbEntity
  8
Ｓ_１_１
  6
CONTINUOUS
 62
     3
100
AcDbLine
 10
973.9330269999999
 20
915.580741
 30
0.0
 11
988.1894660000002
 21
915.580741
 31
0.0
  0
LINE
  5
267
330
1F
100
AcDbEntity
  8
Ｓ_１_１
  6
CONTINUOUS
 62
     3
100
AcDbLine
 10
988.1894660000002
 20
915.580741
 30
0.0
 11
988.1894660000002
 21
912.580787
 31
0.0
  0
LINE
  5
268
330
1F
100
AcDbEntity
  8
Ｓ_１_１
  6
CONTINUOUS
 62
     3
100
AcDbLine
 10
948.189428
 20
915.580741
 30
0.0
 11
948.189428
 21
912.580787
 31
0.0
  0
LINE
  5
269
330
1F
100
AcDbEntity
  8
Ｓ_１_１
  6
CONTINUOUS
 62
     3
100
AcDbLine
 10
948.189428
 20
912.580787
 30
0.0
 11
962.3144510000001
 21
912.580787
 31
0.0
  0
LINE
  5
26A
330
1F
100
AcDbEntity
  8
Ｓ_１_１
  6
CONTINUOUS
 62
     3
100
AcDbLine
 10
948.189428
 20
915.580741
 30
0.0
 11
962.292249
 21
915.580741
 31
0.0
  0
LINE
  5
26B
330
1F
100
AcDbEntity
  8
Ｓ_１_１
  6
CONTINUOUS
 62
     3
100
AcDbLine
 10
921.189459
 20
886.227256
 30
0.0
 11
921.189459
 21
848.080742
 31
0.0
  0
LINE
  5
26C
330
1F
100
AcDbEntity
  8
Ｓ_１_１
  6
CONTINUOUS
 62
     3
100
AcDbLine
 10
913.189467
 20
885.743515
 30
0.0
 11
913.189467
 21
856.580765
 31
0.0
  0
LINE
  5
26D
330
1F
100
AcDbEntity
  8
Ｓ_１_１
  6
CONTINUOUS
 62
     3
100
AcDbLine
 10
893.1894290000002
 20
884.0807639999999
 30
0.0
 11
893.1894290000002
 21
856.580765
 31
0.0
  0
LINE
  5
26E
330
1F
100
AcDbEntity
  8
Ｓ_１_１
  6
CONTINUOUS
 62
     3
100
AcDbLine
 10
993.189397
 20
890.5807530000001
 30
0.0
 11
885.6894260000001
 21
884.0807570000001
 31
0.0
  0
LINE
  5
26F
330
1F
100
AcDbEntity
  8
Ｓ_１_１
  6
CONTINUOUS
 62
     3
100
AcDbLine
 10
885.689422
 20
944.0807510000002
 30
0.0
 11
993.18943
 21
937.580744
 31
0.0
  0
LINE
  5
270
330
1F
100
AcDbEntity
  8
Ｓ_１_１
  6
CONTINUOUS
 62
     3
100
AcDbLine
 10
777.189522
 20
944.080763
 30
0.0
 11
803.6894230000001
 21
944.080763
 31
0.0
  0
LINE
  5
271
330
1F
100
AcDbEntity
  8
Ｓ_１_１
  6
CONTINUOUS
 62
     3
100
AcDbLine
 10
777.189522
 20
884.0807639999999
 30
0.0
 11
803.6894230000001
 21
884.0807639999999
 31
0.0
  0
LINE
  5
272
330
1F
100
AcDbEntity
  8
Ｓ_１_１
  6
CONTINUOUS
 62
     3
100
AcDbLine
 10
1729.189401
 20
900.580779
 30
0.0
 11
1729.189401
 21
844.080765
 31
0.0
  0
LINE
  5
273
330
1F
100
AcDbEntity
  8
Ｓ_１_１
  6
CONTINUOUS
 62
     3
100
AcDbLine
 10
1781.18937
 20
900.580779
 30
0.0
 11
1781.18937
 21
864.080765
 31
0.0
  0
LINE
  5
274
330
1F
100
AcDbEntity
  8
Ｓ_１_１
  6
CONTINUOUS
 62
     3
100
AcDbLine
 10
1787.389359
 20
927.580787
 30
0.0
 11
1793.189378
 21
927.580787
 31
0.0
  0
LINE
  5
275
330
1F
100
AcDbEntity
  8
Ｓ_１_１
  6
CONTINUOUS
 62
     3
100
AcDbLine
 10
775.3271870000003
 20
884.5407409999999
 30
0.0
 11
775.3271870000003
 21
879.5807570000001
 31
0.0
  0
LINE
  5
276
330
1F
100
AcDbEntity
  8
Ｓ_１_１
  6
CONTINUOUS
 62
     3
100
AcDbLine
 10
774.7498710000002
 20
884.9108810000001
 30
0.0
 11
774.7498710000002
 21
878.5807719999999
 31
0.0
  0
LINE
  5
277
330
1F
100
AcDbEntity
  8
Ｓ_１_１
  6
CONTINUOUS
 62
     3
100
AcDbLine
 10
763.4045420000001
 20
886.5807639999999
 30
0.0
 11
763.4045420000001
 21
878.5807719999999
 31
0.0
  0
LINE
  5
278
330
1F
100
AcDbEntity
  8
Ｓ_１_１
  6
CONTINUOUS
 62
     3
100
AcDbLine
 10
763.4045420000001
 20
904.580756
 30
0.0
 11
763.4045420000001
 21
896.580726
 31
0.0
  0
LINE
  5
279
330
1F
100
AcDbEntity
  8
Ｓ_１_１
  6
CONTINUOUS
 62
     3
100
AcDbLine
 10
747.249871
 20
904.580756
 30
0.0
 11
747.249871
 21
878.5807719999999
 31
0.0
  0
LINE
  5
27A
330
1F
100
AcDbEntity
  8
Ｓ_１_１
  6
CONTINUOUS
 62
     3
100
AcDbLine
 10
747.2497870000001
 20
904.580748
 30
0.0
 11
747.827141
 21
903.5807409999999
 31
0.0
  0
LINE
  5
27B
330
1F
100
AcDbEntity
  8
Ｓ_１_１
  6
CONTINUOUS
 62
     3
100
AcDbLine
 10
762.827165
 20
879.580758
 30
0.0
 11
763.404519
 21
878.5807510000001
 31
0.0
  0
LINE
  5
27C
330
1F
100
AcDbEntity
  8
Ｓ_１_１
  6
CONTINUOUS
 62
     3
100
AcDbLine
 10
747.8272350000001
 20
879.580711
 30
0.0
 11
747.2498979999998
 21
878.580734
 31
0.0
  0
LINE
  5
27D
330
1F
100
AcDbEntity
  8
Ｓ_１_１
  6
CONTINUOUS
 62
     3
100
AcDbLine
 10
763.404586
 20
904.5807310000001
 30
0.0
 11
762.8272380000002
 21
903.580734
 31
0.0
  0
LINE
  5
27E
330
1F
100
AcDbEntity
  8
Ｓ_１_１
  6
CONTINUOUS
 62
     3
100
AcDbLine
 10
775.327169
 20
879.580769
 30
0.0
 11
774.7498210000003
 21
878.5807719999999
 31
0.0
  0
LINE
  5
27F
330
1F
100
AcDbEntity
  8
Ｓ_１_１
  6
CONTINUOUS
 62
     3
100
AcDbLine
 10
763.4045420000001
 20
886.5807639999999
 30
0.0
 11
773.4813700000001
 21
886.5807639999999
 31
0.0
  0
LINE
  5
280
330
1F
100
AcDbEntity
  8
Ｓ_１_１
  6
CONTINUOUS
 62
     3
100
AcDbLine
 10
763.4045420000001
 20
896.580726
 30
0.0
 11
773.1894690000001
 21
896.580726
 31
0.0
  0
LINE
  5
281
330
1F
100
AcDbEntity
  8
Ｓ_１_１
  6
CONTINUOUS
 62
     3
100
AcDbLine
 10
739.645476
 20
889.830723
 30
0.0
 11
739.827175
 21
889.7258190000002
 31
0.0
  0
LINE
  5
282
330
1F
100
AcDbEntity
  8
Ｓ_１_１
  6
CONTINUOUS
 62
     3
100
AcDbLine
 10
739.8271950000001
 20
889.8307719999999
 30
0.0
 11
739.8271950000001
 21
875.5807800000002
 31
0.0
  0
LINE
  5
283
330
1F
100
AcDbEntity
  8
Ｓ_１_１
  6
CONTINUOUS
 62
     3
100
AcDbLine
 10
740.32715
 20
889.8307719999999
 30
0.0
 11
740.32715
 21
876.080734
 31
0.0
  0
LINE
  5
284
330
1F
100
AcDbEntity
  8
Ｓ_１_１
  6
CONTINUOUS
 62
     3
100
AcDbLine
 10
736.827165
 20
893.3307570000001
 30
0.0
 11
736.827165
 21
889.8307719999999
 31
0.0
  0
LINE
  5
285
330
1F
100
AcDbEntity
  8
Ｓ_１_１
  6
CONTINUOUS
 62
     3
100
AcDbLine
 10
736.827165
 20
893.3307570000001
 30
0.0
 11
740.32715
 21
893.3307570000001
 31
0.0
  0
LINE
  5
286
330
1F
100
AcDbEntity
  8
Ｓ_１_１
  6
CONTINUOUS
 62
     3
100
AcDbLine
 10
736.827165
 20
889.8307719999999
 30
0.0
 11
740.32715
 21
889.8307719999999
 31
0.0
  0
LINE
  5
287
330
1F
100
AcDbEntity
  8
Ｓ_１_１
  6
CONTINUOUS
 62
     3
100
AcDbLine
 10
742.827206
 20
907.0807310000001
 30
0.0
 11
743.3272500000002
 21
906.5806880000002
 31
0.0
  0
LINE
  5
288
330
1F
100
AcDbEntity
  8
Ｓ_１_１
  6
CONTINUOUS
 62
     3
100
AcDbLine
 10
741.8272129999999
 20
907.080718
 30
0.0
 11
741.3272230000001
 21
906.5807280000001
 31
0.0
  0
LINE
  5
289
330
1F
100
AcDbEntity
  8
Ｓ_１_１
  6
CONTINUOUS
 62
     3
100
AcDbLine
 10
743.327197
 20
876.5807100000001
 30
0.0
 11
742.8272209999998
 21
876.0807330000001
 31
0.0
  0
LINE
  5
28A
330
1F
100
AcDbEntity
  8
Ｓ_１_１
  6
CONTINUOUS
 62
     3
100
AcDbLine
 10
741.3272250000001
 20
876.5806960000001
 30
0.0
 11
741.827214
 21
876.0807060000002
 31
0.0
  0
LINE
  5
28B
330
1F
100
AcDbEntity
  8
Ｓ_１_１
  6
CONTINUOUS
 62
     3
100
AcDbLine
 10
743.3271800000001
 20
878.5807719999999
 30
0.0
 11
743.3271800000001
 21
876.5807639999999
 31
0.0
  0
LINE
  5
28C
330
1F
100
AcDbEntity
  8
Ｓ_１_１
  6
CONTINUOUS
 62
     3
100
AcDbLine
 10
741.327211
 20
878.5807719999999
 30
0.0
 11
741.327211
 21
876.5807639999999
 31
0.0
  0
LINE
  5
28D
330
1F
100
AcDbEntity
  8
Ｓ_１_１
  6
CONTINUOUS
 62
     3
100
AcDbLine
 10
741.327211
 20
906.5807639999999
 30
0.0
 11
741.327211
 21
904.580756
 31
0.0
  0
LINE
  5
28E
330
1F
100
AcDbEntity
  8
Ｓ_１_１
  6
CONTINUOUS
 62
     3
100
AcDbLine
 10
743.3271800000001
 20
906.5807639999999
 30
0.0
 11
743.3271800000001
 21
904.580756
 31
0.0
  0
LINE
  5
28F
330
1F
100
AcDbEntity
  8
Ｓ_１_１
  6
CONTINUOUS
 62
     3
100
AcDbLine
 10
741.8272410000001
 20
907.080756
 30
0.0
 11
742.8272260000002
 21
907.080756
 31
0.0
  0
LINE
  5
290
330
1F
100
AcDbEntity
  8
Ｓ_１_１
  6
CONTINUOUS
 62
     3
100
AcDbLine
 10
741.8272410000001
 20
876.080734
 30
0.0
 11
742.8272260000002
 21
876.080734
 31
0.0
  0
LINE
  5
291
330
1F
100
AcDbEntity
  8
Ｓ_１_１
  6
CONTINUOUS
 62
     3
100
AcDbLine
 10
739.827193
 20
893.4357000000001
 30
0.0
 11
739.6454609999998
 21
893.3307760000002
 31
0.0
  0
LINE
  5
292
330
1F
100
AcDbEntity
  8
Ｓ_１_１
  6
CONTINUOUS
 62
     3
100
AcDbLine
 10
716.327211
 20
907.580749
 30
0.0
 11
716.327211
 21
875.5807800000002
 31
0.0
  0
LINE
  5
293
330
1F
100
AcDbEntity
  8
Ｓ_１_１
  6
CONTINUOUS
 62
     3
100
AcDbLine
 10
723.827211
 20
907.580749
 30
0.0
 11
723.827211
 21
875.5807800000002
 31
0.0
  0
LINE
  5
294
330
1F
100
AcDbEntity
  8
Ｓ_１_１
  6
CONTINUOUS
 62
     3
100
AcDbLine
 10
739.8271950000001
 20
907.580749
 30
0.0
 11
739.8271950000001
 21
893.3307570000001
 31
0.0
  0
LINE
  5
295
330
1F
100
AcDbEntity
  8
Ｓ_１_１
  6
CONTINUOUS
 62
     3
100
AcDbLine
 10
732.8272260000002
 20
875.5807800000002
 30
0.0
 11
732.8272260000002
 21
907.580749
 31
0.0
  0
LINE
  5
296
330
1F
100
AcDbEntity
  8
Ｓ_１_１
  6
CONTINUOUS
 62
     3
100
AcDbLine
 10
740.3272049999999
 20
876.0807739999999
 30
0.0
 11
739.8271880000001
 21
875.5807570000002
 31
0.0
  0
LINE
  5
297
330
1F
100
AcDbEntity
  8
Ｓ_１_１
  6
CONTINUOUS
 62
     3
100
AcDbLine
 10
739.8271800000001
 20
907.580762
 30
0.0
 11
740.3271699999999
 21
907.0807719999999
 31
0.0
  0
LINE
  5
298
330
1F
100
AcDbEntity
  8
Ｓ_１_１
  6
CONTINUOUS
 62
     3
100
AcDbLine
 10
732.8272260000002
 20
875.5807800000002
 30
0.0
 11
739.8271950000001
 21
875.5807800000002
 31
0.0
  0
LINE
  5
299
330
1F
100
AcDbEntity
  8
Ｓ_１_１
  6
CONTINUOUS
 62
     3
100
AcDbLine
 10
732.8272260000002
 20
907.580749
 30
0.0
 11
739.8271950000001
 21
907.580749
 31
0.0
  0
LINE
  5
29A
330
1F
100
AcDbEntity
  8
Ｓ_１_１
  6
CONTINUOUS
 62
     3
100
AcDbLine
 10
723.8271849999999
 20
907.580762
 30
0.0
 11
724.3271739999998
 21
907.0807730000001
 31
0.0
  0
LINE
  5
29B
330
1F
100
AcDbEntity
  8
Ｓ_１_１
  6
CONTINUOUS
 62
     3
100
AcDbLine
 10
732.3271440000002
 20
876.0807880000001
 30
0.0
 11
732.8271330000001
 21
875.5807980000001
 31
0.0
  0
LINE
  5
29C
330
1F
100
AcDbEntity
  8
Ｓ_１_１
  6
CONTINUOUS
 62
     3
100
AcDbLine
 10
724.3272089999999
 20
876.080773
 30
0.0
 11
723.827193
 21
875.580756
 31
0.0
  0
LINE
  5
29D
330
1F
100
AcDbEntity
  8
Ｓ_１_１
  6
CONTINUOUS
 62
     3
100
AcDbLine
 10
732.8271550000001
 20
907.5807879999999
 30
0.0
 11
732.327165
 21
907.0807980000001
 31
0.0
  0
LINE
  5
29E
330
1F
100
AcDbEntity
  8
Ｓ_１_１
  6
CONTINUOUS
 62
     3
100
AcDbLine
 10
724.327165
 20
907.080756
 30
0.0
 11
724.327165
 21
876.080734
 31
0.0
  0
LINE
  5
29F
330
1F
100
AcDbEntity
  8
Ｓ_１_１
  6
CONTINUOUS
 62
     3
100
AcDbLine
 10
732.3271950000001
 20
907.080756
 30
0.0
 11
732.3271950000001
 21
876.080734
 31
0.0
  0
LINE
  5
2A0
330
1F
100
AcDbEntity
  8
Ｓ_１_１
  6
CONTINUOUS
 62
     3
100
AcDbLine
 10
724.327165
 20
876.080734
 30
0.0
 11
732.3271950000001
 21
876.080734
 31
0.0
  0
LINE
  5
2A1
330
1F
100
AcDbEntity
  8
Ｓ_１_１
  6
CONTINUOUS
 62
     3
100
AcDbLine
 10
724.327165
 20
907.080756
 30
0.0
 11
732.3271950000001
 21
907.080756
 31
0.0
  0
LINE
  5
2A2
330
1F
100
AcDbEntity
  8
Ｓ_１_１
  6
CONTINUOUS
 62
     3
100
AcDbLine
 10
713.327219
 20
878.5807209999999
 30
0.0
 11
716.327212
 21
875.5807289999999
 31
0.0
  0
LINE
  5
2A3
330
1F
100
AcDbEntity
  8
Ｓ_１_１
  6
CONTINUOUS
 62
     3
100
AcDbLine
 10
713.327204
 20
904.5807140000001
 30
0.0
 11
716.327197
 21
907.580706
 31
0.0
  0
LINE
  5
2A4
330
1F
100
AcDbEntity
  8
Ｓ_１_１
  6
CONTINUOUS
 62
     3
100
AcDbLine
 10
747.8271880000001
 20
903.5807719999999
 30
0.0
 11
762.8271870000001
 21
903.5807719999999
 31
0.0
  0
LINE
  5
2A5
330
1F
100
AcDbEntity
  8
Ｓ_１_１
  6
CONTINUOUS
 62
     3
100
AcDbLine
 10
747.8271880000001
 20
879.5807570000001
 30
0.0
 11
762.8271870000001
 21
879.5807570000001
 31
0.0
  0
LINE
  5
2A6
330
1F
100
AcDbEntity
  8
Ｓ_１_１
  6
CONTINUOUS
 62
     3
100
AcDbLine
 10
713.327257
 20
904.580756
 30
0.0
 11
713.327257
 21
878.5807719999999
 31
0.0
  0
LINE
  5
2A7
330
1F
100
AcDbEntity
  8
Ｓ_１_１
  6
CONTINUOUS
 62
     3
100
AcDbLine
 10
716.327211
 20
875.5807800000002
 30
0.0
 11
723.827211
 21
875.5807800000002
 31
0.0
  0
LINE
  5
2A8
330
1F
100
AcDbEntity
  8
Ｓ_１_１
  6
CONTINUOUS
 62
     3
100
AcDbLine
 10
716.327211
 20
907.580749
 30
0.0
 11
723.827211
 21
907.580749
 31
0.0
  0
LINE
  5
2A9
330
1F
100
AcDbEntity
  8
Ｓ_１_１
  6
CONTINUOUS
 62
     3
100
AcDbLine
 10
763.4045799999999
 20
878.5807719999999
 30
0.0
 11
774.7498710000002
 21
878.5807719999999
 31
0.0
  0
LINE
  5
2AA
330
1F
100
AcDbEntity
  8
Ｓ_１_１
  6
CONTINUOUS
 62
     3
100
AcDbLine
 10
763.4045420000001
 20
904.580756
 30
0.0
 11
773.1894690000001
 21
904.580756
 31
0.0
  0
LINE
  5
2AB
330
1F
100
AcDbEntity
  8
Ｓ_１_１
  6
CONTINUOUS
 62
     3
100
AcDbLine
 10
712.8272260000002
 20
879.5807570000001
 30
0.0
 11
713.327257
 21
879.5807570000001
 31
0.0
  0
LINE
  5
2AC
330
1F
100
AcDbEntity
  8
Ｓ_１_１
  6
CONTINUOUS
 62
     3
100
AcDbLine
 10
712.8272260000002
 20
903.5807719999999
 30
0.0
 11
713.327257
 21
903.5807719999999
 31
0.0
  0
LINE
  5
2AD
330
1F
100
AcDbEntity
  8
Ｓ_１_１
  6
CONTINUOUS
 62
     3
100
AcDbLine
 10
740.32715
 20
904.580756
 30
0.0
 11
747.249871
 21
904.580756
 31
0.0
  0
LINE
  5
2AE
330
1F
100
AcDbEntity
  8
Ｓ_１_１
  6
CONTINUOUS
 62
     3
100
AcDbLine
 10
740.32715
 20
878.5807719999999
 30
0.0
 11
747.249871
 21
878.5807719999999
 31
0.0
  0
LINE
  5
2AF
330
1F
100
AcDbEntity
  8
Ｓ_１_１
  6
CONTINUOUS
 62
     3
100
AcDbLine
 10
740.32715
 20
907.080756
 30
0.0
 11
740.32715
 21
893.3307570000001
 31
0.0
  0
LINE
  5
2B0
330
1F
100
AcDbEntity
  8
Ｓ_１_１
  6
CONTINUOUS
 62
     3
100
AcDbLine
 10
747.8271880000001
 20
903.5807719999999
 30
0.0
 11
747.8271880000001
 21
879.5807570000001
 31
0.0
  0
LINE
  5
2B1
330
1F
100
AcDbEntity
  8
Ｓ_１_１
  6
CONTINUOUS
 62
     3
100
AcDbLine
 10
762.8271870000001
 20
903.5807719999999
 30
0.0
 11
762.8271870000001
 21
879.5807570000001
 31
0.0
  0
LINE
  5
2B2
330
1F
100
AcDbEntity
  8
Ｓ_１_１
  6
CONTINUOUS
 62
     3
100
AcDbLine
 10
712.8272260000002
 20
903.5807719999999
 30
0.0
 11
712.8272260000002
 21
879.5807570000001
 31
0.0
  0
LINE
  5
2B3
330
1F
100
AcDbEntity
  8
Ｓ_１_１
  6
CONTINUOUS
 62
     3
100
AcDbLine
 10
782.827154
 20
883.2307649999999
 30
0.0
 11
781.464871
 21
884.017279
 31
0.0
  0
LINE
  5
2B4
330
1F
100
AcDbEntity
  8
Ｓ_１_１
  6
CONTINUOUS
 62
     3
100
AcDbLine
 10
781.4649210000001
 20
883.3159180000001
 30
0.0
 11
781.4649210000001
 21
884.0807639999999
 31
0.0
  0
LINE
  5
2B5
330
1F
100
AcDbEntity
  8
Ｓ_１_１
  6
CONTINUOUS
 62
     3
100
AcDbLine
 10
791.827174
 20
883.2307629999999
 30
0.0
 11
793.189424
 21
884.0172580000001
 31
0.0
  0
LINE
  5
2B6
330
1F
100
AcDbEntity
  8
Ｓ_１_１
  6
CONTINUOUS
 62
     3
100
AcDbLine
 10
793.1894690000001
 20
883.3159180000001
 30
0.0
 11
793.1894690000001
 21
884.0807639999999
 31
0.0
  0
LINE
  5
2B7
330
1F
100
AcDbEntity
  8
Ｓ_１_１
  6
CONTINUOUS
 62
     3
100
AcDbLine
 10
798.1894500000002
 20
883.628425
 30
0.0
 11
791.8272380000002
 21
883.2307870000001
 31
0.0
  0
LINE
  5
2B8
330
1F
100
AcDbEntity
  8
Ｓ_１_１
  6
CONTINUOUS
 62
     3
100
AcDbLine
 10
794.205227
 20
884.080736
 30
0.0
 11
793.1894860000001
 21
884.017252
 31
0.0
  0
LINE
  5
2B9
330
1F
100
AcDbEntity
  8
Ｓ_１_１
  6
CONTINUOUS
 62
     3
100
AcDbLine
 10
791.8271350000001
 20
881.0807840000001
 30
0.0
 11
790.889299
 21
879.456399
 31
0.0
  0
LINE
  5
2BA
330
1F
100
AcDbEntity
  8
Ｓ_１_１
  6
CONTINUOUS
 62
     3
100
AcDbLine
 10
782.8271680000001
 20
881.08075
 30
0.0
 11
783.7649890000001
 21
879.4563899999999
 31
0.0
  0
LINE
  5
2BB
330
1F
100
AcDbEntity
  8
Ｓ_１_１
  6
CONTINUOUS
 62
     3
100
AcDbLine
 10
783.7650299999999
 20
879.456436
 30
0.0
 11
790.889397
 21
879.456436
 31
0.0
  0
LINE
  5
2BC
330
1F
100
AcDbEntity
  8
Ｓ_１_１
  6
CONTINUOUS
 62
     3
100
AcDbLine
 10
782.8272250000001
 20
881.080734
 30
0.0
 11
782.8272250000001
 21
884.0807639999999
 31
0.0
  0
LINE
  5
2BD
330
1F
100
AcDbEntity
  8
Ｓ_１_１
  6
CONTINUOUS
 62
     3
100
AcDbLine
 10
791.827202
 20
881.080734
 30
0.0
 11
791.827202
 21
884.0807639999999
 31
0.0
  0
LINE
  5
2BE
330
1F
100
AcDbEntity
  8
Ｓ_１_１
  6
CONTINUOUS
 62
     3
100
AcDbLine
 10
775.3271810000001
 20
883.6994970000001
 30
0.0
 11
782.8271950000002
 21
883.2307470000001
 31
0.0
  0
LINE
  5
2BF
330
1F
100
AcDbEntity
  8
Ｓ_１_１
  6
CONTINUOUS
 62
     3
100
AcDbLine
 10
1796.189341
 20
934.080779
 30
0.0
 11
1808.189381
 21
932.0807730000001
 31
0.0
  0
LINE
  5
2C0
330
1F
100
AcDbEntity
  8
Ｓ_１_１
  6
CONTINUOUS
 62
     3
100
AcDbLine
 10
1920.189419
 20
894.0807289999999
 30
0.0
 11
1908.189379
 21
896.0807350000001
 31
0.0
  0
LINE
  5
2C1
330
1F
100
AcDbEntity
  8
Ｓ_１_１
  6
CONTINUOUS
 62
     3
100
AcDbLine
 10
1796.189407000001
 20
894.080756
 30
0.0
 11
1808.189372000001
 21
896.08075
 31
0.0
  0
LINE
  5
2C2
330
1F
100
AcDbEntity
  8
Ｓ_１_１
  6
CONTINUOUS
 62
     3
100
AcDbLine
 10
1784.189401
 20
921.580726
 30
0.0
 11
1784.189401
 21
936.5807639999999
 31
0.0
  0
LINE
  5
2C3
330
1F
100
AcDbEntity
  8
Ｓ_１_１
  6
CONTINUOUS
 62
     3
100
AcDbLine
 10
1784.189401
 20
921.580726
 30
0.0
 11
1787.389359
 21
921.580726
 31
0.0
  0
LINE
  5
2C4
330
1F
100
AcDbEntity
  8
Ｓ_１_１
  6
CONTINUOUS
 62
     3
100
AcDbLine
 10
1784.189401
 20
936.5807639999999
 30
0.0
 11
1787.389359
 21
936.5807639999999
 31
0.0
  0
LINE
  5
2C5
330
1F
100
AcDbEntity
  8
Ｓ_１_１
  6
CONTINUOUS
 62
     3
100
AcDbLine
 10
1808.189377
 20
896.0807719999999
 30
0.0
 11
1808.189377
 21
932.080756
 31
0.0
  0
LINE
  5
2C6
330
1F
100
AcDbEntity
  8
Ｓ_１_１
  6
CONTINUOUS
 62
     3
100
AcDbLine
 10
1908.189376
 20
896.0807719999999
 30
0.0
 11
1908.189376
 21
932.080756
 31
0.0
  0
LINE
  5
2C7
330
1F
100
AcDbEntity
  8
Ｓ_１_１
  6
CONTINUOUS
 62
     3
100
AcDbLine
 10
1920.189341
 20
934.080742
 30
0.0
 11
1908.189377
 21
932.080748
 31
0.0
  0
LINE
  5
2C8
330
1F
100
AcDbEntity
  8
Ｓ_１_１
  6
CONTINUOUS
 62
     3
100
AcDbLine
 10
1793.189378
 20
897.080756
 30
0.0
 11
1793.189378
 21
931.080771
 31
0.0
  0
LINE
  5
2C9
330
1F
100
AcDbEntity
  8
Ｓ_１_１
  6
CONTINUOUS
 62
     3
100
AcDbLine
 10
1923.189414
 20
897.080756
 30
0.0
 11
1923.189414
 21
931.080771
 31
0.0
  0
LINE
  5
2CA
330
1F
100
AcDbEntity
  8
Ｓ_１_１
  6
CONTINUOUS
 62
     3
100
AcDbLine
 10
1787.389359
 20
921.4402680000001
 30
0.0
 11
1787.389359
 21
936.5807639999999
 31
0.0
  0
LINE
  5
2CB
330
1F
100
AcDbEntity
  8
Ｓ_１_１
  6
CONTINUOUS
 62
     3
100
AcDbLine
 10
993.189428
 20
900.580779
 30
0.0
 11
1793.189378
 21
900.580779
 31
0.0
  0
LINE
  5
2CC
330
1F
100
AcDbEntity
  8
Ｓ_１_１
  6
CONTINUOUS
 62
     3
100
AcDbLine
 10
993.189428
 20
927.580787
 30
0.0
 11
1784.189401
 21
927.580787
 31
0.0
  0
LINE
  5
2CD
330
1F
100
AcDbEntity
  8
Ｓ_１_１
  6
CONTINUOUS
 62
     3
100
AcDbLine
 10
993.189428
 20
937.5807860000001
 30
0.0
 11
993.189428
 21
890.5807410000001
 31
0.0
  0
LINE
  5
2CE
330
1F
100
AcDbEntity
  8
Ｓ_１_１
  6
CONTINUOUS
 62
     3
100
AcDbLine
 10
773.1894690000001
 20
940.0807860000001
 30
0.0
 11
773.1894690000001
 21
888.0807800000002
 31
0.0
  0
LINE
  5
2CF
330
1F
100
AcDbEntity
  8
Ｓ_１_１
  6
CONTINUOUS
 62
     3
100
AcDbLine
 10
913.189467
 20
866.580765
 30
0.0
 11
917.189444
 21
866.580765
 31
0.0
  0
LINE
  5
2D0
330
1F
100
AcDbEntity
  8
Ｓ_１_１
  6
CONTINUOUS
 62
     3
100
AcDbLine
 10
798.1894690000001
 20
856.580765
 30
0.0
 11
913.189467
 21
856.580765
 31
0.0
  0
LINE
  5
2D1
330
1F
100
AcDbEntity
  8
Ｓ_１_１
  6
CONTINUOUS
 62
     3
100
AcDbLine
 10
1781.18937
 20
964.080763
 30
0.0
 11
1781.18937
 21
927.580787
 31
0.0
  0
LINE
  5
2D2
330
1F
100
AcDbEntity
  8
Ｓ_１_１
  6
CONTINUOUS
 62
     3
100
AcDbLine
 10
925.189436
 20
844.080765
 30
0.0
 11
1761.189409
 21
844.080765
 31
0.0
  0
LINE
  5
2D3
330
1F
100
AcDbEntity
  8
Ｓ_１_１
  6
CONTINUOUS
 62
     3
100
AcDbLine
 10
1729.189401
 20
984.0808010000001
 30
0.0
 11
1729.189401
 21
927.580787
 31
0.0
  0
LINE
  5
2D4
330
1F
100
AcDbEntity
  8
Ｓ_１_１
  6
EXLTYPE2
 62
     1
100
AcDbLine
 10
952.3346310000001
 20
914.0807639999999
 30
0.0
 11
1934.398841
 21
914.0807640000003
 31
0.0
  0
LINE
  5
2D5
330
1F
100
AcDbEntity
  8
Ｓ_１_１
  6
EXLTYPE2
 62
     1
100
AcDbLine
 10
766.8988410000001
 20
914.0807639999999
 30
0.0
 11
1815.151238
 21
914.0807639999999
 31
0.0
  0
LINE
  5
2D6
330
1F
100
AcDbEntity
  8
Ｓ_１_１
  6
EXLTYPE2
 62
     1
100
AcDbLine
 10
707.3988410000001
 20
1026.580762
 30
0.0
 11
845.4720679999999
 21
1026.580762
 31
0.0
  0
LINE
  5
2D7
330
1F
100
AcDbEntity
  8
Ｓ_１_１
  6
EXLTYPE2
 62
     1
100
AcDbLine
 10
829.1894530000002
 20
858.5759280000002
 30
0.0
 11
829.1894530000002
 21
776.5
 31
0.0
  0
LINE
  5
2D8
330
1F
100
AcDbEntity
  8
Ｓ_１_１
  6
EXLTYPE2
 62
     1
100
AcDbLine
 10
967.2366620000003
 20
573.4129510000001
 30
0.0
 11
968.1870400000003
 21
540.1786089999999
 31
0.0
  0
LINE
  5
2D9
330
1F
100
AcDbEntity
  8
Ｓ_１_１
  6
EXLTYPE2
 62
     1
100
AcDbLine
 10
875.4276279999999
 20
389.267084
 30
0.0
 11
1819.038953
 21
416.250862
 31
0.0
  0
LINE
  5
2DA
330
1F
100
AcDbEntity
  8
Ｓ_１_１
  6
EXLTYPE2
 62
     1
100
AcDbLine
 10
851.3444650000002
 20
375.573084
 30
0.0
 11
851.7732340000003
 21
360.5792130000001
 31
0.0
  0
LINE
  5
2DB
330
1F
100
AcDbEntity
  8
Ｓ_１_１
  6
EXLTYPE2
 62
     1
100
AcDbLine
 10
859.0558230000001
 20
368.2905340000001
 30
0.0
 11
844.0619529999999
 21
367.861765
 31
0.0
  0
LINE
  5
2DC
330
1F
100
AcDbEntity
  8
Ｓ_１_１
  6
EXLTYPE2
 62
     1
100
AcDbLine
 10
857.7695160000003
 20
413.27214
 30
0.0
 11
842.775646
 21
412.843371
 31
0.0
  0
LINE
  5
2DD
330
1F
100
AcDbEntity
  8
Ｓ_１_１
  6
EXLTYPE2
 62
     1
100
AcDbLine
 10
850.0581590000002
 20
420.5546900000001
 30
0.0
 11
850.4869280000003
 21
405.56082
 31
0.0
  0
LINE
  5
2DE
330
1F
100
AcDbEntity
  8
Ｓ_１_１
  6
EXLTYPE2
 62
     1
100
AcDbLine
 10
815.0724990000003
 20
419.5542300000001
 30
0.0
 11
815.501268
 21
404.5603600000001
 31
0.0
  0
LINE
  5
2DF
330
1F
100
AcDbEntity
  8
Ｓ_１_１
  6
EXLTYPE2
 62
     1
100
AcDbLine
 10
807.7899480000002
 20
411.84291
 30
0.0
 11
822.7837810000001
 21
412.271678
 31
0.0
  0
LINE
  5
2E0
330
1F
100
AcDbEntity
  8
Ｓ_１_１
  6
EXLTYPE2
 62
     1
100
AcDbLine
 10
809.076255
 20
366.8613040000001
 30
0.0
 11
824.0700870000001
 21
367.2900720000001
 31
0.0
  0
LINE
  5
2E1
330
1F
100
AcDbEntity
  8
Ｓ_１_１
  6
EXLTYPE2
 62
     1
100
AcDbLine
 10
816.3588060000002
 20
374.572624
 30
0.0
 11
816.7875750000003
 21
359.5787530000001
 31
0.0
  0
LINE
  5
2E2
330
1F
100
AcDbEntity
  8
Ｓ_１_１
  6
EXLTYPE2
 62
     1
100
AcDbLine
 10
793.224847
 20
396.4202710000001
 30
0.0
 11
873.192118
 21
398.7070380000001
 31
0.0
  0
LINE
  5
2E3
330
1F
100
AcDbEntity
  8
Ｓ_１_１
  6
EXLTYPE2
 62
     1
100
AcDbLine
 10
832.0651170000002
 20
437.547309
 30
0.0
 11
834.351885
 21
357.580005
 31
0.0
  0
LINE
  5
2E4
330
1F
100
AcDbEntity
  8
Ｓ_１_１
  6
EXLTYPE2
 62
     1
100
AcDbLine
 10
1746.961735
 20
471.732545
 30
0.0
 11
1746.111554
 21
501.4629980000001
 31
0.0
  0
POLYLINE
  5
2E5
330
1F
100
AcDbEntity
  8
Ｓ_１_１
  6
CONTINUOUS
 62
     3
100
AcDb2dPolyline
 66
     1
 10
0.0
 20
0.0
 30
0.0
 70
   128
  0
VERTEX
  5
2E6
330
2E5
100
AcDbEntity
  8
Ｓ_１_１
  6
CONTINUOUS
 62
     3
100
AcDbVertex
100
AcDb2dVertex
 10
900.4080570000002
 20
461.510653
 30
0.0
  0
VERTEX
  5
2E7
330
2E5
100
AcDbEntity
  8
Ｓ_１_１
  6
CONTINUOUS
 62
     3
100
AcDbVertex
100
AcDb2dVertex
 10
900.4699740000001
 20
460.4677869999999
 30
0.0
  0
VERTEX
  5
2E8
330
2E5
100
AcDbEntity
  8
Ｓ_１_１
  6
CONTINUOUS
 62
     3
100
AcDbVertex
100
AcDb2dVertex
 10
900.5949679999999
 20
459.444599
 30
0.0
  0
VERTEX
  5
2E9
330
2E5
100
AcDbEntity
  8
Ｓ_１_１
  6
CONTINUOUS
 62
     3
100
AcDbVertex
100
AcDb2dVertex
 10
900.7809010000001
 20
458.4585960000001
 30
0.0
  0
VERTEX
  5
2EA
330
2E5
100
AcDbEntity
  8
Ｓ_１_１
  6
CONTINUOUS
 62
     3
100
AcDbVertex
100
AcDb2dVertex
 10
901.0245920000002
 20
457.5266480000002
 30
0.0
  0
VERTEX
  5
2EB
330
2E5
100
AcDbEntity
  8
Ｓ_１_１
  6
CONTINUOUS
 62
     3
100
AcDbVertex
100
AcDb2dVertex
 10
901.3218710000001
 20
456.6647019999999
 30
0.0
  0
VERTEX
  5
2EC
330
2E5
100
AcDbEntity
  8
Ｓ_１_１
  6
CONTINUOUS
 62
     3
100
AcDbVertex
100
AcDb2dVertex
 10
901.6676520000001
 20
455.8875060000001
 30
0.0
  0
VERTEX
  5
2ED
330
2E5
100
AcDbEntity
  8
Ｓ_１_１
  6
CONTINUOUS
 62
     3
100
AcDbVertex
100
AcDb2dVertex
 10
902.0560180000002
 20
455.208358
 30
0.0
  0
VERTEX
  5
2EE
330
2E5
100
AcDbEntity
  8
Ｓ_１_１
  6
CONTINUOUS
 62
     3
100
AcDbVertex
100
AcDb2dVertex
 10
902.4803230000003
 20
454.6388780000001
 30
0.0
  0
VERTEX
  5
2EF
330
2E5
100
AcDbEntity
  8
Ｓ_１_１
  6
CONTINUOUS
 62
     3
100
AcDbVertex
100
AcDb2dVertex
 10
902.933309
 20
454.18881
 30
0.0
  0
VERTEX
  5
2F0
330
2E5
100
AcDbEntity
  8
Ｓ_１_１
  6
CONTINUOUS
 62
     3
100
AcDbVertex
100
AcDb2dVertex
 10
903.407224
 20
453.8658550000001
 30
0.0
  0
VERTEX
  5
2F1
330
2E5
100
AcDbEntity
  8
Ｓ_１_１
  6
CONTINUOUS
 62
     3
100
AcDbVertex
100
AcDb2dVertex
 10
903.8939599999999
 20
453.675539
 30
0.0
  0
VERTEX
  5
2F2
330
2E5
100
AcDbEntity
  8
Ｓ_１_１
  6
CONTINUOUS
 62
     3
100
AcDbVertex
100
AcDb2dVertex
 10
904.3851880000002
 20
453.6211180000001
 30
0.0
  0
VERTEX
  5
2F3
330
2E5
100
AcDbEntity
  8
Ｓ_１_１
  6
CONTINUOUS
 62
     3
100
AcDbVertex
100
AcDb2dVertex
 10
904.872503
 20
453.7035230000001
 30
0.0
  0
VERTEX
  5
2F4
330
2E5
100
AcDbEntity
  8
Ｓ_１_１
  6
CONTINUOUS
 62
     3
100
AcDbVertex
100
AcDb2dVertex
 10
905.3475680000003
 20
453.9213450000001
 30
0.0
  0
VERTEX
  5
2F5
330
2E5
100
AcDbEntity
  8
Ｓ_１_１
  6
CONTINUOUS
 62
     3
100
AcDbVertex
100
AcDb2dVertex
 10
905.8022530000003
 20
454.270856
 30
0.0
  0
VERTEX
  5
2F6
330
2E5
100
AcDbEntity
  8
Ｓ_１_１
  6
CONTINUOUS
 62
     3
100
AcDbVertex
100
AcDb2dVertex
 10
906.228779
 20
454.746076
 30
0.0
  0
VERTEX
  5
2F7
330
2E5
100
AcDbEntity
  8
Ｓ_１_１
  6
CONTINUOUS
 62
     3
100
AcDbVertex
100
AcDb2dVertex
 10
906.6198480000003
 20
455.338875
 30
0.0
  0
VERTEX
  5
2F8
330
2E5
100
AcDbEntity
  8
Ｓ_１_１
  6
CONTINUOUS
 62
     3
100
AcDbVertex
100
AcDb2dVertex
 10
906.9687690000001
 20
456.0391080000001
 30
0.0
  0
VERTEX
  5
2F9
330
2E5
100
AcDbEntity
  8
Ｓ_１_１
  6
CONTINUOUS
 62
     3
100
AcDbVertex
100
AcDb2dVertex
 10
907.2695710000003
 20
456.8347950000001
 30
0.0
  0
VERTEX
  5
2FA
330
2E5
100
AcDbEntity
  8
Ｓ_１_１
  6
CONTINUOUS
 62
     3
100
AcDbVertex
100
AcDb2dVertex
 10
907.5171070000001
 20
457.7123210000001
 30
0.0
  0
VERTEX
  5
2FB
330
2E5
100
AcDbEntity
  8
Ｓ_１_１
  6
CONTINUOUS
 62
     3
100
AcDbVertex
100
AcDb2dVertex
 10
907.7071430000001
 20
458.6566730000001
 30
0.0
  0
VERTEX
  5
2FC
330
2E5
100
AcDbEntity
  8
Ｓ_１_１
  6
CONTINUOUS
 62
     3
100
AcDbVertex
100
AcDb2dVertex
 10
907.8364270000003
 20
459.65169
 30
0.0
  0
VERTEX
  5
2FD
330
2E5
100
AcDbEntity
  8
Ｓ_１_１
  6
CONTINUOUS
 62
     3
100
AcDbVertex
100
AcDb2dVertex
 10
907.9027460000003
 20
460.680344
 30
0.0
  0
VERTEX
  5
2FE
330
2E5
100
AcDbEntity
  8
Ｓ_１_１
  6
CONTINUOUS
 62
     3
100
AcDbVertex
100
AcDb2dVertex
 10
907.904967
 20
461.7250379999999
 30
0.0
  0
SEQEND
  5
2FF
330
2E5
100
AcDbEntity
  8
Ｓ_１_１
  6
CONTINUOUS
 62
     3
  0
POLYLINE
  5
300
330
1F
100
AcDbEntity
  8
Ｓ_１_１
  6
CONTINUOUS
 62
     3
100
AcDb2dPolyline
 66
     1
 10
0.0
 20
0.0
 30
0.0
 70
   128
  0
VERTEX
  5
301
330
300
100
AcDbEntity
  8
Ｓ_１_１
  6
CONTINUOUS
 62
     3
100
AcDbVertex
100
AcDb2dVertex
 10
892.9111080000002
 20
461.2962920000001
 30
0.0
  0
VERTEX
  5
302
330
300
100
AcDbEntity
  8
Ｓ_１_１
  6
CONTINUOUS
 62
     3
100
AcDbVertex
100
AcDb2dVertex
 10
892.981804
 20
460.159331
 30
0.0
  0
VERTEX
  5
303
330
300
100
AcDbEntity
  8
Ｓ_１_１
  6
CONTINUOUS
 62
     3
100
AcDbVertex
100
AcDb2dVertex
 10
893.1273690000003
 20
459.047696
 30
0.0
  0
VERTEX
  5
304
330
300
100
AcDbEntity
  8
Ｓ_１_１
  6
CONTINUOUS
 62
     3
100
AcDbVertex
100
AcDb2dVertex
 10
893.3448400000003
 20
457.984018
 30
0.0
  0
VERTEX
  5
305
330
300
100
AcDbEntity
  8
Ｓ_１_１
  6
CONTINUOUS
 62
     3
100
AcDbVertex
100
AcDb2dVertex
 10
893.6297890000001
 20
456.98995
 30
0.0
  0
VERTEX
  5
306
330
300
100
AcDbEntity
  8
Ｓ_１_１
  6
CONTINUOUS
 62
     3
100
AcDbVertex
100
AcDb2dVertex
 10
893.9764150000002
 20
456.0857280000002
 30
0.0
  0
VERTEX
  5
307
330
300
100
AcDbEntity
  8
Ｓ_１_１
  6
CONTINUOUS
 62
     3
100
AcDbVertex
100
AcDb2dVertex
 10
894.3776640000001
 20
455.28976
 30
0.0
  0
VERTEX
  5
308
330
300
100
AcDbEntity
  8
Ｓ_１_１
  6
CONTINUOUS
 62
     3
100
AcDbVertex
100
AcDb2dVertex
 10
894.8253650000001
 20
454.618249
 30
0.0
  0
VERTEX
  5
309
330
300
100
AcDbEntity
  8
Ｓ_１_１
  6
CONTINUOUS
 62
     3
100
AcDbVertex
100
AcDb2dVertex
 10
895.3104060000001
 20
454.0848649999999
 30
0.0
  0
VERTEX
  5
30A
330
300
100
AcDbEntity
  8
Ｓ_１_１
  6
CONTINUOUS
 62
     3
100
AcDbVertex
100
AcDb2dVertex
 10
895.8229120000001
 20
453.7004660000001
 30
0.0
  0
VERTEX
  5
30B
330
300
100
AcDbEntity
  8
Ｓ_１_１
  6
CONTINUOUS
 62
     3
100
AcDbVertex
100
AcDb2dVertex
 10
896.35245
 20
453.4728779999999
 30
0.0
  0
VERTEX
  5
30C
330
300
100
AcDbEntity
  8
Ｓ_１_１
  6
CONTINUOUS
 62
     3
100
AcDbVertex
100
AcDb2dVertex
 10
896.8882400000002
 20
453.4067329999999
 30
0.0
  0
VERTEX
  5
30D
330
300
100
AcDbEntity
  8
Ｓ_１_１
  6
CONTINUOUS
 62
     3
100
AcDbVertex
100
AcDb2dVertex
 10
897.4193760000003
 20
453.5033790000001
 30
0.0
  0
VERTEX
  5
30E
330
300
100
AcDbEntity
  8
Ｓ_１_１
  6
CONTINUOUS
 62
     3
100
AcDbVertex
100
AcDb2dVertex
 10
897.9350450000002
 20
453.7608470000001
 30
0.0
  0
VERTEX
  5
30F
330
300
100
AcDbEntity
  8
Ｓ_１_１
  6
CONTINUOUS
 62
     3
100
AcDbVertex
100
AcDb2dVertex
 10
898.4247490000002
 20
454.1738960000001
 30
0.0
  0
VERTEX
  5
310
330
300
100
AcDbEntity
  8
Ｓ_１_１
  6
CONTINUOUS
 62
     3
100
AcDbVertex
100
AcDb2dVertex
 10
898.8785189999999
 20
454.734118
 30
0.0
  0
VERTEX
  5
311
330
300
100
AcDbEntity
  8
Ｓ_１_１
  6
CONTINUOUS
 62
     3
100
AcDbVertex
100
AcDb2dVertex
 10
899.2871180000003
 20
455.430109
 30
0.0
  0
VERTEX
  5
312
330
300
100
AcDbEntity
  8
Ｓ_１_１
  6
CONTINUOUS
 62
     3
100
AcDbVertex
100
AcDb2dVertex
 10
899.6422280000002
 20
456.2477
 30
0.0
  0
VERTEX
  5
313
330
300
100
AcDbEntity
  8
Ｓ_１_１
  6
CONTINUOUS
 62
     3
100
AcDbVertex
100
AcDb2dVertex
 10
899.9366210000003
 20
457.170246
 30
0.0
  0
VERTEX
  5
314
330
300
100
AcDbEntity
  8
Ｓ_１_１
  6
CONTINUOUS
 62
     3
100
AcDbVertex
100
AcDb2dVertex
 10
900.1643020000001
 20
458.1789689999999
 30
0.0
  0
VERTEX
  5
315
330
300
100
AcDbEntity
  8
Ｓ_１_１
  6
CONTINUOUS
 62
     3
100
AcDbVertex
100
AcDb2dVertex
 10
900.3206380000001
 20
459.2533340000001
 30
0.0
  0
VERTEX
  5
316
330
300
100
AcDbEntity
  8
Ｓ_１_１
  6
CONTINUOUS
 62
     3
100
AcDbVertex
100
AcDb2dVertex
 10
900.4024450000003
 20
460.3714679999999
 30
0.0
  0
VERTEX
  5
317
330
300
100
AcDbEntity
  8
Ｓ_１_１
  6
CONTINUOUS
 62
     3
100
AcDbVertex
100
AcDb2dVertex
 10
900.408058
 20
461.510611
 30
0.0
  0
VERTEX
  5
318
330
300
100
AcDbEntity
  8
Ｓ_１_１
  6
CONTINUOUS
 62
     3
100
AcDbVertex
100
AcDb2dVertex
 10
900.4080570000002
 20
461.5106589999999
 30
0.0
  0
SEQEND
  5
319
330
300
100
AcDbEntity
  8
Ｓ_１_１
  6
CONTINUOUS
 62
     3
  0
ARC
  5
31A
330
1F
100
AcDbEntity
  8
Ｓ_１_１
  6
CONTINUOUS
 62
     3
100
AcDbCircle
 10
869.981879
 20
460.6782280000002
 30
0.0
 40
3.03763
100
AcDbArc
 50
271.638
 51
308.270647
  0
ARC
  5
31B
330
1F
100
AcDbEntity
  8
Ｓ_１_１
  6
CONTINUOUS
 62
     3
100
AcDbCircle
 10
875.182418
 20
469.0431910000001
 30
0.0
 40
11.25052000000001
100
AcDbArc
 50
252.841531
 51
290.4344690000001
  0
ARC
  5
31C
330
1F
100
AcDbEntity
  8
Ｓ_１_１
  6
CONTINUOUS
 62
     3
100
AcDbCircle
 10
880.8524310000003
 20
460.9890859999999
 30
0.0
 40
3.03763
100
AcDbArc
 50
235.0053530000003
 51
271.638
  0
ARC
  5
31D
330
1F
100
AcDbEntity
  8
Ｓ_１_１
  6
CONTINUOUS
 62
     3
100
AcDbCircle
 10
880.883178
 20
459.914265
 30
0.0
 40
3.03763
100
AcDbArc
 50
91.63799800000001
 51
128.270652
  0
ARC
  5
31E
330
1F
100
AcDbEntity
  8
Ｓ_１_１
  6
CONTINUOUS
 62
     3
100
AcDbCircle
 10
875.6826770000004
 20
451.5493010000001
 30
0.0
 40
11.25052000000001
100
AcDbArc
 50
72.84153599999999
 51
110.434467
  0
ARC
  5
31F
330
1F
100
AcDbEntity
  8
Ｓ_１_１
  6
CONTINUOUS
 62
     3
100
AcDbCircle
 10
870.0126260000002
 20
459.6034060000001
 30
0.0
 40
3.03763
100
AcDbArc
 50
55.00535099999997
 51
91.63799800000001
  0
ARC
  5
320
330
1F
100
AcDbEntity
  8
Ｓ_１_１
  6
CONTINUOUS
 62
     3
100
AcDbCircle
 10
883.6457810000002
 20
455.1402380000001
 30
0.0
 40
4.111328000000001
100
AcDbArc
 50
230.818228
 51
271.638
  0
ARC
  5
321
330
1F
100
AcDbEntity
  8
Ｓ_１_１
  6
CONTINUOUS
 62
     3
100
AcDbCircle
 10
875.2768700000001
 20
465.7393330000001
 30
0.0
 40
14.94531100000001
100
AcDbArc
 50
250.559633
 51
292.7163670000002
  0
ARC
  5
322
330
1F
100
AcDbEntity
  8
Ｓ_１_１
  6
CONTINUOUS
 62
     3
100
AcDbCircle
 10
867.5273510000002
 20
454.679313
 30
0.0
 40
4.111328000000001
100
AcDbArc
 50
271.638
 51
312.4577650000002
  0
ARC
  5
323
330
1F
100
AcDbEntity
  8
Ｓ_１_１
  6
CONTINUOUS
 62
     3
100
AcDbCircle
 10
883.6807240000003
 20
453.9180830000001
 30
0.0
 40
4.111328000000001
100
AcDbArc
 50
91.63799800000001
 51
132.457763
  0
ARC
  5
324
330
1F
100
AcDbEntity
  8
Ｓ_１_１
  6
CONTINUOUS
 62
     3
100
AcDbCircle
 10
875.931205
 20
442.8580620000001
 30
0.0
 40
14.94531100000001
100
AcDbArc
 50
70.55963099999998
 51
112.716365
  0
ARC
  5
325
330
1F
100
AcDbEntity
  8
Ｓ_１_１
  6
CONTINUOUS
 62
     3
100
AcDbCircle
 10
867.5623310000001
 20
453.4571549999999
 30
0.0
 40
4.111328000000001
100
AcDbArc
 50
50.81823300000003
 51
91.63799800000001
  0
ARC
  5
326
330
1F
100
AcDbEntity
  8
Ｓ_１_１
  6
CONTINUOUS
 62
     3
100
AcDbCircle
 10
979.9344610000003
 20
549.183275
 30
0.0
 40
2.0
100
AcDbArc
 50
181.6379970000001
 51
270.0394620000001
  0
ARC
  5
327
330
1F
100
AcDbEntity
  8
Ｓ_１_１
  6
CONTINUOUS
 62
     3
100
AcDbCircle
 10
955.9251380000001
 20
549.166738
 30
0.0
 40
2.0
100
AcDbArc
 50
270.0394620000001
 51
1.637999999999993
  0
ARC
  5
328
330
1F
100
AcDbEntity
  8
Ｓ_１_１
  6
CONTINUOUS
 62
     3
100
AcDbCircle
 10
952.9553580000002
 20
569.056631
 30
0.0
 40
5.600000000000002
100
AcDbArc
 50
25.34812
 51
228.5578690000002
  0
ARC
  5
329
330
1F
100
AcDbEntity
  8
Ｓ_１_１
  6
CONTINUOUS
 62
     3
100
AcDbCircle
 10
981.7435810000002
 20
569.879871
 30
0.0
 40
5.600000000000002
100
AcDbArc
 50
314.7181310000001
 51
157.92788
  0
ARC
  5
32A
330
1F
100
AcDbEntity
  8
Ｓ_１_１
  6
CONTINUOUS
 62
     3
100
AcDbCircle
 10
777.1135340000001
 20
540.0184070000001
 30
0.0
 40
4.0
100
AcDbArc
 50
91.63799800000001
 51
181.637994
  0
ARC
  5
32B
330
1F
100
AcDbEntity
  8
Ｓ_１_１
  6
CONTINUOUS
 62
     3
100
AcDbCircle
 10
931.3273990000002
 20
324.838629
 30
0.0
 40
4.0
100
AcDbArc
 50
181.6379970000001
 51
271.638
  0
ARC
  5
32C
330
1F
100
AcDbEntity
  8
Ｓ_１_１
  6
CONTINUOUS
 62
     3
100
AcDbCircle
 10
927.5542430000002
 20
456.784687
 30
0.0
 40
4.0
100
AcDbArc
 50
91.63799800000001
 51
181.637994
  0
ARC
  5
32D
330
1F
100
AcDbEntity
  8
Ｓ_１_１
  6
CONTINUOUS
 62
     3
100
AcDbCircle
 10
792.2166830000001
 20
498.2811800000001
 30
0.0
 40
25.750136
100
AcDbArc
 50
278.9851860000002
 51
285.3321530000003
  0
ARC
  5
32E
330
1F
100
AcDbEntity
  8
Ｓ_１_１
  6
CONTINUOUS
 62
     3
100
AcDbCircle
 10
788.575135
 20
404.2905750000001
 30
0.0
 40
21.93943500000001
100
AcDbArc
 50
168.464512
 51
194.811475
  0
ARC
  5
32F
330
1F
100
AcDbEntity
  8
Ｓ_１_１
  6
CONTINUOUS
 62
     3
100
AcDbCircle
 10
757.209092
 20
403.393625
 30
0.0
 40
21.93943500000001
100
AcDbArc
 50
348.464534
 51
14.81152499999999
  0
ARC
  5
330
330
1F
100
AcDbEntity
  8
Ｓ_１_１
  6
CONTINUOUS
 62
     3
100
AcDbCircle
 10
791.5281300000001
 20
360.263719
 30
0.0
 40
5.367244999999999
100
AcDbArc
 50
327.25386
 51
36.02214399999998
  0
ARC
  5
331
330
1F
100
AcDbEntity
  8
Ｓ_１_１
  6
CONTINUOUS
 62
     3
100
AcDbCircle
 10
776.5792850000003
 20
368.9332479999999
 30
0.0
 40
20.062196
100
AcDbArc
 50
344.0499950000001
 51
19.22587900000001
  0
ARC
  5
332
330
1F
100
AcDbEntity
  8
Ｓ_１_１
  6
CONTINUOUS
 62
     3
100
AcDbCircle
 10
793.2619100000002
 20
360.3133
 30
0.0
 40
5.367244999999999
100
AcDbArc
 50
147.2537970000001
 51
216.022081
  0
ARC
  5
333
330
1F
100
AcDbEntity
  8
Ｓ_１_１
  6
CONTINUOUS
 62
     3
100
AcDbCircle
 10
792.7420810000003
 20
378.492421
 30
0.0
 40
5.367244999999999
100
AcDbArc
 50
147.2538790000001
 51
216.022163
  0
ARC
  5
334
330
1F
100
AcDbEntity
  8
Ｓ_１_１
  6
CONTINUOUS
 62
     3
100
AcDbCircle
 10
807.6909260000002
 20
369.8229210000001
 30
0.0
 40
20.062196
100
AcDbArc
 50
164.0500650000001
 51
199.2259490000002
  0
ARC
  5
335
330
1F
100
AcDbEntity
  8
Ｓ_１_１
  6
CONTINUOUS
 62
     3
100
AcDbCircle
 10
791.0082630000002
 20
378.4428490000001
 30
0.0
 40
5.367244999999999
100
AcDbArc
 50
327.253778
 51
36.022063
  0
ARC
  5
336
330
1F
100
AcDbEntity
  8
Ｓ_１_１
  6
CONTINUOUS
 62
     3
100
AcDbCircle
 10
779.5713430000001
 20
358.6222260000001
 30
0.0
 40
6.133925000000002
100
AcDbArc
 50
147.253414
 51
216.0225590000001
  0
ARC
  5
337
330
1F
100
AcDbEntity
  8
Ｓ_１_１
  6
CONTINUOUS
 62
     3
100
AcDbCircle
 10
796.06144
 20
369.4903270000001
 30
0.0
 40
22.92794000000001
100
AcDbArc
 50
164.049833
 51
199.226141
  0
ARC
  5
338
330
1F
100
AcDbEntity
  8
Ｓ_１_１
  6
CONTINUOUS
 62
     3
100
AcDbCircle
 10
790.0078210000001
 20
413.428548
 30
0.0
 40
5.367244999999999
100
AcDbArc
 50
327.253778
 51
36.022063
  0
ARC
  5
339
330
1F
100
AcDbEntity
  8
Ｓ_１_１
  6
CONTINUOUS
 62
     3
100
AcDbCircle
 10
775.5788050000001
 20
403.9189420000001
 30
0.0
 40
20.062196
100
AcDbArc
 50
358.1704160000003
 51
19.22587900000001
  0
ARC
  5
33A
330
1F
100
AcDbEntity
  8
Ｓ_１_１
  6
CONTINUOUS
 62
     3
100
AcDbCircle
 10
792.2615049999999
 20
395.298995
 30
0.0
 40
5.367244999999999
100
AcDbArc
 50
147.2537970000001
 51
216.022081
  0
ARC
  5
33B
330
1F
100
AcDbEntity
  8
Ｓ_１_１
  6
CONTINUOUS
 62
     3
100
AcDbCircle
 10
791.7416390000003
 20
413.4781300000001
 30
0.0
 40
5.367244999999999
100
AcDbArc
 50
147.2538790000001
 51
216.022163
  0
ARC
  5
33C
330
1F
100
AcDbEntity
  8
Ｓ_１_１
  6
CONTINUOUS
 62
     3
100
AcDbCircle
 10
806.6904830000004
 20
404.8086200000001
 30
0.0
 40
20.062196
100
AcDbArc
 50
164.0500650000001
 51
199.2259490000002
  0
ARC
  5
33D
330
1F
100
AcDbEntity
  8
Ｓ_１_１
  6
CONTINUOUS
 62
     3
100
AcDbCircle
 10
773.7115100000001
 20
379.247788
 30
0.0
 40
6.133925000000002
100
AcDbArc
 50
327.2534430000001
 51
36.02260199999998
  0
ARC
  5
33E
330
1F
100
AcDbEntity
  8
Ｓ_１_１
  6
CONTINUOUS
 62
     3
100
AcDbCircle
 10
736.0293590000001
 20
372.275495
 30
0.0
 40
1.0
100
AcDbArc
 50
91.63802500000001
 51
181.638021
  0
ARC
  5
33F
330
1F
100
AcDbEntity
  8
Ｓ_１_１
  6
CONTINUOUS
 62
     3
100
AcDbCircle
 10
778.9772419999999
 20
379.3983830000001
 30
0.0
 40
6.133925000000002
100
AcDbArc
 50
147.253483
 51
216.022628
  0
ARC
  5
340
330
1F
100
AcDbEntity
  8
Ｓ_１_１
  6
CONTINUOUS
 62
     3
100
AcDbCircle
 10
757.2214520000002
 20
368.37964
 30
0.0
 40
22.92794000000001
100
AcDbArc
 50
344.0498830000001
 51
19.22617700000001
  0
ARC
  5
341
330
1F
100
AcDbEntity
  8
Ｓ_１_１
  6
CONTINUOUS
 62
     3
100
AcDbCircle
 10
774.3056489999999
 20
358.47166
 30
0.0
 40
6.133925000000002
100
AcDbArc
 50
327.2534330000001
 51
36.022588
  0
ARC
  5
342
330
1F
100
AcDbEntity
  8
Ｓ_１_１
  6
CONTINUOUS
 62
     3
100
AcDbCircle
 10
736.2866220000001
 20
363.2791800000001
 30
0.0
 40
1.0
100
AcDbArc
 50
181.6380250000001
 51
271.638
  0
ARC
  5
343
330
1F
100
AcDbEntity
  8
Ｓ_１_１
  6
CONTINUOUS
 62
     3
100
AcDbCircle
 10
789.3226629999999
 20
476.4765820000001
 30
0.0
 40
6.999947000000002
100
AcDbArc
 50
80.42463700000002
 51
118.638009
  0
ARC
  5
344
330
1F
100
AcDbEntity
  8
Ｓ_１_１
  6
CONTINUOUS
 62
     3
100
AcDbCircle
 10
809.7103120000003
 20
466.2461540000001
 30
0.0
 40
25.750136
100
AcDbArc
 50
115.640908
 51
138.290813
  0
ARC
  5
345
330
1F
100
AcDbEntity
  8
Ｓ_１_１
  6
CONTINUOUS
 62
     3
100
AcDbCircle
 10
789.8019410000002
 20
475.5988260000001
 30
0.0
 40
6.999947000000002
100
AcDbArc
 50
298.637997
 51
336.8513620000001
  0
ARC
  5
346
330
1F
100
AcDbEntity
  8
Ｓ_１_１
  6
CONTINUOUS
 62
     3
100
AcDbCircle
 10
801.304474
 20
454.534955
 30
0.0
 40
6.999947000000002
100
AcDbArc
 50
106.01041
 51
118.638009
  0
ARC
  5
347
330
1F
100
AcDbEntity
  8
Ｓ_１_１
  6
CONTINUOUS
 62
     3
100
AcDbCircle
 10
769.7835930000002
 20
595.696722
 30
0.0
 40
3.000000000000003
100
AcDbArc
 50
28.63800100000002
 51
118.638009
  0
ARC
  5
348
330
1F
100
AcDbEntity
  8
Ｓ_１_１
  6
CONTINUOUS
 62
     3
100
AcDbCircle
 10
777.0148469999999
 20
494.8220230000001
 30
0.0
 40
5.0
100
AcDbArc
 50
208.6380080000002
 51
298.637997
  0
ARC
  5
349
330
1F
100
AcDbEntity
  8
Ｓ_１_１
  6
CONTINUOUS
 62
     3
100
AcDbCircle
 10
733.8802350000001
 20
573.8118990000002
 30
0.0
 40
5.0
100
AcDbArc
 50
118.638009
 51
208.638005
  0
ARC
  5
34A
330
1F
100
AcDbEntity
  8
Ｓ_１_１
  6
CONTINUOUS
 62
     3
100
AcDbCircle
 10
828.496361
 20
387.424897
 30
0.0
 40
2.0
100
AcDbArc
 50
91.63800500000004
 51
181.6380070000001
  0
CIRCLE
  5
34B
330
1F
100
AcDbEntity
  8
Ｓ_１_１
  6
CONTINUOUS
 62
     3
100
AcDbCircle
 10
833.2085030000003
 20
397.5636559999999
 30
0.0
 40
5.0
  0
ARC
  5
34C
330
1F
100
AcDbEntity
  8
Ｓ_１_１
  6
CONTINUOUS
 62
     3
100
AcDbCircle
 10
837.2013470000002
 20
362.663535
 30
0.0
 40
2.0
100
AcDbArc
 50
271.638
 51
357.064105
  0
ARC
  5
34D
330
1F
100
AcDbEntity
  8
Ｓ_１_１
  6
CONTINUOUS
 62
     3
100
AcDbCircle
 10
798.1372449999999
 20
399.555563
 30
0.0
 40
2.0
100
AcDbArc
 50
96.21194300000003
 51
181.6380070000001
  0
ARC
  5
34E
330
1F
100
AcDbEntity
  8
Ｓ_１_１
  6
CONTINUOUS
 62
     3
100
AcDbCircle
 10
838.4922790000002
 20
387.7107420000002
 30
0.0
 40
2.0
100
AcDbArc
 50
1.637999999999993
 51
91.63800500000004
  0
ARC
  5
34F
330
1F
100
AcDbEntity
  8
Ｓ_１_１
  6
CONTINUOUS
 62
     3
100
AcDbCircle
 10
829.2538830000003
 20
360.9356490000001
 30
0.0
 40
2.0
100
AcDbArc
 50
181.6379970000001
 51
271.638
  0
ARC
  5
350
330
1F
100
AcDbEntity
  8
Ｓ_１_１
  6
CONTINUOUS
 62
     3
100
AcDbCircle
 10
839.2497630000003
 20
361.221503
 30
0.0
 40
2.0
100
AcDbArc
 50
271.638
 51
1.637999999999993
  0
CIRCLE
  5
351
330
1F
100
AcDbEntity
  8
Ｓ_１_１
  6
CONTINUOUS
 62
     3
100
AcDbCircle
 10
850.272598
 20
413.0577600000001
 30
0.0
 40
4.5
  0
ARC
  5
352
330
1F
100
AcDbEntity
  8
Ｓ_１_１
  6
CONTINUOUS
 62
     3
100
AcDbCircle
 10
796.5804680000002
 20
401.5182820000001
 30
0.0
 40
2.0
100
AcDbArc
 50
91.63800500000004
 51
181.6380070000001
  0
ARC
  5
353
330
1F
100
AcDbEntity
  8
Ｓ_１_１
  6
CONTINUOUS
 62
     3
100
AcDbCircle
 10
796.8663030000002
 20
391.5223589999999
 30
0.0
 40
2.0
100
AcDbArc
 50
181.6379970000001
 51
271.638
  0
ARC
  5
354
330
1F
100
AcDbEntity
  8
Ｓ_１_１
  6
CONTINUOUS
 62
     3
100
AcDbCircle
 10
798.3083730000004
 20
393.5708129999999
 30
0.0
 40
2.0
100
AcDbArc
 50
181.6379970000001
 51
267.064109
  0
ARC
  5
355
330
1F
100
AcDbEntity
  8
Ｓ_１_１
  6
CONTINUOUS
 62
     3
100
AcDbCircle
 10
823.0697250000003
 20
402.2757800000001
 30
0.0
 40
2.0
100
AcDbArc
 50
1.637999999999993
 51
91.63800500000004
  0
ARC
  5
356
330
1F
100
AcDbEntity
  8
Ｓ_１_１
  6
CONTINUOUS
 62
     3
100
AcDbCircle
 10
823.35556
 20
392.2798530000001
 30
0.0
 40
2.0
100
AcDbArc
 50
271.638
 51
1.637999999999993
  0
ARC
  5
357
330
1F
100
AcDbEntity
  8
Ｓ_１_１
  6
CONTINUOUS
 62
     3
100
AcDbCircle
 10
831.2165829999999
 20
362.492398
 30
0.0
 40
2.0
100
AcDbArc
 50
186.211943
 51
271.638
  0
ARC
  5
358
330
1F
100
AcDbEntity
  8
Ｓ_１_１
  6
CONTINUOUS
 62
     3
100
AcDbCircle
 10
868.2797620000002
 20
395.5717550000001
 30
0.0
 40
2.0
100
AcDbArc
 50
276.211938
 51
1.637999999999993
  0
ARC
  5
359
330
1F
100
AcDbEntity
  8
Ｓ_１_１
  6
CONTINUOUS
 62
     3
100
AcDbCircle
 10
869.5506280000001
 20
403.6049590000002
 30
0.0
 40
2.0
100
AcDbArc
 50
1.637999999999993
 51
91.63800500000004
  0
ARC
  5
35A
330
1F
100
AcDbEntity
  8
Ｓ_１_１
  6
CONTINUOUS
 62
     3
100
AcDbCircle
 10
869.8364630000001
 20
393.609036
 30
0.0
 40
2.0
100
AcDbArc
 50
271.638
 51
1.637999999999993
  0
ARC
  5
35B
330
1F
100
AcDbEntity
  8
Ｓ_１_１
  6
CONTINUOUS
 62
     3
100
AcDbCircle
 10
843.061409
 20
402.8474600000001
 30
0.0
 40
2.0
100
AcDbArc
 50
91.63800500000004
 51
181.6380070000001
  0
ARC
  5
35C
330
1F
100
AcDbEntity
  8
Ｓ_１_１
  6
CONTINUOUS
 62
     3
100
AcDbCircle
 10
868.1086340000002
 20
401.5565050000001
 30
0.0
 40
2.0
100
AcDbArc
 50
1.637999999999993
 51
87.06410700000002
  0
ARC
  5
35D
330
1F
100
AcDbEntity
  8
Ｓ_１_１
  6
CONTINUOUS
 62
     3
100
AcDbCircle
 10
843.347244
 20
392.851542
 30
0.0
 40
2.0
100
AcDbArc
 50
181.6379970000001
 51
271.638
  0
ARC
  5
35E
330
1F
100
AcDbEntity
  8
Ｓ_１_１
  6
CONTINUOUS
 62
     3
100
AcDbCircle
 10
837.920608
 20
407.702416
 30
0.0
 40
2.0
100
AcDbArc
 50
271.638
 51
1.637999999999993
  0
ARC
  5
35F
330
1F
100
AcDbEntity
  8
Ｓ_１_１
  6
CONTINUOUS
 62
     3
100
AcDbCircle
 10
829.2156220000002
 20
432.4637819999999
 30
0.0
 40
2.0
100
AcDbArc
 50
91.63800500000004
 51
177.064103
  0
CIRCLE
  5
360
330
1F
100
AcDbEntity
  8
Ｓ_１_１
  6
CONTINUOUS
 62
     3
100
AcDbCircle
 10
850.272598
 20
413.0577600000001
 30
0.0
 40
5.0
  0
ARC
  5
361
330
1F
100
AcDbEntity
  8
Ｓ_１_１
  6
CONTINUOUS
 62
     3
100
AcDbCircle
 10
827.9246520000002
 20
407.416576
 30
0.0
 40
2.0
100
AcDbArc
 50
181.6379970000001
 51
271.638
  0
ARC
  5
362
330
1F
100
AcDbEntity
  8
Ｓ_１_１
  6
CONTINUOUS
 62
     3
100
AcDbCircle
 10
837.1631240000002
 20
434.1916689999999
 30
0.0
 40
2.0
100
AcDbArc
 50
1.637999999999993
 51
91.63800500000004
  0
ARC
  5
363
330
1F
100
AcDbEntity
  8
Ｓ_１_１
  6
CONTINUOUS
 62
     3
100
AcDbCircle
 10
827.167168
 20
433.905819
 30
0.0
 40
2.0
100
AcDbArc
 50
91.63800500000004
 51
181.6380070000001
  0
ARC
  5
364
330
1F
100
AcDbEntity
  8
Ｓ_１_１
  6
CONTINUOUS
 62
     3
100
AcDbCircle
 10
835.2004240000002
 20
432.6349240000001
 30
0.0
 40
2.0
100
AcDbArc
 50
6.211938999999997
 51
91.63800500000004
  0
CIRCLE
  5
365
330
1F
100
AcDbEntity
  8
Ｓ_１_１
  6
CONTINUOUS
 62
     3
100
AcDbCircle
 10
851.558837
 20
368.076152
 30
0.0
 40
4.5
  0
CIRCLE
  5
366
330
1F
100
AcDbEntity
  8
Ｓ_１_１
  6
CONTINUOUS
 62
     3
100
AcDbCircle
 10
851.558837
 20
368.076152
 30
0.0
 40
5.0
  0
CIRCLE
  5
367
330
1F
100
AcDbEntity
  8
Ｓ_１_１
  6
CONTINUOUS
 62
     3
100
AcDbCircle
 10
850.272598
 20
413.0577600000001
 30
0.0
 40
6.000000000000005
  0
CIRCLE
  5
368
330
1F
100
AcDbEntity
  8
Ｓ_１_１
  6
CONTINUOUS
 62
     3
100
AcDbCircle
 10
851.558837
 20
368.076152
 30
0.0
 40
6.000000000000005
  0
CIRCLE
  5
369
330
1F
100
AcDbEntity
  8
Ｓ_１_１
  6
CONTINUOUS
 62
     3
100
AcDbCircle
 10
851.558837
 20
368.076152
 30
0.0
 40
3.000000000000003
  0
CIRCLE
  5
36A
330
1F
100
AcDbEntity
  8
Ｓ_１_１
  6
CONTINUOUS
 62
     3
100
AcDbCircle
 10
816.5731810000002
 20
367.0756809999999
 30
0.0
 40
3.000000000000003
  0
CIRCLE
  5
36B
330
1F
100
AcDbEntity
  8
Ｓ_１_１
  6
CONTINUOUS
 62
     3
100
AcDbCircle
 10
816.5731810000002
 20
367.0756809999999
 30
0.0
 40
6.000000000000005
  0
CIRCLE
  5
36C
330
1F
100
AcDbEntity
  8
Ｓ_１_１
  6
CONTINUOUS
 62
     3
100
AcDbCircle
 10
815.286865
 20
412.0572980000001
 30
0.0
 40
6.000000000000005
  0
CIRCLE
  5
36D
330
1F
100
AcDbEntity
  8
Ｓ_１_１
  6
CONTINUOUS
 62
     3
100
AcDbCircle
 10
816.5731810000002
 20
367.0756809999999
 30
0.0
 40
5.0
  0
CIRCLE
  5
36E
330
1F
100
AcDbEntity
  8
Ｓ_１_１
  6
CONTINUOUS
 62
     3
100
AcDbCircle
 10
816.5731810000002
 20
367.0756809999999
 30
0.0
 40
4.5
  0
CIRCLE
  5
36F
330
1F
100
AcDbEntity
  8
Ｓ_１_１
  6
CONTINUOUS
 62
     3
100
AcDbCircle
 10
815.286865
 20
412.0572980000001
 30
0.0
 40
5.0
  0
CIRCLE
  5
370
330
1F
100
AcDbEntity
  8
Ｓ_１_１
  6
CONTINUOUS
 62
     3
100
AcDbCircle
 10
815.286865
 20
412.0572980000001
 30
0.0
 40
4.5
  0
ARC
  5
371
330
1F
100
AcDbEntity
  8
Ｓ_１_１
  6
CONTINUOUS
 62
     3
100
AcDbCircle
 10
855.1276010000001
 20
418.198636
 30
0.0
 40
5.0
100
AcDbArc
 50
1.637999999999993
 51
91.63800500000004
  0
ARC
  5
372
330
1F
100
AcDbEntity
  8
Ｓ_１_１
  6
CONTINUOUS
 62
     3
100
AcDbCircle
 10
811.71814
 20
361.9348140000001
 30
0.0
 40
5.0
100
AcDbArc
 50
181.6379970000001
 51
271.638
  0
ARC
  5
373
330
1F
100
AcDbEntity
  8
Ｓ_１_１
  6
CONTINUOUS
 62
     3
100
AcDbCircle
 10
856.6997520000001
 20
363.22112
 30
0.0
 40
5.0
100
AcDbArc
 50
271.638
 51
1.637999999999993
  0
ARC
  5
374
330
1F
100
AcDbEntity
  8
Ｓ_１_１
  6
CONTINUOUS
 62
     3
100
AcDbCircle
 10
810.1459890000001
 20
416.91233
 30
0.0
 40
5.0
100
AcDbArc
 50
91.63800500000004
 51
181.6380070000001
  0
CIRCLE
  5
375
330
1F
100
AcDbEntity
  8
Ｓ_１_１
  6
CONTINUOUS
 62
     3
100
AcDbCircle
 10
848.3140940000004
 20
499.0369030000001
 30
0.0
 40
5.0
  0
ARC
  5
376
330
1F
100
AcDbEntity
  8
Ｓ_１_１
  6
CONTINUOUS
 62
     3
100
AcDbCircle
 10
1793.419289
 20
409.453586
 30
0.0
 40
2.541666
100
AcDbArc
 50
1.637999999999993
 51
54.29700500000002
  0
ARC
  5
377
330
1F
100
AcDbEntity
  8
Ｓ_１_１
  6
CONTINUOUS
 62
     3
100
AcDbCircle
 10
1757.999864
 20
494.7412820000001
 30
0.0
 40
4.796875
100
AcDbArc
 50
91.63800500000004
 51
145.9718110000001
  0
ARC
  5
378
330
1F
100
AcDbEntity
  8
Ｓ_１_１
  6
CONTINUOUS
 62
     3
100
AcDbCircle
 10
1840.992645
 20
1154.179828
 30
0.0
 40
625.999975
100
AcDbArc
 50
267.0567800000001
 51
276.2192190000001
  0
ARC
  5
379
330
1F
100
AcDbEntity
  8
Ｓ_１_１
  6
CONTINUOUS
 62
     3
100
AcDbCircle
 10
1746.638895
 20
483.0211230000001
 30
0.0
 40
16.187498
100
AcDbArc
 50
62.854802
 51
120.421207
  0
ARC
  5
37A
330
1F
100
AcDbEntity
  8
Ｓ_１_１
  6
CONTINUOUS
 62
     3
100
AcDbCircle
 10
1795.854287
 20
563.648354
 30
0.0
 40
3.000000000000003
100
AcDbArc
 50
91.63800500000004
 51
181.6380070000001
  0
ARC
  5
37B
330
1F
100
AcDbEntity
  8
Ｓ_１_１
  6
CONTINUOUS
 62
     3
100
AcDbCircle
 10
1920.775512
 20
533.2067499999999
 30
0.0
 40
3.000000000000003
100
AcDbArc
 50
271.638
 51
1.637999999999993
  0
ARC
  5
37C
330
1F
100
AcDbEntity
  8
Ｓ_１_１
  6
CONTINUOUS
 62
     3
100
AcDbCircle
 10
1919.803679
 20
567.192846
 30
0.0
 40
3.000000000000003
100
AcDbArc
 50
1.637999999999993
 51
91.63800500000004
  0
ARC
  5
37D
330
1F
100
AcDbEntity
  8
Ｓ_１_１
  6
CONTINUOUS
 62
     3
100
AcDbCircle
 10
1796.826157
 20
529.662263
 30
0.0
 40
3.000000000000003
100
AcDbArc
 50
181.6379970000001
 51
271.638
  0
ARC
  5
37E
330
1F
100
AcDbEntity
  8
Ｓ_１_１
  6
CONTINUOUS
 62
     3
100
AcDbCircle
 10
1734.626756
 20
494.072898
 30
0.0
 40
4.796875
100
AcDbArc
 50
37.30418800000003
 51
91.63800500000004
  0
ARC
  5
37F
330
1F
100
AcDbEntity
  8
Ｓ_１_１
  6
CONTINUOUS
 62
     3
100
AcDbCircle
 10
1875.637191
 20
-57.32478499999991
 30
0.0
 40
625.999975
100
AcDbArc
 50
87.056785
 51
96.21922400000003
  0
ARC
  5
380
330
1F
100
AcDbEntity
  8
Ｓ_１_１
  6
CONTINUOUS
 62
     3
100
AcDbCircle
 10
1787.123437
 20
415.3382050000002
 30
0.0
 40
8.666666000000006
100
AcDbArc
 50
333.842228
 51
29.43377100000001
  0
ARC
  5
381
330
1F
100
AcDbEntity
  8
Ｓ_１_１
  6
CONTINUOUS
 62
     3
100
AcDbCircle
 10
1793.072686
 20
421.572984
 30
0.0
 40
2.541666
100
AcDbArc
 50
308.9789920000001
 51
1.637999999999993
  0
CIRCLE
  5
382
330
1F
100
AcDbEntity
  8
Ｓ_１_１
  6
CONTINUOUS
 62
     3
100
AcDbCircle
 10
810.3409959999999
 20
476.7807710000001
 30
0.0
 40
5.0
  0
CIRCLE
  5
383
330
1F
100
AcDbEntity
  8
Ｓ_１_１
  6
CONTINUOUS
 62
     3
100
AcDbCircle
 10
809.243813
 20
518.4280170000001
 30
0.0
 40
5.0
  0
ARC
  5
384
330
1F
100
AcDbEntity
  8
Ｓ_１_１
  6
CONTINUOUS
 62
     3
100
AcDbCircle
 10
917.1593459999999
 20
487.9431840000001
 30
0.0
 40
5.0
100
AcDbArc
 50
95.36362700000002
 51
181.637994
  0
ARC
  5
385
330
1F
100
AcDbEntity
  8
Ｓ_１_１
  6
CONTINUOUS
 62
     3
100
AcDbCircle
 10
882.2291559999999
 20
485.000617
 30
0.0
 40
5.0
100
AcDbArc
 50
1.637999999999993
 51
91.63799800000001
  0
ARC
  5
386
330
1F
100
AcDbEntity
  8
Ｓ_１_１
  6
CONTINUOUS
 62
     3
100
AcDbCircle
 10
922.9161440000003
 20
339.1040320000001
 30
0.0
 40
4.0
100
AcDbArc
 50
1.637999999999993
 51
91.63799800000001
  0
ARC
  5
387
330
1F
100
AcDbEntity
  8
Ｓ_１_１
  6
CONTINUOUS
 62
     3
100
AcDbCircle
 10
919.9719600000003
 20
442.0619399999999
 30
0.0
 40
4.0
100
AcDbArc
 50
271.638
 51
1.637999999999993
  0
ARC
  5
388
330
1F
100
AcDbEntity
  8
Ｓ_１_１
  6
CONTINUOUS
 62
     3
100
AcDbCircle
 10
1766.528382
 20
364.7288119999999
 30
0.0
 40
19.99999900000001
100
AcDbArc
 50
271.638
 51
1.637999999999993
  0
ARC
  5
389
330
1F
100
AcDbEntity
  8
Ｓ_１_１
  6
CONTINUOUS
 62
     3
100
AcDbCircle
 10
1763.669915
 20
464.687951
 30
0.0
 40
19.99999900000001
100
AcDbArc
 50
1.637999999999993
 51
91.63799800000001
  0
LINE
  5
38A
330
1F
100
AcDbEntity
  8
Ｓ_１_１
  6
CONTINUOUS
 62
     3
100
AcDbLine
 10
1726.862474
 20
305.0000000000001
 30
0.0
 11
1776.739907
 21
305.0000000000001
 31
0.0
  0
LINE
  5
38B
330
1F
100
AcDbEntity
  8
Ｓ_１_１
  6
CONTINUOUS
 62
     3
100
AcDbLine
 10
814.9897770000002
 20
305.0000000000001
 30
0.0
 11
865.0102609999999
 21
305.0000000000001
 31
0.0
  0
LINE
  5
38C
330
1F
100
AcDbEntity
  8
Ｓ_１_１
  6
CONTINUOUS
 62
     3
100
AcDbLine
 10
1726.862436
 20
300.0000000000001
 30
0.0
 11
1776.88292
 21
300.0000000000001
 31
0.0
  0
LINE
  5
38D
330
1F
100
AcDbEntity
  8
Ｓ_１_１
  6
CONTINUOUS
 62
     3
100
AcDbLine
 10
814.9897770000002
 20
300.0000000000001
 30
0.0
 11
865.0102230000002
 21
300.0000000000001
 31
0.0
  0
LINE
  5
38E
330
1F
100
AcDbEntity
  8
Ｓ_１_１
  6
CONTINUOUS
 62
     3
100
AcDbLine
 10
878.7595740000002
 20
466.3938280000001
 30
0.0
 11
879.2736789999999
 21
465.9083079999999
 31
0.0
  0
LINE
  5
38F
330
1F
100
AcDbEntity
  8
Ｓ_１_１
  6
CONTINUOUS
 62
     3
100
AcDbLine
 10
871.2769760000001
 20
465.6796600000001
 30
0.0
 11
871.7624960000003
 21
466.1937650000002
 31
0.0
  0
LINE
  5
390
330
1F
100
AcDbEntity
  8
Ｓ_１_１
  6
CONTINUOUS
 62
     3
100
AcDbLine
 10
878.7596309999999
 20
466.3938400000001
 30
0.0
 11
878.8596769999999
 21
462.8952700000001
 31
0.0
  0
LINE
  5
391
330
1F
100
AcDbEntity
  8
Ｓ_１_１
  6
CONTINUOUS
 62
     3
100
AcDbLine
 10
871.762483
 20
466.1937470000001
 30
0.0
 11
871.862529
 21
462.6951780000001
 31
0.0
  0
LINE
  5
392
330
1F
100
AcDbEntity
  8
Ｓ_１_１
  6
CONTINUOUS
 62
     3
100
AcDbLine
 10
868.2398200000002
 20
458.189788
 30
0.0
 11
870.0687190000003
 21
457.6418460000001
 31
0.0
  0
LINE
  5
393
330
1F
100
AcDbEntity
  8
Ｓ_１_１
  6
CONTINUOUS
 62
     3
100
AcDbLine
 10
882.7339070000003
 20
458.6042619999999
 30
0.0
 11
880.939273
 21
457.952688
 31
0.0
  0
LINE
  5
394
330
1F
100
AcDbEntity
  8
Ｓ_１_１
  6
CONTINUOUS
 62
     3
100
AcDbLine
 10
871.8633450000002
 20
458.293403
 30
0.0
 11
871.8090340000003
 21
460.1926260000002
 31
0.0
  0
LINE
  5
395
330
1F
100
AcDbEntity
  8
Ｓ_１_１
  6
CONTINUOUS
 62
     3
100
AcDbLine
 10
879.1103670000002
 20
458.500641
 30
0.0
 11
879.0560570000002
 21
460.3998640000001
 31
0.0
  0
LINE
  5
396
330
1F
100
AcDbEntity
  8
Ｓ_１_１
  6
CONTINUOUS
 62
     3
100
AcDbLine
 10
882.7339160000002
 20
458.6042610000001
 30
0.0
 11
882.6796060000001
 21
460.503484
 31
0.0
  0
LINE
  5
397
330
1F
100
AcDbEntity
  8
Ｓ_１_１
  6
CONTINUOUS
 62
     3
100
AcDbLine
 10
868.239834
 20
458.189784
 30
0.0
 11
868.1855230000002
 21
460.089007
 31
0.0
  0
LINE
  5
398
330
1F
100
AcDbEntity
  8
Ｓ_１_１
  6
CONTINUOUS
 62
     3
100
AcDbLine
 10
870.0687210000001
 20
457.6418380000001
 30
0.0
 11
880.9392929999999
 21
457.9526959999999
 31
0.0
  0
LINE
  5
399
330
1F
100
AcDbEntity
  8
Ｓ_１_１
  6
CONTINUOUS
 62
     3
100
AcDbLine
 10
882.6252810000001
 20
462.402702
 30
0.0
 11
880.7963450000002
 21
462.950655
 31
0.0
  0
LINE
  5
39A
330
1F
100
AcDbEntity
  8
Ｓ_１_１
  6
CONTINUOUS
 62
     3
100
AcDbLine
 10
868.1312069999999
 20
461.9882120000001
 30
0.0
 11
869.9258410000002
 21
462.6397860000001
 31
0.0
  0
LINE
  5
39B
330
1F
100
AcDbEntity
  8
Ｓ_１_１
  6
CONTINUOUS
 62
     3
100
AcDbLine
 10
883.7633169999999
 20
451.0305910000001
 30
0.0
 11
886.4211250000003
 21
452.1070000000001
 31
0.0
  0
LINE
  5
39C
330
1F
100
AcDbEntity
  8
Ｓ_１_１
  6
CONTINUOUS
 62
     3
100
AcDbLine
 10
867.6448790000001
 20
450.5696790000001
 30
0.0
 11
864.9299380000002
 21
451.4924340000002
 31
0.0
  0
LINE
  5
39D
330
1F
100
AcDbEntity
  8
Ｓ_１_１
  6
CONTINUOUS
 62
     3
100
AcDbLine
 10
883.5631830000002
 20
458.0277620000001
 30
0.0
 11
886.2781970000001
 21
457.1049819999999
 31
0.0
  0
LINE
  5
39E
330
1F
100
AcDbEntity
  8
Ｓ_１_１
  6
CONTINUOUS
 62
     3
100
AcDbLine
 10
867.4448000000002
 20
457.5667890000001
 30
0.0
 11
864.786991
 21
456.4903800000001
 31
0.0
  0
LINE
  5
39F
330
1F
100
AcDbEntity
  8
Ｓ_１_１
  6
CONTINUOUS
 62
     3
100
AcDbLine
 10
870.1597650000003
 20
456.6440320000001
 30
0.0
 11
870.3026880000002
 21
451.6460760000001
 31
0.0
  0
LINE
  5
3A0
330
1F
100
AcDbEntity
  8
Ｓ_１_１
  6
CONTINUOUS
 62
     3
100
AcDbLine
 10
864.7870150000003
 20
456.490392
 30
0.0
 11
864.9299380000002
 21
451.492435
 31
0.0
  0
LINE
  5
3A1
330
1F
100
AcDbEntity
  8
Ｓ_１_１
  6
CONTINUOUS
 62
     3
100
AcDbLine
 10
868.0919790000003
 20
489.59839
 30
0.0
 11
868.4349940000002
 21
477.603295
 31
0.0
  0
LINE
  5
3A2
330
1F
100
AcDbEntity
  8
Ｓ_１_１
  6
CONTINUOUS
 62
     3
100
AcDbLine
 10
873.9327280000003
 20
477.760533
 30
0.0
 11
875.9890930000001
 21
475.8185070000001
 31
0.0
  0
LINE
  5
3A3
330
1F
100
AcDbEntity
  8
Ｓ_１_１
  6
CONTINUOUS
 62
     3
100
AcDbLine
 10
875.989098
 20
475.8184950000001
 30
0.0
 11
876.2606519999999
 21
466.322378
 31
0.0
  0
LINE
  5
3A4
330
1F
100
AcDbEntity
  8
Ｓ_１_１
  6
CONTINUOUS
 62
     3
100
AcDbLine
 10
832.8929170000001
 20
496.0578400000001
 30
0.0
 11
833.4492580000001
 21
476.602833
 31
0.0
  0
LINE
  5
3A5
330
1F
100
AcDbEntity
  8
Ｓ_１_１
  6
CONTINUOUS
 62
     3
100
AcDbLine
 10
776.999222
 20
544.016774
 30
0.0
 11
885.45487
 21
547.1182030000001
 31
0.0
  0
LINE
  5
3A6
330
1F
100
AcDbEntity
  8
Ｓ_１_１
  6
CONTINUOUS
 62
     3
100
AcDbLine
 10
977.9170710000003
 20
549.762278
 30
0.0
 11
977.9352630000003
 21
549.126104
 31
0.0
  0
LINE
  5
3A7
330
1F
100
AcDbEntity
  8
Ｓ_１_１
  6
CONTINUOUS
 62
     3
100
AcDbLine
 10
957.9242520000003
 20
549.223912
 30
0.0
 11
957.925205
 21
549.1905849999999
 31
0.0
  0
LINE
  5
3A8
330
1F
100
AcDbEntity
  8
Ｓ_１_１
  6
CONTINUOUS
 62
     3
100
AcDbLine
 10
959.4073530000001
 20
553.3346439999999
 30
0.0
 11
976.2005290000002
 21
553.814866
 31
0.0
  0
LINE
  5
3A9
330
1F
100
AcDbEntity
  8
Ｓ_１_１
  6
CONTINUOUS
 62
     3
100
AcDbLine
 10
961.5005719999999
 20
564.098873
 30
0.0
 11
973.495676
 21
564.441888
 31
0.0
  0
LINE
  5
3AA
330
1F
100
AcDbEntity
  8
Ｓ_１_１
  6
CONTINUOUS
 62
     3
100
AcDbLine
 10
971.4024950000004
 20
553.67766
 30
0.0
 11
971.5196920000003
 21
549.579337
 31
0.0
  0
LINE
  5
3AB
330
1F
100
AcDbEntity
  8
Ｓ_１_１
  6
CONTINUOUS
 62
     3
100
AcDbLine
 10
959.3644760000002
 20
554.834027
 30
0.0
 11
976.157652
 21
555.3142490000001
 31
0.0
  0
LINE
  5
3AC
330
1F
100
AcDbEntity
  8
Ｓ_１_１
  6
CONTINUOUS
 62
     3
100
AcDbLine
 10
960.5640189999999
 20
554.8683460000001
 30
0.0
 11
949.248904
 21
564.8587590000001
 31
0.0
  0
LINE
  5
3AD
330
1F
100
AcDbEntity
  8
Ｓ_１_１
  6
CONTINUOUS
 62
     3
100
AcDbLine
 10
963.8055410000002
 20
553.460416
 30
0.0
 11
963.9227380000002
 21
549.3620930000001
 31
0.0
  0
LINE
  5
3AE
330
1F
100
AcDbEntity
  8
Ｓ_１_１
  6
CONTINUOUS
 62
     3
100
AcDbLine
 10
964.2054250000001
 20
553.4718510000001
 30
0.0
 11
964.3226220000003
 21
549.373528
 31
0.0
  0
LINE
  5
3AF
330
1F
100
AcDbEntity
  8
Ｓ_１_１
  6
CONTINUOUS
 62
     3
100
AcDbLine
 10
974.958134
 20
555.279962
 30
0.0
 11
985.6838480000001
 21
565.9006600000001
 31
0.0
  0
LINE
  5
3B0
330
1F
100
AcDbEntity
  8
Ｓ_１_１
  6
CONTINUOUS
 62
     3
100
AcDbLine
 10
961.5005600000001
 20
564.098877
 30
0.0
 11
960.5640269999999
 21
554.868329
 31
0.0
  0
LINE
  5
3B1
330
1F
100
AcDbEntity
  8
Ｓ_１_１
  6
CONTINUOUS
 62
     3
100
AcDbLine
 10
976.157652
 20
555.3142490000001
 30
0.0
 11
976.2033879999999
 21
553.7149049999999
 31
0.0
  0
LINE
  5
3B2
330
1F
100
AcDbEntity
  8
Ｓ_１_１
  6
CONTINUOUS
 62
     3
100
AcDbLine
 10
973.495656
 20
564.4418850000001
 30
0.0
 11
974.9581430000003
 21
555.2799510000001
 31
0.0
  0
LINE
  5
3B3
330
1F
100
AcDbEntity
  8
Ｓ_１_１
  6
CONTINUOUS
 62
     3
100
AcDbLine
 10
959.3644760000002
 20
554.834027
 30
0.0
 11
959.4102120000002
 21
553.2346820000001
 31
0.0
  0
LINE
  5
3B4
330
1F
100
AcDbEntity
  8
Ｓ_１_１
  6
CONTINUOUS
 62
     3
100
AcDbLine
 10
961.5005170000001
 20
564.09885
 30
0.0
 11
958.0161619999999
 21
571.4540640000001
 31
0.0
  0
LINE
  5
3B5
330
1F
100
AcDbEntity
  8
Ｓ_１_１
  6
CONTINUOUS
 62
     3
100
AcDbLine
 10
973.4956700000004
 20
564.4418890000001
 30
0.0
 11
976.554009
 21
571.9841950000001
 31
0.0
  0
LINE
  5
3B6
330
1F
100
AcDbEntity
  8
Ｓ_１_１
  6
CONTINUOUS
 62
     3
100
AcDbLine
 10
971.8023410000001
 20
553.689094
 30
0.0
 11
971.9195380000002
 21
549.590771
 31
0.0
  0
LINE
  5
3B7
330
1F
100
AcDbEntity
  8
Ｓ_１_１
  6
CONTINUOUS
 62
     3
100
AcDbLine
 10
793.8788100000002
 20
513.486775
 30
0.0
 11
848.5999290000001
 21
489.0409740000001
 31
0.0
  0
LINE
  5
3B8
330
1F
100
AcDbEntity
  8
Ｓ_１_１
  6
CONTINUOUS
 62
     3
100
AcDbLine
 10
784.1687380000003
 20
503.205024
 30
0.0
 11
787.5211060000001
 21
513.304974
 31
0.0
  0
LINE
  5
3B9
330
1F
100
AcDbEntity
  8
Ｓ_１_１
  6
CONTINUOUS
 62
     3
100
AcDbLine
 10
774.1728480000002
 20
502.919192
 30
0.0
 11
784.1687240000001
 21
503.2050370000001
 31
0.0
  0
LINE
  5
3BA
330
1F
100
AcDbEntity
  8
Ｓ_１_１
  6
CONTINUOUS
 62
     3
100
AcDbLine
 10
802.4212769999999
 20
389.6803900000001
 30
0.0
 11
804.136352
 21
329.704918
 31
0.0
  0
LINE
  5
3BB
330
1F
100
AcDbEntity
  8
Ｓ_１_１
  6
CONTINUOUS
 62
     3
100
AcDbLine
 10
789.6757830000001
 20
513.366605
 30
0.0
 11
796.9645260000002
 21
500.019175
 31
0.0
  0
LINE
  5
3BC
330
1F
100
AcDbEntity
  8
Ｓ_１_１
  6
CONTINUOUS
 62
     3
100
AcDbLine
 10
826.0095300000003
 20
474.3892650000001
 30
0.0
 11
875.989098
 21
475.8184950000001
 31
0.0
  0
LINE
  5
3BD
330
1F
100
AcDbEntity
  8
Ｓ_１_１
  6
CONTINUOUS
 62
     3
100
AcDbLine
 10
827.9515230000002
 20
476.4456240000001
 30
0.0
 11
826.009497
 21
474.3892589999999
 31
0.0
  0
LINE
  5
3BE
330
1F
100
AcDbEntity
  8
Ｓ_１_１
  6
CONTINUOUS
 62
     3
100
AcDbLine
 10
818.6407410000002
 20
487.1838510000001
 30
0.0
 11
821.725261
 21
484.270838
 31
0.0
  0
LINE
  5
3BF
330
1F
100
AcDbEntity
  8
Ｓ_１_１
  6
CONTINUOUS
 62
     3
100
AcDbLine
 10
801.6477110000001
 20
486.6979190000001
 30
0.0
 11
798.7346980000002
 21
483.613399
 31
0.0
  0
LINE
  5
3C0
330
1F
100
AcDbEntity
  8
Ｓ_１_１
  6
CONTINUOUS
 62
     3
100
AcDbLine
 10
811.8610410000002
 20
356.936851
 30
0.0
 11
856.8426910000003
 21
358.223159
 31
0.0
  0
LINE
  5
3C1
330
1F
100
AcDbEntity
  8
Ｓ_１_１
  6
CONTINUOUS
 62
     3
100
AcDbLine
 10
778.796515
 20
416.015859
 30
0.0
 11
779.4825450000003
 21
392.025661
 31
0.0
  0
LINE
  5
3C2
330
1F
100
AcDbEntity
  8
Ｓ_１_１
  6
CONTINUOUS
 62
     3
100
AcDbLine
 10
778.7053730000002
 20
399.0062960000001
 30
0.0
 11
778.9340490000001
 21
391.009563
 31
0.0
  0
LINE
  5
3C3
330
1F
100
AcDbEntity
  8
Ｓ_１_１
  6
CONTINUOUS
 62
     3
100
AcDbLine
 10
767.3646790000001
 20
398.681995
 30
0.0
 11
767.5933560000002
 21
390.6852620000001
 31
0.0
  0
LINE
  5
3C4
330
1F
100
AcDbEntity
  8
Ｓ_１_１
  6
CONTINUOUS
 62
     3
100
AcDbLine
 10
778.19085
 20
416.998933
 30
0.0
 11
778.419527
 21
409.0022050000002
 31
0.0
  0
LINE
  5
3C5
330
1F
100
AcDbEntity
  8
Ｓ_１_１
  6
CONTINUOUS
 62
     3
100
AcDbLine
 10
766.8501570000003
 20
416.674631
 30
0.0
 11
767.0788339999999
 21
408.6779030000001
 31
0.0
  0
LINE
  5
3C6
330
1F
100
AcDbEntity
  8
Ｓ_１_１
  6
CONTINUOUS
 62
     3
100
AcDbLine
 10
750.702088
 20
416.2128570000002
 30
0.0
 11
751.445287
 21
390.2234870000001
 31
0.0
  0
LINE
  5
3C7
330
1F
100
AcDbEntity
  8
Ｓ_１_１
  6
CONTINUOUS
 62
     3
100
AcDbLine
 10
750.7020620000003
 20
416.212864
 30
0.0
 11
751.307765
 21
415.2297680000001
 31
0.0
  0
LINE
  5
3C8
330
1F
100
AcDbEntity
  8
Ｓ_１_１
  6
CONTINUOUS
 62
     3
100
AcDbLine
 10
766.987689
 20
391.6683620000001
 30
0.0
 11
767.5933920000002
 21
390.685267
 31
0.0
  0
LINE
  5
3C9
330
1F
100
AcDbEntity
  8
Ｓ_１_１
  6
CONTINUOUS
 62
     3
100
AcDbLine
 10
778.1908480000002
 20
416.998955
 30
0.0
 11
778.7965520000002
 21
416.0158600000001
 31
0.0
  0
LINE
  5
3CA
330
1F
100
AcDbEntity
  8
Ｓ_１_１
  6
CONTINUOUS
 62
     3
100
AcDbLine
 10
751.9938219999998
 20
391.239537
 30
0.0
 11
751.445307
 21
390.2234680000001
 31
0.0
  0
LINE
  5
3CB
330
1F
100
AcDbEntity
  8
Ｓ_１_１
  6
CONTINUOUS
 62
     3
100
AcDbLine
 10
766.850171
 20
416.674654
 30
0.0
 11
766.3016379999999
 21
415.658552
 31
0.0
  0
LINE
  5
3CC
330
1F
100
AcDbEntity
  8
Ｓ_１_１
  6
CONTINUOUS
 62
     3
100
AcDbLine
 10
779.4825950000001
 20
392.025651
 30
0.0
 11
778.9340609999999
 21
391.009549
 31
0.0
  0
LINE
  5
3CD
330
1F
100
AcDbEntity
  8
Ｓ_１_１
  6
CONTINUOUS
 62
     3
100
AcDbLine
 10
767.3646790000001
 20
398.681995
 30
0.0
 11
778.7053730000002
 21
399.0062960000001
 31
0.0
  0
LINE
  5
3CE
330
1F
100
AcDbEntity
  8
Ｓ_１_１
  6
CONTINUOUS
 62
     3
100
AcDbLine
 10
767.0788339999999
 20
408.6779030000001
 30
0.0
 11
778.419527
 21
409.0022050000002
 31
0.0
  0
LINE
  5
3CF
330
1F
100
AcDbEntity
  8
Ｓ_１_１
  6
CONTINUOUS
 62
     3
100
AcDbLine
 10
743.522418
 20
401.2515119999999
 30
0.0
 11
743.7070760000001
 21
401.151827
 31
0.0
  0
LINE
  5
3D0
330
1F
100
AcDbEntity
  8
Ｓ_１_１
  6
CONTINUOUS
 62
     3
100
AcDbLine
 10
743.7041050000003
 20
401.2567170000001
 30
0.0
 11
744.1114360000001
 21
387.0125429999999
 31
0.0
  0
LINE
  5
3D1
330
1F
100
AcDbEntity
  8
Ｓ_１_１
  6
CONTINUOUS
 62
     3
100
AcDbLine
 10
744.2038550000002
 20
401.2710080000001
 30
0.0
 11
744.5968940000002
 21
387.526626
 31
0.0
  0
LINE
  5
3D2
330
1F
100
AcDbEntity
  8
Ｓ_１_１
  6
CONTINUOUS
 62
     3
100
AcDbLine
 10
740.6052549999999
 20
404.669526
 30
0.0
 11
740.705301
 21
401.170962
 31
0.0
  0
LINE
  5
3D3
330
1F
100
AcDbEntity
  8
Ｓ_１_１
  6
CONTINUOUS
 62
     3
100
AcDbLine
 10
740.6052549999999
 20
404.669526
 30
0.0
 11
744.1038090000002
 21
404.769572
 31
0.0
  0
LINE
  5
3D4
330
1F
100
AcDbEntity
  8
Ｓ_１_１
  6
CONTINUOUS
 62
     3
100
AcDbLine
 10
740.705301
 20
401.170962
 30
0.0
 11
744.2038550000002
 21
401.2710080000001
 31
0.0
  0
LINE
  5
3D5
330
1F
100
AcDbEntity
  8
Ｓ_１_１
  6
CONTINUOUS
 62
     3
100
AcDbLine
 10
746.209777
 20
418.5854029999999
 30
0.0
 11
746.7238820000002
 21
418.099883
 31
0.0
  0
LINE
  5
3D6
330
1F
100
AcDbEntity
  8
Ｓ_１_１
  6
CONTINUOUS
 62
     3
100
AcDbLine
 10
745.21018
 20
418.5567910000001
 30
0.0
 11
744.7247130000001
 21
418.0427410000001
 31
0.0
  0
LINE
  5
3D7
330
1F
100
AcDbEntity
  8
Ｓ_１_１
  6
CONTINUOUS
 62
     3
100
AcDbLine
 10
747.5813940000003
 20
388.1121360000001
 30
0.0
 11
747.0959010000001
 21
387.598059
 31
0.0
  0
LINE
  5
3D8
330
1F
100
AcDbEntity
  8
Ｓ_１_１
  6
CONTINUOUS
 62
     3
100
AcDbLine
 10
745.582198
 20
388.0549669999999
 30
0.0
 11
746.0962760000002
 21
387.5694730000001
 31
0.0
  0
LINE
  5
3D9
330
1F
100
AcDbEntity
  8
Ｓ_１_１
  6
CONTINUOUS
 62
     3
100
AcDbLine
 10
747.5242370000001
 20
390.1113590000001
 30
0.0
 11
747.5814060000002
 21
388.112174
 31
0.0
  0
LINE
  5
3DA
330
1F
100
AcDbEntity
  8
Ｓ_１_１
  6
CONTINUOUS
 62
     3
100
AcDbLine
 10
745.525008
 20
390.0541890000001
 30
0.0
 11
745.582178
 21
388.0550030000001
 31
0.0
  0
LINE
  5
3DB
330
1F
100
AcDbEntity
  8
Ｓ_１_１
  6
CONTINUOUS
 62
     3
100
AcDbLine
 10
744.7246399999998
 20
418.042744
 30
0.0
 11
744.7818090000001
 21
416.0435590000001
 31
0.0
  0
LINE
  5
3DC
330
1F
100
AcDbEntity
  8
Ｓ_１_１
  6
CONTINUOUS
 62
     3
100
AcDbLine
 10
746.723868
 20
418.0999150000001
 30
0.0
 11
746.7810370000002
 21
416.1007290000001
 31
0.0
  0
LINE
  5
3DD
330
1F
100
AcDbEntity
  8
Ｓ_１_１
  6
CONTINUOUS
 62
     3
100
AcDbLine
 10
745.2101740000003
 20
418.5568300000001
 30
0.0
 11
746.2098260000002
 21
418.5854170000002
 31
0.0
  0
LINE
  5
3DE
330
1F
100
AcDbEntity
  8
Ｓ_１_１
  6
CONTINUOUS
 62
     3
100
AcDbLine
 10
746.0962960000002
 20
387.5695039999999
 30
0.0
 11
747.0959480000001
 21
387.5980900000001
 31
0.0
  0
LINE
  5
3DF
330
1F
100
AcDbEntity
  8
Ｓ_１_１
  6
CONTINUOUS
 62
     3
100
AcDbLine
 10
743.601052
 20
404.8601810000001
 30
0.0
 11
743.4223930000003
 21
404.750105
 31
0.0
  0
LINE
  5
3E0
330
1F
100
AcDbEntity
  8
Ｓ_１_１
  6
CONTINUOUS
 62
     3
100
AcDbLine
 10
719.706271
 20
418.327717
 30
0.0
 11
720.6209779999998
 21
386.3408029999999
 31
0.0
  0
LINE
  5
3E1
330
1F
100
AcDbEntity
  8
Ｓ_１_１
  6
CONTINUOUS
 62
     3
100
AcDbLine
 10
727.203282
 20
418.542104
 30
0.0
 11
728.1179890000002
 21
386.555189
 31
0.0
  0
LINE
  5
3E2
330
1F
100
AcDbEntity
  8
Ｓ_１_１
  6
CONTINUOUS
 62
     3
100
AcDbLine
 10
743.1967290000002
 20
418.999457
 30
0.0
 11
743.6040600000001
 21
404.7552810000001
 31
0.0
  0
LINE
  5
3E3
330
1F
100
AcDbEntity
  8
Ｓ_１_１
  6
CONTINUOUS
 62
     3
100
AcDbLine
 10
737.114251
 20
386.8124490000001
 30
0.0
 11
736.1995440000001
 21
418.7993640000001
 31
0.0
  0
LINE
  5
3E4
330
1F
100
AcDbEntity
  8
Ｓ_１_１
  6
CONTINUOUS
 62
     3
100
AcDbLine
 10
744.5969180000001
 20
387.526651
 30
0.0
 11
744.111398
 21
387.012546
 31
0.0
  0
LINE
  5
3E5
330
1F
100
AcDbEntity
  8
Ｓ_１_１
  6
CONTINUOUS
 62
     3
100
AcDbLine
 10
743.1967410000002
 20
418.999463
 30
0.0
 11
743.710791
 21
418.5139949999999
 31
0.0
  0
LINE
  5
3E6
330
1F
100
AcDbEntity
  8
Ｓ_１_１
  6
CONTINUOUS
 62
     3
100
AcDbLine
 10
737.114251
 20
386.8124490000001
 30
0.0
 11
744.1114360000001
 21
387.0125429999999
 31
0.0
  0
LINE
  5
3E7
330
1F
100
AcDbEntity
  8
Ｓ_１_１
  6
CONTINUOUS
 62
     3
100
AcDbLine
 10
736.1995440000001
 20
418.7993640000001
 30
0.0
 11
743.1967290000002
 21
418.999457
 31
0.0
  0
LINE
  5
3E8
330
1F
100
AcDbEntity
  8
Ｓ_１_１
  6
CONTINUOUS
 62
     3
100
AcDbLine
 10
727.2032560000002
 20
418.5421359999999
 30
0.0
 11
727.717361
 21
418.0566170000001
 31
0.0
  0
LINE
  5
3E9
330
1F
100
AcDbEntity
  8
Ｓ_１_１
  6
CONTINUOUS
 62
     3
100
AcDbLine
 10
736.600183
 20
387.2979750000001
 30
0.0
 11
737.1142610000002
 21
386.812482
 31
0.0
  0
LINE
  5
3EA
330
1F
100
AcDbEntity
  8
Ｓ_１_１
  6
CONTINUOUS
 62
     3
100
AcDbLine
 10
728.6034610000002
 20
387.0692970000002
 30
0.0
 11
728.117941
 21
386.5551919999999
 31
0.0
  0
LINE
  5
3EB
330
1F
100
AcDbEntity
  8
Ｓ_１_１
  6
CONTINUOUS
 62
     3
100
AcDbLine
 10
736.1995590000001
 20
418.799396
 30
0.0
 11
735.714066
 21
418.2853180000001
 31
0.0
  0
LINE
  5
3EC
330
1F
100
AcDbEntity
  8
Ｓ_１_１
  6
CONTINUOUS
 62
     3
100
AcDbLine
 10
727.7173250000001
 20
418.0566
 30
0.0
 11
728.603447
 21
387.069273
 31
0.0
  0
LINE
  5
3ED
330
1F
100
AcDbEntity
  8
Ｓ_１_１
  6
CONTINUOUS
 62
     3
100
AcDbLine
 10
735.714086
 20
418.2852770000001
 30
0.0
 11
736.6002090000002
 21
387.2979510000002
 31
0.0
  0
LINE
  5
3EE
330
1F
100
AcDbEntity
  8
Ｓ_１_１
  6
CONTINUOUS
 62
     3
100
AcDbLine
 10
728.603447
 20
387.069273
 30
0.0
 11
736.6002090000002
 21
387.2979510000002
 31
0.0
  0
LINE
  5
3EF
330
1F
100
AcDbEntity
  8
Ｓ_１_１
  6
CONTINUOUS
 62
     3
100
AcDbLine
 10
727.7173250000001
 20
418.0566
 30
0.0
 11
735.714086
 21
418.2852770000001
 31
0.0
  0
LINE
  5
3F0
330
1F
100
AcDbEntity
  8
Ｓ_１_１
  6
CONTINUOUS
 62
     3
100
AcDbLine
 10
717.5364770000001
 20
389.25382
 30
0.0
 11
720.6209980000003
 21
386.340807
 31
0.0
  0
LINE
  5
3F1
330
1F
100
AcDbEntity
  8
Ｓ_１_１
  6
CONTINUOUS
 62
     3
100
AcDbLine
 10
716.793279
 20
415.2431480000001
 30
0.0
 11
719.706318
 21
418.3276959999999
 31
0.0
  0
LINE
  5
3F2
330
1F
100
AcDbEntity
  8
Ｓ_１_１
  6
CONTINUOUS
 62
     3
100
AcDbLine
 10
751.3077900000003
 20
415.229774
 30
0.0
 11
766.3016230000003
 21
415.658542
 31
0.0
  0
LINE
  5
3F3
330
1F
100
AcDbEntity
  8
Ｓ_１_１
  6
CONTINUOUS
 62
     3
100
AcDbLine
 10
751.993821
 20
391.2395760000001
 30
0.0
 11
766.9876530000001
 21
391.668344
 31
0.0
  0
LINE
  5
3F4
330
1F
100
AcDbEntity
  8
Ｓ_１_１
  6
CONTINUOUS
 62
     3
100
AcDbLine
 10
716.7932960000003
 20
415.2431909999999
 30
0.0
 11
717.5364960000002
 21
389.2538210000001
 31
0.0
  0
LINE
  5
3F5
330
1F
100
AcDbEntity
  8
Ｓ_１_１
  6
CONTINUOUS
 62
     3
100
AcDbLine
 10
720.6209779999998
 20
386.3408029999999
 30
0.0
 11
728.1179890000002
 21
386.555189
 31
0.0
  0
LINE
  5
3F6
330
1F
100
AcDbEntity
  8
Ｓ_１_１
  6
CONTINUOUS
 62
     3
100
AcDbLine
 10
719.706271
 20
418.327717
 30
0.0
 11
727.203282
 21
418.542104
 31
0.0
  0
LINE
  5
3F7
330
1F
100
AcDbEntity
  8
Ｓ_１_１
  6
CONTINUOUS
 62
     3
100
AcDbLine
 10
767.593394
 20
390.685263
 30
0.0
 11
778.9340490000001
 21
391.009563
 31
0.0
  0
LINE
  5
3F8
330
1F
100
AcDbEntity
  8
Ｓ_１_１
  6
CONTINUOUS
 62
     3
100
AcDbLine
 10
766.8501570000003
 20
416.674631
 30
0.0
 11
778.19085
 21
416.998933
 31
0.0
  0
LINE
  5
3F9
330
1F
100
AcDbEntity
  8
Ｓ_１_１
  6
CONTINUOUS
 62
     3
100
AcDbLine
 10
717.0080849999999
 20
390.2391140000001
 30
0.0
 11
717.5079110000001
 21
390.253407
 31
0.0
  0
LINE
  5
3FA
330
1F
100
AcDbEntity
  8
Ｓ_１_１
  6
CONTINUOUS
 62
     3
100
AcDbLine
 10
716.3220550000001
 20
414.229312
 30
0.0
 11
716.8218810000003
 21
414.2436060000001
 31
0.0
  0
LINE
  5
3FB
330
1F
100
AcDbEntity
  8
Ｓ_１_１
  6
CONTINUOUS
 62
     3
100
AcDbLine
 10
743.7822329999998
 20
416.0149740000001
 30
0.0
 11
750.702088
 21
416.2128570000002
 31
0.0
  0
LINE
  5
3FC
330
1F
100
AcDbEntity
  8
Ｓ_１_１
  6
CONTINUOUS
 62
     3
100
AcDbLine
 10
744.5254319999999
 20
390.0256049999999
 30
0.0
 11
751.445287
 21
390.2234870000001
 31
0.0
  0
LINE
  5
3FD
330
1F
100
AcDbEntity
  8
Ｓ_１_１
  6
CONTINUOUS
 62
     3
100
AcDbLine
 10
743.710771
 20
418.5139530000001
 30
0.0
 11
744.1038090000002
 21
404.769572
 31
0.0
  0
LINE
  5
3FE
330
1F
100
AcDbEntity
  8
Ｓ_１_１
  6
CONTINUOUS
 62
     3
100
AcDbLine
 10
751.3077910000002
 20
415.229765
 30
0.0
 11
751.993821
 21
391.2395860000001
 31
0.0
  0
LINE
  5
3FF
330
1F
100
AcDbEntity
  8
Ｓ_１_１
  6
CONTINUOUS
 62
     3
100
AcDbLine
 10
766.3016230000003
 20
415.658542
 30
0.0
 11
766.9876530000001
 21
391.668358
 31
0.0
  0
LINE
  5
400
330
1F
100
AcDbEntity
  8
Ｓ_１_１
  6
CONTINUOUS
 62
     3
100
AcDbLine
 10
716.3220550000001
 20
414.229312
 30
0.0
 11
717.0080849999999
 21
390.2391140000001
 31
0.0
  0
LINE
  5
401
330
1F
100
AcDbEntity
  8
Ｓ_１_１
  6
CONTINUOUS
 62
     3
100
AcDbLine
 10
778.9343090000002
 20
411.1977009999999
 30
0.0
 11
785.0585719999999
 21
411.7565969999999
 31
0.0
  0
LINE
  5
402
330
1F
100
AcDbEntity
  8
Ｓ_１_１
  6
CONTINUOUS
 62
     3
100
AcDbLine
 10
787.8756290000001
 20
360.9028289999999
 30
0.0
 11
786.4914210000002
 21
361.6500810000001
 31
0.0
  0
LINE
  5
403
330
1F
100
AcDbEntity
  8
Ｓ_１_１
  6
CONTINUOUS
 62
     3
100
AcDbLine
 10
778.9142280000001
 20
411.8987740000001
 30
0.0
 11
786.3978160000001
 21
412.581722
 31
0.0
  0
LINE
  5
404
330
1F
100
AcDbEntity
  8
Ｓ_１_１
  6
CONTINUOUS
 62
     3
100
AcDbLine
 10
786.0590360000001
 20
376.7709269999999
 30
0.0
 11
787.3982470000001
 21
377.59604
 31
0.0
  0
LINE
  5
405
330
1F
100
AcDbEntity
  8
Ｓ_１_１
  6
CONTINUOUS
 62
     3
100
AcDbLine
 10
779.3648330000002
 20
396.1427150000001
 30
0.0
 11
786.8751440000001
 21
395.888542
 31
0.0
  0
LINE
  5
406
330
1F
100
AcDbEntity
  8
Ｓ_１_１
  6
CONTINUOUS
 62
     3
100
AcDbLine
 10
779.3447810000004
 20
396.8438110000001
 30
0.0
 11
785.4909740000003
 21
396.6358040000001
 31
0.0
  0
LINE
  5
407
330
1F
100
AcDbEntity
  8
Ｓ_１_１
  6
CONTINUOUS
 62
     3
100
AcDbLine
 10
786.5114640000002
 20
360.949019
 30
0.0
 11
786.0389690000002
 21
377.471977
 31
0.0
  0
LINE
  5
408
330
1F
100
AcDbEntity
  8
Ｓ_１_１
  6
CONTINUOUS
 62
     3
100
AcDbLine
 10
797.7787720000001
 20
377.106034
 30
0.0
 11
796.3945980000003
 21
377.8532690000001
 31
0.0
  0
LINE
  5
409
330
1F
100
AcDbEntity
  8
Ｓ_１_１
  6
CONTINUOUS
 62
     3
100
AcDbLine
 10
802.7656010000001
 20
377.6376710000001
 30
0.0
 11
796.3946220000003
 21
377.8532859999999
 31
0.0
  0
LINE
  5
40A
330
1F
100
AcDbEntity
  8
Ｓ_１_１
  6
CONTINUOUS
 62
     3
100
AcDbLine
 10
802.7856540000002
 20
376.9365859999999
 30
0.0
 11
797.778793
 21
377.106034
 31
0.0
  0
LINE
  5
40B
330
1F
100
AcDbEntity
  8
Ｓ_１_１
  6
CONTINUOUS
 62
     3
100
AcDbLine
 10
796.8719740000001
 20
361.1601429999999
 30
0.0
 11
798.211186
 21
361.985256
 31
0.0
  0
LINE
  5
40C
330
1F
100
AcDbEntity
  8
Ｓ_１_１
  6
CONTINUOUS
 62
     3
100
AcDbLine
 10
798.231221
 20
361.28416
 30
0.0
 11
797.7587260000001
 21
377.8071180000001
 31
0.0
  0
LINE
  5
40D
330
1F
100
AcDbEntity
  8
Ｓ_１_１
  6
CONTINUOUS
 62
     3
100
AcDbLine
 10
803.2202510000002
 20
361.7394700000001
 30
0.0
 11
796.8719670000002
 21
361.160129
 31
0.0
  0
LINE
  5
40E
330
1F
100
AcDbEntity
  8
Ｓ_１_１
  6
CONTINUOUS
 62
     3
100
AcDbLine
 10
803.2001700000001
 20
362.440543
 30
0.0
 11
798.211174
 21
361.9852500000001
 31
0.0
  0
LINE
  5
40F
330
1F
100
AcDbEntity
  8
Ｓ_１_１
  6
CONTINUOUS
 62
     3
100
AcDbLine
 10
796.9333820000003
 20
359.010991
 30
0.0
 11
796.0423750000001
 21
357.360486
 31
0.0
  0
LINE
  5
410
330
1F
100
AcDbEntity
  8
Ｓ_１_１
  6
CONTINUOUS
 62
     3
100
AcDbLine
 10
787.9370779999999
 20
358.753721
 30
0.0
 11
788.9209380000002
 21
357.1568470000001
 31
0.0
  0
LINE
  5
411
330
1F
100
AcDbEntity
  8
Ｓ_１_１
  6
CONTINUOUS
 62
     3
100
AcDbLine
 10
796.333118
 20
380.0024380000001
 30
0.0
 11
795.3492490000003
 21
381.5993280000001
 31
0.0
  0
LINE
  5
412
330
1F
100
AcDbEntity
  8
Ｓ_１_１
  6
CONTINUOUS
 62
     3
100
AcDbLine
 10
787.33682
 20
379.745168
 30
0.0
 11
788.2278080000001
 21
381.3956380000001
 31
0.0
  0
LINE
  5
413
330
1F
100
AcDbEntity
  8
Ｓ_１_１
  6
CONTINUOUS
 62
     3
100
AcDbLine
 10
788.2278160000001
 20
381.3956670000001
 30
0.0
 11
795.349271
 21
381.5993139999999
 31
0.0
  0
LINE
  5
414
330
1F
100
AcDbEntity
  8
Ｓ_１_１
  6
CONTINUOUS
 62
     3
100
AcDbLine
 10
788.920956
 20
357.156862
 30
0.0
 11
796.0424109999999
 21
357.360509
 31
0.0
  0
LINE
  5
415
330
1F
100
AcDbEntity
  8
Ｓ_１_１
  6
CONTINUOUS
 62
     3
100
AcDbLine
 10
788.7476710000001
 20
363.2165579999999
 30
0.0
 11
795.869126
 21
363.420205
 31
0.0
  0
LINE
  5
416
330
1F
100
AcDbEntity
  8
Ｓ_１_１
  6
CONTINUOUS
 62
     3
100
AcDbLine
 10
788.401101
 20
375.3359610000001
 30
0.0
 11
795.5225570000002
 21
375.5396079999999
 31
0.0
  0
LINE
  5
417
330
1F
100
AcDbEntity
  8
Ｓ_１_１
  6
CONTINUOUS
 62
     3
100
AcDbLine
 10
787.9371030000002
 20
358.753718
 30
0.0
 11
787.3368260000002
 21
379.7451589999999
 31
0.0
  0
LINE
  5
418
330
1F
100
AcDbEntity
  8
Ｓ_１_１
  6
CONTINUOUS
 62
     3
100
AcDbLine
 10
796.9334400000002
 20
359.010989
 30
0.0
 11
796.3331630000002
 21
380.0024309999999
 31
0.0
  0
LINE
  5
419
330
1F
100
AcDbEntity
  8
Ｓ_１_１
  6
CONTINUOUS
 62
     3
100
AcDbLine
 10
785.0585410000003
 20
411.7566120000001
 30
0.0
 11
786.3978170000001
 21
412.581765
 31
0.0
  0
LINE
  5
41A
330
1F
100
AcDbEntity
  8
Ｓ_１_１
  6
CONTINUOUS
 62
     3
100
AcDbLine
 10
780.3452290000001
 20
361.8581029999999
 30
0.0
 11
786.4914220000001
 21
361.650096
 31
0.0
  0
LINE
  5
41B
330
1F
100
AcDbEntity
  8
Ｓ_１_１
  6
CONTINUOUS
 62
     3
100
AcDbLine
 10
779.9347820000003
 20
376.212011
 30
0.0
 11
786.0590440000001
 21
376.770907
 31
0.0
  0
LINE
  5
41C
330
1F
100
AcDbEntity
  8
Ｓ_１_１
  6
CONTINUOUS
 62
     3
100
AcDbLine
 10
785.5110030000001
 20
395.9347160000002
 30
0.0
 11
785.0385080000001
 21
412.457679
 31
0.0
  0
LINE
  5
41D
330
1F
100
AcDbEntity
  8
Ｓ_１_１
  6
CONTINUOUS
 62
     3
100
AcDbLine
 10
786.8751700000003
 20
395.888534
 30
0.0
 11
785.4909950000001
 21
396.635768
 31
0.0
  0
LINE
  5
41E
330
1F
100
AcDbEntity
  8
Ｓ_１_１
  6
CONTINUOUS
 62
     3
100
AcDbLine
 10
797.0230970000002
 20
403.5317610000001
 30
0.0
 11
796.7582649999999
 21
412.7928210000002
 31
0.0
  0
LINE
  5
41F
330
1F
100
AcDbEntity
  8
Ｓ_１_１
  6
CONTINUOUS
 62
     3
100
AcDbLine
 10
796.7783280000003
 20
412.0916880000001
 30
0.0
 11
795.3940870000002
 21
412.8389579999999
 31
0.0
  0
LINE
  5
420
330
1F
100
AcDbEntity
  8
Ｓ_１_１
  6
CONTINUOUS
 62
     3
100
AcDbLine
 10
801.7852440000001
 20
411.9222920000001
 30
0.0
 11
796.7783060000002
 21
412.0917430000001
 31
0.0
  0
LINE
  5
421
330
1F
100
AcDbEntity
  8
Ｓ_１_１
  6
CONTINUOUS
 62
     3
100
AcDbLine
 10
780.3653200000003
 20
361.157016
 30
0.0
 11
787.87563
 21
360.902843
 31
0.0
  0
LINE
  5
422
330
1F
100
AcDbEntity
  8
Ｓ_１_１
  6
CONTINUOUS
 62
     3
100
AcDbLine
 10
779.9147390000003
 20
376.9130880000001
 30
0.0
 11
787.3982510000002
 21
377.596028
 31
0.0
  0
LINE
  5
423
330
1F
100
AcDbEntity
  8
Ｓ_１_１
  6
CONTINUOUS
 62
     3
100
AcDbLine
 10
764.3104640000001
 20
380.3371920000001
 30
0.0
 11
764.9822010000003
 21
356.846801
 31
0.0
  0
LINE
  5
424
330
1F
100
AcDbEntity
  8
Ｓ_１_１
  6
CONTINUOUS
 62
     3
100
AcDbLine
 10
764.4680940000003
 20
357.33228
 30
0.0
 11
764.982199
 21
356.84676
 31
0.0
  0
LINE
  5
425
330
1F
100
AcDbEntity
  8
Ｓ_１_１
  6
CONTINUOUS
 62
     3
100
AcDbLine
 10
764.310473
 20
380.3372029999999
 30
0.0
 11
763.8249740000001
 21
379.823131
 31
0.0
  0
LINE
  5
426
330
1F
100
AcDbEntity
  8
Ｓ_１_１
  6
CONTINUOUS
 62
     3
100
AcDbLine
 10
733.2021030000001
 20
366.192189
 30
0.0
 11
735.2584400000001
 21
364.250189
 31
0.0
  0
LINE
  5
427
330
1F
100
AcDbEntity
  8
Ｓ_１_１
  6
CONTINUOUS
 62
     3
100
AcDbLine
 10
735.0583489999999
 20
371.247293
 30
0.0
 11
733.1163489999998
 21
369.190956
 31
0.0
  0
LINE
  5
428
330
1F
100
AcDbEntity
  8
Ｓ_１_１
  6
CONTINUOUS
 62
     3
100
AcDbLine
 10
753.4364580000001
 20
375.774497
 30
0.0
 11
753.8652270000002
 21
360.7806260000001
 31
0.0
  0
LINE
  5
429
330
1F
100
AcDbEntity
  8
Ｓ_１_１
  6
CONTINUOUS
 62
     3
100
AcDbLine
 10
751.9370940000002
 20
375.731621
 30
0.0
 11
752.365863
 21
360.7377500000001
 31
0.0
  0
LINE
  5
42A
330
1F
100
AcDbEntity
  8
Ｓ_１_１
  6
CONTINUOUS
 62
     3
100
AcDbLine
 10
748.3955860000001
 20
377.1309660000001
 30
0.0
 11
748.9101100000003
 21
359.13831
 31
0.0
  0
LINE
  5
42B
330
1F
100
AcDbEntity
  8
Ｓ_１_１
  6
CONTINUOUS
 62
     3
100
AcDbLine
 10
755.4074690000002
 20
359.3241100000001
 30
0.0
 11
764.4038060000003
 21
359.581372
 31
0.0
  0
LINE
  5
42C
330
1F
100
AcDbEntity
  8
Ｓ_１_１
  6
CONTINUOUS
 62
     3
100
AcDbLine
 10
754.892945
 20
377.316766
 30
0.0
 11
763.889283
 21
377.5740280000001
 31
0.0
  0
LINE
  5
42D
330
1F
100
AcDbEntity
  8
Ｓ_１_１
  6
CONTINUOUS
 62
     3
100
AcDbLine
 10
750.394824
 20
377.1881839999999
 30
0.0
 11
751.9371110000001
 21
375.7316509999999
 31
0.0
  0
LINE
  5
42E
330
1F
100
AcDbEntity
  8
Ｓ_１_１
  6
CONTINUOUS
 62
     3
100
AcDbLine
 10
752.3658880000003
 20
360.737765
 30
0.0
 11
750.9093550000002
 21
359.1954770000001
 31
0.0
  0
LINE
  5
42F
330
1F
100
AcDbEntity
  8
Ｓ_１_１
  6
CONTINUOUS
 62
     3
100
AcDbLine
 10
750.394815
 20
377.1881360000001
 30
0.0
 11
750.9093379999999
 21
359.19548
 31
0.0
  0
LINE
  5
430
330
1F
100
AcDbEntity
  8
Ｓ_１_１
  6
CONTINUOUS
 62
     3
100
AcDbLine
 10
754.892981
 20
377.316788
 30
0.0
 11
753.4364479999999
 21
375.7745000000001
 31
0.0
  0
LINE
  5
431
330
1F
100
AcDbEntity
  8
Ｓ_１_１
  6
CONTINUOUS
 62
     3
100
AcDbLine
 10
753.8651819999999
 20
360.7806390000001
 30
0.0
 11
755.4074700000001
 21
359.324106
 31
0.0
  0
LINE
  5
432
330
1F
100
AcDbEntity
  8
Ｓ_１_１
  6
CONTINUOUS
 62
     3
100
AcDbLine
 10
754.892945
 20
377.316766
 30
0.0
 11
755.4074690000002
 21
359.3241100000001
 31
0.0
  0
LINE
  5
433
330
1F
100
AcDbEntity
  8
Ｓ_１_１
  6
CONTINUOUS
 62
     3
100
AcDbLine
 10
751.9370940000002
 20
375.731621
 30
0.0
 11
753.4364580000001
 21
375.774497
 31
0.0
  0
LINE
  5
434
330
1F
100
AcDbEntity
  8
Ｓ_１_１
  6
CONTINUOUS
 62
     3
100
AcDbLine
 10
752.365863
 20
360.7377500000001
 30
0.0
 11
753.8652270000002
 21
360.7806260000001
 31
0.0
  0
LINE
  5
435
330
1F
100
AcDbEntity
  8
Ｓ_１_１
  6
CONTINUOUS
 62
     3
100
AcDbLine
 10
748.3956090000001
 20
377.1309870000001
 30
0.0
 11
744.9971020000002
 21
373.5323890000001
 31
0.0
  0
LINE
  5
436
330
1F
100
AcDbEntity
  8
Ｓ_１_１
  6
CONTINUOUS
 62
     3
100
AcDbLine
 10
745.311526
 20
362.5368400000001
 30
0.0
 11
748.910124
 21
359.138334
 31
0.0
  0
LINE
  5
437
330
1F
100
AcDbEntity
  8
Ｓ_１_１
  6
CONTINUOUS
 62
     3
100
AcDbLine
 10
736.3151710000002
 20
362.279576
 30
0.0
 11
745.3115090000001
 21
362.5368380000001
 31
0.0
  0
LINE
  5
438
330
1F
100
AcDbEntity
  8
Ｓ_１_１
  6
CONTINUOUS
 62
     3
100
AcDbLine
 10
736.0007410000003
 20
373.2750850000001
 30
0.0
 11
744.9970780000003
 21
373.5323460000001
 31
0.0
  0
LINE
  5
439
330
1F
100
AcDbEntity
  8
Ｓ_１_１
  6
CONTINUOUS
 62
     3
100
AcDbLine
 10
744.9970780000003
 20
373.5323460000001
 30
0.0
 11
745.3115090000001
 21
362.5368380000001
 31
0.0
  0
LINE
  5
43A
330
1F
100
AcDbEntity
  8
Ｓ_１_１
  6
CONTINUOUS
 62
     3
100
AcDbLine
 10
748.3955860000001
 20
377.1309660000001
 30
0.0
 11
750.394815
 21
377.1881360000001
 31
0.0
  0
LINE
  5
43B
330
1F
100
AcDbEntity
  8
Ｓ_１_１
  6
CONTINUOUS
 62
     3
100
AcDbLine
 10
748.9101100000003
 20
359.13831
 30
0.0
 11
750.9093379999999
 21
359.19548
 31
0.0
  0
LINE
  5
43C
330
1F
100
AcDbEntity
  8
Ｓ_１_１
  6
CONTINUOUS
 62
     3
100
AcDbLine
 10
763.824967
 20
379.823117
 30
0.0
 11
764.4681210000002
 21
357.332307
 31
0.0
  0
LINE
  5
43D
330
1F
100
AcDbEntity
  8
Ｓ_１_１
  6
CONTINUOUS
 62
     3
100
AcDbLine
 10
764.9822010000003
 20
356.846801
 30
0.0
 11
773.4787510000001
 21
357.089771
 31
0.0
  0
LINE
  5
43E
330
1F
100
AcDbEntity
  8
Ｓ_１_１
  6
CONTINUOUS
 62
     3
100
AcDbLine
 10
764.3104640000001
 20
380.3371920000001
 30
0.0
 11
772.8070130000001
 21
380.5801620000001
 31
0.0
  0
LINE
  5
43F
330
1F
100
AcDbEntity
  8
Ｓ_１_１
  6
CONTINUOUS
 62
     3
100
AcDbLine
 10
778.6726040000003
 20
382.8551490000001
 30
0.0
 11
779.7970070000002
 21
381.030171
 31
0.0
  0
LINE
  5
440
330
1F
100
AcDbEntity
  8
Ｓ_１_１
  6
CONTINUOUS
 62
     3
100
AcDbLine
 10
773.4858770000001
 20
356.839859
 30
0.0
 11
774.61031
 21
355.014832
 31
0.0
  0
LINE
  5
441
330
1F
100
AcDbEntity
  8
Ｓ_１_１
  6
CONTINUOUS
 62
     3
100
AcDbLine
 10
780.4830179999999
 20
357.0399640000001
 30
0.0
 11
779.4647060000002
 21
355.1536460000001
 31
0.0
  0
LINE
  5
442
330
1F
100
AcDbEntity
  8
Ｓ_１_１
  6
CONTINUOUS
 62
     3
100
AcDbLine
 10
773.8181680000002
 20
382.716305
 30
0.0
 11
772.7998750000002
 21
380.830021
 31
0.0
  0
LINE
  5
443
330
1F
100
AcDbEntity
  8
Ｓ_１_１
  6
CONTINUOUS
 62
     3
100
AcDbLine
 10
774.6103400000002
 20
355.0148310000001
 30
0.0
 11
779.4646940000002
 21
355.153648
 31
0.0
  0
LINE
  5
444
330
1F
100
AcDbEntity
  8
Ｓ_１_１
  6
CONTINUOUS
 62
     3
100
AcDbLine
 10
774.4123
 20
361.940215
 30
0.0
 11
779.266654
 21
362.0790319999999
 31
0.0
  0
LINE
  5
445
330
1F
100
AcDbEntity
  8
Ｓ_１_１
  6
CONTINUOUS
 62
     3
100
AcDbLine
 10
774.01622
 20
375.7909450000001
 30
0.0
 11
778.870574
 21
375.929761
 31
0.0
  0
LINE
  5
446
330
1F
100
AcDbEntity
  8
Ｓ_１_１
  6
CONTINUOUS
 62
     3
100
AcDbLine
 10
773.8181800000002
 20
382.716324
 30
0.0
 11
778.6726110000001
 21
382.8551430000001
 31
0.0
  0
LINE
  5
447
330
1F
100
AcDbEntity
  8
Ｓ_１_１
  6
CONTINUOUS
 62
     3
100
AcDbLine
 10
772.7998670000002
 20
380.8300560000001
 30
0.0
 11
773.485897
 21
356.839858
 31
0.0
  0
LINE
  5
448
330
1F
100
AcDbEntity
  8
Ｓ_１_１
  6
CONTINUOUS
 62
     3
100
AcDbLine
 10
735.0298250000001
 20
372.2469170000001
 30
0.0
 11
735.2870860000003
 21
363.250598
 31
0.0
  0
LINE
  5
449
330
1F
100
AcDbEntity
  8
Ｓ_１_１
  6
CONTINUOUS
 62
     3
100
AcDbLine
 10
733.1163510000001
 20
369.1909509999999
 30
0.0
 11
733.2021039999998
 21
366.1921940000001
 31
0.0
  0
LINE
  5
44A
330
1F
100
AcDbEntity
  8
Ｓ_１_１
  6
CONTINUOUS
 62
     3
100
AcDbLine
 10
801.765152
 20
412.6233690000001
 30
0.0
 11
795.3941360000005
 21
412.838985
 31
0.0
  0
LINE
  5
44B
330
1F
100
AcDbEntity
  8
Ｓ_１_１
  6
CONTINUOUS
 62
     3
100
AcDbLine
 10
786.936588
 20
393.73942
 30
0.0
 11
787.9204680000004
 21
392.142514
 31
0.0
  0
LINE
  5
44C
330
1F
100
AcDbEntity
  8
Ｓ_１_１
  6
CONTINUOUS
 62
     3
100
AcDbLine
 10
795.3326490000001
 20
414.988105
 30
0.0
 11
794.3487890000001
 21
416.5849790000001
 31
0.0
  0
LINE
  5
44D
330
1F
100
AcDbEntity
  8
Ｓ_１_１
  6
CONTINUOUS
 62
     3
100
AcDbLine
 10
786.3363360000003
 20
414.7308529999999
 30
0.0
 11
787.2273430000001
 21
416.3813570000001
 31
0.0
  0
LINE
  5
44E
330
1F
100
AcDbEntity
  8
Ｓ_１_１
  6
CONTINUOUS
 62
     3
100
AcDbLine
 10
787.227355
 20
416.3813550000001
 30
0.0
 11
794.3488110000004
 21
416.5850019999999
 31
0.0
  0
LINE
  5
44F
330
1F
100
AcDbEntity
  8
Ｓ_１_１
  6
CONTINUOUS
 62
     3
100
AcDbLine
 10
787.9204950000003
 20
392.142559
 30
0.0
 11
794.8421040000003
 21
392.3404919999999
 31
0.0
  0
LINE
  5
450
330
1F
100
AcDbEntity
  8
Ｓ_１_１
  6
CONTINUOUS
 62
     3
100
AcDbLine
 10
787.74721
 20
398.2022559999999
 30
0.0
 11
794.668819
 21
398.400188
 31
0.0
  0
LINE
  5
451
330
1F
100
AcDbEntity
  8
Ｓ_１_１
  6
CONTINUOUS
 62
     3
100
AcDbLine
 10
787.4006400000003
 20
410.3216590000001
 30
0.0
 11
794.5220960000001
 21
410.5253060000001
 31
0.0
  0
LINE
  5
452
330
1F
100
AcDbEntity
  8
Ｓ_１_１
  6
CONTINUOUS
 62
     3
100
AcDbLine
 10
779.7969760000001
 20
381.0301620000001
 30
0.0
 11
780.4830070000003
 21
357.0399490000001
 31
0.0
  0
LINE
  5
453
330
1F
100
AcDbEntity
  8
Ｓ_１_１
  6
CONTINUOUS
 62
     3
100
AcDbLine
 10
786.9366420000001
 20
393.7394110000001
 30
0.0
 11
786.3363650000002
 21
414.730852
 31
0.0
  0
LINE
  5
454
330
1F
100
AcDbEntity
  8
Ｓ_１_１
  6
CONTINUOUS
 62
     3
100
AcDbLine
 10
795.667011
 20
403.2974800000001
 30
0.0
 11
795.3327020000002
 21
414.9881280000001
 31
0.0
  0
LINE
  5
455
330
1F
100
AcDbEntity
  8
Ｓ_１_１
  6
CONTINUOUS
 62
     3
100
AcDbLine
 10
785.9677440000002
 20
482.6202019999999
 30
0.0
 11
782.8862950000002
 21
479.2284240000001
 31
0.0
  0
LINE
  5
456
330
1F
100
AcDbEntity
  8
Ｓ_１_１
  6
CONTINUOUS
 62
     3
100
AcDbLine
 10
793.1568860000002
 20
469.4552150000001
 30
0.0
 11
788.6375520000001
 21
468.6963979999999
 31
0.0
  0
LINE
  5
457
330
1F
100
AcDbEntity
  8
Ｓ_１_１
  6
CONTINUOUS
 62
     3
100
AcDbLine
 10
794.8681220000003
 20
457.286749
 30
0.0
 11
797.9496220000001
 21
460.678583
 31
0.0
  0
LINE
  5
458
330
1F
100
AcDbEntity
  8
Ｓ_１_１
  6
CONTINUOUS
 62
     3
100
AcDbLine
 10
749.03712
 20
587.7857030000001
 30
0.0
 11
773.8549800000001
 21
542.3382740000001
 31
0.0
  0
LINE
  5
459
330
1F
100
AcDbEntity
  8
Ｓ_１_１
  6
CONTINUOUS
 62
     3
100
AcDbLine
 10
772.416588
 20
597.1345320000001
 30
0.0
 11
801.0475200000002
 21
544.7044569999999
 31
0.0
  0
LINE
  5
45A
330
1F
100
AcDbEntity
  8
Ｓ_１_１
  6
CONTINUOUS
 62
     3
100
AcDbLine
 10
729.4918759999999
 20
571.415492
 30
0.0
 11
772.6265330000001
 21
492.425633
 31
0.0
  0
LINE
  5
45B
330
1F
100
AcDbEntity
  8
Ｓ_１_１
  6
CONTINUOUS
 62
     3
100
AcDbLine
 10
731.4838140000002
 20
578.200222
 30
0.0
 11
768.3457619999999
 21
598.329736
 31
0.0
  0
LINE
  5
45C
330
1F
100
AcDbEntity
  8
Ｓ_１_１
  6
CONTINUOUS
 62
     3
100
AcDbLine
 10
799.7428100000002
 20
448.3600400000001
 30
0.0
 11
794.8681260000003
 21
457.2867520000001
 31
0.0
  0
LINE
  5
45D
330
1F
100
AcDbEntity
  8
Ｓ_１_１
  6
CONTINUOUS
 62
     3
100
AcDbLine
 10
779.4112200000001
 20
490.4336939999999
 30
0.0
 11
798.2455480000004
 21
500.718714
 31
0.0
  0
LINE
  5
45E
330
1F
100
AcDbEntity
  8
Ｓ_１_１
  6
CONTINUOUS
 62
     3
100
AcDbLine
 10
796.8610309999999
 20
499.6792360000001
 30
0.0
 11
798.3794280000002
 21
496.0383290000001
 31
0.0
  0
LINE
  5
45F
330
1F
100
AcDbEntity
  8
Ｓ_１_１
  6
CONTINUOUS
 62
     3
100
AcDbLine
 10
783.7995800000004
 20
492.8300820000001
 30
0.0
 11
788.59233
 21
484.053413
 31
0.0
  0
LINE
  5
460
330
1F
100
AcDbEntity
  8
Ｓ_１_１
  6
CONTINUOUS
 62
     3
100
AcDbLine
 10
788.6375670000002
 20
468.6963939999999
 30
0.0
 11
782.886274
 21
479.2283840000002
 31
0.0
  0
LINE
  5
461
330
1F
100
AcDbEntity
  8
Ｓ_１_１
  6
CONTINUOUS
 62
     3
100
AcDbLine
 10
785.9677440000002
 20
482.6201830000001
 30
0.0
 11
798.5663380000001
 21
489.500003
 31
0.0
  0
LINE
  5
462
330
1F
100
AcDbEntity
  8
Ｓ_１_１
  6
CONTINUOUS
 62
     3
100
AcDbLine
 10
796.238359
 20
472.847022
 30
0.0
 11
790.487067
 21
483.379012
 31
0.0
  0
LINE
  5
463
330
1F
100
AcDbEntity
  8
Ｓ_１_１
  6
CONTINUOUS
 62
     3
100
AcDbLine
 10
795.7814320000002
 20
470.88845
 30
0.0
 11
799.2819130000004
 21
464.478234
 31
0.0
  0
LINE
  5
464
330
1F
100
AcDbEntity
  8
Ｓ_１_１
  6
CONTINUOUS
 62
     3
100
AcDbLine
 10
793.1568460000003
 20
469.4552210000001
 30
0.0
 11
799.0476000000003
 21
472.6720340000001
 31
0.0
  0
LINE
  5
465
330
1F
100
AcDbEntity
  8
Ｓ_１_１
  6
CONTINUOUS
 62
     3
100
AcDbLine
 10
797.9495959999999
 20
460.6785510000001
 30
0.0
 11
799.3683900000002
 21
461.453324
 31
0.0
  0
LINE
  5
466
330
1F
100
AcDbEntity
  8
Ｓ_１_１
  6
CONTINUOUS
 62
     3
100
AcDbLine
 10
794.5812880000003
 20
401.4611140000001
 30
0.0
 11
794.8671340000001
 21
391.4651860000001
 31
0.0
  0
LINE
  5
467
330
1F
100
AcDbEntity
  8
Ｓ_１_１
  6
CONTINUOUS
 62
     3
100
AcDbLine
 10
825.0689310000002
 20
402.332947
 30
0.0
 11
825.354777
 21
392.337019
 31
0.0
  0
LINE
  5
468
330
1F
100
AcDbEntity
  8
Ｓ_１_１
  6
CONTINUOUS
 62
     3
100
AcDbLine
 10
829.228321
 20
362.275986
 30
0.0
 11
826.497195
 21
387.367734
 31
0.0
  0
LINE
  5
469
330
1F
100
AcDbEntity
  8
Ｓ_１_１
  6
CONTINUOUS
 62
     3
100
AcDbLine
 10
840.491454
 20
387.7679090000001
 30
0.0
 11
841.2489479999999
 21
361.2786609999999
 31
0.0
  0
LINE
  5
46A
330
1F
100
AcDbEntity
  8
Ｓ_１_１
  6
CONTINUOUS
 62
     3
100
AcDbLine
 10
826.4971980000001
 20
387.367725
 30
0.0
 11
827.254692
 21
360.8784770000001
 31
0.0
  0
LINE
  5
46B
330
1F
100
AcDbEntity
  8
Ｓ_１_１
  6
CONTINUOUS
 62
     3
100
AcDbLine
 10
831.273733
 20
360.4932
 30
0.0
 11
837.2584919999999
 21
360.664342
 31
0.0
  0
LINE
  5
46C
330
1F
100
AcDbEntity
  8
Ｓ_１_１
  6
CONTINUOUS
 62
     3
100
AcDbLine
 10
839.9198020000003
 20
407.759666
 30
0.0
 11
825.9255080000003
 21
407.3594810000001
 31
0.0
  0
LINE
  5
46D
330
1F
100
AcDbEntity
  8
Ｓ_１_１
  6
CONTINUOUS
 62
     3
100
AcDbLine
 10
797.9208060000002
 20
401.5438250000001
 30
0.0
 11
823.0125520000001
 21
404.274951
 31
0.0
  0
LINE
  5
46E
330
1F
100
AcDbEntity
  8
Ｓ_１_１
  6
CONTINUOUS
 62
     3
100
AcDbLine
 10
829.311013
 20
358.936464
 30
0.0
 11
839.3069270000001
 21
359.22231
 31
0.0
  0
LINE
  5
46F
330
1F
100
AcDbEntity
  8
Ｓ_１_１
  6
CONTINUOUS
 62
     3
100
AcDbLine
 10
823.4128380000002
 20
390.2806710000002
 30
0.0
 11
798.205946
 21
391.57343
 31
0.0
  0
LINE
  5
470
330
1F
100
AcDbEntity
  8
Ｓ_１_１
  6
CONTINUOUS
 62
     3
100
AcDbLine
 10
839.4909950000001
 20
422.7535329999999
 30
0.0
 11
854.984692
 21
423.196595
 31
0.0
  0
LINE
  5
471
330
1F
100
AcDbEntity
  8
Ｓ_１_１
  6
CONTINUOUS
 62
     3
100
AcDbLine
 10
826.4971599999999
 20
387.3677240000001
 30
0.0
 11
840.4914160000004
 21
387.7679079999999
 31
0.0
  0
LINE
  5
472
330
1F
100
AcDbEntity
  8
Ｓ_１_１
  6
CONTINUOUS
 62
     3
100
AcDbLine
 10
840.4914650000001
 20
387.768003
 30
0.0
 11
839.1987050000002
 21
362.561092
 31
0.0
  0
LINE
  5
473
330
1F
100
AcDbEntity
  8
Ｓ_１_１
  6
CONTINUOUS
 62
     3
100
AcDbLine
 10
823.0125270000003
 20
404.2749830000001
 30
0.0
 11
825.925507
 21
407.359429
 31
0.0
  0
LINE
  5
474
330
1F
100
AcDbEntity
  8
Ｓ_１_１
  6
CONTINUOUS
 62
     3
100
AcDbLine
 10
839.9198080000002
 20
407.759563
 30
0.0
 11
843.0042080000004
 21
404.8465890000001
 31
0.0
  0
LINE
  5
475
330
1F
100
AcDbEntity
  8
Ｓ_１_１
  6
CONTINUOUS
 62
     3
100
AcDbLine
 10
843.4043489999999
 20
390.852299
 30
0.0
 11
840.4914280000003
 21
387.7679549999999
 31
0.0
  0
LINE
  5
476
330
1F
100
AcDbEntity
  8
Ｓ_１_１
  6
CONTINUOUS
 62
     3
100
AcDbLine
 10
823.4127240000004
 20
390.2806750000001
 30
0.0
 11
826.4971330000003
 21
387.367711
 31
0.0
  0
LINE
  5
477
330
1F
100
AcDbEntity
  8
Ｓ_１_１
  6
CONTINUOUS
 62
     3
100
AcDbLine
 10
805.5196460000002
 20
403.77473
 30
0.0
 11
805.1480470000001
 21
416.769406
 31
0.0
  0
LINE
  5
478
330
1F
100
AcDbEntity
  8
Ｓ_１_１
  6
CONTINUOUS
 62
     3
100
AcDbLine
 10
860.4971330000003
 20
405.3468819999999
 30
0.0
 11
860.1255340000002
 21
418.341558
 31
0.0
  0
LINE
  5
479
330
1F
100
AcDbEntity
  8
Ｓ_１_１
  6
CONTINUOUS
 62
     3
100
AcDbLine
 10
823.4127560000002
 20
390.2806690000001
 30
0.0
 11
796.9234940000001
 21
389.523174
 31
0.0
  0
LINE
  5
47A
330
1F
100
AcDbEntity
  8
Ｓ_１_１
  6
CONTINUOUS
 62
     3
100
AcDbLine
 10
823.0125710000002
 20
404.274963
 30
0.0
 11
796.5233090000002
 21
403.517469
 31
0.0
  0
LINE
  5
47B
330
1F
100
AcDbEntity
  8
Ｓ_１_１
  6
CONTINUOUS
 62
     3
100
AcDbLine
 10
796.138004
 20
399.4983980000001
 30
0.0
 11
796.309146
 21
393.5136390000001
 31
0.0
  0
LINE
  5
47C
330
1F
100
AcDbEntity
  8
Ｓ_１_１
  6
CONTINUOUS
 62
     3
100
AcDbLine
 10
828.4391810000002
 20
389.4240840000001
 30
0.0
 11
838.4350939999999
 21
389.7099300000001
 31
0.0
  0
LINE
  5
47D
330
1F
100
AcDbEntity
  8
Ｓ_１_１
  6
CONTINUOUS
 62
     3
100
AcDbLine
 10
841.3480330000002
 20
392.7943670000001
 30
0.0
 11
841.062187
 21
402.7902950000001
 31
0.0
  0
LINE
  5
47E
330
1F
100
AcDbEntity
  8
Ｓ_１_１
  6
CONTINUOUS
 62
     3
100
AcDbLine
 10
843.0041430000001
 20
404.8466380000001
 30
0.0
 11
868.2110350000003
 21
403.5538789999999
 31
0.0
  0
LINE
  5
47F
330
1F
100
AcDbEntity
  8
Ｓ_１_１
  6
CONTINUOUS
 62
     3
100
AcDbLine
 10
871.835677
 20
393.6662
 30
0.0
 11
871.5498299999999
 21
403.6621280000001
 31
0.0
  0
LINE
  5
480
330
1F
100
AcDbEntity
  8
Ｓ_１_１
  6
CONTINUOUS
 62
     3
100
AcDbLine
 10
870.278922
 20
395.6289190000001
 30
0.0
 11
870.1077800000003
 21
401.6136729999999
 31
0.0
  0
LINE
  5
481
330
1F
100
AcDbEntity
  8
Ｓ_１_１
  6
CONTINUOUS
 62
     3
100
AcDbLine
 10
843.4043930000003
 20
390.8523550000001
 30
0.0
 11
869.8936550000003
 21
391.6098499999999
 31
0.0
  0
LINE
  5
482
330
1F
100
AcDbEntity
  8
Ｓ_１_１
  6
CONTINUOUS
 62
     3
100
AcDbLine
 10
843.0042080000004
 20
404.8466500000001
 30
0.0
 11
869.4934710000002
 21
405.604144
 31
0.0
  0
LINE
  5
483
330
1F
100
AcDbEntity
  8
Ｓ_１_１
  6
CONTINUOUS
 62
     3
100
AcDbLine
 10
868.4961360000002
 20
393.583487
 30
0.0
 11
843.4044280000003
 21
390.8523650000001
 31
0.0
  0
LINE
  5
484
330
1F
100
AcDbEntity
  8
Ｓ_１_１
  6
CONTINUOUS
 62
     3
100
AcDbLine
 10
837.188619
 20
432.851335
 30
0.0
 11
839.919746
 21
407.7595850000001
 31
0.0
  0
LINE
  5
485
330
1F
100
AcDbEntity
  8
Ｓ_１_１
  6
CONTINUOUS
 62
     3
100
AcDbLine
 10
825.9255100000001
 20
407.359405
 30
0.0
 11
825.1680160000001
 21
433.8486510000001
 31
0.0
  0
LINE
  5
486
330
1F
100
AcDbEntity
  8
Ｓ_１_１
  6
CONTINUOUS
 62
     3
100
AcDbLine
 10
839.919766
 20
407.759588
 30
0.0
 11
839.162272
 21
434.2488340000001
 31
0.0
  0
LINE
  5
487
330
1F
100
AcDbEntity
  8
Ｓ_１_１
  6
CONTINUOUS
 62
     3
100
AcDbLine
 10
835.1432319999999
 20
434.6341020000001
 30
0.0
 11
829.1584350000003
 21
434.4629590000001
 31
0.0
  0
LINE
  5
488
330
1F
100
AcDbEntity
  8
Ｓ_１_１
  6
CONTINUOUS
 62
     3
100
AcDbLine
 10
837.1059130000003
 20
436.190841
 30
0.0
 11
827.1099990000002
 21
435.904995
 31
0.0
  0
LINE
  5
489
330
1F
100
AcDbEntity
  8
Ｓ_１_１
  6
CONTINUOUS
 62
     3
100
AcDbLine
 10
825.9255170000001
 20
407.3593159999999
 30
0.0
 11
827.2182760000001
 21
432.5662220000001
 31
0.0
  0
LINE
  5
48A
330
1F
100
AcDbEntity
  8
Ｓ_１_１
  6
CONTINUOUS
 62
     3
100
AcDbLine
 10
837.9777450000001
 20
405.7032330000001
 30
0.0
 11
827.9818319999999
 21
405.4173870000001
 31
0.0
  0
LINE
  5
48B
330
1F
100
AcDbEntity
  8
Ｓ_１_１
  6
CONTINUOUS
 62
     3
100
AcDbLine
 10
854.5576570000003
 20
368.1619010000001
 30
0.0
 11
852.9839890000003
 21
370.7160649999999
 31
0.0
  0
LINE
  5
48C
330
1F
100
AcDbEntity
  8
Ｓ_１_１
  6
CONTINUOUS
 62
     3
100
AcDbLine
 10
852.9840250000002
 20
370.716041
 30
0.0
 11
849.985221
 21
370.630286
 31
0.0
  0
LINE
  5
48D
330
1F
100
AcDbEntity
  8
Ｓ_１_１
  6
CONTINUOUS
 62
     3
100
AcDbLine
 10
848.5600760000002
 20
367.990402
 30
0.0
 11
849.9851950000002
 21
370.6302870000001
 31
0.0
  0
LINE
  5
48E
330
1F
100
AcDbEntity
  8
Ｓ_１_１
  6
CONTINUOUS
 62
     3
100
AcDbLine
 10
850.1337290000001
 20
365.436237
 30
0.0
 11
848.5600610000001
 21
367.9904
 31
0.0
  0
LINE
  5
48F
330
1F
100
AcDbEntity
  8
Ｓ_１_１
  6
CONTINUOUS
 62
     3
100
AcDbLine
 10
853.1325550000003
 20
365.5220130000001
 30
0.0
 11
850.1337510000003
 21
365.4362580000001
 31
0.0
  0
LINE
  5
490
330
1F
100
AcDbEntity
  8
Ｓ_１_１
  6
CONTINUOUS
 62
     3
100
AcDbLine
 10
854.5576540000002
 20
368.1618859999999
 30
0.0
 11
853.1325350000003
 21
365.5220009999999
 31
0.0
  0
LINE
  5
491
330
1F
100
AcDbEntity
  8
Ｓ_１_１
  6
CONTINUOUS
 62
     3
100
AcDbLine
 10
853.271342
 20
413.1435250000001
 30
0.0
 11
851.6976940000001
 21
415.6976559999999
 31
0.0
  0
LINE
  5
492
330
1F
100
AcDbEntity
  8
Ｓ_１_１
  6
CONTINUOUS
 62
     3
100
AcDbLine
 10
851.6977179999999
 20
415.6976470000001
 30
0.0
 11
848.6989140000001
 21
415.6118930000001
 31
0.0
  0
LINE
  5
493
330
1F
100
AcDbEntity
  8
Ｓ_１_１
  6
CONTINUOUS
 62
     3
100
AcDbLine
 10
848.6988860000002
 20
415.611894
 30
0.0
 11
847.2737670000001
 21
412.972009
 31
0.0
  0
LINE
  5
494
330
1F
100
AcDbEntity
  8
Ｓ_１_１
  6
CONTINUOUS
 62
     3
100
AcDbLine
 10
847.2737660000003
 20
412.971991
 30
0.0
 11
848.8474140000003
 21
410.4178600000001
 31
0.0
  0
LINE
  5
495
330
1F
100
AcDbEntity
  8
Ｓ_１_１
  6
CONTINUOUS
 62
     3
100
AcDbLine
 10
851.8462480000003
 20
410.5036240000001
 30
0.0
 11
848.847444
 21
410.4178690000001
 31
0.0
  0
LINE
  5
496
330
1F
100
AcDbEntity
  8
Ｓ_１_１
  6
CONTINUOUS
 62
     3
100
AcDbLine
 10
853.2713450000001
 20
413.1434920000001
 30
0.0
 11
851.8462260000001
 21
410.5036080000001
 31
0.0
  0
LINE
  5
497
330
1F
100
AcDbEntity
  8
Ｓ_１_１
  6
CONTINUOUS
 62
     3
100
AcDbLine
 10
812.288094
 20
411.971545
 30
0.0
 11
813.8617520000003
 21
409.4173979999999
 31
0.0
  0
LINE
  5
498
330
1F
100
AcDbEntity
  8
Ｓ_１_１
  6
CONTINUOUS
 62
     3
100
AcDbLine
 10
813.861746
 20
409.4174080000002
 30
0.0
 11
816.8605120000002
 21
409.5031620000001
 31
0.0
  0
LINE
  5
499
330
1F
100
AcDbEntity
  8
Ｓ_１_１
  6
CONTINUOUS
 62
     3
100
AcDbLine
 10
818.2856400000001
 20
412.1430360000001
 30
0.0
 11
816.8605210000001
 21
409.503151
 31
0.0
  0
LINE
  5
49A
330
1F
100
AcDbEntity
  8
Ｓ_１_１
  6
CONTINUOUS
 62
     3
100
AcDbLine
 10
816.7119889999999
 20
414.69719
 30
0.0
 11
818.2856470000002
 21
412.1430429999999
 31
0.0
  0
LINE
  5
49B
330
1F
100
AcDbEntity
  8
Ｓ_１_１
  6
CONTINUOUS
 62
     3
100
AcDbLine
 10
813.7132160000001
 20
414.6114320000001
 30
0.0
 11
816.7119830000001
 21
414.6971850000001
 31
0.0
  0
LINE
  5
49C
330
1F
100
AcDbEntity
  8
Ｓ_１_１
  6
CONTINUOUS
 62
     3
100
AcDbLine
 10
812.2880960000003
 20
411.971535
 30
0.0
 11
813.7132140000003
 21
414.611419
 31
0.0
  0
LINE
  5
49D
330
1F
100
AcDbEntity
  8
Ｓ_１_１
  6
CONTINUOUS
 62
     3
100
AcDbLine
 10
813.5744310000001
 20
366.9899579999999
 30
0.0
 11
815.148079
 21
364.4358270000001
 31
0.0
  0
LINE
  5
49E
330
1F
100
AcDbEntity
  8
Ｓ_１_１
  6
CONTINUOUS
 62
     3
100
AcDbLine
 10
815.1480530000003
 20
364.435797
 30
0.0
 11
818.146819
 21
364.52155
 31
0.0
  0
LINE
  5
49F
330
1F
100
AcDbEntity
  8
Ｓ_１_１
  6
CONTINUOUS
 62
     3
100
AcDbLine
 10
818.1468300000001
 20
364.521544
 30
0.0
 11
819.5719490000001
 21
367.1614290000001
 31
0.0
  0
LINE
  5
4A0
330
1F
100
AcDbEntity
  8
Ｓ_１_１
  6
CONTINUOUS
 62
     3
100
AcDbLine
 10
819.571942
 20
367.1614519999999
 30
0.0
 11
817.998294
 21
369.715583
 31
0.0
  0
LINE
  5
4A1
330
1F
100
AcDbEntity
  8
Ｓ_１_１
  6
CONTINUOUS
 62
     3
100
AcDbLine
 10
814.999523
 20
369.6298250000001
 30
0.0
 11
817.99829
 21
369.715579
 31
0.0
  0
LINE
  5
4A2
330
1F
100
AcDbEntity
  8
Ｓ_１_１
  6
CONTINUOUS
 62
     3
100
AcDbLine
 10
813.5743710000003
 20
366.989946
 30
0.0
 11
814.9994900000002
 21
369.6298310000001
 31
0.0
  0
LINE
  5
4A3
330
1F
100
AcDbEntity
  8
Ｓ_１_１
  6
CONTINUOUS
 62
     3
100
AcDbLine
 10
861.697686
 20
363.3640469999999
 30
0.0
 11
860.8973180000004
 21
391.3525880000001
 31
0.0
  0
LINE
  5
4A4
330
1F
100
AcDbEntity
  8
Ｓ_１_１
  6
CONTINUOUS
 62
     3
100
AcDbLine
 10
806.7201990000003
 20
361.791895
 30
0.0
 11
805.9198310000002
 21
389.7804360000001
 31
0.0
  0
LINE
  5
4A5
330
1F
100
AcDbEntity
  8
Ｓ_１_１
  6
CONTINUOUS
 62
     3
100
AcDbLine
 10
810.0030420000003
 20
421.910287
 30
0.0
 11
825.4967390000002
 21
422.3533490000001
 31
0.0
  0
LINE
  5
4A6
330
1F
100
AcDbEntity
  8
Ｓ_１_１
  6
CONTINUOUS
 62
     3
100
AcDbLine
 10
907.9621510000002
 20
459.7258620000001
 30
0.0
 11
905.8061870000001
 21
447.6593030000001
 31
0.0
  0
LINE
  5
4A7
330
1F
100
AcDbEntity
  8
Ｓ_１_１
  6
CONTINUOUS
 62
     3
100
AcDbLine
 10
892.9682809999999
 20
459.2970920000002
 30
0.0
 11
895.8102750000003
 21
447.373456
 31
0.0
  0
LINE
  5
4A8
330
1F
100
AcDbEntity
  8
Ｓ_１_１
  6
CONTINUOUS
 62
     3
100
AcDbLine
 10
1788.64696
 20
402.8766590000001
 30
0.0
 11
1784.930962
 21
532.8235270000001
 31
0.0
  0
LINE
  5
4A9
330
1F
100
AcDbEntity
  8
Ｓ_１_１
  6
CONTINUOUS
 62
     3
100
AcDbLine
 10
1785.353851
 20
406.0876850000001
 30
0.0
 11
1788.329669
 21
406.976965
 31
0.0
  0
LINE
  5
4AA
330
1F
100
AcDbEntity
  8
Ｓ_１_１
  6
CONTINUOUS
 62
     3
100
AcDbLine
 10
1791.519465
 20
407.377703
 30
0.0
 11
1795.01802
 21
407.477749
 31
0.0
  0
LINE
  5
4AB
330
1F
100
AcDbEntity
  8
Ｓ_１_１
  6
CONTINUOUS
 62
     3
100
AcDbLine
 10
1734.024333
 20
486.8495980000001
 30
0.0
 11
1734.110087
 21
483.850824
 31
0.0
  0
LINE
  5
4AC
330
1F
100
AcDbEntity
  8
Ｓ_１_１
  6
CONTINUOUS
 62
     3
100
AcDbLine
 10
1746.519225
 20
487.206906
 30
0.0
 11
1746.604979
 21
484.2081320000001
 31
0.0
  0
LINE
  5
4AD
330
1F
100
AcDbEntity
  8
Ｓ_１_１
  6
CONTINUOUS
 62
     3
100
AcDbLine
 10
1784.828094
 20
424.4724740000001
 30
0.0
 11
1787.849867
 21
423.7547029999999
 31
0.0
  0
LINE
  5
4AE
330
1F
100
AcDbEntity
  8
Ｓ_１_１
  6
CONTINUOUS
 62
     3
100
AcDbLine
 10
1795.768561
 20
566.647126
 30
0.0
 11
1807.820829
 21
564.990958
 31
0.0
  0
LINE
  5
4AF
330
1F
100
AcDbEntity
  8
Ｓ_１_１
  6
CONTINUOUS
 62
     3
100
AcDbLine
 10
1920.861285
 20
530.207961
 30
0.0
 11
1908.808979
 21
531.864134
 31
0.0
  0
LINE
  5
4B0
330
1F
100
AcDbEntity
  8
Ｓ_１_１
  6
CONTINUOUS
 62
     3
100
AcDbLine
 10
1796.911958
 20
526.6634809999999
 30
0.0
 11
1808.849888
 21
529.005679
 31
0.0
  0
LINE
  5
4B1
330
1F
100
AcDbEntity
  8
Ｓ_１_１
  6
CONTINUOUS
 62
     3
100
AcDbLine
 10
1791.645726
 20
402.9624130000001
 30
0.0
 11
1787.929728
 21
532.9092810000001
 31
0.0
  0
LINE
  5
4B2
330
1F
100
AcDbEntity
  8
Ｓ_１_１
  6
CONTINUOUS
 62
     3
100
AcDbLine
 10
1784.130801
 20
553.8092290000001
 30
0.0
 11
1783.702031
 21
568.803104
 31
0.0
  0
LINE
  5
4B3
330
1F
100
AcDbEntity
  8
Ｓ_１_１
  6
CONTINUOUS
 62
     3
100
AcDbLine
 10
1784.130801
 20
553.8092290000001
 30
0.0
 11
1787.329452
 21
553.900698
 31
0.0
  0
LINE
  5
4B4
330
1F
100
AcDbEntity
  8
Ｓ_１_１
  6
CONTINUOUS
 62
     3
100
AcDbLine
 10
1791.057372
 20
423.536907
 30
0.0
 11
1794.555926
 21
423.6369530000001
 31
0.0
  0
LINE
  5
4B5
330
1F
100
AcDbEntity
  8
Ｓ_１_１
  6
CONTINUOUS
 62
     3
100
AcDbLine
 10
1795.786625
 20
415.5859369999999
 30
0.0
 11
1795.61334
 21
421.6456380000001
 31
0.0
  0
LINE
  5
4B6
330
1F
100
AcDbEntity
  8
Ｓ_１_１
  6
CONTINUOUS
 62
     3
100
AcDbLine
 10
1783.702031
 20
568.803104
 30
0.0
 11
1786.900683
 21
568.8945729999999
 31
0.0
  0
LINE
  5
4B7
330
1F
100
AcDbEntity
  8
Ｓ_１_１
  6
CONTINUOUS
 62
     3
100
AcDbLine
 10
1791.172895
 20
419.4971059999999
 30
0.0
 11
1794.67145
 21
419.5971519999999
 31
0.0
  0
LINE
  5
4B8
330
1F
100
AcDbEntity
  8
Ｓ_１_１
  6
CONTINUOUS
 62
     3
100
AcDbLine
 10
1808.849878
 20
529.005677
 30
0.0
 11
1807.820832
 21
564.99097
 31
0.0
  0
LINE
  5
4B9
330
1F
100
AcDbEntity
  8
Ｓ_１_１
  6
CONTINUOUS
 62
     3
100
AcDbLine
 10
1908.808976
 20
531.864136
 30
0.0
 11
1907.77993
 21
567.8494280000001
 31
0.0
  0
LINE
  5
4BA
330
1F
100
AcDbEntity
  8
Ｓ_１_１
  6
CONTINUOUS
 62
     3
100
AcDbLine
 10
1919.717878
 20
570.191616
 30
0.0
 11
1907.779986
 21
567.849425
 31
0.0
  0
LINE
  5
4BB
330
1F
100
AcDbEntity
  8
Ｓ_１_１
  6
CONTINUOUS
 62
     3
100
AcDbLine
 10
1793.827422000001
 20
529.576508
 30
0.0
 11
1792.855546
 21
563.562601
 31
0.0
  0
LINE
  5
4BC
330
1F
100
AcDbEntity
  8
Ｓ_１_１
  6
CONTINUOUS
 62
     3
100
AcDbLine
 10
1923.774299
 20
533.2925060000001
 30
0.0
 11
1922.802423
 21
567.2785990000001
 31
0.0
  0
LINE
  5
4BD
330
1F
100
AcDbEntity
  8
Ｓ_１_１
  6
CONTINUOUS
 62
     3
100
AcDbLine
 10
1787.157944
 20
559.898245
 30
0.0
 11
1787.957636
 21
559.9211140000001
 31
0.0
  0
LINE
  5
4BE
330
1F
100
AcDbEntity
  8
Ｓ_１_１
  6
CONTINUOUS
 62
     3
100
AcDbLine
 10
1791.403942
 20
411.4175040000001
 30
0.0
 11
1794.902496
 21
411.5175499999999
 31
0.0
  0
LINE
  5
4BF
330
1F
100
AcDbEntity
  8
Ｓ_１_１
  6
CONTINUOUS
 62
     3
100
AcDbLine
 10
1757.862753
 20
499.536193
 30
0.0
 11
1761.815432
 21
497.648413
 31
0.0
  0
LINE
  5
4C0
330
1F
100
AcDbEntity
  8
Ｓ_１_１
  6
CONTINUOUS
 62
     3
100
AcDbLine
 10
1795.786625
 20
415.5859369999999
 30
0.0
 11
1795.95991
 21
409.5262360000001
 31
0.0
  0
LINE
  5
4C1
330
1F
100
AcDbEntity
  8
Ｓ_１_１
  6
CONTINUOUS
 62
     3
100
AcDbLine
 10
1734.489627
 20
498.867805
 30
0.0
 11
1757.862755
 21
499.5361890000001
 31
0.0
  0
LINE
  5
4C2
330
1F
100
AcDbEntity
  8
Ｓ_１_１
  6
CONTINUOUS
 62
     3
100
AcDbLine
 10
1762.101349
 20
487.652498
 30
0.0
 11
1761.815503
 21
497.648411
 31
0.0
  0
LINE
  5
4C3
330
1F
100
AcDbEntity
  8
Ｓ_１_１
  6
CONTINUOUS
 62
     3
100
AcDbLine
 10
1795.613311
 20
421.6456280000001
 30
0.0
 11
1794.55596
 21
423.6369390000002
 31
0.0
  0
LINE
  5
4C4
330
1F
100
AcDbEntity
  8
Ｓ_１_１
  6
CONTINUOUS
 62
     3
100
AcDbLine
 10
1795.959887
 20
409.526248
 30
0.0
 11
1795.018048
 21
407.4777419999999
 31
0.0
  0
LINE
  5
4C5
330
1F
100
AcDbEntity
  8
Ｓ_１_１
  6
CONTINUOUS
 62
     3
100
AcDbLine
 10
1754.310268
 20
487.429702
 30
0.0
 11
1754.024422
 21
497.425615
 31
0.0
  0
LINE
  5
4C6
330
1F
100
AcDbEntity
  8
Ｓ_１_１
  6
CONTINUOUS
 62
     3
100
AcDbLine
 10
1738.728145
 20
486.984112
 30
0.0
 11
1738.442299
 21
496.9800240000001
 31
0.0
  0
LINE
  5
4C7
330
1F
100
AcDbEntity
  8
Ｓ_１_１
  6
CONTINUOUS
 62
     3
100
AcDbLine
 10
1730.738398
 20
496.805125
 30
0.0
 11
1734.489628
 21
498.8678000000002
 31
0.0
  0
LINE
  5
4C8
330
1F
100
AcDbEntity
  8
Ｓ_１_１
  6
CONTINUOUS
 62
     3
100
AcDbLine
 10
1787.333468
 20
553.7602459999999
 30
0.0
 11
1786.900683
 21
568.8945729999999
 31
0.0
  0
LINE
  5
4C9
330
1F
100
AcDbEntity
  8
Ｓ_１_１
  6
CONTINUOUS
 62
     3
100
AcDbLine
 10
1753.105763
 20
344.336809
 30
0.0
 11
1767.100057
 21
344.7369930000001
 31
0.0
  0
LINE
  5
4CA
330
1F
100
AcDbEntity
  8
Ｓ_１_１
  6
CONTINUOUS
 62
     3
100
AcDbLine
 10
1776.739991
 20
304.996309
 30
0.0
 11
1776.882914
 21
299.998352
 31
0.0
  0
LINE
  5
4CB
330
1F
100
AcDbEntity
  8
Ｓ_１_１
  6
CONTINUOUS
 62
     3
100
AcDbLine
 10
1726.719486
 20
304.9986070000001
 30
0.0
 11
1726.862468
 21
299.998591
 31
0.0
  0
LINE
  5
4CC
330
1F
100
AcDbEntity
  8
Ｓ_１_１
  6
CONTINUOUS
 62
     3
100
AcDbLine
 10
1752.877086
 20
352.333541
 30
0.0
 11
1754.230694
 21
304.998471
 31
0.0
  0
LINE
  5
4CD
330
1F
100
AcDbEntity
  8
Ｓ_１_１
  6
CONTINUOUS
 62
     3
100
AcDbLine
 10
1747.879168
 20
352.19062
 30
0.0
 11
1749.228687
 21
304.9984840000001
 31
0.0
  0
LINE
  5
4CE
330
1F
100
AcDbEntity
  8
Ｓ_１_１
  6
CONTINUOUS
 62
     3
100
AcDbLine
 10
1747.879168
 20
352.19062
 30
0.0
 11
1752.877086
 21
352.333541
 31
0.0
  0
LINE
  5
4CF
330
1F
100
AcDbEntity
  8
Ｓ_１_１
  6
CONTINUOUS
 62
     3
100
AcDbLine
 10
1754.037359
 20
495.4251660000001
 30
0.0
 11
1754.266036
 21
487.428436
 31
0.0
  0
LINE
  5
4D0
330
1F
100
AcDbEntity
  8
Ｓ_１_１
  6
CONTINUOUS
 62
     3
100
AcDbLine
 10
1738.5437
 20
494.982105
 30
0.0
 11
1738.772377
 21
486.9853750000001
 31
0.0
  0
LINE
  5
4D1
330
1F
100
AcDbEntity
  8
Ｓ_１_１
  6
CONTINUOUS
 62
     3
100
AcDbLine
 10
1731.025567
 20
486.7638450000001
 30
0.0
 11
1762.012884
 21
487.6499669999999
 31
0.0
  0
LINE
  5
4D2
330
1F
100
AcDbEntity
  8
Ｓ_１_１
  6
CONTINUOUS
 62
     3
100
AcDbLine
 10
1730.738423
 20
496.805135
 30
0.0
 11
1731.025567
 21
486.7638450000001
 31
0.0
  0
LINE
  5
4D3
330
1F
100
AcDbEntity
  8
Ｓ_１_１
  6
CONTINUOUS
 62
     3
100
AcDbLine
 10
1761.784207
 20
495.646697
 30
0.0
 11
1762.012884
 21
487.6499669999999
 31
0.0
  0
LINE
  5
4D4
330
1F
100
AcDbEntity
  8
Ｓ_１_１
  6
CONTINUOUS
 62
     3
100
AcDbLine
 10
1759.014117
 20
487.564213
 30
0.0
 11
1759.099871
 21
484.5654390000001
 31
0.0
  0
LINE
  5
4D5
330
1F
100
AcDbEntity
  8
Ｓ_１_１
  6
CONTINUOUS
 62
     3
100
AcDbLine
 10
1788.447075
 20
402.8709339999999
 30
0.0
 11
1791.445842
 21
402.9566880000002
 31
0.0
  0
LINE
  5
4D6
330
1F
100
AcDbEntity
  8
Ｓ_１_１
  6
CONTINUOUS
 62
     3
100
AcDbLine
 10
994.0543250000002
 20
510.207393
 30
0.0
 11
1793.727377
 21
533.075072
 31
0.0
  0
LINE
  5
4D7
330
1F
100
AcDbEntity
  8
Ｓ_１_１
  6
CONTINUOUS
 62
     3
100
AcDbLine
 10
993.282541
 20
537.1963630000001
 30
0.0
 11
1792.955592
 21
560.064041
 31
0.0
  0
LINE
  5
4D8
330
1F
100
AcDbEntity
  8
Ｓ_１_１
  6
CONTINUOUS
 62
     3
100
AcDbLine
 10
887.0841860000002
 20
490.1414960000001
 30
0.0
 11
994.3401600000002
 21
500.2114800000001
 31
0.0
  0
LINE
  5
4D9
330
1F
100
AcDbEntity
  8
Ｓ_１_１
  6
CONTINUOUS
 62
     3
100
AcDbLine
 10
912.1613620000003
 20
487.800261
 30
0.0
 11
912.216899
 21
485.858155
 31
0.0
  0
LINE
  5
4DA
330
1F
100
AcDbEntity
  8
Ｓ_１_１
  6
CONTINUOUS
 62
     3
100
AcDbLine
 10
887.2271150000001
 20
485.1435400000001
 30
0.0
 11
912.216899
 21
485.858155
 31
0.0
  0
LINE
  5
4DB
330
1F
100
AcDbEntity
  8
Ｓ_１_１
  6
CONTINUOUS
 62
     3
100
AcDbLine
 10
885.454871
 20
547.118206
 30
0.0
 11
992.9966530000002
 21
547.1922760000001
 31
0.0
  0
LINE
  5
4DC
330
1F
100
AcDbEntity
  8
Ｓ_１_１
  6
CONTINUOUS
 62
     3
100
AcDbLine
 10
992.9966950000003
 20
547.192271
 30
0.0
 11
994.3401710000003
 21
500.2114789999999
 31
0.0
  0
LINE
  5
4DD
330
1F
100
AcDbEntity
  8
Ｓ_１_１
  6
CONTINUOUS
 62
     3
100
AcDbLine
 10
892.2250720000002
 20
485.286463
 30
0.0
 11
892.9682710000003
 21
459.2970890000001
 31
0.0
  0
LINE
  5
4DE
330
1F
100
AcDbEntity
  8
Ｓ_１_１
  6
CONTINUOUS
 62
     3
100
AcDbLine
 10
907.2189420000001
 20
485.7152320000001
 30
0.0
 11
907.9621420000003
 21
459.7258580000002
 31
0.0
  0
LINE
  5
4DF
330
1F
100
AcDbEntity
  8
Ｓ_１_１
  6
CONTINUOUS
 62
     3
100
AcDbLine
 10
899.7220070000003
 20
485.5008480000001
 30
0.0
 11
900.4080370000003
 21
461.5106560000001
 31
0.0
  0
LINE
  5
4E0
330
1F
100
AcDbEntity
  8
Ｓ_１_１
  6
CONTINUOUS
 62
     3
100
AcDbLine
 10
801.6476840000001
 20
486.6979230000001
 30
0.0
 11
818.6407450000002
 21
487.1838610000001
 31
0.0
  0
LINE
  5
4E1
330
1F
100
AcDbEntity
  8
Ｓ_１_１
  6
CONTINUOUS
 62
     3
100
AcDbLine
 10
879.0017459999999
 20
462.2990880000001
 30
0.0
 11
879.0560570000002
 21
460.3998640000001
 31
0.0
  0
LINE
  5
4E2
330
1F
100
AcDbEntity
  8
Ｓ_１_１
  6
CONTINUOUS
 62
     3
100
AcDbLine
 10
871.7547239999999
 20
462.0918500000002
 30
0.0
 11
871.8090340000003
 21
460.1926260000002
 31
0.0
  0
LINE
  5
4E3
330
1F
100
AcDbEntity
  8
Ｓ_１_１
  6
CONTINUOUS
 62
     3
100
AcDbLine
 10
880.9053800000002
 20
456.9513170000002
 30
0.0
 11
881.048303
 21
451.9533600000001
 31
0.0
  0
LINE
  5
4E4
330
1F
100
AcDbEntity
  8
Ｓ_１_１
  6
CONTINUOUS
 62
     3
100
AcDbLine
 10
886.2782060000001
 20
457.1049600000001
 30
0.0
 11
886.4211290000003
 21
452.107003
 31
0.0
  0
LINE
  5
4E5
330
1F
100
AcDbEntity
  8
Ｓ_１_１
  6
CONTINUOUS
 62
     3
100
AcDbLine
 10
882.6252950000003
 20
462.402708
 30
0.0
 11
882.6796060000001
 21
460.503484
 31
0.0
  0
LINE
  5
4E6
330
1F
100
AcDbEntity
  8
Ｓ_１_１
  6
CONTINUOUS
 62
     3
100
AcDbLine
 10
868.1312130000001
 20
461.988231
 30
0.0
 11
868.1855230000002
 21
460.089007
 31
0.0
  0
LINE
  5
4E7
330
1F
100
AcDbEntity
  8
Ｓ_１_１
  6
CONTINUOUS
 62
     3
100
AcDbLine
 10
879.2736730000001
 20
465.908335
 30
0.0
 11
879.359427
 21
462.9095610000001
 31
0.0
  0
LINE
  5
4E8
330
1F
100
AcDbEntity
  8
Ｓ_１_１
  6
CONTINUOUS
 62
     3
100
AcDbLine
 10
871.2769490000001
 20
465.679659
 30
0.0
 11
871.3627030000004
 21
462.680884
 31
0.0
  0
LINE
  5
4E9
330
1F
100
AcDbEntity
  8
Ｓ_１_１
  6
CONTINUOUS
 62
     3
100
AcDbLine
 10
871.762483
 20
466.1937470000001
 30
0.0
 11
878.7596309999999
 21
466.3938400000001
 31
0.0
  0
LINE
  5
4EA
330
1F
100
AcDbEntity
  8
Ｓ_１_１
  6
CONTINUOUS
 62
     3
100
AcDbLine
 10
869.9257980000002
 20
462.6397940000001
 30
0.0
 11
880.79637
 21
462.9506520000001
 31
0.0
  0
LINE
  5
4EB
330
1F
100
AcDbEntity
  8
Ｓ_１_１
  6
CONTINUOUS
 62
     3
100
AcDbLine
 10
867.444825
 20
457.5668039999999
 30
0.0
 11
883.563189
 21
458.0277300000001
 31
0.0
  0
LINE
  5
4EC
330
1F
100
AcDbEntity
  8
Ｓ_１_１
  6
CONTINUOUS
 62
     3
100
AcDbLine
 10
862.7094190000003
 20
450.428527
 30
0.0
 11
888.6987790000003
 21
451.1717259999999
 31
0.0
  0
LINE
  5
4ED
330
1F
100
AcDbEntity
  8
Ｓ_１_１
  6
CONTINUOUS
 62
     3
100
AcDbLine
 10
888.6987790000003
 20
451.1717259999999
 30
0.0
 11
888.813118
 21
447.1733620000001
 31
0.0
  0
LINE
  5
4EE
330
1F
100
AcDbEntity
  8
Ｓ_１_１
  6
CONTINUOUS
 62
     3
100
AcDbLine
 10
862.7094190000003
 20
450.428527
 30
0.0
 11
862.8237570000001
 21
446.4301630000001
 31
0.0
  0
LINE
  5
4EF
330
1F
100
AcDbEntity
  8
Ｓ_１_１
  6
CONTINUOUS
 62
     3
100
AcDbLine
 10
848.5999400000001
 20
489.040991
 30
0.0
 11
887.0841920000004
 21
490.141497
 31
0.0
  0
LINE
  5
4F0
330
1F
100
AcDbEntity
  8
Ｓ_１_１
  6
CONTINUOUS
 62
     3
100
AcDbLine
 10
773.8870019999999
 20
512.9151049999999
 30
0.0
 11
793.8787910000002
 21
513.486796
 31
0.0
  0
LINE
  5
4F1
330
1F
100
AcDbEntity
  8
Ｓ_１_１
  6
CONTINUOUS
 62
     3
100
AcDbLine
 10
773.1152179999999
 20
539.904075
 30
0.0
 11
774.1728480000002
 21
502.919192
 31
0.0
  0
LINE
  5
4F2
330
1F
100
AcDbEntity
  8
Ｓ_１_１
  6
CONTINUOUS
 62
     3
100
AcDbLine
 10
827.951513
 20
476.4456180000001
 30
0.0
 11
873.9327390000003
 21
477.76051
 31
0.0
  0
LINE
  5
4F3
330
1F
100
AcDbEntity
  8
Ｓ_１_１
  6
CONTINUOUS
 62
     3
100
AcDbLine
 10
826.0095300000003
 20
474.3892650000001
 30
0.0
 11
826.8384840000004
 21
445.4011180000001
 31
0.0
  0
LINE
  5
4F4
330
1F
100
AcDbEntity
  8
Ｓ_１_１
  6
CONTINUOUS
 62
     3
100
AcDbLine
 10
821.2393660000004
 20
501.2638909999999
 30
0.0
 11
822.840103
 21
445.2867790000002
 31
0.0
  0
LINE
  5
4F5
330
1F
100
AcDbEntity
  8
Ｓ_１_１
  6
CONTINUOUS
 62
     3
100
AcDbLine
 10
797.9700720000001
 20
510.35246
 30
0.0
 11
799.992432
 21
439.6313759999999
 31
0.0
  0
LINE
  5
4F6
330
1F
100
AcDbEntity
  8
Ｓ_１_１
  6
CONTINUOUS
 62
     3
100
AcDbLine
 10
864.1117960000003
 20
331.4199930000001
 30
0.0
 11
865.0102120000003
 21
300.002764
 31
0.0
  0
LINE
  5
4F7
330
1F
100
AcDbEntity
  8
Ｓ_１_１
  6
CONTINUOUS
 62
     3
100
AcDbLine
 10
799.992432
 20
439.6313759999999
 30
0.0
 11
800.9920470000003
 21
439.659961
 31
0.0
  0
LINE
  5
4F8
330
1F
100
AcDbEntity
  8
Ｓ_１_１
  6
CONTINUOUS
 62
     3
100
AcDbLine
 10
957.925205
 20
549.1905849999999
 30
0.0
 11
977.9170710000003
 21
549.762278
 31
0.0
  0
LINE
  5
4F9
330
1F
100
AcDbEntity
  8
Ｓ_１_１
  6
CONTINUOUS
 62
     3
100
AcDbLine
 10
805.9341230000001
 20
389.2806429999999
 30
0.0
 11
857.912844
 21
390.7670420000001
 31
0.0
  0
LINE
  5
4FA
330
1F
100
AcDbEntity
  8
Ｓ_１_１
  6
CONTINUOUS
 62
     3
100
AcDbLine
 10
814.1322279999999
 20
329.9907630000001
 30
0.0
 11
814.9897660000001
 21
300.003022
 31
0.0
  0
LINE
  5
4FB
330
1F
100
AcDbEntity
  8
Ｓ_１_１
  6
CONTINUOUS
 62
     3
100
AcDbLine
 10
916.0879380000001
 20
437.9492320000001
 30
0.0
 11
920.0862809999999
 21
438.0635699999999
 31
0.0
  0
LINE
  5
4FC
330
1F
100
AcDbEntity
  8
Ｓ_１_１
  6
CONTINUOUS
 62
     3
100
AcDbLine
 10
918.8034750000003
 20
342.98806
 30
0.0
 11
922.8018170000001
 21
343.1023980000001
 31
0.0
  0
LINE
  5
4FD
330
1F
100
AcDbEntity
  8
Ｓ_１_１
  6
CONTINUOUS
 62
     3
100
AcDbLine
 10
800.8491240000003
 20
444.6579190000001
 30
0.0
 11
915.8020919999999
 21
447.9451470000001
 31
0.0
  0
LINE
  5
4FE
330
1F
100
AcDbEntity
  8
Ｓ_１_１
  6
CONTINUOUS
 62
     3
100
AcDbLine
 10
804.136352
 20
329.704918
 30
0.0
 11
919.0893209999999
 21
332.992146
 31
0.0
  0
LINE
  5
4FF
330
1F
100
AcDbEntity
  8
Ｓ_１_１
  6
CONTINUOUS
 62
     3
100
AcDbLine
 10
800.8491240000003
 20
444.6579190000001
 30
0.0
 11
802.021092
 21
403.6746850000001
 31
0.0
  0
LINE
  5
500
330
1F
100
AcDbEntity
  8
Ｓ_１_１
  6
CONTINUOUS
 62
     3
100
AcDbLine
 10
895.8102650000001
 20
447.373455
 30
0.0
 11
899.0974940000001
 21
332.4204539999999
 31
0.0
  0
LINE
  5
501
330
1F
100
AcDbEntity
  8
Ｓ_１_１
  6
CONTINUOUS
 62
     3
100
AcDbLine
 10
915.8020919999999
 20
447.9451470000001
 30
0.0
 11
919.0893209999999
 21
332.992146
 31
0.0
  0
LINE
  5
502
330
1F
100
AcDbEntity
  8
Ｓ_１_１
  6
CONTINUOUS
 62
     3
100
AcDbLine
 10
931.4416940000001
 20
320.840268
 30
0.0
 11
1748.107844
 21
344.193887
 31
0.0
  0
LINE
  5
503
330
1F
100
AcDbEntity
  8
Ｓ_１_１
  6
CONTINUOUS
 62
     3
100
AcDbLine
 10
923.5558460000002
 20
456.6703490000001
 30
0.0
 11
927.329013
 21
324.724292
 31
0.0
  0
LINE
  5
504
330
1F
100
AcDbEntity
  8
Ｓ_１_１
  6
CONTINUOUS
 62
     3
100
AcDbLine
 10
1731.111321
 20
483.765071
 30
0.0
 11
1735.113164
 21
343.822287
 31
0.0
  0
LINE
  5
505
330
1F
100
AcDbEntity
  8
Ｓ_１_１
  6
CONTINUOUS
 62
     3
100
AcDbLine
 10
1783.661733
 20
465.2596420000001
 30
0.0
 11
1786.520193
 21
365.300513
 31
0.0
  0
LINE
  5
506
330
1F
100
AcDbEntity
  8
Ｓ_１_１
  6
CONTINUOUS
 62
     3
100
AcDbLine
 10
927.4398500000002
 20
460.7830520000002
 30
0.0
 11
1763.098214
 21
484.6797769999999
 31
0.0
  0
LINE
  5
507
330
1F
100
AcDbEntity
  8
Ｓ_１_１
  6
EXLTYPE2
 62
     1
100
AcDbLine
 10
725.2954593035133
 20
367.4667128448148
 30
0.0
 11
817.5692240000003
 21
370.1054
 31
0.0
  0
LINE
  5
508
330
1F
100
AcDbEntity
  8
Ｓ_１_１
  6
EXLTYPE2
 62
     1
100
AcDbLine
 10
712.8066929355168
 20
402.1238777579487
 30
0.0
 11
804.059076
 21
404.733357
 31
0.0
  0
LINE
  5
509
330
1F
100
AcDbEntity
  8
Ｓ_１_１
  6
EXLTYPE2
 62
     1
100
AcDbLine
 10
767.8643185975952
 20
517.244721173116
 30
0.0
 11
1935.204671298209
 21
550.6263194503048
 31
0.0
  0
LINE
  5
50A
330
1F
100
AcDbEntity
  8
Ｓ_１_１
  6
CONTINUOUS
 62
     3
100
AcDbLine
 10
474.999998
 20
300.0000000000001
 30
0.0
 11
185.0000020000002
 21
300.0000000000001
 31
0.0
  0
LINE
  5
50B
330
1F
100
AcDbEntity
  8
Ｓ_１_１
  6
CONTINUOUS
 62
     3
100
AcDbLine
 10
474.999998
 20
305.0
 30
0.0
 11
474.999998
 21
300.0000000000001
 31
0.0
  0
LINE
  5
50C
330
1F
100
AcDbEntity
  8
Ｓ_１_１
  6
EXLTYPE2
 62
     1
100
AcDbLine
 10
217.5000009999999
 20
593.851499
 30
0.0
 11
217.5000009999999
 21
407.8500070000001
 31
0.0
  0
LINE
  5
50D
330
1F
100
AcDbEntity
  8
Ｓ_１_１
  6
CONTINUOUS
 62
     3
100
AcDbLine
 10
185.0000019999998
 20
305.0000000000001
 30
0.0
 11
387.4999990000001
 21
305.0000000000001
 31
0.0
  0
LINE
  5
50E
330
1F
100
AcDbEntity
  8
Ｓ_１_１
  6
CONTINUOUS
 62
     3
100
AcDbLine
 10
272.5000010000001
 20
330.0000089999999
 30
0.0
 11
387.4999990000001
 21
330.0000089999999
 31
0.0
  0
LINE
  5
50F
330
1F
100
AcDbEntity
  8
Ｓ_１_１
  6
CONTINUOUS
 62
     3
100
AcDbLine
 10
272.5000010000001
 20
444.9999980000001
 30
0.0
 11
300.0
 21
444.9999980000001
 31
0.0
  0
LINE
  5
510
330
1F
100
AcDbEntity
  8
Ｓ_１_１
  6
CONTINUOUS
 62
     3
100
AcDbLine
 10
303.999939
 20
542.9999940000001
 30
0.0
 11
330.0
 21
542.9999940000001
 31
0.0
  0
LINE
  5
511
330
1F
100
AcDbEntity
  8
Ｓ_１_１
  6
CONTINUOUS
 62
     3
100
AcDbLine
 10
387.4999990000001
 20
444.9999980000001
 30
0.0
 11
387.4999990000001
 21
330.0000089999999
 31
0.0
  0
LINE
  5
512
330
1F
100
AcDbEntity
  8
Ｓ_１_１
  6
CONTINUOUS
 62
     3
100
AcDbLine
 10
272.5000010000001
 20
444.9999980000001
 30
0.0
 11
272.5000010000001
 21
330.0000089999999
 31
0.0
  0
LINE
  5
513
330
1F
100
AcDbEntity
  8
Ｓ_１_１
  6
CONTINUOUS
 62
     3
100
AcDbLine
 10
456.7499520000001
 20
402.749966
 30
0.0
 11
456.7499520000001
 21
406.4999710000001
 31
0.0
  0
LINE
  5
514
330
1F
100
AcDbEntity
  8
Ｓ_１_１
  6
CONTINUOUS
 62
     3
100
AcDbLine
 10
460.5000279999999
 20
401.9999970000001
 30
0.0
 11
460.5000279999999
 21
397.0000020000001
 31
0.0
  0
LINE
  5
515
330
1F
100
AcDbEntity
  8
Ｓ_１_１
  6
CONTINUOUS
 62
     3
100
AcDbLine
 10
456.7499520000001
 20
406.4999710000001
 30
0.0
 11
457.4999210000001
 21
406.4999710000001
 31
0.0
  0
LINE
  5
516
330
1F
100
AcDbEntity
  8
Ｓ_１_１
  6
CONTINUOUS
 62
     3
100
AcDbLine
 10
445.4999600000001
 20
404.9999819999999
 30
0.0
 11
460.4999889999999
 21
401.9999759999999
 31
0.0
  0
LINE
  5
517
330
1F
100
AcDbEntity
  8
Ｓ_１_１
  6
CONTINUOUS
 62
     3
100
AcDbLine
 10
442.499998
 20
401.9999970000001
 30
0.0
 11
427.499922
 21
401.9999970000001
 31
0.0
  0
LINE
  5
518
330
1F
100
AcDbEntity
  8
Ｓ_１_１
  6
CONTINUOUS
 62
     3
100
AcDbLine
 10
460.5000279999999
 20
432.499974
 30
0.0
 11
460.5000279999999
 21
409.500001
 31
0.0
  0
LINE
  5
519
330
1F
100
AcDbEntity
  8
Ｓ_１_１
  6
CONTINUOUS
 62
     3
100
AcDbLine
 10
457.4999210000001
 20
435.4999670000001
 30
0.0
 11
445.4999520000001
 21
435.4999670000001
 31
0.0
  0
LINE
  5
51A
330
1F
100
AcDbEntity
  8
Ｓ_１_１
  6
CONTINUOUS
 62
     3
100
AcDbLine
 10
445.4999520000001
 20
397.0000020000001
 30
0.0
 11
445.4999520000001
 21
435.4999670000001
 31
0.0
  0
LINE
  5
51B
330
1F
100
AcDbEntity
  8
Ｓ_１_１
  6
CONTINUOUS
 62
     3
100
AcDbLine
 10
442.499998
 20
397.0000020000001
 30
0.0
 11
442.499998
 21
403.9999710000001
 31
0.0
  0
LINE
  5
51C
330
1F
100
AcDbEntity
  8
Ｓ_１_１
  6
CONTINUOUS
 62
     3
100
AcDbLine
 10
456.7499520000001
 20
391.2499890000001
 30
0.0
 11
456.7499520000001
 21
387.4999990000001
 31
0.0
  0
LINE
  5
51D
330
1F
100
AcDbEntity
  8
Ｓ_１_１
  6
CONTINUOUS
 62
     3
100
AcDbLine
 10
460.5000279999999
 20
392.0000060000001
 30
0.0
 11
460.5000279999999
 21
397.0000020000001
 31
0.0
  0
LINE
  5
51E
330
1F
100
AcDbEntity
  8
Ｓ_１_１
  6
CONTINUOUS
 62
     3
100
AcDbLine
 10
456.7499520000001
 20
387.4999990000001
 30
0.0
 11
457.4999210000001
 21
387.4999990000001
 31
0.0
  0
LINE
  5
51F
330
1F
100
AcDbEntity
  8
Ｓ_１_１
  6
CONTINUOUS
 62
     3
100
AcDbLine
 10
445.5000319999999
 20
389.000003
 30
0.0
 11
460.4999120000002
 21
391.9999779999999
 31
0.0
  0
LINE
  5
520
330
1F
100
AcDbEntity
  8
Ｓ_１_１
  6
CONTINUOUS
 62
     3
100
AcDbLine
 10
442.499998
 20
392.0000060000001
 30
0.0
 11
427.499922
 21
392.0000060000001
 31
0.0
  0
LINE
  5
521
330
1F
100
AcDbEntity
  8
Ｓ_１_１
  6
CONTINUOUS
 62
     3
100
AcDbLine
 10
460.5000279999999
 20
361.4999859999999
 30
0.0
 11
460.5000279999999
 21
384.4999970000001
 31
0.0
  0
LINE
  5
522
330
1F
100
AcDbEntity
  8
Ｓ_１_１
  6
CONTINUOUS
 62
     3
100
AcDbLine
 10
457.4999210000001
 20
358.4999940000001
 30
0.0
 11
445.4999520000001
 21
358.4999940000001
 31
0.0
  0
LINE
  5
523
330
1F
100
AcDbEntity
  8
Ｓ_１_１
  6
CONTINUOUS
 62
     3
100
AcDbLine
 10
445.4999520000001
 20
397.0000020000001
 30
0.0
 11
445.4999520000001
 21
358.4999940000001
 31
0.0
  0
LINE
  5
524
330
1F
100
AcDbEntity
  8
Ｓ_１_１
  6
CONTINUOUS
 62
     3
100
AcDbLine
 10
442.499998
 20
397.0000020000001
 30
0.0
 11
442.499998
 21
389.9999890000001
 31
0.0
  0
LINE
  5
525
330
1F
100
AcDbEntity
  8
Ｓ_１_１
  6
CONTINUOUS
 62
     3
100
AcDbLine
 10
424.4999680000001
 20
361.999997
 30
0.0
 11
412.499998
 21
361.999997
 31
0.0
  0
LINE
  5
526
330
1F
100
AcDbEntity
  8
Ｓ_１_１
  6
CONTINUOUS
 62
     3
100
AcDbLine
 10
427.499922
 20
364.9999989999999
 30
0.0
 11
427.499922
 21
413.9999950000001
 31
0.0
  0
LINE
  5
527
330
1F
100
AcDbEntity
  8
Ｓ_１_１
  6
CONTINUOUS
 62
     3
100
AcDbLine
 10
424.4999680000001
 20
417.000001
 30
0.0
 11
412.499998
 21
417.000001
 31
0.0
  0
LINE
  5
528
330
1F
100
AcDbEntity
  8
Ｓ_１_１
  6
CONTINUOUS
 62
     3
100
AcDbLine
 10
409.4999680000001
 20
422.000001
 30
0.0
 11
387.4999990000001
 21
422.000001
 31
0.0
  0
LINE
  5
529
330
1F
100
AcDbEntity
  8
Ｓ_１_１
  6
CONTINUOUS
 62
     3
100
AcDbLine
 10
412.499998
 20
359.9999989999999
 30
0.0
 11
412.499998
 21
418.9999950000001
 31
0.0
  0
LINE
  5
52A
330
1F
100
AcDbEntity
  8
Ｓ_１_１
  6
CONTINUOUS
 62
     3
100
AcDbLine
 10
409.4999680000001
 20
357.0000069999999
 30
0.0
 11
387.4999990000001
 21
357.0000069999999
 31
0.0
  0
LINE
  5
52B
330
1F
100
AcDbEntity
  8
Ｓ_１_１
  6
CONTINUOUS
 62
     3
100
AcDbLine
 10
207.5000009999999
 20
418.000005
 30
0.0
 11
207.5000009999999
 21
401.9999970000001
 31
0.0
  0
LINE
  5
52C
330
1F
100
AcDbEntity
  8
Ｓ_１_１
  6
CONTINUOUS
 62
     3
100
AcDbLine
 10
222.5000009999999
 20
424.5941240000001
 30
0.0
 11
222.5000009999999
 21
409.9999990000001
 31
0.0
  0
LINE
  5
52D
330
1F
100
AcDbEntity
  8
Ｓ_１_１
  6
CONTINUOUS
 62
     3
100
AcDbLine
 10
212.5000009999999
 20
424.5941240000001
 30
0.0
 11
212.5000009999999
 21
409.9999990000001
 31
0.0
  0
LINE
  5
52E
330
1F
100
AcDbEntity
  8
Ｓ_１_１
  6
CONTINUOUS
 62
     3
100
AcDbLine
 10
207.5000009999999
 20
453.301261
 30
0.0
 11
207.5000009999999
 21
456.5087580000001
 31
0.0
  0
LINE
  5
52F
330
1F
100
AcDbEntity
  8
Ｓ_１_１
  6
CONTINUOUS
 62
     3
100
AcDbLine
 10
217.4999250000001
 20
422.99039
 30
0.0
 11
203.999965
 21
427.3204850000001
 31
0.0
  0
LINE
  5
530
330
1F
100
AcDbEntity
  8
Ｓ_１_１
  6
CONTINUOUS
 62
     3
100
AcDbLine
 10
217.5000099999997
 20
422.9904020000001
 30
0.0
 11
231.0000420000001
 21
427.320521
 31
0.0
  0
LINE
  5
531
330
1F
100
AcDbEntity
  8
Ｓ_１_１
  6
CONTINUOUS
 62
     3
100
AcDbLine
 10
227.4999250000001
 20
453.301261
 30
0.0
 11
227.4999250000001
 21
456.5087580000001
 31
0.0
  0
LINE
  5
532
330
1F
100
AcDbEntity
  8
Ｓ_１_１
  6
CONTINUOUS
 62
     3
100
AcDbLine
 10
217.5000059999998
 20
466.2916710000001
 30
0.0
 11
230.999965
 21
470.6217660000002
 31
0.0
  0
LINE
  5
533
330
1F
100
AcDbEntity
  8
Ｓ_１_１
  6
CONTINUOUS
 62
     3
100
AcDbLine
 10
217.499996
 20
466.291617
 30
0.0
 11
203.9999640000001
 21
470.6217350000001
 31
0.0
  0
LINE
  5
534
330
1F
100
AcDbEntity
  8
Ｓ_１_１
  6
CONTINUOUS
 62
     3
100
AcDbLine
 10
217.5000340000001
 20
453.3012340000002
 30
0.0
 11
204.0000019999998
 21
457.631352
 31
0.0
  0
LINE
  5
535
330
1F
100
AcDbEntity
  8
Ｓ_１_１
  6
CONTINUOUS
 62
     3
100
AcDbLine
 10
217.5000460000001
 20
453.3012930000001
 30
0.0
 11
231.0000049999999
 21
457.6313880000001
 31
0.0
  0
LINE
  5
536
330
1F
100
AcDbEntity
  8
Ｓ_１_１
  6
CONTINUOUS
 62
     3
100
AcDbLine
 10
217.5000409999998
 20
444.6410569999999
 30
0.0
 11
231.0000009999999
 21
448.971152
 31
0.0
  0
LINE
  5
537
330
1F
100
AcDbEntity
  8
Ｓ_１_１
  6
CONTINUOUS
 62
     3
100
AcDbLine
 10
217.500039
 20
444.640998
 30
0.0
 11
204.0000070000001
 21
448.9711169999999
 31
0.0
  0
LINE
  5
538
330
1F
100
AcDbEntity
  8
Ｓ_１_１
  6
CONTINUOUS
 62
     3
100
AcDbLine
 10
203.999941
 20
475.2203430000001
 30
0.0
 11
203.999941
 21
427.320488
 31
0.0
  0
LINE
  5
539
330
1F
100
AcDbEntity
  8
Ｓ_１_１
  6
CONTINUOUS
 62
     3
100
AcDbLine
 10
231.0000620000001
 20
475.2203430000001
 30
0.0
 11
231.0000620000001
 21
427.320488
 31
0.0
  0
LINE
  5
53A
330
1F
100
AcDbEntity
  8
Ｓ_１_１
  6
CONTINUOUS
 62
     3
100
AcDbLine
 10
343.5000050000001
 20
364.803865
 30
0.0
 11
352.5000030000001
 21
359.6077129999999
 31
0.0
  0
LINE
  5
53B
330
1F
100
AcDbEntity
  8
Ｓ_１_１
  6
CONTINUOUS
 62
     3
100
AcDbLine
 10
352.5000010000001
 20
380.3923149999999
 30
0.0
 11
361.4999990000001
 21
375.1961640000001
 31
0.0
  0
LINE
  5
53C
330
1F
100
AcDbEntity
  8
Ｓ_１_１
  6
CONTINUOUS
 62
     3
100
AcDbLine
 10
352.4999750000002
 20
359.607731
 30
0.0
 11
361.4999069999999
 21
364.8038439999999
 31
0.0
  0
LINE
  5
53D
330
1F
100
AcDbEntity
  8
Ｓ_１_１
  6
CONTINUOUS
 62
     3
100
AcDbLine
 10
343.499984
 20
375.19616
 30
0.0
 11
343.499984
 21
364.803857
 31
0.0
  0
LINE
  5
53E
330
1F
100
AcDbEntity
  8
Ｓ_１_１
  6
CONTINUOUS
 62
     3
100
AcDbLine
 10
361.4999379999999
 20
375.19616
 30
0.0
 11
361.4999379999999
 21
364.803857
 31
0.0
  0
LINE
  5
53F
330
1F
100
AcDbEntity
  8
Ｓ_１_１
  6
CONTINUOUS
 62
     3
100
AcDbLine
 10
343.4999979999999
 20
375.1961480000001
 30
0.0
 11
352.4999299999999
 21
380.3922619999999
 31
0.0
  0
LINE
  5
540
330
1F
100
AcDbEntity
  8
Ｓ_１_１
  6
CONTINUOUS
 62
     3
100
AcDbLine
 10
267.5000009999999
 20
541.9134110000001
 30
0.0
 11
267.5000009999999
 21
516.913416
 31
0.0
  0
LINE
  5
541
330
1F
100
AcDbEntity
  8
Ｓ_１_１
  6
CONTINUOUS
 62
     3
100
AcDbLine
 10
167.5000019999998
 20
541.9134110000001
 30
0.0
 11
167.5000019999998
 21
516.913416
 31
0.0
  0
LINE
  5
542
330
1F
100
AcDbEntity
  8
Ｓ_１_１
  6
CONTINUOUS
 62
     3
100
AcDbLine
 10
212.5000009999999
 20
418.000005
 30
0.0
 11
207.5000009999999
 21
418.000005
 31
0.0
  0
LINE
  5
543
330
1F
100
AcDbEntity
  8
Ｓ_１_１
  6
CONTINUOUS
 62
     3
100
AcDbLine
 10
257.5000009999999
 20
401.9999970000001
 30
0.0
 11
207.5000009999999
 21
401.9999970000001
 31
0.0
  0
LINE
  5
544
330
1F
100
AcDbEntity
  8
Ｓ_１_１
  6
CONTINUOUS
 62
     3
100
AcDbLine
 10
272.5000010000001
 20
420.2942260000001
 30
0.0
 11
269.4999699999998
 21
420.2942260000001
 31
0.0
  0
LINE
  5
545
330
1F
100
AcDbEntity
  8
Ｓ_１_１
  6
CONTINUOUS
 62
     3
100
AcDbLine
 10
272.5000010000001
 20
399.705771
 30
0.0
 11
269.4999699999998
 21
399.705771
 31
0.0
  0
LINE
  5
546
330
1F
100
AcDbEntity
  8
Ｓ_１_１
  6
CONTINUOUS
 62
     3
100
AcDbLine
 10
257.4999349999998
 20
421.6913880000001
 30
0.0
 11
259.4999290000001
 21
425.5884910000001
 31
0.0
  0
LINE
  5
547
330
1F
100
AcDbEntity
  8
Ｓ_１_１
  6
CONTINUOUS
 62
     3
100
AcDbLine
 10
257.5000009999999
 20
398.308662
 30
0.0
 11
257.5000009999999
 21
421.6913450000001
 31
0.0
  0
LINE
  5
548
330
1F
100
AcDbEntity
  8
Ｓ_１_１
  6
CONTINUOUS
 62
     3
100
AcDbLine
 10
269.4999699999998
 20
425.588453
 30
0.0
 11
259.4999699999998
 21
425.588453
 31
0.0
  0
LINE
  5
549
330
1F
100
AcDbEntity
  8
Ｓ_１_１
  6
CONTINUOUS
 62
     3
100
AcDbLine
 10
269.4999699999998
 20
417.7942260000001
 30
0.0
 11
259.4999699999998
 21
417.7942260000001
 31
0.0
  0
LINE
  5
54A
330
1F
100
AcDbEntity
  8
Ｓ_１_１
  6
CONTINUOUS
 62
     3
100
AcDbLine
 10
269.4999699999998
 20
402.205771
 30
0.0
 11
259.4999699999998
 21
402.205771
 31
0.0
  0
LINE
  5
54B
330
1F
100
AcDbEntity
  8
Ｓ_１_１
  6
CONTINUOUS
 62
     3
100
AcDbLine
 10
269.4999699999998
 20
394.4115439999999
 30
0.0
 11
259.4999699999998
 21
394.4115439999999
 31
0.0
  0
LINE
  5
54C
330
1F
100
AcDbEntity
  8
Ｓ_１_１
  6
CONTINUOUS
 62
     3
100
AcDbLine
 10
257.5000009999999
 20
418.000005
 30
0.0
 11
222.5000009999999
 21
418.000005
 31
0.0
  0
LINE
  5
54D
330
1F
100
AcDbEntity
  8
Ｓ_１_１
  6
CONTINUOUS
 62
     3
100
AcDbLine
 10
259.4999979999998
 20
394.411518
 30
0.0
 11
257.500004
 21
398.308621
 31
0.0
  0
LINE
  5
54E
330
1F
100
AcDbEntity
  8
Ｓ_１_１
  6
CONTINUOUS
 62
     3
100
AcDbLine
 10
269.4999699999998
 20
394.4115439999999
 30
0.0
 11
269.4999699999998
 21
425.588453
 31
0.0
  0
LINE
  5
54F
330
1F
100
AcDbEntity
  8
Ｓ_１_１
  6
CONTINUOUS
 62
     3
100
AcDbLine
 10
320.0
 20
544.9658740000001
 30
0.0
 11
339.9999230000001
 21
544.9658740000001
 31
0.0
  0
LINE
  5
550
330
1F
100
AcDbEntity
  8
Ｓ_１_１
  6
CONTINUOUS
 62
     3
100
AcDbLine
 10
380.500029
 20
448.999997
 30
0.0
 11
380.500029
 21
444.9999980000001
 31
0.0
  0
LINE
  5
551
330
1F
100
AcDbEntity
  8
Ｓ_１_１
  6
CONTINUOUS
 62
     3
100
AcDbLine
 10
359.9999990000001
 20
448.999997
 30
0.0
 11
380.500029
 21
448.999997
 31
0.0
  0
LINE
  5
552
330
1F
100
AcDbEntity
  8
Ｓ_１_１
  6
CONTINUOUS
 62
     3
100
AcDbLine
 10
359.9999990000001
 20
455.999997
 30
0.0
 11
375.5624379999999
 21
455.999997
 31
0.0
  0
LINE
  5
553
330
1F
100
AcDbEntity
  8
Ｓ_１_１
  6
CONTINUOUS
 62
     3
100
AcDbLine
 10
362.0625300000002
 20
460.999997
 30
0.0
 11
372.9374689999999
 21
460.999997
 31
0.0
  0
LINE
  5
554
330
1F
100
AcDbEntity
  8
Ｓ_１_１
  6
CONTINUOUS
 62
     3
100
AcDbLine
 10
364.0000140000002
 20
464.4999960000001
 30
0.0
 11
370.999984
 21
464.4999960000001
 31
0.0
  0
LINE
  5
555
330
1F
100
AcDbEntity
  8
Ｓ_１_１
  6
CONTINUOUS
 62
     3
100
AcDbLine
 10
363.499984
 20
463.9999950000001
 30
0.0
 11
363.499984
 21
460.999997
 31
0.0
  0
LINE
  5
556
330
1F
100
AcDbEntity
  8
Ｓ_１_１
  6
CONTINUOUS
 62
     3
100
AcDbLine
 10
371.5000140000002
 20
463.9999950000001
 30
0.0
 11
371.5000140000002
 21
460.999997
 31
0.0
  0
LINE
  5
557
330
1F
100
AcDbEntity
  8
Ｓ_１_１
  6
CONTINUOUS
 62
     3
100
AcDbLine
 10
360.2499379999999
 20
460.399996
 30
0.0
 11
360.2499379999999
 21
458.4999960000002
 31
0.0
  0
LINE
  5
558
330
1F
100
AcDbEntity
  8
Ｓ_１_１
  6
CONTINUOUS
 62
     3
100
AcDbLine
 10
374.749984
 20
460.399996
 30
0.0
 11
374.749984
 21
458.4999960000002
 31
0.0
  0
LINE
  5
559
330
1F
100
AcDbEntity
  8
Ｓ_１_１
  6
CONTINUOUS
 62
     3
100
AcDbLine
 10
378.2499680000001
 20
454.9999980000001
 30
0.0
 11
378.2499680000001
 21
449.9999960000001
 31
0.0
  0
LINE
  5
55A
330
1F
100
AcDbEntity
  8
Ｓ_１_１
  6
CONTINUOUS
 62
     3
100
AcDbLine
 10
371.1250300000002
 20
460.399996
 30
0.0
 11
371.1250300000002
 21
458.4999960000002
 31
0.0
  0
LINE
  5
55B
330
1F
100
AcDbEntity
  8
Ｓ_１_１
  6
CONTINUOUS
 62
     3
100
AcDbLine
 10
363.8749689999999
 20
460.399996
 30
0.0
 11
363.8749689999999
 21
458.4999960000002
 31
0.0
  0
LINE
  5
55C
330
1F
100
AcDbEntity
  8
Ｓ_１_１
  6
CONTINUOUS
 62
     3
100
AcDbLine
 10
372.874984
 20
454.9999980000001
 30
0.0
 11
372.874984
 21
449.9999960000001
 31
0.0
  0
LINE
  5
55D
330
1F
100
AcDbEntity
  8
Ｓ_１_１
  6
CONTINUOUS
 62
     3
100
AcDbLine
 10
370.999984
 20
464.4999960000001
 30
0.0
 11
370.999984
 21
460.999997
 31
0.0
  0
LINE
  5
55E
330
1F
100
AcDbEntity
  8
Ｓ_１_１
  6
CONTINUOUS
 62
     3
100
AcDbLine
 10
334.0000150000001
 20
549.065872
 30
0.0
 11
334.0000150000001
 21
544.9658740000001
 31
0.0
  0
LINE
  5
55F
330
1F
100
AcDbEntity
  8
Ｓ_１_１
  6
CONTINUOUS
 62
     3
100
AcDbLine
 10
335.999994
 20
559.765892
 30
0.0
 11
339.2726790000002
 21
567.2176989999999
 31
0.0
  0
LINE
  5
560
330
1F
100
AcDbEntity
  8
Ｓ_１_１
  6
CONTINUOUS
 62
     3
100
AcDbLine
 10
324.0000480000001
 20
559.765878
 30
0.0
 11
320.727355
 21
567.2177029999999
 31
0.0
  0
LINE
  5
561
330
1F
100
AcDbEntity
  8
Ｓ_１_１
  6
CONTINUOUS
 62
     3
100
AcDbLine
 10
321.59996
 20
550.5658730000001
 30
0.0
 11
321.59996
 21
548.9658800000001
 31
0.0
  0
LINE
  5
562
330
1F
100
AcDbEntity
  8
Ｓ_１_１
  6
CONTINUOUS
 62
     3
100
AcDbLine
 10
335.999973
 20
559.7658440000001
 30
0.0
 11
337.199969
 21
550.565878
 31
0.0
  0
LINE
  5
563
330
1F
100
AcDbEntity
  8
Ｓ_１_１
  6
CONTINUOUS
 62
     3
100
AcDbLine
 10
338.3999630000001
 20
550.5658730000001
 30
0.0
 11
338.3999630000001
 21
548.9658800000001
 31
0.0
  0
LINE
  5
564
330
1F
100
AcDbEntity
  8
Ｓ_１_１
  6
CONTINUOUS
 62
     3
100
AcDbLine
 10
324.0000100000002
 20
559.7658729999999
 30
0.0
 11
322.8000099999999
 21
550.5658690000001
 31
0.0
  0
LINE
  5
565
330
1F
100
AcDbEntity
  8
Ｓ_１_１
  6
CONTINUOUS
 62
     3
100
AcDbLine
 10
337.2
 20
550.565896
 30
0.0
 11
348.224919
 21
560.8756649999999
 31
0.0
  0
LINE
  5
566
330
1F
100
AcDbEntity
  8
Ｓ_１_１
  6
CONTINUOUS
 62
     3
100
AcDbLine
 10
326.3999940000001
 20
549.065872
 30
0.0
 11
326.3999940000001
 21
544.9658740000001
 31
0.0
  0
LINE
  5
567
330
1F
100
AcDbEntity
  8
Ｓ_１_１
  6
CONTINUOUS
 62
     3
100
AcDbLine
 10
339.9999230000001
 20
544.9999920000001
 30
0.0
 11
339.9999230000001
 21
544.9658740000001
 31
0.0
  0
LINE
  5
568
330
1F
100
AcDbEntity
  8
Ｓ_１_１
  6
CONTINUOUS
 62
     3
100
AcDbLine
 10
325.999984
 20
549.065872
 30
0.0
 11
325.999984
 21
544.9658740000001
 31
0.0
  0
LINE
  5
569
330
1F
100
AcDbEntity
  8
Ｓ_１_１
  6
CONTINUOUS
 62
     3
100
AcDbLine
 10
320.0
 20
544.9992149999999
 30
0.0
 11
320.0
 21
544.9658740000001
 31
0.0
  0
LINE
  5
56A
330
1F
100
AcDbEntity
  8
Ｓ_１_１
  6
CONTINUOUS
 62
     3
100
AcDbLine
 10
322.7999540000001
 20
550.56589
 30
0.0
 11
311.7750350000001
 21
560.8756589999999
 31
0.0
  0
LINE
  5
56B
330
1F
100
AcDbEntity
  8
Ｓ_１_１
  6
CONTINUOUS
 62
     3
100
AcDbLine
 10
321.59996
 20
550.5658730000001
 30
0.0
 11
338.3999630000001
 21
550.5658730000001
 31
0.0
  0
LINE
  5
56C
330
1F
100
AcDbEntity
  8
Ｓ_１_１
  6
CONTINUOUS
 62
     3
100
AcDbLine
 10
333.599929
 20
549.065872
 30
0.0
 11
333.599929
 21
544.9658740000001
 31
0.0
  0
LINE
  5
56D
330
1F
100
AcDbEntity
  8
Ｓ_１_１
  6
CONTINUOUS
 62
     3
100
AcDbLine
 10
323.999939
 20
559.7658789999999
 30
0.0
 11
336.0000610000002
 21
559.7658789999999
 31
0.0
  0
LINE
  5
56E
330
1F
100
AcDbEntity
  8
Ｓ_１_１
  6
CONTINUOUS
 62
     3
100
AcDbLine
 10
321.59996
 20
549.065872
 30
0.0
 11
338.3999630000001
 21
549.065872
 31
0.0
  0
LINE
  5
56F
330
1F
100
AcDbEntity
  8
Ｓ_１_１
  6
CONTINUOUS
 62
     3
100
AcDbLine
 10
362.1250140000002
 20
454.9999980000001
 30
0.0
 11
362.1250140000002
 21
449.9999960000001
 31
0.0
  0
LINE
  5
570
330
1F
100
AcDbEntity
  8
Ｓ_１_１
  6
CONTINUOUS
 62
     3
100
AcDbLine
 10
375.5624790000002
 20
456.0000040000001
 30
0.0
 11
378.2499700000001
 21
455.0000080000001
 31
0.0
  0
LINE
  5
571
330
1F
100
AcDbEntity
  8
Ｓ_１_１
  6
CONTINUOUS
 62
     3
100
AcDbLine
 10
375.562535
 20
448.999987
 30
0.0
 11
378.249955
 21
449.9999570000001
 31
0.0
  0
LINE
  5
572
330
1F
100
AcDbEntity
  8
Ｓ_１_１
  6
CONTINUOUS
 62
     3
100
AcDbLine
 10
364.0000140000002
 20
464.4999960000001
 30
0.0
 11
364.0000140000002
 21
460.999997
 31
0.0
  0
LINE
  5
573
330
1F
100
AcDbEntity
  8
Ｓ_１_１
  6
CONTINUOUS
 62
     3
100
AcDbLine
 10
363.8749689999999
 20
456.599996
 30
0.0
 11
363.8749689999999
 21
458.4999960000002
 31
0.0
  0
LINE
  5
574
330
1F
100
AcDbEntity
  8
Ｓ_１_１
  6
CONTINUOUS
 62
     3
100
AcDbLine
 10
371.1250300000002
 20
456.599996
 30
0.0
 11
371.1250300000002
 21
458.4999960000002
 31
0.0
  0
LINE
  5
575
330
1F
100
AcDbEntity
  8
Ｓ_１_１
  6
CONTINUOUS
 62
     3
100
AcDbLine
 10
360.2499379999999
 20
456.599996
 30
0.0
 11
360.2499379999999
 21
458.4999960000002
 31
0.0
  0
LINE
  5
576
330
1F
100
AcDbEntity
  8
Ｓ_１_１
  6
CONTINUOUS
 62
     3
100
AcDbLine
 10
374.749984
 20
456.599996
 30
0.0
 11
374.749984
 21
458.4999960000002
 31
0.0
  0
LINE
  5
577
330
1F
100
AcDbEntity
  8
Ｓ_１_１
  6
CONTINUOUS
 62
     3
100
AcDbLine
 10
374.7499979999999
 20
460.39998
 30
0.0
 11
372.937473
 21
460.9999880000001
 31
0.0
  0
LINE
  5
578
330
1F
100
AcDbEntity
  8
Ｓ_１_１
  6
CONTINUOUS
 62
     3
100
AcDbLine
 10
360.250039
 20
460.4000090000001
 30
0.0
 11
362.062492
 21
460.9999940000001
 31
0.0
  0
LINE
  5
579
330
1F
100
AcDbEntity
  8
Ｓ_１_１
  6
CONTINUOUS
 62
     3
100
AcDbLine
 10
374.7499769999999
 20
456.5999869999999
 30
0.0
 11
372.9375239999999
 21
456.0000020000001
 31
0.0
  0
LINE
  5
57A
330
1F
100
AcDbEntity
  8
Ｓ_１_１
  6
CONTINUOUS
 62
     3
100
AcDbLine
 10
360.2499950000001
 20
456.5999990000001
 30
0.0
 11
362.0624480000001
 21
456.000015
 31
0.0
  0
LINE
  5
57B
330
1F
100
AcDbEntity
  8
Ｓ_１_１
  6
CONTINUOUS
 62
     3
100
AcDbLine
 10
363.4999950000001
 20
463.9999470000001
 30
0.0
 11
364.0000380000001
 21
464.4999900000002
 31
0.0
  0
LINE
  5
57C
330
1F
100
AcDbEntity
  8
Ｓ_１_１
  6
CONTINUOUS
 62
     3
100
AcDbLine
 10
371.0000030000001
 20
464.4999900000002
 30
0.0
 11
371.499992
 21
464.0000000000001
 31
0.0
  0
LINE
  5
57D
330
1F
100
AcDbEntity
  8
Ｓ_１_１
  6
CONTINUOUS
 62
     3
100
AcDbLine
 10
268.4999849999999
 20
344.0000049999999
 30
0.0
 11
272.5000010000001
 21
344.0000049999999
 31
0.0
  0
LINE
  5
57E
330
1F
100
AcDbEntity
  8
Ｓ_１_１
  6
CONTINUOUS
 62
     3
100
AcDbLine
 10
268.4999849999999
 20
344.0000049999999
 30
0.0
 11
268.4999849999999
 21
370.0000089999999
 31
0.0
  0
LINE
  5
57F
330
1F
100
AcDbEntity
  8
Ｓ_１_１
  6
CONTINUOUS
 62
     3
100
AcDbLine
 10
261.4999400000002
 20
348.9375009999999
 30
0.0
 11
261.4999400000002
 21
365.0625029999999
 31
0.0
  0
LINE
  5
580
330
1F
100
AcDbEntity
  8
Ｓ_１_１
  6
CONTINUOUS
 62
     3
100
AcDbLine
 10
256.500016
 20
351.5624989999999
 30
0.0
 11
256.500016
 21
362.437495
 31
0.0
  0
LINE
  5
581
330
1F
100
AcDbEntity
  8
Ｓ_１_１
  6
CONTINUOUS
 62
     3
100
AcDbLine
 10
252.9999549999998
 20
353.5000129999999
 30
0.0
 11
252.9999549999998
 21
360.5000009999999
 31
0.0
  0
LINE
  5
582
330
1F
100
AcDbEntity
  8
Ｓ_１_１
  6
CONTINUOUS
 62
     3
100
AcDbLine
 10
253.4999859999998
 20
353.0000109999999
 30
0.0
 11
256.500016
 21
353.0000109999999
 31
0.0
  0
LINE
  5
583
330
1F
100
AcDbEntity
  8
Ｓ_１_１
  6
CONTINUOUS
 62
     3
100
AcDbLine
 10
253.4999859999998
 20
361.0000029999999
 30
0.0
 11
256.500016
 21
361.0000029999999
 31
0.0
  0
LINE
  5
584
330
1F
100
AcDbEntity
  8
Ｓ_１_１
  6
CONTINUOUS
 62
     3
100
AcDbLine
 10
257.0999919999999
 20
349.7500029999999
 30
0.0
 11
259.000016
 21
349.7500029999999
 31
0.0
  0
LINE
  5
585
330
1F
100
AcDbEntity
  8
Ｓ_１_１
  6
CONTINUOUS
 62
     3
100
AcDbLine
 10
257.0999919999999
 20
364.2500009999999
 30
0.0
 11
259.000016
 21
364.2500009999999
 31
0.0
  0
LINE
  5
586
330
1F
100
AcDbEntity
  8
Ｓ_１_１
  6
CONTINUOUS
 62
     3
100
AcDbLine
 10
262.5000009999999
 20
367.7500049999999
 30
0.0
 11
267.5000009999999
 21
367.7500049999999
 31
0.0
  0
LINE
  5
587
330
1F
100
AcDbEntity
  8
Ｓ_１_１
  6
CONTINUOUS
 62
     3
100
AcDbLine
 10
257.0999919999999
 20
360.6250089999999
 30
0.0
 11
259.000016
 21
360.6250089999999
 31
0.0
  0
LINE
  5
588
330
1F
100
AcDbEntity
  8
Ｓ_１_１
  6
CONTINUOUS
 62
     3
100
AcDbLine
 10
257.0999919999999
 20
353.3750049999999
 30
0.0
 11
259.000016
 21
353.3750049999999
 31
0.0
  0
LINE
  5
589
330
1F
100
AcDbEntity
  8
Ｓ_１_１
  6
CONTINUOUS
 62
     3
100
AcDbLine
 10
262.5000009999999
 20
362.3750109999999
 30
0.0
 11
267.5000009999999
 21
362.3750109999999
 31
0.0
  0
LINE
  5
58A
330
1F
100
AcDbEntity
  8
Ｓ_１_１
  6
CONTINUOUS
 62
     3
100
AcDbLine
 10
252.9999549999998
 20
360.5000009999999
 30
0.0
 11
256.500016
 21
360.5000009999999
 31
0.0
  0
LINE
  5
58B
330
1F
100
AcDbEntity
  8
Ｓ_１_１
  6
CONTINUOUS
 62
     3
100
AcDbLine
 10
262.5000009999999
 20
351.6250029999999
 30
0.0
 11
267.5000009999999
 21
351.6250029999999
 31
0.0
  0
LINE
  5
58C
330
1F
100
AcDbEntity
  8
Ｓ_１_１
  6
CONTINUOUS
 62
     3
100
AcDbLine
 10
262.5000009999999
 20
346.2500089999999
 30
0.0
 11
267.5000009999999
 21
346.2500089999999
 31
0.0
  0
LINE
  5
58D
330
1F
100
AcDbEntity
  8
Ｓ_１_１
  6
CONTINUOUS
 62
     3
100
AcDbLine
 10
261.499965
 20
348.937487
 30
0.0
 11
262.4999680000001
 21
346.2499780000001
 31
0.0
  0
LINE
  5
58E
330
1F
100
AcDbEntity
  8
Ｓ_１_１
  6
CONTINUOUS
 62
     3
100
AcDbLine
 10
261.4999800000001
 20
365.0625329999999
 30
0.0
 11
262.4999769999999
 21
367.7500240000001
 31
0.0
  0
LINE
  5
58F
330
1F
100
AcDbEntity
  8
Ｓ_１_１
  6
CONTINUOUS
 62
     3
100
AcDbLine
 10
268.4999299999999
 20
348.937532
 30
0.0
 11
267.4999330000001
 21
346.2500410000001
 31
0.0
  0
LINE
  5
590
330
1F
100
AcDbEntity
  8
Ｓ_１_１
  6
CONTINUOUS
 62
     3
100
AcDbLine
 10
268.4999990000001
 20
365.0624790000001
 30
0.0
 11
267.499996
 21
367.7499879999999
 31
0.0
  0
LINE
  5
591
330
1F
100
AcDbEntity
  8
Ｓ_１_１
  6
CONTINUOUS
 62
     3
100
AcDbLine
 10
252.9999549999998
 20
353.5000129999999
 30
0.0
 11
256.500016
 21
353.5000129999999
 31
0.0
  0
LINE
  5
592
330
1F
100
AcDbEntity
  8
Ｓ_１_１
  6
CONTINUOUS
 62
     3
100
AcDbLine
 10
260.8999639999997
 20
353.3750049999999
 30
0.0
 11
259.000016
 21
353.3750049999999
 31
0.0
  0
LINE
  5
593
330
1F
100
AcDbEntity
  8
Ｓ_１_１
  6
CONTINUOUS
 62
     3
100
AcDbLine
 10
260.8999639999997
 20
360.6250089999999
 30
0.0
 11
259.000016
 21
360.6250089999999
 31
0.0
  0
LINE
  5
594
330
1F
100
AcDbEntity
  8
Ｓ_１_１
  6
CONTINUOUS
 62
     3
100
AcDbLine
 10
260.8999639999997
 20
349.7500029999999
 30
0.0
 11
259.000016
 21
349.7500029999999
 31
0.0
  0
LINE
  5
595
330
1F
100
AcDbEntity
  8
Ｓ_１_１
  6
CONTINUOUS
 62
     3
100
AcDbLine
 10
260.8999639999997
 20
364.2500009999999
 30
0.0
 11
259.000016
 21
364.2500009999999
 31
0.0
  0
LINE
  5
596
330
1F
100
AcDbEntity
  8
Ｓ_１_１
  6
CONTINUOUS
 62
     3
100
AcDbLine
 10
257.099917
 20
364.250013
 30
0.0
 11
256.4999330000001
 21
362.43756
 31
0.0
  0
LINE
  5
597
330
1F
100
AcDbEntity
  8
Ｓ_１_１
  6
CONTINUOUS
 62
     3
100
AcDbLine
 10
257.0999539999998
 20
349.749973
 30
0.0
 11
256.4999520000001
 21
351.5624800000001
 31
0.0
  0
LINE
  5
598
330
1F
100
AcDbEntity
  8
Ｓ_１_１
  6
CONTINUOUS
 62
     3
100
AcDbLine
 10
260.8999530000001
 20
364.2499819999999
 30
0.0
 11
261.499949
 21
362.437493
 31
0.0
  0
LINE
  5
599
330
1F
100
AcDbEntity
  8
Ｓ_１_１
  6
CONTINUOUS
 62
     3
100
AcDbLine
 10
260.8999279999998
 20
349.75004
 30
0.0
 11
261.4999239999997
 21
351.562529
 31
0.0
  0
LINE
  5
59A
330
1F
100
AcDbEntity
  8
Ｓ_１_１
  6
CONTINUOUS
 62
     3
100
AcDbLine
 10
253.4999809999999
 20
353.0000700000001
 30
0.0
 11
253.0000449999998
 21
353.500006
 31
0.0
  0
LINE
  5
59B
330
1F
100
AcDbEntity
  8
Ｓ_１_１
  6
CONTINUOUS
 62
     3
100
AcDbLine
 10
252.9999910000001
 20
360.500024
 30
0.0
 11
253.4999809999999
 21
361.0000140000001
 31
0.0
  0
LINE
  5
59C
330
1F
100
AcDbEntity
  8
Ｓ_１_１
  6
CONTINUOUS
 62
     3
100
AcDbLine
 10
268.4999849999999
 20
370.0000089999999
 30
0.0
 11
272.5000010000001
 21
370.0000089999999
 31
0.0
  0
LINE
  5
59D
330
1F
100
AcDbEntity
  8
Ｓ_１_１
  6
CONTINUOUS
 62
     3
100
AcDbLine
 10
282.5
 20
330.0000089999999
 30
0.0
 11
282.5
 21
305.0000000000001
 31
0.0
  0
LINE
  5
59E
330
1F
100
AcDbEntity
  8
Ｓ_１_１
  6
CONTINUOUS
 62
     3
100
AcDbLine
 10
290.4999539999999
 20
330.0000089999999
 30
0.0
 11
290.4999539999999
 21
305.0000000000001
 31
0.0
  0
LINE
  5
59F
330
1F
100
AcDbEntity
  8
Ｓ_１_１
  6
CONTINUOUS
 62
     3
100
AcDbLine
 10
185.0000019999998
 20
305.0000000000001
 30
0.0
 11
185.0000019999998
 21
300.0000000000001
 31
0.0
  0
LINE
  5
5A0
330
1F
100
AcDbEntity
  8
Ｓ_１_１
  6
CONTINUOUS
 62
     3
100
AcDbLine
 10
474.999998
 20
305.0000000000001
 30
0.0
 11
272.5000010000001
 21
305.0000000000001
 31
0.0
  0
LINE
  5
5A1
330
1F
100
AcDbEntity
  8
Ｓ_１_１
  6
CONTINUOUS
 62
     3
100
AcDbLine
 10
369.4999689999999
 20
330.0000089999999
 30
0.0
 11
369.4999689999999
 21
305.0000000000001
 31
0.0
  0
LINE
  5
5A2
330
1F
100
AcDbEntity
  8
Ｓ_１_１
  6
CONTINUOUS
 62
     3
100
AcDbLine
 10
377.4999230000001
 20
330.0000089999999
 30
0.0
 11
377.4999230000001
 21
305.0000000000001
 31
0.0
  0
LINE
  5
5A3
330
1F
100
AcDbEntity
  8
Ｓ_１_１
  6
CONTINUOUS
 62
     3
100
AcDbLine
 10
300.0
 20
538.999993
 30
0.0
 11
300.0
 21
439.9999960000001
 31
0.0
  0
LINE
  5
5A4
330
1F
100
AcDbEntity
  8
Ｓ_１_１
  6
CONTINUOUS
 62
     3
100
AcDbLine
 10
310.0
 20
511.999993
 30
0.0
 11
310.0
 21
459.999997
 31
0.0
  0
LINE
  5
5A5
330
1F
100
AcDbEntity
  8
Ｓ_１_１
  6
CONTINUOUS
 62
     3
100
AcDbLine
 10
300.0
 20
439.9999960000001
 30
0.0
 11
330.0
 21
439.9999960000001
 31
0.0
  0
LINE
  5
5A6
330
1F
100
AcDbEntity
  8
Ｓ_１_１
  6
CONTINUOUS
 62
     3
100
AcDbLine
 10
310.0
 20
459.999997
 30
0.0
 11
330.0
 21
459.999997
 31
0.0
  0
LINE
  5
5A7
330
1F
100
AcDbEntity
  8
Ｓ_１_１
  6
CONTINUOUS
 62
     3
100
AcDbLine
 10
300.0
 20
486.9999940000001
 30
0.0
 11
310.0
 21
486.9999940000001
 31
0.0
  0
LINE
  5
5A8
330
1F
100
AcDbEntity
  8
Ｓ_１_１
  6
CONTINUOUS
 62
     3
100
AcDbLine
 10
310.0
 20
462.9999960000001
 30
0.0
 11
330.0
 21
462.9999960000001
 31
0.0
  0
LINE
  5
5A9
330
1F
100
AcDbEntity
  8
Ｓ_１_１
  6
CONTINUOUS
 62
     3
100
AcDbLine
 10
310.0
 20
467.9999960000001
 30
0.0
 11
330.0
 21
467.9999960000001
 31
0.0
  0
LINE
  5
5AA
330
1F
100
AcDbEntity
  8
Ｓ_１_１
  6
CONTINUOUS
 62
     3
100
AcDbLine
 10
300.0
 20
511.999993
 30
0.0
 11
314.9999240000002
 21
511.999993
 31
0.0
  0
LINE
  5
5AB
330
1F
100
AcDbEntity
  8
Ｓ_１_１
  6
CONTINUOUS
 62
     3
100
AcDbLine
 10
314.9999790000002
 20
511.999999
 30
0.0
 11
319.9999809999999
 21
501.9999960000001
 31
0.0
  0
LINE
  5
5AC
330
1F
100
AcDbEntity
  8
Ｓ_１_１
  6
CONTINUOUS
 62
     3
100
AcDbLine
 10
309.0000150000001
 20
511.999993
 30
0.0
 11
309.0000150000001
 21
486.9999940000001
 31
0.0
  0
LINE
  5
5AD
330
1F
100
AcDbEntity
  8
Ｓ_１_１
  6
CONTINUOUS
 62
     3
100
AcDbLine
 10
320.0
 20
501.999993
 30
0.0
 11
330.0
 21
501.999993
 31
0.0
  0
LINE
  5
5AE
330
1F
100
AcDbEntity
  8
Ｓ_１_１
  6
CONTINUOUS
 62
     3
100
AcDbLine
 10
295.0
 20
513.42802
 30
0.0
 11
300.0
 21
513.42802
 31
0.0
  0
LINE
  5
5AF
330
1F
100
AcDbEntity
  8
Ｓ_１_１
  6
CONTINUOUS
 62
     3
100
AcDbLine
 10
295.0
 20
523.4280170000001
 30
0.0
 11
300.0
 21
523.4280170000001
 31
0.0
  0
LINE
  5
5B0
330
1F
100
AcDbEntity
  8
Ｓ_１_１
  6
CONTINUOUS
 62
     3
100
AcDbLine
 10
295.0
 20
523.4280170000001
 30
0.0
 11
295.0
 21
513.42802
 31
0.0
  0
LINE
  5
5B1
330
1F
100
AcDbEntity
  8
Ｓ_１_１
  6
CONTINUOUS
 62
     3
100
AcDbLine
 10
295.0
 20
471.78077
 30
0.0
 11
300.0
 21
471.78077
 31
0.0
  0
LINE
  5
5B2
330
1F
100
AcDbEntity
  8
Ｓ_１_１
  6
CONTINUOUS
 62
     3
100
AcDbLine
 10
295.0
 20
481.78077
 30
0.0
 11
300.0
 21
481.78077
 31
0.0
  0
LINE
  5
5B3
330
1F
100
AcDbEntity
  8
Ｓ_１_１
  6
CONTINUOUS
 62
     3
100
AcDbLine
 10
295.0
 20
481.78077
 30
0.0
 11
295.0
 21
471.78077
 31
0.0
  0
LINE
  5
5B4
330
1F
100
AcDbEntity
  8
Ｓ_１_１
  6
CONTINUOUS
 62
     3
100
AcDbLine
 10
387.4999990000001
 20
444.9999980000001
 30
0.0
 11
359.9999990000001
 21
444.9999980000001
 31
0.0
  0
LINE
  5
5B5
330
1F
100
AcDbEntity
  8
Ｓ_１_１
  6
CONTINUOUS
 62
     3
100
AcDbLine
 10
355.999984
 20
542.9999940000001
 30
0.0
 11
330.0
 21
542.9999940000001
 31
0.0
  0
LINE
  5
5B6
330
1F
100
AcDbEntity
  8
Ｓ_１_１
  6
CONTINUOUS
 62
     3
100
AcDbLine
 10
359.9999990000001
 20
538.999993
 30
0.0
 11
359.9999990000001
 21
439.9999960000001
 31
0.0
  0
LINE
  5
5B7
330
1F
100
AcDbEntity
  8
Ｓ_１_１
  6
CONTINUOUS
 62
     3
100
AcDbLine
 10
349.9999990000001
 20
511.999993
 30
0.0
 11
349.9999990000001
 21
459.999997
 31
0.0
  0
LINE
  5
5B8
330
1F
100
AcDbEntity
  8
Ｓ_１_１
  6
CONTINUOUS
 62
     3
100
AcDbLine
 10
359.9999990000001
 20
439.9999960000001
 30
0.0
 11
330.0
 21
439.9999960000001
 31
0.0
  0
LINE
  5
5B9
330
1F
100
AcDbEntity
  8
Ｓ_１_１
  6
CONTINUOUS
 62
     3
100
AcDbLine
 10
359.9999990000001
 20
486.9999940000001
 30
0.0
 11
349.9999990000001
 21
486.9999940000001
 31
0.0
  0
LINE
  5
5BA
330
1F
100
AcDbEntity
  8
Ｓ_１_１
  6
CONTINUOUS
 62
     3
100
AcDbLine
 10
349.9999990000001
 20
459.999997
 30
0.0
 11
330.0
 21
459.999997
 31
0.0
  0
LINE
  5
5BB
330
1F
100
AcDbEntity
  8
Ｓ_１_１
  6
CONTINUOUS
 62
     3
100
AcDbLine
 10
364.9999230000001
 20
471.78077
 30
0.0
 11
359.9999990000001
 21
471.78077
 31
0.0
  0
LINE
  5
5BC
330
1F
100
AcDbEntity
  8
Ｓ_１_１
  6
CONTINUOUS
 62
     3
100
AcDbLine
 10
364.9999230000001
 20
481.78077
 30
0.0
 11
359.9999990000001
 21
481.78077
 31
0.0
  0
LINE
  5
5BD
330
1F
100
AcDbEntity
  8
Ｓ_１_１
  6
CONTINUOUS
 62
     3
100
AcDbLine
 10
349.9999990000001
 20
462.9999960000001
 30
0.0
 11
330.0
 21
462.9999960000001
 31
0.0
  0
LINE
  5
5BE
330
1F
100
AcDbEntity
  8
Ｓ_１_１
  6
CONTINUOUS
 62
     3
100
AcDbLine
 10
349.9999990000001
 20
467.9999960000001
 30
0.0
 11
330.0
 21
467.9999960000001
 31
0.0
  0
LINE
  5
5BF
330
1F
100
AcDbEntity
  8
Ｓ_１_１
  6
CONTINUOUS
 62
     3
100
AcDbLine
 10
359.9999990000001
 20
511.999993
 30
0.0
 11
344.9999990000001
 21
511.999993
 31
0.0
  0
LINE
  5
5C0
330
1F
100
AcDbEntity
  8
Ｓ_１_１
  6
CONTINUOUS
 62
     3
100
AcDbLine
 10
364.9999230000001
 20
513.42802
 30
0.0
 11
359.9999990000001
 21
513.42802
 31
0.0
  0
LINE
  5
5C1
330
1F
100
AcDbEntity
  8
Ｓ_１_１
  6
CONTINUOUS
 62
     3
100
AcDbLine
 10
350.999984
 20
511.999993
 30
0.0
 11
350.999984
 21
486.9999940000001
 31
0.0
  0
LINE
  5
5C2
330
1F
100
AcDbEntity
  8
Ｓ_１_１
  6
CONTINUOUS
 62
     3
100
AcDbLine
 10
364.9999230000001
 20
523.4280170000001
 30
0.0
 11
359.9999990000001
 21
523.4280170000001
 31
0.0
  0
LINE
  5
5C3
330
1F
100
AcDbEntity
  8
Ｓ_１_１
  6
CONTINUOUS
 62
     3
100
AcDbLine
 10
344.9999889999999
 20
511.999999
 30
0.0
 11
339.9999870000001
 21
501.9999960000001
 31
0.0
  0
LINE
  5
5C4
330
1F
100
AcDbEntity
  8
Ｓ_１_１
  6
CONTINUOUS
 62
     3
100
AcDbLine
 10
364.9999230000001
 20
523.4280170000001
 30
0.0
 11
364.9999230000001
 21
513.42802
 31
0.0
  0
LINE
  5
5C5
330
1F
100
AcDbEntity
  8
Ｓ_１_１
  6
CONTINUOUS
 62
     3
100
AcDbLine
 10
339.9999230000001
 20
501.999993
 30
0.0
 11
330.0
 21
501.999993
 31
0.0
  0
LINE
  5
5C6
330
1F
100
AcDbEntity
  8
Ｓ_１_１
  6
CONTINUOUS
 62
     3
100
AcDbLine
 10
364.9999230000001
 20
481.78077
 30
0.0
 11
364.9999230000001
 21
471.78077
 31
0.0
  0
ARC
  5
5C7
330
1F
100
AcDbEntity
  8
Ｓ_１_１
  6
CONTINUOUS
 62
     3
100
AcDbCircle
 10
457.4999210000001
 20
384.4999970000001
 30
0.0
 40
3.000000000000003
100
AcDbArc
 50
359.999982
 51
89.99996200000001
  0
ARC
  5
5C8
330
1F
100
AcDbEntity
  8
Ｓ_１_１
  6
CONTINUOUS
 62
     3
100
AcDbCircle
 10
457.4999210000001
 20
361.4999859999999
 30
0.0
 40
3.000000000000003
100
AcDbArc
 50
269.999997
 51
359.999982
  0
ARC
  5
5C9
330
1F
100
AcDbEntity
  8
Ｓ_１_１
  6
CONTINUOUS
 62
     3
100
AcDbCircle
 10
445.4999520000001
 20
389.9999890000001
 30
0.0
 40
3.000000000000003
100
AcDbArc
 50
180.000022
 51
269.999997
  0
ARC
  5
5CA
330
1F
100
AcDbEntity
  8
Ｓ_１_１
  6
CONTINUOUS
 62
     3
100
AcDbCircle
 10
457.4999210000001
 20
409.500001
 30
0.0
 40
3.000000000000003
100
AcDbArc
 50
269.999997
 51
359.999982
  0
ARC
  5
5CB
330
1F
100
AcDbEntity
  8
Ｓ_１_１
  6
CONTINUOUS
 62
     3
100
AcDbCircle
 10
457.4999210000001
 20
432.499974
 30
0.0
 40
3.000000000000003
100
AcDbArc
 50
359.999982
 51
89.99996200000001
  0
ARC
  5
5CC
330
1F
100
AcDbEntity
  8
Ｓ_１_１
  6
CONTINUOUS
 62
     3
100
AcDbCircle
 10
445.4999520000001
 20
403.9999710000001
 30
0.0
 40
3.000000000000003
100
AcDbArc
 50
89.99996200000001
 51
179.99995
  0
ARC
  5
5CD
330
1F
100
AcDbEntity
  8
Ｓ_１_１
  6
CONTINUOUS
 62
     3
100
AcDbCircle
 10
409.4999680000001
 20
359.9999989999999
 30
0.0
 40
3.000000000000003
100
AcDbArc
 50
269.999997
 51
0.0
  0
ARC
  5
5CE
330
1F
100
AcDbEntity
  8
Ｓ_１_１
  6
CONTINUOUS
 62
     3
100
AcDbCircle
 10
424.4999680000001
 20
364.9999989999999
 30
0.0
 40
3.000000000000003
100
AcDbArc
 50
269.999997
 51
0.0
  0
ARC
  5
5CF
330
1F
100
AcDbEntity
  8
Ｓ_１_１
  6
CONTINUOUS
 62
     3
100
AcDbCircle
 10
409.4999680000001
 20
418.9999950000001
 30
0.0
 40
3.000000000000003
100
AcDbArc
 50
0.0
 51
90.000003
  0
ARC
  5
5D0
330
1F
100
AcDbEntity
  8
Ｓ_１_１
  6
CONTINUOUS
 62
     3
100
AcDbCircle
 10
424.4999680000001
 20
413.9999950000001
 30
0.0
 40
3.000000000000003
100
AcDbArc
 50
0.0
 51
90.000003
  0
CIRCLE
  5
5D1
330
1F
100
AcDbEntity
  8
Ｓ_１_１
  6
CONTINUOUS
 62
     3
100
AcDbCircle
 10
352.4999230000001
 20
409.9999990000001
 30
0.0
 40
11.999999
  0
CIRCLE
  5
5D2
330
1F
100
AcDbEntity
  8
Ｓ_１_１
  6
CONTINUOUS
 62
     3
100
AcDbCircle
 10
352.4999230000001
 20
409.9999990000001
 30
0.0
 40
12.999999
  0
CIRCLE
  5
5D3
330
1F
100
AcDbEntity
  8
Ｓ_１_１
  6
CONTINUOUS
 62
     3
100
AcDbCircle
 10
352.4999230000001
 20
370.0000089999999
 30
0.0
 40
9.0
  0
CIRCLE
  5
5D4
330
1F
100
AcDbEntity
  8
Ｓ_１_１
  6
CONTINUOUS
 62
     3
100
AcDbCircle
 10
352.4999230000001
 20
370.0000089999999
 30
0.0
 40
3.000000000000003
  0
CIRCLE
  5
5D5
330
1F
100
AcDbEntity
  8
Ｓ_１_１
  6
CONTINUOUS
 62
     3
100
AcDbCircle
 10
352.4999230000001
 20
370.0000089999999
 30
0.0
 40
5.499999000000004
  0
CIRCLE
  5
5D6
330
1F
100
AcDbEntity
  8
Ｓ_１_１
  6
CONTINUOUS
 62
     3
100
AcDbCircle
 10
352.4999230000001
 20
370.0000089999999
 30
0.0
 40
1.5
  0
CIRCLE
  5
5D7
330
1F
100
AcDbEntity
  8
Ｓ_１_１
  6
CONTINUOUS
 62
     3
100
AcDbCircle
 10
352.4999230000001
 20
409.9999990000001
 30
0.0
 40
5.499999000000004
  0
CIRCLE
  5
5D8
330
1F
100
AcDbEntity
  8
Ｓ_１_１
  6
CONTINUOUS
 62
     3
100
AcDbCircle
 10
352.4999230000001
 20
409.9999990000001
 30
0.0
 40
16.0
  0
ARC
  5
5D9
330
1F
100
AcDbEntity
  8
Ｓ_１_１
  6
CONTINUOUS
 62
     3
100
AcDbCircle
 10
262.2968299999998
 20
421.6913450000001
 30
0.0
 40
4.796875
100
AcDbArc
 50
179.999991
 51
234.3338180000003
  0
ARC
  5
5DA
330
1F
100
AcDbEntity
  8
Ｓ_１_１
  6
CONTINUOUS
 62
     3
100
AcDbCircle
 10
273.687516
 20
409.9999990000001
 30
0.0
 40
16.187498
100
AcDbArc
 50
151.2167960000001
 51
208.7832010000002
  0
ARC
  5
5DB
330
1F
100
AcDbEntity
  8
Ｓ_１_１
  6
CONTINUOUS
 62
     3
100
AcDbCircle
 10
262.2968299999998
 20
398.308662
 30
0.0
 40
4.796875
100
AcDbArc
 50
125.666192
 51
180.000005
  0
ARC
  5
5DC
330
1F
100
AcDbEntity
  8
Ｓ_１_１
  6
CONTINUOUS
 62
     3
100
AcDbCircle
 10
344.400024
 20
564.9658640000001
 30
0.0
 40
5.600000000000002
100
AcDbArc
 50
313.080132
 51
156.289878
  0
ARC
  5
5DD
330
1F
100
AcDbEntity
  8
Ｓ_１_１
  6
CONTINUOUS
 62
     3
100
AcDbCircle
 10
315.600052
 20
564.9658640000001
 30
0.0
 40
5.600000000000002
100
AcDbArc
 50
23.71011899999998
 51
226.9198670000001
  0
ARC
  5
5DE
330
1F
100
AcDbEntity
  8
Ｓ_１_１
  6
CONTINUOUS
 62
     3
100
AcDbCircle
 10
318.0000300000002
 20
544.9992149999999
 30
0.0
 40
2.0
100
AcDbArc
 50
268.4014600000003
 51
0.0
  0
ARC
  5
5DF
330
1F
100
AcDbEntity
  8
Ｓ_１_１
  6
CONTINUOUS
 62
     3
100
AcDbCircle
 10
359.4375600000001
 20
451.888669
 30
0.0
 40
4.111328000000001
100
AcDbArc
 50
49.18023400000001
 51
82.13628999999999
  0
ARC
  5
5E0
330
1F
100
AcDbEntity
  8
Ｓ_１_１
  6
CONTINUOUS
 62
     3
100
AcDbCircle
 10
367.4999990000001
 20
441.0546860000001
 30
0.0
 40
14.94531100000001
100
AcDbArc
 50
68.92163600000003
 51
111.078369
  0
ARC
  5
5E1
330
1F
100
AcDbEntity
  8
Ｓ_１_１
  6
CONTINUOUS
 62
     3
100
AcDbCircle
 10
375.5624379999999
 20
451.888669
 30
0.0
 40
4.111328000000001
100
AcDbArc
 50
90.000003
 51
130.819761
  0
ARC
  5
5E2
330
1F
100
AcDbEntity
  8
Ｓ_１_１
  6
CONTINUOUS
 62
     3
100
AcDbCircle
 10
359.4375600000001
 20
453.111325
 30
0.0
 40
4.111328000000001
100
AcDbArc
 50
277.8637100000001
 51
310.8197660000001
  0
ARC
  5
5E3
330
1F
100
AcDbEntity
  8
Ｓ_１_１
  6
CONTINUOUS
 62
     3
100
AcDbCircle
 10
367.4999990000001
 20
463.945308
 30
0.0
 40
14.94531100000001
100
AcDbArc
 50
248.921631
 51
291.0783640000001
  0
ARC
  5
5E4
330
1F
100
AcDbEntity
  8
Ｓ_１_１
  6
CONTINUOUS
 62
     3
100
AcDbCircle
 10
375.5624379999999
 20
453.111325
 30
0.0
 40
4.111328000000001
100
AcDbArc
 50
229.1802390000002
 51
269.999997
  0
ARC
  5
5E5
330
1F
100
AcDbEntity
  8
Ｓ_１_１
  6
CONTINUOUS
 62
     3
100
AcDbCircle
 10
372.9374689999999
 20
457.962367
 30
0.0
 40
3.03763
100
AcDbArc
 50
90.000003
 51
126.63265
  0
ARC
  5
5E6
330
1F
100
AcDbEntity
  8
Ｓ_１_１
  6
CONTINUOUS
 62
     3
100
AcDbCircle
 10
367.4999990000001
 20
449.749475
 30
0.0
 40
11.25052000000001
100
AcDbArc
 50
71.20353399999999
 51
108.796465
  0
ARC
  5
5E7
330
1F
100
AcDbEntity
  8
Ｓ_１_１
  6
CONTINUOUS
 62
     3
100
AcDbCircle
 10
362.0625300000002
 20
457.962367
 30
0.0
 40
3.03763
100
AcDbArc
 50
53.367352
 51
90.000003
  0
ARC
  5
5E8
330
1F
100
AcDbEntity
  8
Ｓ_１_１
  6
CONTINUOUS
 62
     3
100
AcDbCircle
 10
372.9374689999999
 20
459.037627
 30
0.0
 40
3.03763
100
AcDbArc
 50
233.3673500000002
 51
269.999997
  0
ARC
  5
5E9
330
1F
100
AcDbEntity
  8
Ｓ_１_１
  6
CONTINUOUS
 62
     3
100
AcDbCircle
 10
367.4999990000001
 20
467.250516
 30
0.0
 40
11.25052000000001
100
AcDbArc
 50
251.2035350000003
 51
288.7964660000001
  0
ARC
  5
5EA
330
1F
100
AcDbEntity
  8
Ｓ_１_１
  6
CONTINUOUS
 62
     3
100
AcDbCircle
 10
362.0625300000002
 20
459.037627
 30
0.0
 40
3.03763
100
AcDbArc
 50
269.999997
 51
306.632648
  0
ARC
  5
5EB
330
1F
100
AcDbEntity
  8
Ｓ_１_１
  6
CONTINUOUS
 62
     3
100
AcDbCircle
 10
265.6113439999999
 20
348.9375009999999
 30
0.0
 40
4.111328000000001
100
AcDbArc
 50
139.18024
 51
180.000005
  0
ARC
  5
5EC
330
1F
100
AcDbEntity
  8
Ｓ_１_１
  6
CONTINUOUS
 62
     3
100
AcDbCircle
 10
276.4453130000002
 20
357.0000069999999
 30
0.0
 40
14.94531100000001
100
AcDbArc
 50
158.9216310000002
 51
201.0783650000001
  0
ARC
  5
5ED
330
1F
100
AcDbEntity
  8
Ｓ_１_１
  6
CONTINUOUS
 62
     3
100
AcDbCircle
 10
265.6113439999999
 20
365.0625029999999
 30
0.0
 40
4.111328000000001
100
AcDbArc
 50
179.999991
 51
220.819756
  0
ARC
  5
5EE
330
1F
100
AcDbEntity
  8
Ｓ_１_１
  6
CONTINUOUS
 62
     3
100
AcDbCircle
 10
264.388657
 20
348.9375009999999
 30
0.0
 40
4.111328000000001
100
AcDbArc
 50
0.0
 51
40.819765
  0
ARC
  5
5EF
330
1F
100
AcDbEntity
  8
Ｓ_１_１
  6
CONTINUOUS
 62
     3
100
AcDbCircle
 10
253.5546880000002
 20
357.0000069999999
 30
0.0
 40
14.94531100000001
100
AcDbArc
 50
338.9216330000002
 51
21.07836700000002
  0
ARC
  5
5F0
330
1F
100
AcDbEntity
  8
Ｓ_１_１
  6
CONTINUOUS
 62
     3
100
AcDbCircle
 10
264.388657
 20
365.0625029999999
 30
0.0
 40
4.111328000000001
100
AcDbArc
 50
319.1802350000002
 51
0.0
  0
ARC
  5
5F1
330
1F
100
AcDbEntity
  8
Ｓ_１_１
  6
CONTINUOUS
 62
     3
100
AcDbCircle
 10
259.5375829999998
 20
362.437495
 30
0.0
 40
3.03763
100
AcDbArc
 50
179.999991
 51
216.6326450000001
  0
ARC
  5
5F2
330
1F
100
AcDbEntity
  8
Ｓ_１_１
  6
CONTINUOUS
 62
     3
100
AcDbCircle
 10
267.7505499999997
 20
357.0000069999999
 30
0.0
 40
11.25052000000001
100
AcDbArc
 50
161.203529
 51
198.796467
  0
ARC
  5
5F3
330
1F
100
AcDbEntity
  8
Ｓ_１_１
  6
CONTINUOUS
 62
     3
100
AcDbCircle
 10
259.5375829999998
 20
351.5624989999999
 30
0.0
 40
3.03763
100
AcDbArc
 50
143.3673510000001
 51
180.000005
  0
ARC
  5
5F4
330
1F
100
AcDbEntity
  8
Ｓ_１_１
  6
CONTINUOUS
 62
     3
100
AcDbCircle
 10
258.4623729999998
 20
362.437495
 30
0.0
 40
3.03763
100
AcDbArc
 50
323.367353
 51
0.0
  0
ARC
  5
5F5
330
1F
100
AcDbEntity
  8
Ｓ_１_１
  6
CONTINUOUS
 62
     3
100
AcDbCircle
 10
250.2494059999999
 20
357.0000069999999
 30
0.0
 40
11.25052000000001
100
AcDbArc
 50
341.203535
 51
18.796465
  0
ARC
  5
5F6
330
1F
100
AcDbEntity
  8
Ｓ_１_１
  6
CONTINUOUS
 62
     3
100
AcDbCircle
 10
258.4623729999998
 20
351.5624989999999
 30
0.0
 40
3.03763
100
AcDbArc
 50
0.0
 51
36.63264699999998
  0
ARC
  5
5F7
330
1F
100
AcDbEntity
  8
Ｓ_１_１
  6
CONTINUOUS
 62
     3
100
AcDbCircle
 10
303.999939
 20
538.999993
 30
0.0
 40
4.0
100
AcDbArc
 50
90.000003
 51
180.000005
  0
ARC
  5
5F8
330
1F
100
AcDbEntity
  8
Ｓ_１_１
  6
CONTINUOUS
 62
     3
100
AcDbCircle
 10
355.999984
 20
538.999993
 30
0.0
 40
4.0
100
AcDbArc
 50
0.0
 51
90.000003
  0
ARC
  5
5F9
330
1F
100
AcDbEntity
  8
Ｓ_１_１
  6
CONTINUOUS
 62
     3
100
AcDbCircle
 10
341.9999689999999
 20
544.9999920000001
 30
0.0
 40
2.0
100
AcDbArc
 50
179.999991
 51
270.0000010000001
  0
ARC
  5
5FA
330
1F
100
AcDbEntity
  8
Ｓ_１_１
  6
CONTINUOUS
 62
     3
100
AcDbCircle
 10
330.0
 20
387.4999990000001
 30
0.0
 40
69.999999
100
AcDbArc
 50
115.376935
 51
124.771942
  0
ARC
  5
5FB
330
1F
100
AcDbEntity
  8
Ｓ_１_１
  6
CONTINUOUS
 62
     3
100
AcDbCircle
 10
330.0
 20
387.4999990000001
 30
0.0
 40
69.999999
100
AcDbArc
 50
325.2280570000001
 51
334.169249
  0
ARC
  5
5FC
330
1F
100
AcDbEntity
  8
Ｓ_１_１
  6
CONTINUOUS
 62
     3
100
AcDbCircle
 10
330.0
 20
387.4999990000001
 30
0.0
 40
69.999999
100
AcDbArc
 50
235.228058
 51
304.7719440000001
  0
ARC
  5
5FD
330
1F
100
AcDbEntity
  8
Ｓ_１_１
  6
CONTINUOUS
 62
     3
100
AcDbCircle
 10
330.0
 20
387.4999990000001
 30
0.0
 40
69.999999
100
AcDbArc
 50
145.228058
 51
149.8012390000001
  0
ARC
  5
5FE
330
1F
100
AcDbEntity
  8
Ｓ_１_１
  6
CONTINUOUS
 62
     3
100
AcDbCircle
 10
330.0
 20
387.4999990000001
 30
0.0
 40
69.999999
100
AcDbArc
 50
174.333584
 51
195.9453820000001
  0
ARC
  5
5FF
330
1F
100
AcDbEntity
  8
Ｓ_１_１
  6
CONTINUOUS
 62
     3
100
AcDbCircle
 10
330.0
 20
387.4999990000001
 30
0.0
 40
69.999999
100
AcDbArc
 50
29.528547
 51
34.77194300000003
  0
POLYLINE
  5
600
330
1F
100
AcDbEntity
  8
Ｓ_１_１
  6
CONTINUOUS
 62
     3
100
AcDb2dPolyline
 66
     1
 10
0.0
 20
0.0
 30
0.0
 70
   128
  0
VERTEX
  5
601
330
600
100
AcDbEntity
  8
Ｓ_１_１
  6
CONTINUOUS
 62
     3
100
AcDbVertex
100
AcDb2dVertex
 10
207.5000399999999
 20
453.3012600000001
 30
0.0
  0
VERTEX
  5
602
330
600
100
AcDbEntity
  8
Ｓ_１_１
  6
CONTINUOUS
 62
     3
100
AcDbVertex
100
AcDb2dVertex
 10
207.6018249999997
 20
452.5896860000001
 30
0.0
  0
VERTEX
  5
603
330
600
100
AcDbEntity
  8
Ｓ_１_１
  6
CONTINUOUS
 62
     3
100
AcDbVertex
100
AcDb2dVertex
 10
207.9051079999999
 20
451.892598
 30
0.0
  0
VERTEX
  5
604
330
600
100
AcDbEntity
  8
Ｓ_１_１
  6
CONTINUOUS
 62
     3
100
AcDbVertex
100
AcDb2dVertex
 10
208.4037159999998
 20
451.224186
 30
0.0
  0
VERTEX
  5
605
330
600
100
AcDbEntity
  8
Ｓ_１_１
  6
CONTINUOUS
 62
     3
100
AcDbVertex
100
AcDb2dVertex
 10
209.087497
 20
450.598057
 30
0.0
  0
VERTEX
  5
606
330
600
100
AcDbEntity
  8
Ｓ_１_１
  6
CONTINUOUS
 62
     3
100
AcDbVertex
100
AcDb2dVertex
 10
209.9425339999998
 20
450.0269569999999
 30
0.0
  0
VERTEX
  5
607
330
600
100
AcDbEntity
  8
Ｓ_１_１
  6
CONTINUOUS
 62
     3
100
AcDbVertex
100
AcDb2dVertex
 10
210.9514180000001
 20
449.522513
 30
0.0
  0
VERTEX
  5
608
330
600
100
AcDbEntity
  8
Ｓ_１_１
  6
CONTINUOUS
 62
     3
100
AcDbVertex
100
AcDb2dVertex
 10
212.093613
 20
449.094993
 30
0.0
  0
VERTEX
  5
609
330
600
100
AcDbEntity
  8
Ｓ_１_１
  6
CONTINUOUS
 62
     3
100
AcDbVertex
100
AcDb2dVertex
 10
213.3458660000001
 20
448.7531010000001
 30
0.0
  0
VERTEX
  5
60A
330
600
100
AcDbEntity
  8
Ｓ_１_１
  6
CONTINUOUS
 62
     3
100
AcDbVertex
100
AcDb2dVertex
 10
214.6826849999998
 20
448.5037960000001
 30
0.0
  0
VERTEX
  5
60B
330
600
100
AcDbEntity
  8
Ｓ_１_１
  6
CONTINUOUS
 62
     3
100
AcDbVertex
100
AcDb2dVertex
 10
216.076857
 20
448.3521540000001
 30
0.0
  0
VERTEX
  5
60C
330
600
100
AcDbEntity
  8
Ｓ_１_１
  6
CONTINUOUS
 62
     3
100
AcDbVertex
100
AcDb2dVertex
 10
217.5
 20
448.301261
 30
0.0
  0
VERTEX
  5
60D
330
600
100
AcDbEntity
  8
Ｓ_１_１
  6
CONTINUOUS
 62
     3
100
AcDbVertex
100
AcDb2dVertex
 10
218.9231420000001
 20
448.3521529999999
 30
0.0
  0
VERTEX
  5
60E
330
600
100
AcDbEntity
  8
Ｓ_１_１
  6
CONTINUOUS
 62
     3
100
AcDbVertex
100
AcDb2dVertex
 10
220.3173139999999
 20
448.5037960000001
 30
0.0
  0
VERTEX
  5
60F
330
600
100
AcDbEntity
  8
Ｓ_１_１
  6
CONTINUOUS
 62
     3
100
AcDbVertex
100
AcDb2dVertex
 10
221.6541339999999
 20
448.7531
 30
0.0
  0
VERTEX
  5
610
330
600
100
AcDbEntity
  8
Ｓ_１_１
  6
CONTINUOUS
 62
     3
100
AcDbVertex
100
AcDb2dVertex
 10
222.906387
 20
449.094992
 30
0.0
  0
VERTEX
  5
611
330
600
100
AcDbEntity
  8
Ｓ_１_１
  6
CONTINUOUS
 62
     3
100
AcDbVertex
100
AcDb2dVertex
 10
224.0485819999999
 20
449.5225120000001
 30
0.0
  0
VERTEX
  5
612
330
600
100
AcDbEntity
  8
Ｓ_１_１
  6
CONTINUOUS
 62
     3
100
AcDbVertex
100
AcDb2dVertex
 10
225.0574670000001
 20
450.0269560000001
 30
0.0
  0
VERTEX
  5
613
330
600
100
AcDbEntity
  8
Ｓ_１_１
  6
CONTINUOUS
 62
     3
100
AcDbVertex
100
AcDb2dVertex
 10
225.912503
 20
450.5980550000001
 30
0.0
  0
VERTEX
  5
614
330
600
100
AcDbEntity
  8
Ｓ_１_１
  6
CONTINUOUS
 62
     3
100
AcDbVertex
100
AcDb2dVertex
 10
226.596286
 20
451.224184
 30
0.0
  0
VERTEX
  5
615
330
600
100
AcDbEntity
  8
Ｓ_１_１
  6
CONTINUOUS
 62
     3
100
AcDbVertex
100
AcDb2dVertex
 10
227.0948939999998
 20
451.892596
 30
0.0
  0
VERTEX
  5
616
330
600
100
AcDbEntity
  8
Ｓ_１_１
  6
CONTINUOUS
 62
     3
100
AcDbVertex
100
AcDb2dVertex
 10
227.3981779999999
 20
452.5896839999999
 30
0.0
  0
VERTEX
  5
617
330
600
100
AcDbEntity
  8
Ｓ_１_１
  6
CONTINUOUS
 62
     3
100
AcDbVertex
100
AcDb2dVertex
 10
227.4999629999998
 20
453.3012580000001
 30
0.0
  0
VERTEX
  5
618
330
600
100
AcDbEntity
  8
Ｓ_１_１
  6
CONTINUOUS
 62
     3
100
AcDbVertex
100
AcDb2dVertex
 10
227.4999629999998
 20
453.3012600000001
 30
0.0
  0
SEQEND
  5
619
330
600
100
AcDbEntity
  8
Ｓ_１_１
  6
CONTINUOUS
 62
     3
  0
POLYLINE
  5
61A
330
1F
100
AcDbEntity
  8
Ｓ_１_１
  6
CONTINUOUS
 62
     3
100
AcDb2dPolyline
 66
     1
 10
0.0
 20
0.0
 30
0.0
 70
   128
  0
VERTEX
  5
61B
330
61A
100
AcDbEntity
  8
Ｓ_１_１
  6
CONTINUOUS
 62
     3
100
AcDbVertex
100
AcDb2dVertex
 10
207.5000399999999
 20
474.9519020000001
 30
0.0
  0
VERTEX
  5
61C
330
61A
100
AcDbEntity
  8
Ｓ_１_１
  6
CONTINUOUS
 62
     3
100
AcDbVertex
100
AcDb2dVertex
 10
207.6018249999997
 20
474.240328
 30
0.0
  0
VERTEX
  5
61D
330
61A
100
AcDbEntity
  8
Ｓ_１_１
  6
CONTINUOUS
 62
     3
100
AcDbVertex
100
AcDb2dVertex
 10
207.9051079999999
 20
473.5432400000001
 30
0.0
  0
VERTEX
  5
61E
330
61A
100
AcDbEntity
  8
Ｓ_１_１
  6
CONTINUOUS
 62
     3
100
AcDbVertex
100
AcDb2dVertex
 10
208.4037159999998
 20
472.8748280000001
 30
0.0
  0
VERTEX
  5
61F
330
61A
100
AcDbEntity
  8
Ｓ_１_１
  6
CONTINUOUS
 62
     3
100
AcDbVertex
100
AcDb2dVertex
 10
209.0874979999999
 20
472.2486990000002
 30
0.0
  0
VERTEX
  5
620
330
61A
100
AcDbEntity
  8
Ｓ_１_１
  6
CONTINUOUS
 62
     3
100
AcDbVertex
100
AcDb2dVertex
 10
209.9425339999998
 20
471.677599
 30
0.0
  0
VERTEX
  5
621
330
61A
100
AcDbEntity
  8
Ｓ_１_１
  6
CONTINUOUS
 62
     3
100
AcDbVertex
100
AcDb2dVertex
 10
210.951419
 20
471.1731550000001
 30
0.0
  0
VERTEX
  5
622
330
61A
100
AcDbEntity
  8
Ｓ_１_１
  6
CONTINUOUS
 62
     3
100
AcDbVertex
100
AcDb2dVertex
 10
212.0936139999999
 20
470.7456350000001
 30
0.0
  0
VERTEX
  5
623
330
61A
100
AcDbEntity
  8
Ｓ_１_１
  6
CONTINUOUS
 62
     3
100
AcDbVertex
100
AcDb2dVertex
 10
213.345867
 20
470.403743
 30
0.0
  0
VERTEX
  5
624
330
61A
100
AcDbEntity
  8
Ｓ_１_１
  6
CONTINUOUS
 62
     3
100
AcDbVertex
100
AcDb2dVertex
 10
214.6826860000001
 20
470.1544380000001
 30
0.0
  0
VERTEX
  5
625
330
61A
100
AcDbEntity
  8
Ｓ_１_１
  6
CONTINUOUS
 62
     3
100
AcDbVertex
100
AcDb2dVertex
 10
216.0768579999999
 20
470.002795
 30
0.0
  0
VERTEX
  5
626
330
61A
100
AcDbEntity
  8
Ｓ_１_１
  6
CONTINUOUS
 62
     3
100
AcDbVertex
100
AcDb2dVertex
 10
217.5000009999999
 20
469.951903
 30
0.0
  0
VERTEX
  5
627
330
61A
100
AcDbEntity
  8
Ｓ_１_１
  6
CONTINUOUS
 62
     3
100
AcDbVertex
100
AcDb2dVertex
 10
218.9231439999999
 20
470.002795
 30
0.0
  0
VERTEX
  5
628
330
61A
100
AcDbEntity
  8
Ｓ_１_１
  6
CONTINUOUS
 62
     3
100
AcDbVertex
100
AcDb2dVertex
 10
220.3173160000001
 20
470.1544380000001
 30
0.0
  0
VERTEX
  5
629
330
61A
100
AcDbEntity
  8
Ｓ_１_１
  6
CONTINUOUS
 62
     3
100
AcDbVertex
100
AcDb2dVertex
 10
221.6541349999998
 20
470.403743
 30
0.0
  0
VERTEX
  5
62A
330
61A
100
AcDbEntity
  8
Ｓ_１_１
  6
CONTINUOUS
 62
     3
100
AcDbVertex
100
AcDb2dVertex
 10
222.9063879999999
 20
470.7456350000001
 30
0.0
  0
VERTEX
  5
62B
330
61A
100
AcDbEntity
  8
Ｓ_１_１
  6
CONTINUOUS
 62
     3
100
AcDbVertex
100
AcDb2dVertex
 10
224.0485829999998
 20
471.1731550000001
 30
0.0
  0
VERTEX
  5
62C
330
61A
100
AcDbEntity
  8
Ｓ_１_１
  6
CONTINUOUS
 62
     3
100
AcDbVertex
100
AcDb2dVertex
 10
225.057468
 20
471.677599
 30
0.0
  0
VERTEX
  5
62D
330
61A
100
AcDbEntity
  8
Ｓ_１_１
  6
CONTINUOUS
 62
     3
100
AcDbVertex
100
AcDb2dVertex
 10
225.9125039999999
 20
472.248698
 30
0.0
  0
VERTEX
  5
62E
330
61A
100
AcDbEntity
  8
Ｓ_１_１
  6
CONTINUOUS
 62
     3
100
AcDbVertex
100
AcDb2dVertex
 10
226.596286
 20
472.874827
 30
0.0
  0
VERTEX
  5
62F
330
61A
100
AcDbEntity
  8
Ｓ_１_１
  6
CONTINUOUS
 62
     3
100
AcDbVertex
100
AcDb2dVertex
 10
227.0948939999998
 20
473.543239
 30
0.0
  0
VERTEX
  5
630
330
61A
100
AcDbEntity
  8
Ｓ_１_１
  6
CONTINUOUS
 62
     3
100
AcDbVertex
100
AcDb2dVertex
 10
227.3981779999999
 20
474.240328
 30
0.0
  0
VERTEX
  5
631
330
61A
100
AcDbEntity
  8
Ｓ_１_１
  6
CONTINUOUS
 62
     3
100
AcDbVertex
100
AcDb2dVertex
 10
227.4999629999998
 20
474.9519020000001
 30
0.0
  0
SEQEND
  5
632
330
61A
100
AcDbEntity
  8
Ｓ_１_１
  6
CONTINUOUS
 62
     3
  0
POLYLINE
  5
633
330
1F
100
AcDbEntity
  8
Ｓ_１_１
  6
CONTINUOUS
 62
     3
100
AcDb2dPolyline
 66
     1
 10
0.0
 20
0.0
 30
0.0
 70
   128
  0
VERTEX
  5
634
330
633
100
AcDbEntity
  8
Ｓ_１_１
  6
CONTINUOUS
 62
     3
100
AcDbVertex
100
AcDb2dVertex
 10
167.5000019999998
 20
516.9134170000001
 30
0.0
  0
VERTEX
  5
635
330
633
100
AcDbEntity
  8
Ｓ_１_１
  6
CONTINUOUS
 62
     3
100
AcDbVertex
100
AcDb2dVertex
 10
167.6902669999999
 20
513.1394630000001
 30
0.0
  0
VERTEX
  5
636
330
633
100
AcDbEntity
  8
Ｓ_１_１
  6
CONTINUOUS
 62
     3
100
AcDbVertex
100
AcDb2dVertex
 10
168.2596140000001
 20
509.3942310000001
 30
0.0
  0
VERTEX
  5
637
330
633
100
AcDbEntity
  8
Ｓ_１_１
  6
CONTINUOUS
 62
     3
100
AcDbVertex
100
AcDb2dVertex
 10
169.2037110000001
 20
505.706225
 30
0.0
  0
VERTEX
  5
638
330
633
100
AcDbEntity
  8
Ｓ_１_１
  6
CONTINUOUS
 62
     3
100
AcDbVertex
100
AcDb2dVertex
 10
170.515371
 20
502.1035130000001
 30
0.0
  0
VERTEX
  5
639
330
633
100
AcDbEntity
  8
Ｓ_１_１
  6
CONTINUOUS
 62
     3
100
AcDbVertex
100
AcDb2dVertex
 10
172.1846129999999
 20
498.6135130000001
 30
0.0
  0
VERTEX
  5
63A
330
633
100
AcDbEntity
  8
Ｓ_１_１
  6
CONTINUOUS
 62
     3
100
AcDbVertex
100
AcDb2dVertex
 10
174.1987319999998
 20
495.2627860000001
 30
0.0
  0
VERTEX
  5
63B
330
633
100
AcDbEntity
  8
Ｓ_１_１
  6
CONTINUOUS
 62
     3
100
AcDbVertex
100
AcDb2dVertex
 10
176.5423999999998
 20
492.076833
 30
0.0
  0
VERTEX
  5
63C
330
633
100
AcDbEntity
  8
Ｓ_１_１
  6
CONTINUOUS
 62
     3
100
AcDbVertex
100
AcDb2dVertex
 10
179.19778
 20
489.0799020000001
 30
0.0
  0
VERTEX
  5
63D
330
633
100
AcDbEntity
  8
Ｓ_１_１
  6
CONTINUOUS
 62
     3
100
AcDbVertex
100
AcDb2dVertex
 10
182.144663
 20
486.2948010000001
 30
0.0
  0
VERTEX
  5
63E
330
633
100
AcDbEntity
  8
Ｓ_１_１
  6
CONTINUOUS
 62
     3
100
AcDbVertex
100
AcDb2dVertex
 10
185.3606209999998
 20
483.7427260000001
 30
0.0
  0
VERTEX
  5
63F
330
633
100
AcDbEntity
  8
Ｓ_１_１
  6
CONTINUOUS
 62
     3
100
AcDbVertex
100
AcDb2dVertex
 10
188.8211799999999
 20
481.4431000000001
 30
0.0
  0
VERTEX
  5
640
330
633
100
AcDbEntity
  8
Ｓ_１_１
  6
CONTINUOUS
 62
     3
100
AcDbVertex
100
AcDb2dVertex
 10
192.5000019999998
 20
479.413424
 30
0.0
  0
VERTEX
  5
641
330
633
100
AcDbEntity
  8
Ｓ_１_１
  6
CONTINUOUS
 62
     3
100
AcDbVertex
100
AcDb2dVertex
 10
196.3690889999998
 20
477.6691460000001
 30
0.0
  0
VERTEX
  5
642
330
633
100
AcDbEntity
  8
Ｓ_１_１
  6
CONTINUOUS
 62
     3
100
AcDbVertex
100
AcDb2dVertex
 10
200.3989940000001
 20
476.223541
 30
0.0
  0
VERTEX
  5
643
330
633
100
AcDbEntity
  8
Ｓ_１_１
  6
CONTINUOUS
 62
     3
100
AcDbVertex
100
AcDb2dVertex
 10
204.559049
 20
475.0876099999999
 30
0.0
  0
VERTEX
  5
644
330
633
100
AcDbEntity
  8
Ｓ_１_１
  6
CONTINUOUS
 62
     3
100
AcDbVertex
100
AcDb2dVertex
 10
208.8175929999998
 20
474.269999
 30
0.0
  0
VERTEX
  5
645
330
633
100
AcDbEntity
  8
Ｓ_１_１
  6
CONTINUOUS
 62
     3
100
AcDbVertex
100
AcDb2dVertex
 10
213.142214
 20
473.7769300000001
 30
0.0
  0
VERTEX
  5
646
330
633
100
AcDbEntity
  8
Ｓ_１_１
  6
CONTINUOUS
 62
     3
100
AcDbVertex
100
AcDb2dVertex
 10
217.5000009999999
 20
473.6121550000001
 30
0.0
  0
VERTEX
  5
647
330
633
100
AcDbEntity
  8
Ｓ_１_１
  6
CONTINUOUS
 62
     3
100
AcDbVertex
100
AcDb2dVertex
 10
221.8577879999998
 20
473.7769300000001
 30
0.0
  0
VERTEX
  5
648
330
633
100
AcDbEntity
  8
Ｓ_１_１
  6
CONTINUOUS
 62
     3
100
AcDbVertex
100
AcDb2dVertex
 10
226.1824099999999
 20
474.269999
 30
0.0
  0
VERTEX
  5
649
330
633
100
AcDbEntity
  8
Ｓ_１_１
  6
CONTINUOUS
 62
     3
100
AcDbVertex
100
AcDb2dVertex
 10
230.4409529999998
 20
475.0876099999999
 30
0.0
  0
VERTEX
  5
64A
330
633
100
AcDbEntity
  8
Ｓ_１_１
  6
CONTINUOUS
 62
     3
100
AcDbVertex
100
AcDb2dVertex
 10
234.6010080000001
 20
476.223541
 30
0.0
  0
VERTEX
  5
64B
330
633
100
AcDbEntity
  8
Ｓ_１_１
  6
CONTINUOUS
 62
     3
100
AcDbVertex
100
AcDb2dVertex
 10
238.6309139999999
 20
477.6691460000001
 30
0.0
  0
VERTEX
  5
64C
330
633
100
AcDbEntity
  8
Ｓ_１_１
  6
CONTINUOUS
 62
     3
100
AcDbVertex
100
AcDb2dVertex
 10
242.5000009999999
 20
479.413424
 30
0.0
  0
VERTEX
  5
64D
330
633
100
AcDbEntity
  8
Ｓ_１_１
  6
CONTINUOUS
 62
     3
100
AcDbVertex
100
AcDb2dVertex
 10
246.1788229999998
 20
481.4431000000001
 30
0.0
  0
VERTEX
  5
64E
330
633
100
AcDbEntity
  8
Ｓ_１_１
  6
CONTINUOUS
 62
     3
100
AcDbVertex
100
AcDb2dVertex
 10
249.639381
 20
483.7427260000001
 30
0.0
  0
VERTEX
  5
64F
330
633
100
AcDbEntity
  8
Ｓ_１_１
  6
CONTINUOUS
 62
     3
100
AcDbVertex
100
AcDb2dVertex
 10
252.8553400000001
 20
486.2948010000001
 30
0.0
  0
VERTEX
  5
650
330
633
100
AcDbEntity
  8
Ｓ_１_１
  6
CONTINUOUS
 62
     3
100
AcDbVertex
100
AcDb2dVertex
 10
255.8022230000002
 20
489.0799020000001
 30
0.0
  0
VERTEX
  5
651
330
633
100
AcDbEntity
  8
Ｓ_１_１
  6
CONTINUOUS
 62
     3
100
AcDbVertex
100
AcDb2dVertex
 10
258.4576029999998
 20
492.076833
 30
0.0
  0
VERTEX
  5
652
330
633
100
AcDbEntity
  8
Ｓ_１_１
  6
CONTINUOUS
 62
     3
100
AcDbVertex
100
AcDb2dVertex
 10
260.8012709999998
 20
495.2627860000001
 30
0.0
  0
VERTEX
  5
653
330
633
100
AcDbEntity
  8
Ｓ_１_１
  6
CONTINUOUS
 62
     3
100
AcDbVertex
100
AcDb2dVertex
 10
262.8153899999998
 20
498.6135130000001
 30
0.0
  0
VERTEX
  5
654
330
633
100
AcDbEntity
  8
Ｓ_１_１
  6
CONTINUOUS
 62
     3
100
AcDbVertex
100
AcDb2dVertex
 10
264.4846320000001
 20
502.1035130000001
 30
0.0
  0
VERTEX
  5
655
330
633
100
AcDbEntity
  8
Ｓ_１_１
  6
CONTINUOUS
 62
     3
100
AcDbVertex
100
AcDb2dVertex
 10
265.796292
 20
505.706225
 30
0.0
  0
VERTEX
  5
656
330
633
100
AcDbEntity
  8
Ｓ_１_１
  6
CONTINUOUS
 62
     3
100
AcDbVertex
100
AcDb2dVertex
 10
266.7403880000002
 20
509.3942310000001
 30
0.0
  0
VERTEX
  5
657
330
633
100
AcDbEntity
  8
Ｓ_１_１
  6
CONTINUOUS
 62
     3
100
AcDbVertex
100
AcDb2dVertex
 10
267.3097360000002
 20
513.1394630000001
 30
0.0
  0
VERTEX
  5
658
330
633
100
AcDbEntity
  8
Ｓ_１_１
  6
CONTINUOUS
 62
     3
100
AcDbVertex
100
AcDb2dVertex
 10
267.5000009999999
 20
516.9134170000001
 30
0.0
  0
VERTEX
  5
659
330
633
100
AcDbEntity
  8
Ｓ_１_１
  6
CONTINUOUS
 62
     3
100
AcDbVertex
100
AcDb2dVertex
 10
267.3097360000002
 20
520.68737
 30
0.0
  0
VERTEX
  5
65A
330
633
100
AcDbEntity
  8
Ｓ_１_１
  6
CONTINUOUS
 62
     3
100
AcDbVertex
100
AcDb2dVertex
 10
266.7403880000002
 20
524.432602
 30
0.0
  0
VERTEX
  5
65B
330
633
100
AcDbEntity
  8
Ｓ_１_１
  6
CONTINUOUS
 62
     3
100
AcDbVertex
100
AcDb2dVertex
 10
265.796292
 20
528.1206080000001
 30
0.0
  0
VERTEX
  5
65C
330
633
100
AcDbEntity
  8
Ｓ_１_１
  6
CONTINUOUS
 62
     3
100
AcDbVertex
100
AcDb2dVertex
 10
264.4846320000001
 20
531.72332
 30
0.0
  0
VERTEX
  5
65D
330
633
100
AcDbEntity
  8
Ｓ_１_１
  6
CONTINUOUS
 62
     3
100
AcDbVertex
100
AcDb2dVertex
 10
262.8153899999998
 20
535.21332
 30
0.0
  0
VERTEX
  5
65E
330
633
100
AcDbEntity
  8
Ｓ_１_１
  6
CONTINUOUS
 62
     3
100
AcDbVertex
100
AcDb2dVertex
 10
260.8012709999998
 20
538.564047
 30
0.0
  0
VERTEX
  5
65F
330
633
100
AcDbEntity
  8
Ｓ_１_１
  6
CONTINUOUS
 62
     3
100
AcDbVertex
100
AcDb2dVertex
 10
258.4576029999998
 20
541.7500000000001
 30
0.0
  0
VERTEX
  5
660
330
633
100
AcDbEntity
  8
Ｓ_１_１
  6
CONTINUOUS
 62
     3
100
AcDbVertex
100
AcDb2dVertex
 10
255.8022230000002
 20
544.746931
 30
0.0
  0
VERTEX
  5
661
330
633
100
AcDbEntity
  8
Ｓ_１_１
  6
CONTINUOUS
 62
     3
100
AcDbVertex
100
AcDb2dVertex
 10
252.8553400000001
 20
547.532032
 30
0.0
  0
VERTEX
  5
662
330
633
100
AcDbEntity
  8
Ｓ_１_１
  6
CONTINUOUS
 62
     3
100
AcDbVertex
100
AcDb2dVertex
 10
249.639381
 20
550.084107
 30
0.0
  0
VERTEX
  5
663
330
633
100
AcDbEntity
  8
Ｓ_１_１
  6
CONTINUOUS
 62
     3
100
AcDbVertex
100
AcDb2dVertex
 10
246.1788229999998
 20
552.383733
 30
0.0
  0
VERTEX
  5
664
330
633
100
AcDbEntity
  8
Ｓ_１_１
  6
CONTINUOUS
 62
     3
100
AcDbVertex
100
AcDb2dVertex
 10
242.5000009999999
 20
554.4134090000001
 30
0.0
  0
VERTEX
  5
665
330
633
100
AcDbEntity
  8
Ｓ_１_１
  6
CONTINUOUS
 62
     3
100
AcDbVertex
100
AcDb2dVertex
 10
238.6309139999999
 20
556.157687
 30
0.0
  0
VERTEX
  5
666
330
633
100
AcDbEntity
  8
Ｓ_１_１
  6
CONTINUOUS
 62
     3
100
AcDbVertex
100
AcDb2dVertex
 10
234.6010080000001
 20
557.6032920000001
 30
0.0
  0
VERTEX
  5
667
330
633
100
AcDbEntity
  8
Ｓ_１_１
  6
CONTINUOUS
 62
     3
100
AcDbVertex
100
AcDb2dVertex
 10
230.4409529999998
 20
558.7392229999999
 30
0.0
  0
VERTEX
  5
668
330
633
100
AcDbEntity
  8
Ｓ_１_１
  6
CONTINUOUS
 62
     3
100
AcDbVertex
100
AcDb2dVertex
 10
226.1824099999999
 20
559.5568340000001
 30
0.0
  0
VERTEX
  5
669
330
633
100
AcDbEntity
  8
Ｓ_１_１
  6
CONTINUOUS
 62
     3
100
AcDbVertex
100
AcDb2dVertex
 10
221.8577879999998
 20
560.0499040000001
 30
0.0
  0
VERTEX
  5
66A
330
633
100
AcDbEntity
  8
Ｓ_１_１
  6
CONTINUOUS
 62
     3
100
AcDbVertex
100
AcDb2dVertex
 10
217.5000009999999
 20
560.2146779999999
 30
0.0
  0
VERTEX
  5
66B
330
633
100
AcDbEntity
  8
Ｓ_１_１
  6
CONTINUOUS
 62
     3
100
AcDbVertex
100
AcDb2dVertex
 10
213.142214
 20
560.0499040000001
 30
0.0
  0
VERTEX
  5
66C
330
633
100
AcDbEntity
  8
Ｓ_１_１
  6
CONTINUOUS
 62
     3
100
AcDbVertex
100
AcDb2dVertex
 10
208.8175929999998
 20
559.5568340000001
 30
0.0
  0
VERTEX
  5
66D
330
633
100
AcDbEntity
  8
Ｓ_１_１
  6
CONTINUOUS
 62
     3
100
AcDbVertex
100
AcDb2dVertex
 10
204.559049
 20
558.7392229999999
 30
0.0
  0
VERTEX
  5
66E
330
633
100
AcDbEntity
  8
Ｓ_１_１
  6
CONTINUOUS
 62
     3
100
AcDbVertex
100
AcDb2dVertex
 10
200.3989940000001
 20
557.6032920000001
 30
0.0
  0
VERTEX
  5
66F
330
633
100
AcDbEntity
  8
Ｓ_１_１
  6
CONTINUOUS
 62
     3
100
AcDbVertex
100
AcDb2dVertex
 10
196.3690889999998
 20
556.157687
 30
0.0
  0
VERTEX
  5
670
330
633
100
AcDbEntity
  8
Ｓ_１_１
  6
CONTINUOUS
 62
     3
100
AcDbVertex
100
AcDb2dVertex
 10
192.5000019999998
 20
554.4134090000001
 30
0.0
  0
VERTEX
  5
671
330
633
100
AcDbEntity
  8
Ｓ_１_１
  6
CONTINUOUS
 62
     3
100
AcDbVertex
100
AcDb2dVertex
 10
188.8211799999999
 20
552.383733
 30
0.0
  0
VERTEX
  5
672
330
633
100
AcDbEntity
  8
Ｓ_１_１
  6
CONTINUOUS
 62
     3
100
AcDbVertex
100
AcDb2dVertex
 10
185.3606209999998
 20
550.084107
 30
0.0
  0
VERTEX
  5
673
330
633
100
AcDbEntity
  8
Ｓ_１_１
  6
CONTINUOUS
 62
     3
100
AcDbVertex
100
AcDb2dVertex
 10
182.144663
 20
547.532032
 30
0.0
  0
VERTEX
  5
674
330
633
100
AcDbEntity
  8
Ｓ_１_１
  6
CONTINUOUS
 62
     3
100
AcDbVertex
100
AcDb2dVertex
 10
179.19778
 20
544.746931
 30
0.0
  0
VERTEX
  5
675
330
633
100
AcDbEntity
  8
Ｓ_１_１
  6
CONTINUOUS
 62
     3
100
AcDbVertex
100
AcDb2dVertex
 10
176.5423999999998
 20
541.7500000000001
 30
0.0
  0
VERTEX
  5
676
330
633
100
AcDbEntity
  8
Ｓ_１_１
  6
CONTINUOUS
 62
     3
100
AcDbVertex
100
AcDb2dVertex
 10
174.1987319999998
 20
538.564047
 30
0.0
  0
VERTEX
  5
677
330
633
100
AcDbEntity
  8
Ｓ_１_１
  6
CONTINUOUS
 62
     3
100
AcDbVertex
100
AcDb2dVertex
 10
172.1846129999999
 20
535.21332
 30
0.0
  0
VERTEX
  5
678
330
633
100
AcDbEntity
  8
Ｓ_１_１
  6
CONTINUOUS
 62
     3
100
AcDbVertex
100
AcDb2dVertex
 10
170.515371
 20
531.72332
 30
0.0
  0
VERTEX
  5
679
330
633
100
AcDbEntity
  8
Ｓ_１_１
  6
CONTINUOUS
 62
     3
100
AcDbVertex
100
AcDb2dVertex
 10
169.2037110000001
 20
528.1206080000001
 30
0.0
  0
VERTEX
  5
67A
330
633
100
AcDbEntity
  8
Ｓ_１_１
  6
CONTINUOUS
 62
     3
100
AcDbVertex
100
AcDb2dVertex
 10
168.2596140000001
 20
524.432602
 30
0.0
  0
VERTEX
  5
67B
330
633
100
AcDbEntity
  8
Ｓ_１_１
  6
CONTINUOUS
 62
     3
100
AcDbVertex
100
AcDb2dVertex
 10
167.6902669999999
 20
520.68737
 30
0.0
  0
VERTEX
  5
67C
330
633
100
AcDbEntity
  8
Ｓ_１_１
  6
CONTINUOUS
 62
     3
100
AcDbVertex
100
AcDb2dVertex
 10
167.5000019999998
 20
516.9134170000001
 30
0.0
  0
SEQEND
  5
67D
330
633
100
AcDbEntity
  8
Ｓ_１_１
  6
CONTINUOUS
 62
     3
  0
POLYLINE
  5
67E
330
1F
100
AcDbEntity
  8
Ｓ_１_１
  6
CONTINUOUS
 62
     3
100
AcDb2dPolyline
 66
     1
 10
0.0
 20
0.0
 30
0.0
 70
   128
  0
VERTEX
  5
67F
330
67E
100
AcDbEntity
  8
Ｓ_１_１
  6
CONTINUOUS
 62
     3
100
AcDbVertex
100
AcDb2dVertex
 10
267.5000009999999
 20
529.4134110000001
 30
0.0
  0
VERTEX
  5
680
330
67E
100
AcDbEntity
  8
Ｓ_１_１
  6
CONTINUOUS
 62
     3
100
AcDbVertex
100
AcDb2dVertex
 10
266.991074
 20
535.575823
 30
0.0
  0
VERTEX
  5
681
330
67E
100
AcDbEntity
  8
Ｓ_１_１
  6
CONTINUOUS
 62
     3
100
AcDbVertex
100
AcDb2dVertex
 10
265.474651
 20
541.612786
 30
0.0
  0
VERTEX
  5
682
330
67E
100
AcDbEntity
  8
Ｓ_１_１
  6
CONTINUOUS
 62
     3
100
AcDbVertex
100
AcDb2dVertex
 10
262.9816029999997
 20
547.401405
 30
0.0
  0
VERTEX
  5
683
330
67E
100
AcDbEntity
  8
Ｓ_１_１
  6
CONTINUOUS
 62
     3
100
AcDbVertex
100
AcDb2dVertex
 10
259.5626809999999
 20
552.823841
 30
0.0
  0
VERTEX
  5
684
330
67E
100
AcDbEntity
  8
Ｓ_１_１
  6
CONTINUOUS
 62
     3
100
AcDbVertex
100
AcDb2dVertex
 10
255.287484
 20
557.7697079999999
 30
0.0
  0
VERTEX
  5
685
330
67E
100
AcDbEntity
  8
Ｓ_１_１
  6
CONTINUOUS
 62
     3
100
AcDbVertex
100
AcDb2dVertex
 10
250.243043
 20
562.1383220000001
 30
0.0
  0
VERTEX
  5
686
330
67E
100
AcDbEntity
  8
Ｓ_１_１
  6
CONTINUOUS
 62
     3
100
AcDbVertex
100
AcDb2dVertex
 10
244.532048
 20
565.840752
 30
0.0
  0
VERTEX
  5
687
330
67E
100
AcDbEntity
  8
Ｓ_１_１
  6
CONTINUOUS
 62
     3
100
AcDbVertex
100
AcDb2dVertex
 10
238.2707580000001
 20
568.801626
 30
0.0
  0
VERTEX
  5
688
330
67E
100
AcDbEntity
  8
Ｓ_１_１
  6
CONTINUOUS
 62
     3
100
AcDbVertex
100
AcDb2dVertex
 10
231.586636
 20
570.9606709999999
 30
0.0
  0
VERTEX
  5
689
330
67E
100
AcDbEntity
  8
Ｓ_１_１
  6
CONTINUOUS
 62
     3
100
AcDbVertex
100
AcDb2dVertex
 10
224.6157509999998
 20
572.273932
 30
0.0
  0
VERTEX
  5
68A
330
67E
100
AcDbEntity
  8
Ｓ_１_１
  6
CONTINUOUS
 62
     3
100
AcDbVertex
100
AcDb2dVertex
 10
217.5000089999999
 20
572.7146779999999
 30
0.0
  0
VERTEX
  5
68B
330
67E
100
AcDbEntity
  8
Ｓ_１_１
  6
CONTINUOUS
 62
     3
100
AcDbVertex
100
AcDb2dVertex
 10
210.3842679999998
 20
572.2739339999999
 30
0.0
  0
VERTEX
  5
68C
330
67E
100
AcDbEntity
  8
Ｓ_１_１
  6
CONTINUOUS
 62
     3
100
AcDbVertex
100
AcDb2dVertex
 10
203.4133819999997
 20
570.960674
 30
0.0
  0
VERTEX
  5
68D
330
67E
100
AcDbEntity
  8
Ｓ_１_１
  6
CONTINUOUS
 62
     3
100
AcDbVertex
100
AcDb2dVertex
 10
196.7292589999997
 20
568.801632
 30
0.0
  0
VERTEX
  5
68E
330
67E
100
AcDbEntity
  8
Ｓ_１_１
  6
CONTINUOUS
 62
     3
100
AcDbVertex
100
AcDb2dVertex
 10
190.4679679999999
 20
565.8407599999999
 30
0.0
  0
VERTEX
  5
68F
330
67E
100
AcDbEntity
  8
Ｓ_１_１
  6
CONTINUOUS
 62
     3
100
AcDbVertex
100
AcDb2dVertex
 10
184.7569720000001
 20
562.138331
 30
0.0
  0
VERTEX
  5
690
330
67E
100
AcDbEntity
  8
Ｓ_１_１
  6
CONTINUOUS
 62
     3
100
AcDbVertex
100
AcDb2dVertex
 10
179.7125289999999
 20
557.7697180000001
 30
0.0
  0
VERTEX
  5
691
330
67E
100
AcDbEntity
  8
Ｓ_１_１
  6
CONTINUOUS
 62
     3
100
AcDbVertex
100
AcDb2dVertex
 10
175.4373310000001
 20
552.823853
 30
0.0
  0
VERTEX
  5
692
330
67E
100
AcDbEntity
  8
Ｓ_１_１
  6
CONTINUOUS
 62
     3
100
AcDbVertex
100
AcDb2dVertex
 10
172.0184060000001
 20
547.401418
 30
0.0
  0
VERTEX
  5
693
330
67E
100
AcDbEntity
  8
Ｓ_１_１
  6
CONTINUOUS
 62
     3
100
AcDbVertex
100
AcDb2dVertex
 10
169.5253560000001
 20
541.6128
 30
0.0
  0
VERTEX
  5
694
330
67E
100
AcDbEntity
  8
Ｓ_１_１
  6
CONTINUOUS
 62
     3
100
AcDbVertex
100
AcDb2dVertex
 10
168.0089309999998
 20
535.575837
 30
0.0
  0
VERTEX
  5
695
330
67E
100
AcDbEntity
  8
Ｓ_１_１
  6
CONTINUOUS
 62
     3
100
AcDbVertex
100
AcDb2dVertex
 10
167.5000019999998
 20
529.4134250000001
 30
0.0
  0
VERTEX
  5
696
330
67E
100
AcDbEntity
  8
Ｓ_１_１
  6
CONTINUOUS
 62
     3
100
AcDbVertex
100
AcDb2dVertex
 10
167.5000019999998
 20
529.413416
 30
0.0
  0
SEQEND
  5
697
330
67E
100
AcDbEntity
  8
Ｓ_１_１
  6
CONTINUOUS
 62
     3
  0
POLYLINE
  5
698
330
1F
100
AcDbEntity
  8
Ｓ_１_１
  6
CONTINUOUS
 62
     3
100
AcDb2dPolyline
 66
     1
 10
0.0
 20
0.0
 30
0.0
 70
   128
  0
VERTEX
  5
699
330
698
100
AcDbEntity
  8
Ｓ_１_１
  6
CONTINUOUS
 62
     3
100
AcDbVertex
100
AcDb2dVertex
 10
267.5000009999999
 20
541.9134110000001
 30
0.0
  0
VERTEX
  5
69A
330
698
100
AcDbEntity
  8
Ｓ_１_１
  6
CONTINUOUS
 62
     3
100
AcDbVertex
100
AcDb2dVertex
 10
266.9910730000001
 20
548.075823
 30
0.0
  0
VERTEX
  5
69B
330
698
100
AcDbEntity
  8
Ｓ_１_１
  6
CONTINUOUS
 62
     3
100
AcDbVertex
100
AcDb2dVertex
 10
265.474651
 20
554.112786
 30
0.0
  0
VERTEX
  5
69C
330
698
100
AcDbEntity
  8
Ｓ_１_１
  6
CONTINUOUS
 62
     3
100
AcDbVertex
100
AcDb2dVertex
 10
262.9816029999997
 20
559.901405
 30
0.0
  0
VERTEX
  5
69D
330
698
100
AcDbEntity
  8
Ｓ_１_１
  6
CONTINUOUS
 62
     3
100
AcDbVertex
100
AcDb2dVertex
 10
259.56268
 20
565.323841
 30
0.0
  0
VERTEX
  5
69E
330
698
100
AcDbEntity
  8
Ｓ_１_１
  6
CONTINUOUS
 62
     3
100
AcDbVertex
100
AcDb2dVertex
 10
255.2874830000001
 20
570.2697079999999
 30
0.0
  0
VERTEX
  5
69F
330
698
100
AcDbEntity
  8
Ｓ_１_１
  6
CONTINUOUS
 62
     3
100
AcDbVertex
100
AcDb2dVertex
 10
250.2430420000001
 20
574.6383220000001
 30
0.0
  0
VERTEX
  5
6A0
330
698
100
AcDbEntity
  8
Ｓ_１_１
  6
CONTINUOUS
 62
     3
100
AcDbVertex
100
AcDb2dVertex
 10
244.5320470000001
 20
578.340752
 30
0.0
  0
VERTEX
  5
6A1
330
698
100
AcDbEntity
  8
Ｓ_１_１
  6
CONTINUOUS
 62
     3
100
AcDbVertex
100
AcDb2dVertex
 10
238.2707580000001
 20
581.3016269999999
 30
0.0
  0
VERTEX
  5
6A2
330
698
100
AcDbEntity
  8
Ｓ_１_１
  6
CONTINUOUS
 62
     3
100
AcDbVertex
100
AcDb2dVertex
 10
231.5866350000001
 20
583.4606709999999
 30
0.0
  0
VERTEX
  5
6A3
330
698
100
AcDbEntity
  8
Ｓ_１_１
  6
CONTINUOUS
 62
     3
100
AcDbVertex
100
AcDb2dVertex
 10
224.61575
 20
584.773932
 30
0.0
  0
VERTEX
  5
6A4
330
698
100
AcDbEntity
  8
Ｓ_１_１
  6
CONTINUOUS
 62
     3
100
AcDbVertex
100
AcDb2dVertex
 10
217.5000089999999
 20
585.2146779999999
 30
0.0
  0
VERTEX
  5
6A5
330
698
100
AcDbEntity
  8
Ｓ_１_１
  6
CONTINUOUS
 62
     3
100
AcDbVertex
100
AcDb2dVertex
 10
210.3842669999999
 20
584.7739339999999
 30
0.0
  0
VERTEX
  5
6A6
330
698
100
AcDbEntity
  8
Ｓ_１_１
  6
CONTINUOUS
 62
     3
100
AcDbVertex
100
AcDb2dVertex
 10
203.4133809999999
 20
583.460674
 30
0.0
  0
VERTEX
  5
6A7
330
698
100
AcDbEntity
  8
Ｓ_１_１
  6
CONTINUOUS
 62
     3
100
AcDbVertex
100
AcDb2dVertex
 10
196.7292579999999
 20
581.301632
 30
0.0
  0
VERTEX
  5
6A8
330
698
100
AcDbEntity
  8
Ｓ_１_１
  6
CONTINUOUS
 62
     3
100
AcDbVertex
100
AcDb2dVertex
 10
190.4679679999999
 20
578.340759
 30
0.0
  0
VERTEX
  5
6A9
330
698
100
AcDbEntity
  8
Ｓ_１_１
  6
CONTINUOUS
 62
     3
100
AcDbVertex
100
AcDb2dVertex
 10
184.7569709999998
 20
574.6383300000001
 30
0.0
  0
VERTEX
  5
6AA
330
698
100
AcDbEntity
  8
Ｓ_１_１
  6
CONTINUOUS
 62
     3
100
AcDbVertex
100
AcDb2dVertex
 10
179.7125289999999
 20
570.269717
 30
0.0
  0
VERTEX
  5
6AB
330
698
100
AcDbEntity
  8
Ｓ_１_１
  6
CONTINUOUS
 62
     3
100
AcDbVertex
100
AcDb2dVertex
 10
175.4373299999997
 20
565.323851
 30
0.0
  0
VERTEX
  5
6AC
330
698
100
AcDbEntity
  8
Ｓ_１_１
  6
CONTINUOUS
 62
     3
100
AcDbVertex
100
AcDb2dVertex
 10
172.0184060000001
 20
559.9014169999999
 30
0.0
  0
VERTEX
  5
6AD
330
698
100
AcDbEntity
  8
Ｓ_１_１
  6
CONTINUOUS
 62
     3
100
AcDbVertex
100
AcDb2dVertex
 10
169.5253560000001
 20
554.112798
 30
0.0
  0
VERTEX
  5
6AE
330
698
100
AcDbEntity
  8
Ｓ_１_１
  6
CONTINUOUS
 62
     3
100
AcDbVertex
100
AcDb2dVertex
 10
168.0089309999998
 20
548.075835
 30
0.0
  0
VERTEX
  5
6AF
330
698
100
AcDbEntity
  8
Ｓ_１_１
  6
CONTINUOUS
 62
     3
100
AcDbVertex
100
AcDb2dVertex
 10
167.5000019999998
 20
541.913424
 30
0.0
  0
VERTEX
  5
6B0
330
698
100
AcDbEntity
  8
Ｓ_１_１
  6
CONTINUOUS
 62
     3
100
AcDbVertex
100
AcDb2dVertex
 10
167.5000019999998
 20
541.9134150000001
 30
0.0
  0
SEQEND
  5
6B1
330
698
100
AcDbEntity
  8
Ｓ_１_１
  6
CONTINUOUS
 62
     3
  0
POLYLINE
  5
6B2
330
1F
100
AcDbEntity
  8
Ｓ_１_１
  6
CONTINUOUS
 62
     3
100
AcDb2dPolyline
 66
     1
 10
0.0
 20
0.0
 30
0.0
 70
   128
  0
VERTEX
  5
6B3
330
6B2
100
AcDbEntity
  8
Ｓ_１_１
  6
CONTINUOUS
 62
     3
100
AcDbVertex
100
AcDb2dVertex
 10
212.5000009999999
 20
409.9999990000001
 30
0.0
  0
VERTEX
  5
6B4
330
6B2
100
AcDbEntity
  8
Ｓ_１_１
  6
CONTINUOUS
 62
     3
100
AcDbVertex
100
AcDb2dVertex
 10
212.5427770000001
 20
409.6736830000001
 30
0.0
  0
VERTEX
  5
6B5
330
6B2
100
AcDbEntity
  8
Ｓ_１_１
  6
CONTINUOUS
 62
     3
100
AcDbVertex
100
AcDb2dVertex
 10
212.670372
 20
409.352951
 30
0.0
  0
VERTEX
  5
6B6
330
6B2
100
AcDbEntity
  8
Ｓ_１_１
  6
CONTINUOUS
 62
     3
100
AcDbVertex
100
AcDb2dVertex
 10
212.8806039999999
 20
409.04329
 30
0.0
  0
VERTEX
  5
6B7
330
6B2
100
AcDbEntity
  8
Ｓ_１_１
  6
CONTINUOUS
 62
     3
100
AcDbVertex
100
AcDb2dVertex
 10
213.1698740000002
 20
408.7499990000001
 30
0.0
  0
VERTEX
  5
6B8
330
6B2
100
AcDbEntity
  8
Ｓ_１_１
  6
CONTINUOUS
 62
     3
100
AcDbVertex
100
AcDb2dVertex
 10
213.5332349999999
 20
408.4780950000001
 30
0.0
  0
VERTEX
  5
6B9
330
6B2
100
AcDbEntity
  8
Ｓ_１_１
  6
CONTINUOUS
 62
     3
100
AcDbVertex
100
AcDb2dVertex
 10
213.9644669999998
 20
408.232232
 30
0.0
  0
VERTEX
  5
6BA
330
6B2
100
AcDbEntity
  8
Ｓ_１_１
  6
CONTINUOUS
 62
     3
100
AcDbVertex
100
AcDb2dVertex
 10
214.4561939999999
 20
408.0166150000001
 30
0.0
  0
VERTEX
  5
6BB
330
6B2
100
AcDbEntity
  8
Ｓ_１_１
  6
CONTINUOUS
 62
     3
100
AcDbVertex
100
AcDb2dVertex
 10
215.0000009999999
 20
407.834935
 30
0.0
  0
VERTEX
  5
6BC
330
6B2
100
AcDbEntity
  8
Ｓ_１_１
  6
CONTINUOUS
 62
     3
100
AcDbVertex
100
AcDb2dVertex
 10
215.5865840000001
 20
407.6903000000001
 30
0.0
  0
VERTEX
  5
6BD
330
6B2
100
AcDbEntity
  8
Ｓ_１_１
  6
CONTINUOUS
 62
     3
100
AcDbVertex
100
AcDb2dVertex
 10
216.2059060000001
 20
407.5851839999999
 30
0.0
  0
VERTEX
  5
6BE
330
6B2
100
AcDbEntity
  8
Ｓ_１_１
  6
CONTINUOUS
 62
     3
100
AcDbVertex
100
AcDb2dVertex
 10
216.84737
 20
407.521386
 30
0.0
  0
VERTEX
  5
6BF
330
6B2
100
AcDbEntity
  8
Ｓ_１_１
  6
CONTINUOUS
 62
     3
100
AcDbVertex
100
AcDb2dVertex
 10
217.5000009999999
 20
407.4999990000001
 30
0.0
  0
VERTEX
  5
6C0
330
6B2
100
AcDbEntity
  8
Ｓ_１_１
  6
CONTINUOUS
 62
     3
100
AcDbVertex
100
AcDb2dVertex
 10
218.1526319999998
 20
407.521386
 30
0.0
  0
VERTEX
  5
6C1
330
6B2
100
AcDbEntity
  8
Ｓ_１_１
  6
CONTINUOUS
 62
     3
100
AcDbVertex
100
AcDb2dVertex
 10
218.794097
 20
407.5851839999999
 30
0.0
  0
VERTEX
  5
6C2
330
6B2
100
AcDbEntity
  8
Ｓ_１_１
  6
CONTINUOUS
 62
     3
100
AcDbVertex
100
AcDb2dVertex
 10
219.4134180000001
 20
407.6903000000001
 30
0.0
  0
VERTEX
  5
6C3
330
6B2
100
AcDbEntity
  8
Ｓ_１_１
  6
CONTINUOUS
 62
     3
100
AcDbVertex
100
AcDb2dVertex
 10
220.0000009999999
 20
407.834935
 30
0.0
  0
VERTEX
  5
6C4
330
6B2
100
AcDbEntity
  8
Ｓ_１_１
  6
CONTINUOUS
 62
     3
100
AcDbVertex
100
AcDb2dVertex
 10
220.5438079999999
 20
408.0166150000001
 30
0.0
  0
VERTEX
  5
6C5
330
6B2
100
AcDbEntity
  8
Ｓ_１_１
  6
CONTINUOUS
 62
     3
100
AcDbVertex
100
AcDb2dVertex
 10
221.035535
 20
408.232232
 30
0.0
  0
VERTEX
  5
6C6
330
6B2
100
AcDbEntity
  8
Ｓ_１_１
  6
CONTINUOUS
 62
     3
100
AcDbVertex
100
AcDb2dVertex
 10
221.4667679999998
 20
408.4780950000001
 30
0.0
  0
VERTEX
  5
6C7
330
6B2
100
AcDbEntity
  8
Ｓ_１_１
  6
CONTINUOUS
 62
     3
100
AcDbVertex
100
AcDb2dVertex
 10
221.8301280000001
 20
408.7499990000001
 30
0.0
  0
VERTEX
  5
6C8
330
6B2
100
AcDbEntity
  8
Ｓ_１_１
  6
CONTINUOUS
 62
     3
100
AcDbVertex
100
AcDb2dVertex
 10
222.1193990000002
 20
409.04329
 30
0.0
  0
VERTEX
  5
6C9
330
6B2
100
AcDbEntity
  8
Ｓ_１_１
  6
CONTINUOUS
 62
     3
100
AcDbVertex
100
AcDb2dVertex
 10
222.3296299999997
 20
409.352951
 30
0.0
  0
VERTEX
  5
6CA
330
6B2
100
AcDbEntity
  8
Ｓ_１_１
  6
CONTINUOUS
 62
     3
100
AcDbVertex
100
AcDb2dVertex
 10
222.457226
 20
409.6736830000001
 30
0.0
  0
VERTEX
  5
6CB
330
6B2
100
AcDbEntity
  8
Ｓ_１_１
  6
CONTINUOUS
 62
     3
100
AcDbVertex
100
AcDb2dVertex
 10
222.5000009999999
 20
409.9999990000001
 30
0.0
  0
SEQEND
  5
6CC
330
6B2
100
AcDbEntity
  8
Ｓ_１_１
  6
CONTINUOUS
 62
     3
  0
LINE
  5
6CD
330
1F
100
AcDbEntity
  8
Ｓ_１_１
  6
EXLTYPE2
 62
     1
100
AcDbLine
 10
352.4999230000001
 20
382.5000080000001
 30
0.0
 11
352.4999230000001
 21
357.5000089999999
 31
0.0
  0
LINE
  5
6CE
330
1F
100
AcDbEntity
  8
Ｓ_１_１
  6
EXLTYPE2
 62
     1
100
AcDbLine
 10
385.5048360000001
 20
397.0000020000001
 30
0.0
 11
466.3539860000001
 21
397.0000020000001
 31
0.0
  0
LINE
  5
6CF
330
1F
100
AcDbEntity
  8
Ｓ_１_１
  6
EXLTYPE2
 62
     1
100
AcDbLine
 10
364.9999230000001
 20
409.9999990000001
 30
0.0
 11
339.9999230000001
 21
409.9999990000001
 31
0.0
  0
LINE
  5
6D0
330
1F
100
AcDbEntity
  8
Ｓ_１_１
  6
EXLTYPE2
 62
     1
100
AcDbLine
 10
352.4999230000001
 20
422.4999890000001
 30
0.0
 11
352.4999230000001
 21
397.4999990000001
 31
0.0
  0
LINE
  5
6D1
330
1F
100
AcDbEntity
  8
Ｓ_１_１
  6
EXLTYPE2
 62
     1
100
AcDbLine
 10
364.9999230000001
 20
370.0000089999999
 30
0.0
 11
339.9999230000001
 21
370.0000089999999
 31
0.0
  0
LINE
  5
6D2
330
1F
100
AcDbEntity
  8
Ｓ_１_１
  6
EXLTYPE2
 62
     1
100
AcDbLine
 10
279.1282660000002
 20
357.0000069999999
 30
0.0
 11
256.2285619999998
 21
357.0000069999999
 31
0.0
  0
LINE
  5
6D3
330
1F
100
AcDbEntity
  8
Ｓ_１_１
  6
EXLTYPE2
 62
     1
100
AcDbLine
 10
279.7903450000001
 20
409.9999990000001
 30
0.0
 11
206.2931079999998
 21
409.9999990000001
 31
0.0
  0
LINE
  5
6D4
330
1F
100
AcDbEntity
  8
Ｓ_１_１
  6
EXLTYPE2
 62
     1
100
AcDbLine
 10
367.4999990000001
 20
440.083607
 30
0.0
 11
367.4999990000001
 21
468.0551980000001
 31
0.0
  0
LINE
  5
6D5
330
1F
100
AcDbEntity
  8
Ｓ_１_１
  6
EXLTYPE2
 62
     1
100
AcDbLine
 10
330.0
 20
567.3668920000001
 30
0.0
 11
330.0
 21
276.3619810000001
 31
0.0
  0
LINE
  5
6D6
330
1F
100
AcDbEntity
  8
Ｓ_１_１
  6
EXLTYPE2
 62
     1
100
AcDbLine
 10
283.8734440000001
 20
476.7807710000001
 30
0.0
 11
330.0
 21
476.7807710000001
 31
0.0
  0
LINE
  5
6D7
330
1F
100
AcDbEntity
  8
Ｓ_１_１
  6
EXLTYPE2
 62
     1
100
AcDbLine
 10
291.6695410000002
 20
518.4280170000001
 30
0.0
 11
304.9899290000001
 21
518.4280170000001
 31
0.0
  0
LINE
  5
6D8
330
1F
100
AcDbEntity
  8
Ｓ_１_１
  6
EXLTYPE2
 62
     1
100
AcDbLine
 10
376.1265550000001
 20
476.7807710000001
 30
0.0
 11
330.0
 21
476.7807710000001
 31
0.0
  0
LINE
  5
6D9
330
1F
100
AcDbEntity
  8
Ｓ_１_１
  6
EXLTYPE2
 62
     1
100
AcDbLine
 10
368.330459
 20
518.4280170000001
 30
0.0
 11
355.01007
 21
518.4280170000001
 31
0.0
  0
TEXT
  5
6DA
330
1F
100
AcDbEntity
  8
Ｓ_１_１
  6
CONTINUOUS
 62
     4
100
AcDbText
 10
816.5
 20
1146.7462685806
 30
0.0
 40
17.3145207852194
  1
圧力計
 41
0.9992307692307689
  7
EXCADTTF1
 72
     5
 11
884.0
 21
1146.7462685806
 31
0.0
100
AcDbText
  0
LEADER
  5
6DB
330
1F
100
AcDbEntity
  8
Ｓ_１_１
  6
CONTINUOUS
 62
     2
100
AcDbLeader
  3
ISO-25
 76
     3
 10
763.519612
 20
1076.580761
 30
0.0
 10
800.75953868039
 20
1141.0822060806
 30
0.0
 10
884.0
 20
1141.0822060806
 30
0.0
1001
ACAD
1000
DSTYLE
1002
{
1070
     5
1000
EX_NORM
1070
    41
1040
15.0
1070
   341
1005
78
1002
}
  0
TEXT
  5
6DC
330
1F
100
AcDbEntity
  8
Ｓ_１_１
  6
CONTINUOUS
 62
     4
100
AcDbText
 10
899.0
 20
731.86741986754
 30
0.0
 40
17.3145207852194
  1
切換弁
 41
0.9992307692307689
  7
EXCADTTF1
 72
     5
 11
966.5
 21
731.86741986754
 31
0.0
100
AcDbText
  0
LEADER
  5
6DD
330
1F
100
AcDbEntity
  8
Ｓ_１_１
  6
CONTINUOUS
 62
     2
100
AcDbLeader
  3
ISO-25
 76
     3
 10
853.189449
 20
783.580793
 30
0.0
 10
886.31632690781
 20
726.20335736754
 30
0.0
 10
966.5
 20
726.20335736754
 30
0.0
1001
ACAD
1000
DSTYLE
1002
{
1070
     5
1000
EX_NORM
1070
    41
1040
15.0
1070
   341
1005
78
1002
}
  0
TEXT
  5
6DE
330
1F
100
AcDbEntity
  8
Ｓ_１_１
  6
CONTINUOUS
 62
     4
100
AcDbText
 10
554.0
 20
460.9609266783801
 30
0.0
 40
17.3145207852194
  1
戻側カップラー
 41
0.9992307692307693
  7
EXCADTTF1
 72
     5
 11
711.5
 21
460.9609266783801
 31
0.0
100
AcDbText
  0
LEADER
  5
6DF
330
1F
100
AcDbEntity
  8
Ｓ_１_１
  6
CONTINUOUS
 62
     2
100
AcDbLeader
  3
ISO-25
 76
     3
 10
739.6981365
 20
418.8994105
 30
0.0
 10
718.68405682097
 20
455.2968641783801
 30
0.0
 10
554.0
 20
455.2968641783801
 30
0.0
1001
ACAD
1000
DSTYLE
1002
{
1070
     5
1000
EX_NORM
1070
    41
1040
15.0
1070
   341
1005
78
1002
}
  0
TEXT
  5
6E0
330
1F
100
AcDbEntity
  8
Ｓ_１_１
  6
CONTINUOUS
 62
     4
100
AcDbText
 10
580.0
 20
302.30656965319
 30
0.0
 40
17.3145207852194
  1
押側カップラー
 41
0.9992307692307693
  7
EXCADTTF1
 72
     5
 11
737.5
 21
302.30656965319
 31
0.0
100
AcDbText
  0
LEADER
  5
6E1
330
1F
100
AcDbEntity
  8
Ｓ_１_１
  6
CONTINUOUS
 62
     2
100
AcDbLeader
  3
ISO-25
 76
     3
 10
769.230476
 20
356.9682859999999
 30
0.0
 10
753.06623227522
 20
296.64250715319
 30
0.0
 10
580.0
 20
296.64250715319
 30
0.0
1001
ACAD
1000
DSTYLE
1002
{
1070
     5
1000
EX_NORM
1070
    41
1040
15.0
1070
   341
1005
78
1002
}
  0
TEXT
  5
6E2
330
1F
100
AcDbEntity
  8
Ｓ_１_１
  6
CONTINUOUS
 62
     4
100
AcDbText
 10
1506.5
 20
601.69935939393
 30
0.0
 40
17.3145207852194
  1
エアー抜き兼給油口
 41
0.9992307692307693
  7
EXCADTTF1
 72
     5
 11
1709.0
 21
601.69935939393
 31
0.0
100
AcDbText
  0
LEADER
  5
6E3
330
1F
100
AcDbEntity
  8
Ｓ_１_１
  6
CONTINUOUS
 62
     2
100
AcDbLeader
  3
ISO-25
 76
     3
 10
1746.1762102362
 20
499.20199805862
 30
0.0
 10
1720.2298060128
 20
596.03529689393
 30
0.0
 10
1506.5
 20
596.03529689393
 30
0.0
1001
ACAD
1000
DSTYLE
1002
{
1070
     5
1000
EX_NORM
1070
    41
1040
15.0
1070
   341
1005
78
1002
}
  0
ENDSEC
  0
SECTION
  2
OBJECTS
  0
DICTIONARY
  5
C
330
0
100
AcDbDictionary
  3
ACAD_GROUP
350
D
  3
ACAD_LAYOUT
350
1A
  3
ACAD_MATERIAL
350
43
  3
ACAD_MLEADERSTYLE
350
6B
  3
ACAD_MLINESTYLE
350
17
  3
ACAD_PLOTSETTINGS
350
19
  3
ACAD_SCALELIST
350
47
  3
ACAD_VISUALSTYLE
350
2A
  3
ACDBHEADERROUNDTRIPXREC
350
6E4
  3
ACDBVARIABLEDICTIONARY
350
705
  0
DICTIONARY
  5
710
330
8
100
AcDbDictionary
280
     1
  3
ACAD_XREC_ROUNDTRIP
360
711
  0
DICTIONARY
  5
D
102
{ACAD_REACTORS
330
C
102
}
330
C
100
AcDbDictionary
  0
DICTIONARY
  5
1A
102
{ACAD_REACTORS
330
C
102
}
330
C
100
AcDbDictionary
  0
DICTIONARY
  5
43
102
{ACAD_REACTORS
330
C
102
}
330
C
100
AcDbDictionary
  3
BYBLOCK
350
45
  3
BYLAYER
350
44
  3
GLOBAL
350
46
  0
DICTIONARY
  5
6B
102
{ACAD_REACTORS
330
C
102
}
330
C
100
AcDbDictionary
  3
STANDARD
350
6C
  0
DICTIONARY
  5
17
102
{ACAD_REACTORS
330
C
102
}
330
C
100
AcDbDictionary
  3
STANDARD
350
18
  0
DICTIONARY
  5
19
102
{ACAD_REACTORS
330
C
102
}
330
C
100
AcDbDictionary
  0
DICTIONARY
  5
47
102
{ACAD_REACTORS
330
C
102
}
330
C
100
AcDbDictionary
  3
A0
350
48
  3
A1
350
49
  3
A2
350
4A
  3
A3
350
4B
  3
A4
350
4C
  3
A5
350
4D
  3
A6
350
4E
  3
A7
350
4F
  3
A8
350
50
  3
A9
350
51
  3
B0
350
52
  3
B1
350
53
  3
B2
350
54
  3
B3
350
55
  3
B4
350
56
  3
B5
350
57
  3
B6
350
58
  3
B7
350
59
  3
B8
350
5A
  3
B9
350
5B
  3
C0
350
5C
  3
C1
350
5D
  3
C2
350
5E
  3
C3
350
5F
  3
C4
350
60
  3
C5
350
61
  3
C6
350
62
  3
C7
350
63
  3
C8
350
64
  3
C9
350
65
  3
D0
350
66
  3
D1
350
67
  3
D2
350
68
  0
DICTIONARY
  5
2A
102
{ACAD_REACTORS
330
C
102
}
330
C
100
AcDbDictionary
  3
2DWIREFRAME
350
2F
  3
BASIC
350
32
  3
BRIGHTEN
350
36
  3
COLORCHANGE
350
3A
  3
CONCEPTUAL
350
34
  3
DIM
350
35
  3
EDGECOLOROFF
350
3D
  3
FACEPATTERN
350
39
  3
FLAT
350
2B
  3
FLATWITHEDGES
350
2C
  3
GOURAUD
350
2D
  3
GOURAUDWITHEDGES
350
2E
  3
HIDDEN
350
31
  3
JITTEROFF
350
3B
  3
LINEPATTERN
350
38
  3
OVERHANGOFF
350
3C
  3
REALISTIC
350
33
  3
SHADED
350
42
  3
SHADED_WITH_EDGES
350
41
  3
SHADES_OF_GRAY
350
3E
  3
SKETCHY
350
3F
  3
THICKEN
350
37
  3
WIREFRAME
350
30
  3
X-RAY
350
40
  0
DICTIONARY
  5
6E4
102
{ACAD_REACTORS
330
C
102
}
330
C
100
AcDbDictionary
  3
CEPSNID
350
6EE
  3
CEPSNTYPE
350
6ED
  3
DIMSTYLEDATA
350
704
  3
FINGERPRINTGUID
350
6EF
  3
HYPERLINKBASE
350
6E7
  3
INSUNITS
350
6EC
  3
LAYOUTDICT
350
6E9
  3
LWETCUNION
350
6EB
  3
PLOTSETDICT
350
6EA
  3
PSVPSCALE
350
6F1
  3
PUCSBASE
350
6F4
  3
PUCSORGBACK
350
6FA
  3
PUCSORGBOTTOM
350
6F6
  3
PUCSORGFRONT
350
6F9
  3
PUCSORGLEFT
350
6F7
  3
PUCSORGRIGHT
350
6F8
  3
PUCSORGTOP
350
6F5
  3
PUCSORTHOREF
350
6F2
  3
PUCSORTHOVIEW
350
6F3
  3
STYLESHEET
350
6E8
  3
TSTACKALIGN
350
6E5
  3
TSTACKSIZE
350
6E6
  3
UCSBASE
350
6FD
  3
UCSORGBACK
350
703
  3
UCSORGBOTTOM
350
6FF
  3
UCSORGFRONT
350
702
  3
UCSORGLEFT
350
700
  3
UCSORGRIGHT
350
701
  3
UCSORGTOP
350
6FE
  3
UCSORTHOREF
350
6FB
  3
UCSORTHOVIEW
350
6FC
  3
VERSIONGUID
350
6F0
  0
DICTIONARY
  5
705
102
{ACAD_REACTORS
330
C
102
}
330
C
100
AcDbDictionary
  3
CANNOSCALE
350
712
  3
CENTEREXE
350
70C
  3
CENTERLTYPEFILE
350
70D
  3
CMLEADERSTYLE
350
707
  3
CTABLESTYLE
350
706
  3
DIMASSOC
350
70E
  3
HIDETEXT
350
70F
  3
MSLTSCALE
350
713
  3
PSOLHEIGHT
350
709
  3
PSOLWIDTH
350
708
  0
XRECORD
  5
711
102
{ACAD_REACTORS
330
710
102
}
330
710
100
AcDbXrecord
102
VTR_0.000_0.000_1.000_1.000_VISUALSTYLE
340
2F
102
VTR_0.000_0.000_1.000_1.000_GRIDDISPLAY
 70
     3
102
VTR_0.000_0.000_1.000_1.000_GRIDMAJOR
 70
     5
102
VTR_0.000_0.000_1.000_1.000_DEFAULTLIGHTING
280
     1
102
VTR_0.000_0.000_1.000_1.000_DEFAULTLIGHTINGTYPE
 70
     1
102
VTR_0.000_0.000_1.000_1.000_BRIGHTNESS
141
0.0
102
VTR_0.000_0.000_1.000_1.000_CONTRAST
142
0.0
  0
MATERIAL
  5
45
102
{ACAD_REACTORS
330
43
102
}
102
{ACAD_XDICTIONARY
360
716
102
}
330
43
100
AcDbMaterial
  1
BYBLOCK
  0
MATERIAL
  5
44
102
{ACAD_REACTORS
330
43
102
}
102
{ACAD_XDICTIONARY
360
714
102
}
330
43
100
AcDbMaterial
  1
BYLAYER
  0
MATERIAL
  5
46
102
{ACAD_REACTORS
330
43
102
}
102
{ACAD_XDICTIONARY
360
718
102
}
330
43
100
AcDbMaterial
  1
GLOBAL
  0
ACAD_PROXY_OBJECT
  5
6C
102
{ACAD_REACTORS
330
6B
102
}
330
6B
100
AcDbProxyObject
 90
      499
 91
      505
 93
      610
310
40901902A4063FBFFFFFE0000000000000020400000000000020404214DD185B99185C990000000000000104090141901A00000000000004100000000000000041025764000000000000039000
340
14
340
0
340
11
340
0
 94
        0
1001
ACAD_MLEADERVER
1070
     2
  0
MLINESTYLE
  5
18
102
{ACAD_REACTORS
330
17
102
}
330
17
100
AcDbMlineStyle
  2
Standard
 70
     0
  3

 62
   256
 51
90.0
 52
90.0
 71
     2
 49
0.5
 62
   256
  6
BYLAYER
 49
-0.5
 62
   256
  6
BYLAYER
  0
ACAD_PROXY_OBJECT
  5
48
102
{ACAD_REACTORS
330
47
102
}
330
47
100
AcDbProxyObject
 90
      499
 91
      503
 93
       41
310
903313A31580
  0
ACAD_PROXY_OBJECT
  5
49
102
{ACAD_REACTORS
330
47
102
}
330
47
100
AcDbProxyObject
 90
      499
 91
      503
 93
      105
310
903313A324000000000000004000
  0
ACAD_PROXY_OBJECT
  5
4A
102
{ACAD_REACTORS
330
47
102
}
330
47
100
AcDbProxyObject
 90
      499
 91
      503
 93
      105
310
903313A344000000000000104000
  0
ACAD_PROXY_OBJECT
  5
4B
102
{ACAD_REACTORS
330
47
102
}
330
47
100
AcDbProxyObject
 90
      499
 91
      503
 93
      105
310
903313A354000000000000144000
  0
ACAD_PROXY_OBJECT
  5
4C
102
{ACAD_REACTORS
330
47
102
}
330
47
100
AcDbProxyObject
 90
      499
 91
      503
 93
      105
310
903313A384000000000000204000
  0
ACAD_PROXY_OBJECT
  5
4D
102
{ACAD_REACTORS
330
47
102
}
330
47
100
AcDbProxyObject
 90
      499
 91
      503
 93
      113
310
904313A31304000000000000244000
  0
ACAD_PROXY_OBJECT
  5
4E
102
{ACAD_REACTORS
330
47
102
}
330
47
100
AcDbProxyObject
 90
      499
 91
      503
 93
      113
310
904313A31364000000000000304000
  0
ACAD_PROXY_OBJECT
  5
4F
102
{ACAD_REACTORS
330
47
102
}
330
47
100
AcDbProxyObject
 90
      499
 91
      503
 93
      113
310
904313A32304000000000000344000
  0
ACAD_PROXY_OBJECT
  5
50
102
{ACAD_REACTORS
330
47
102
}
330
47
100
AcDbProxyObject
 90
      499
 91
      503
 93
      113
310
904313A333040000000000003E4000
  0
ACAD_PROXY_OBJECT
  5
51
102
{ACAD_REACTORS
330
47
102
}
330
47
100
AcDbProxyObject
 90
      499
 91
      503
 93
      113
310
904313A34304000000000000444000
  0
ACAD_PROXY_OBJECT
  5
52
102
{ACAD_REACTORS
330
47
102
}
330
47
100
AcDbProxyObject
 90
      499
 91
      503
 93
      113
310
904313A35304000000000000494000
  0
ACAD_PROXY_OBJECT
  5
53
102
{ACAD_REACTORS
330
47
102
}
330
47
100
AcDbProxyObject
 90
      499
 91
      503
 93
      121
310
905313A3130304000000000000594000
  0
ACAD_PROXY_OBJECT
  5
54
102
{ACAD_REACTORS
330
47
102
}
330
47
100
AcDbProxyObject
 90
      499
 91
      503
 93
      105
310
903323A310000000000000010100
  0
ACAD_PROXY_OBJECT
  5
55
102
{ACAD_REACTORS
330
47
102
}
330
47
100
AcDbProxyObject
 90
      499
 91
      503
 93
      105
310
903343A310000000000000410100
  0
ACAD_PROXY_OBJECT
  5
56
102
{ACAD_REACTORS
330
47
102
}
330
47
100
AcDbProxyObject
 90
      499
 91
      503
 93
      105
310
903383A310000000000000810100
  0
ACAD_PROXY_OBJECT
  5
57
102
{ACAD_REACTORS
330
47
102
}
330
47
100
AcDbProxyObject
 90
      499
 91
      503
 93
      113
310
90431303A310000000000000910100
  0
ACAD_PROXY_OBJECT
  5
58
102
{ACAD_REACTORS
330
47
102
}
330
47
100
AcDbProxyObject
 90
      499
 91
      503
 93
      121
310
9053130303A310000000000001650100
  0
ACAD_PROXY_OBJECT
  5
59
102
{ACAD_REACTORS
330
47
102
}
330
47
100
AcDbProxyObject
 90
      499
 91
      503
 93
      257
310
90E312F31323822203D2031272D3022000000000000200FC000000000000284000
  0
ACAD_PROXY_OBJECT
  5
5A
102
{ACAD_REACTORS
330
47
102
}
330
47
100
AcDbProxyObject
 90
      499
 91
      503
 93
      249
310
90D312F363422203D2031272D3022000000000000240FC000000000000284000
  0
ACAD_PROXY_OBJECT
  5
5B
102
{ACAD_REACTORS
330
47
102
}
330
47
100
AcDbProxyObject
 90
      499
 91
      503
 93
      249
310
90D312F333222203D2031272D3022000000000000280FC000000000000284000
  0
ACAD_PROXY_OBJECT
  5
5C
102
{ACAD_REACTORS
330
47
102
}
330
47
100
AcDbProxyObject
 90
      499
 91
      503
 93
      249
310
90D312F313622203D2031272D30220000000000002C0FC000000000000284000
  0
ACAD_PROXY_OBJECT
  5
5D
102
{ACAD_REACTORS
330
47
102
}
330
47
100
AcDbProxyObject
 90
      499
 91
      503
 93
      249
310
90D332F333222203D2031272D30220000000000002E0FC000000000000284000
  0
ACAD_PROXY_OBJECT
  5
5E
102
{ACAD_REACTORS
330
47
102
}
330
47
100
AcDbProxyObject
 90
      499
 91
      503
 93
      241
310
90C312F3822203D2031272D3022000000000000300FC000000000000284000
  0
ACAD_PROXY_OBJECT
  5
5F
102
{ACAD_REACTORS
330
47
102
}
330
47
100
AcDbProxyObject
 90
      499
 91
      503
 93
      249
310
90D332F313622203D2031272D3022000000000000320FC000000000000284000
  0
ACAD_PROXY_OBJECT
  5
60
102
{ACAD_REACTORS
330
47
102
}
330
47
100
AcDbProxyObject
 90
      499
 91
      503
 93
      241
310
90C312F3422203D2031272D3022000000000000340FC000000000000284000
  0
ACAD_PROXY_OBJECT
  5
61
102
{ACAD_REACTORS
330
47
102
}
330
47
100
AcDbProxyObject
 90
      499
 91
      503
 93
      241
310
90C332F3822203D2031272D3022000000000000360FC000000000000284000
  0
ACAD_PROXY_OBJECT
  5
62
102
{ACAD_REACTORS
330
47
102
}
330
47
100
AcDbProxyObject
 90
      499
 91
      503
 93
      241
310
90C312F3222203D2031272D3022000000000000380FC000000000000284000
  0
ACAD_PROXY_OBJECT
  5
63
102
{ACAD_REACTORS
330
47
102
}
330
47
100
AcDbProxyObject
 90
      499
 91
      503
 93
      241
310
90C332F3422203D2031272D30220000000000003A0FC000000000000284000
  0
ACAD_PROXY_OBJECT
  5
64
102
{ACAD_REACTORS
330
47
102
}
330
47
100
AcDbProxyObject
 90
      499
 91
      503
 93
      161
310
90A3122203D2031272D30224000000000000284000
  0
ACAD_PROXY_OBJECT
  5
65
102
{ACAD_REACTORS
330
47
102
}
330
47
100
AcDbProxyObject
 90
      499
 91
      503
 93
      257
310
90E312D312F3222203D2031272D30220000000000003E0FC000000000000284000
  0
ACAD_PROXY_OBJECT
  5
66
102
{ACAD_REACTORS
330
47
102
}
330
47
100
AcDbProxyObject
 90
      499
 91
      503
 93
      225
310
90A3322203D2031272D302200000000000002100000000000000284000
  0
ACAD_PROXY_OBJECT
  5
67
102
{ACAD_REACTORS
330
47
102
}
330
47
100
AcDbProxyObject
 90
      499
 91
      503
 93
      225
310
90A3622203D2031272D302200000000000006100000000000000284000
  0
ACAD_PROXY_OBJECT
  5
68
102
{ACAD_REACTORS
330
47
102
}
330
47
100
AcDbProxyObject
 90
      499
 91
      503
 93
      249
310
90D31272D3022203D2031272D30220000000000000A100000000000000284000
  0
ACAD_PROXY_OBJECT
  5
2F
102
{ACAD_REACTORS
330
2A
102
}
330
2A
100
AcDbProxyObject
 90
      499
 91
      501
 93
      436
310
42CC9915DA5C99599C985B595049028333333333333E33F0000000000000F90107901411070040501600405405064090741402480A0340
1001
ACAD
1000
AcDbSavedByObjectVersion
1070
     0
  0
ACAD_PROXY_OBJECT
  5
32
102
{ACAD_REACTORS
330
2A
102
}
330
2A
100
AcDbProxyObject
 90
      499
 91
      501
 93
      388
310
4150985CDA58D07406404333333333333E33F0000000000000F90107A41107004050150841D405064090741402480A0350
1001
ACAD
1000
AcDbSavedByObjectVersion
1070
     0
  0
ACAD_PROXY_OBJECT
  5
36
102
{ACAD_REACTORS
330
2A
102
}
330
2A
100
AcDbProxyObject
 90
      499
 91
      501
 93
      428
310
42109C9A59DA1D195B90C409028333333333333E33F0000000000000F9010790141107004050150841D405064090741402480A029950
1001
ACAD
1000
AcDbSavedByObjectVersion
1070
     0
  0
ACAD_PROXY_OBJECT
  5
3A
102
{ACAD_REACTORS
330
2A
102
}
330
2A
100
AcDbProxyObject
 90
      499
 91
      501
 93
      452
310
42D0DBDB1BDC90DA185B99D95104090240C333333333333E33F0000000000000F90108901411070040501508421405064090741402480A0350
1001
ACAD
1000
AcDbSavedByObjectVersion
1070
     0
  0
ACAD_PROXY_OBJECT
  5
34
102
{ACAD_REACTORS
330
2A
102
}
330
2A
100
AcDbProxyObject
 90
      499
 91
      501
 93
      500
310
4290DBDB98D95C1D1D585B10940D028333333333333E33F0000000000000F90107902409070040501000000000018199010841D405064090740C02480A0340
1001
ACAD
1000
AcDbSavedByObjectVersion
1070
     0
  0
ACAD_PROXY_OBJECT
  5
35
102
{ACAD_REACTORS
330
2A
102
}
330
2A
100
AcDbProxyObject
 90
      499
 91
      501
 93
      412
310
40D11A5B50B409028333333333333E33F0000000000000F9010790141107004050150841D405064090741402480A02677FFFFFD0
1001
ACAD
1000
AcDbSavedByObjectVersion
1070
     0
  0
ACAD_PROXY_OBJECT
  5
3D
102
{ACAD_REACTORS
330
2A
102
}
330
2A
100
AcDbProxyObject
 90
      499
 91
      501
 93
      452
310
43115919D950DBDB1BDC93D999916409028333333333333E33F0000000000000F9010790141107004050150841D405064090741402480A0350
1001
ACAD
1000
AcDbSavedByObjectVersion
1070
     0
  0
ACAD_PROXY_OBJECT
  5
39
102
{ACAD_REACTORS
330
2A
102
}
330
2A
100
AcDbProxyObject
 90
      499
 91
      501
 93
      444
310
42D19858D95C185D1D195C9B90F409028333333333333E33F0000000000000F9010790141107004050150841D405064090741402480A0350
1001
ACAD
1000
AcDbSavedByObjectVersion
1070
     0
  0
ACAD_PROXY_OBJECT
  5
2B
102
{ACAD_REACTORS
330
2A
102
}
330
2A
100
AcDbProxyObject
 90
      499
 91
      501
 93
      380
310
41119B185D240901404333333333333E33F0000000000000F9010740A907004050150841D405064090741402480A1B50
1001
ACAD
1000
AcDbSavedByObjectVersion
1070
     0
  0
ACAD_PROXY_OBJECT
  5
2C
102
{ACAD_REACTORS
330
2A
102
}
330
2A
100
AcDbProxyObject
 90
      499
 91
      501
 93
      468
310
43519B185D15DA5D1A115919D95CD0140901404333333333333E33F0000000000000F90107409019070040501600405405064090741402480A1B50
1001
ACAD
1000
AcDbSavedByObjectVersion
1070
     0
  0
ACAD_PROXY_OBJECT
  5
2D
102
{ACAD_REACTORS
330
2A
102
}
330
2A
100
AcDbProxyObject
 90
      499
 91
      501
 93
      404
310
41D1DBDD5C985D5910240902404333333333333E33F0000000000000F9010740A9070040501641D405064090741402480A1B50
1001
ACAD
1000
AcDbSavedByObjectVersion
1070
     0
  0
ACAD_PROXY_OBJECT
  5
2E
102
{ACAD_REACTORS
330
2A
102
}
330
2A
100
AcDbProxyObject
 90
      499
 91
      501
 93
      492
310
4411DBDD5C985D5915DA5D1A115919D95CD0340902404333333333333E33F0000000000000F90107409019070040501600405405064090741402480A1B50
1001
ACAD
1000
AcDbSavedByObjectVersion
1070
     0
  0
ACAD_PROXY_OBJECT
  5
31
102
{ACAD_REACTORS
330
2A
102
}
330
2A
100
AcDbProxyObject
 90
      499
 91
      501
 93
      476
310
41921A5919195B90640502408333333333333E33F0000000000000F901079024090700405020000000000001110200405405064090740C02480A0340
1001
ACAD
1000
AcDbSavedByObjectVersion
1070
     0
  0
ACAD_PROXY_OBJECT
  5
3B
102
{ACAD_REACTORS
330
2A
102
}
330
2A
100
AcDbProxyObject
 90
      499
 91
      501
 93
      428
310
42529A5D1D195C93D999914409028333333333333E33F0000000000000F9010790141107004050150A41D405064090741402480A0350
1001
ACAD
1000
AcDbSavedByObjectVersion
1070
     0
  0
ACAD_PROXY_OBJECT
  5
38
102
{ACAD_REACTORS
330
2A
102
}
330
2A
100
AcDbProxyObject
 90
      499
 91
      501
 93
      444
310
42D31A5B995C185D1D195C9B90E409028333333333333E33F0000000000000F9010790141107004050750841D405064090741402483A0350
1001
ACAD
1000
AcDbSavedByObjectVersion
1070
     0
  0
ACAD_PROXY_OBJECT
  5
3C
102
{ACAD_REACTORS
330
2A
102
}
330
2A
100
AcDbProxyObject
 90
      499
 91
      501
 93
      444
310
42D3DD995C9A185B99D3D999915409028333333333333E33F0000000000000F9010790141107004050150941D405064090741402480A0350
1001
ACAD
1000
AcDbSavedByObjectVersion
1070
     0
  0
ACAD_PROXY_OBJECT
  5
33
102
{ACAD_REACTORS
330
2A
102
}
330
2A
100
AcDbProxyObject
 90
      499
 91
      501
 93
      428
310
425499585B1A5CDD1A58D08409038333333333333E33F0000000000000F9010740A907004050150800405405064090740C02480A1B40
1001
ACAD
1000
AcDbSavedByObjectVersion
1070
     0
  0
ACAD_PROXY_OBJECT
  5
42
102
{ACAD_REACTORS
330
2A
102
}
330
2A
100
AcDbProxyObject
 90
      499
 91
      501
 93
      420
310
4194DA1859195911B40902404333333333333E33F0000000000000F9010740A41107004050150800405405064090840C02480A0B40
1001
ACAD
1000
AcDbSavedByObjectVersion
1070
     0
  0
ACAD_PROXY_OBJECT
  5
41
102
{ACAD_REACTORS
330
2A
102
}
330
2A
100
AcDbProxyObject
 90
      499
 91
      501
 93
      516
310
4454DA18591959081DDA5D1A08195919D95CD1A40902404333333333333E33F0000000000000F901074090142907004050250800405405064090740C02480A0B40
1001
ACAD
1000
AcDbSavedByObjectVersion
1070
     0
  0
ACAD_PROXY_OBJECT
  5
3E
102
{ACAD_REACTORS
330
2A
102
}
330
2A
100
AcDbProxyObject
 90
      499
 91
      501
 93
      532
310
4394DA1859195CC81BD98811DC985E5174090240C333333333333E33F0000000000000F901079024090741D01000000000000111010841D405064090740C02480A0340
1001
ACAD
1000
AcDbSavedByObjectVersion
1070
     0
  0
ACAD_PROXY_OBJECT
  5
3F
102
{ACAD_REACTORS
330
2A
102
}
330
2A
100
AcDbProxyObject
 90
      499
 91
      501
 93
      476
310
41D4DAD95D18DA1E51840502408333333333333E33F0000000000000F901079024090741D01000000000000111010B41D405064090741802480A0340
1001
ACAD
1000
AcDbSavedByObjectVersion
1070
     0
  0
ACAD_PROXY_OBJECT
  5
37
102
{ACAD_REACTORS
330
2A
102
}
330
2A
100
AcDbProxyObject
 90
      499
 91
      501
 93
      412
310
41D51A1A58DAD95B90D409028333333333333E33F0000000000000F9010790141107004050150C41D405064090741402480A0350
1001
ACAD
1000
AcDbSavedByObjectVersion
1070
     0
  0
ACAD_PROXY_OBJECT
  5
30
102
{ACAD_REACTORS
330
2A
102
}
330
2A
100
AcDbProxyObject
 90
      499
 91
      501
 93
      420
310
4255DA5C99599C985B595059028333333333333E33F0000000000000F90107901411070040501600405405064090740C02480A0340
1001
ACAD
1000
AcDbSavedByObjectVersion
1070
     0
  0
ACAD_PROXY_OBJECT
  5
40
102
{ACAD_REACTORS
330
2A
102
}
330
2A
100
AcDbProxyObject
 90
      499
 91
      501
 93
      404
310
41560B54985E51940902404000000000000E03F0000000000000F9010740501907004050150841D405064090740C02480A1B40
1001
ACAD
1000
AcDbSavedByObjectVersion
1070
     0
  0
XRECORD
  5
6EE
102
{ACAD_REACTORS
330
6E4
102
}
330
6E4
100
AcDbXrecord
340
0
  0
XRECORD
  5
6ED
102
{ACAD_REACTORS
330
6E4
102
}
330
6E4
100
AcDbXrecord
 90
        0
  0
XRECORD
  5
704
102
{ACAD_REACTORS
330
6E4
102
}
330
6E4
100
AcDbXrecord
1000
DSTYLE
1002
{
1070
   340
340
11
1002
}
  0
XRECORD
  5
6EF
102
{ACAD_REACTORS
330
6E4
102
}
330
6E4
100
AcDbXrecord
  1
{8a2cadda-c6f4-4854-9a91-e86d9da23b0d}
  0
XRECORD
  5
6E7
102
{ACAD_REACTORS
330
6E4
102
}
330
6E4
100
AcDbXrecord
  1

  0
XRECORD
  5
6EC
102
{ACAD_REACTORS
330
6E4
102
}
330
6E4
100
AcDbXrecord
 90
        4
  0
XRECORD
  5
6E9
102
{ACAD_REACTORS
330
6E4
102
}
330
6E4
100
AcDbXrecord
340
1A
  0
XRECORD
  5
6EB
102
{ACAD_REACTORS
330
6E4
102
}
330
6E4
100
AcDbXrecord
 90
    10781
  0
XRECORD
  5
6EA
102
{ACAD_REACTORS
330
6E4
102
}
330
6E4
100
AcDbXrecord
340
19
  0
XRECORD
  5
6F1
102
{ACAD_REACTORS
330
6E4
102
}
330
6E4
100
AcDbXrecord
 40
0.0
  0
XRECORD
  5
6F4
102
{ACAD_REACTORS
330
6E4
102
}
330
6E4
100
AcDbXrecord
340
0
  0
XRECORD
  5
6FA
102
{ACAD_REACTORS
330
6E4
102
}
330
6E4
100
AcDbXrecord
 10
0.0
 20
0.0
 30
0.0
  0
XRECORD
  5
6F6
102
{ACAD_REACTORS
330
6E4
102
}
330
6E4
100
AcDbXrecord
 10
0.0
 20
0.0
 30
0.0
  0
XRECORD
  5
6F9
102
{ACAD_REACTORS
330
6E4
102
}
330
6E4
100
AcDbXrecord
 10
0.0
 20
0.0
 30
0.0
  0
XRECORD
  5
6F7
102
{ACAD_REACTORS
330
6E4
102
}
330
6E4
100
AcDbXrecord
 10
0.0
 20
0.0
 30
0.0
  0
XRECORD
  5
6F8
102
{ACAD_REACTORS
330
6E4
102
}
330
6E4
100
AcDbXrecord
 10
0.0
 20
0.0
 30
0.0
  0
XRECORD
  5
6F5
102
{ACAD_REACTORS
330
6E4
102
}
330
6E4
100
AcDbXrecord
 10
0.0
 20
0.0
 30
0.0
  0
XRECORD
  5
6F2
102
{ACAD_REACTORS
330
6E4
102
}
330
6E4
100
AcDbXrecord
340
0
  0
XRECORD
  5
6F3
102
{ACAD_REACTORS
330
6E4
102
}
330
6E4
100
AcDbXrecord
 70
     0
  0
XRECORD
  5
6E8
102
{ACAD_REACTORS
330
6E4
102
}
330
6E4
100
AcDbXrecord
  1

  0
XRECORD
  5
6E5
102
{ACAD_REACTORS
330
6E4
102
}
330
6E4
100
AcDbXrecord
 90
        1
  0
XRECORD
  5
6E6
102
{ACAD_REACTORS
330
6E4
102
}
330
6E4
100
AcDbXrecord
 90
       70
  0
XRECORD
  5
6FD
102
{ACAD_REACTORS
330
6E4
102
}
330
6E4
100
AcDbXrecord
340
0
  0
XRECORD
  5
703
102
{ACAD_REACTORS
330
6E4
102
}
330
6E4
100
AcDbXrecord
 10
0.0
 20
0.0
 30
0.0
  0
XRECORD
  5
6FF
102
{ACAD_REACTORS
330
6E4
102
}
330
6E4
100
AcDbXrecord
 10
0.0
 20
0.0
 30
0.0
  0
XRECORD
  5
702
102
{ACAD_REACTORS
330
6E4
102
}
330
6E4
100
AcDbXrecord
 10
0.0
 20
0.0
 30
0.0
  0
XRECORD
  5
700
102
{ACAD_REACTORS
330
6E4
102
}
330
6E4
100
AcDbXrecord
 10
0.0
 20
0.0
 30
0.0
  0
XRECORD
  5
701
102
{ACAD_REACTORS
330
6E4
102
}
330
6E4
100
AcDbXrecord
 10
0.0
 20
0.0
 30
0.0
  0
XRECORD
  5
6FE
102
{ACAD_REACTORS
330
6E4
102
}
330
6E4
100
AcDbXrecord
 10
0.0
 20
0.0
 30
0.0
  0
XRECORD
  5
6FB
102
{ACAD_REACTORS
330
6E4
102
}
330
6E4
100
AcDbXrecord
340
0
  0
XRECORD
  5
6FC
102
{ACAD_REACTORS
330
6E4
102
}
330
6E4
100
AcDbXrecord
 70
     0
  0
XRECORD
  5
6F0
102
{ACAD_REACTORS
330
6E4
102
}
330
6E4
100
AcDbXrecord
  1
{FAEB1C32-E019-11D5-929B-00C0DF256EC4}
  0
DICTIONARYVAR
  5
712
102
{ACAD_REACTORS
330
705
102
}
330
705
100
DictionaryVariables
280
     0
  1
1:1
  0
DICTIONARYVAR
  5
70C
102
{ACAD_REACTORS
330
705
102
}
330
705
100
DictionaryVariables
280
     0
  1
3.500000
  0
DICTIONARYVAR
  5
70D
102
{ACAD_REACTORS
330
705
102
}
330
705
100
DictionaryVariables
280
     0
  1
acadiso.lin
  0
DICTIONARYVAR
  5
707
102
{ACAD_REACTORS
330
705
102
}
330
705
100
DictionaryVariables
280
     0
  1
Standard
  0
DICTIONARYVAR
  5
706
102
{ACAD_REACTORS
330
705
102
}
330
705
100
DictionaryVariables
280
     0
  1
Standard
  0
DICTIONARYVAR
  5
70E
102
{ACAD_REACTORS
330
705
102
}
330
705
100
DictionaryVariables
280
     0
  1
2
  0
DICTIONARYVAR
  5
70F
102
{ACAD_REACTORS
330
705
102
}
330
705
100
DictionaryVariables
280
     0
  1
1
  0
DICTIONARYVAR
  5
713
102
{ACAD_REACTORS
330
705
102
}
330
705
100
DictionaryVariables
280
     0
  1
1
  0
DICTIONARYVAR
  5
709
102
{ACAD_REACTORS
330
705
102
}
330
705
100
DictionaryVariables
280
     0
  1
80.000000
  0
DICTIONARYVAR
  5
708
102
{ACAD_REACTORS
330
705
102
}
330
705
100
DictionaryVariables
280
     0
  1
5.000000
  0
DICTIONARY
  5
716
330
45
100
AcDbDictionary
280
     1
  3
ACAD_XREC_ROUNDTRIP
360
717
  0
DICTIONARY
  5
714
330
44
100
AcDbDictionary
280
     1
  3
ACAD_XREC_ROUNDTRIP
360
715
  0
DICTIONARY
  5
718
330
46
100
AcDbDictionary
280
     1
  3
ACAD_XREC_ROUNDTRIP
360
719
  0
XRECORD
  5
717
102
{ACAD_REACTORS
330
716
102
}
330
716
100
AcDbXrecord
102
MATERIAL
148
0.0
149
0.0
149
0.0
 93
        0
 94
      127
282
     0
 72
     1
 77
     1
171
     1
175
     1
179
     1
273
     0
  0
XRECORD
  5
715
102
{ACAD_REACTORS
330
714
102
}
330
714
100
AcDbXrecord
102
MATERIAL
148
0.0
149
0.0
149
0.0
 93
        0
 94
      127
282
     0
 72
     1
 77
     1
171
     1
175
     1
179
     1
273
     0
  0
XRECORD
  5
719
102
{ACAD_REACTORS
330
718
102
}
330
718
100
AcDbXrecord
102
MATERIAL
148
0.0
149
0.0
149
0.0
 93
        0
 94
      127
282
     0
 72
     1
 77
     1
171
     1
175
     1
179
     1
273
     0
  0
ENDSEC
  0
EOF
