  0
SECTION
  2
HEADER
  9
$ACADVER
  1
AC1014
  9
$ACADMAINTVER
 70
     9
  9
$DWGCODEPAGE
  3
ANSI_932
  9
$INSBASE
 10
0.0
 20
0.0
 30
0.0
  9
$EXTMIN
 10
140.0
 20
140.0
 30
0.0
  9
$EXTMAX
 10
5740.0
 20
4018.0
 30
0.0
  9
$LIMMIN
 10
0.0
 20
0.0
  9
$LIMMAX
 10
420.0
 20
297.0
  9
$ORTHOMODE
 70
     0
  9
$REGENMODE
 70
     1
  9
$FILLMODE
 70
     1
  9
$QTEXTMODE
 70
     0
  9
$MIRRTEXT
 70
     1
  9
$DRAGMODE
 70
     2
  9
$LTSCALE
 40
1.0
  9
$OSMODE
 70
    37
  9
$ATTMODE
 70
     1
  9
$TEXTSIZE
 40
2.5
  9
$TRACEWID
 40
1.0
  9
$TEXTSTYLE
  7
STANDARD
  9
$CLAYER
  8
Ｓ_１_１
  9
$CELTYPE
  6
BYLAYER
  9
$CECOLOR
 62
   256
  9
$CELTSCALE
 40
1.0
  9
$DELOBJ
 70
     1
  9
$DISPSILH
 70
     0
  9
$DIMSCALE
 40
1.0
  9
$DIMASZ
 40
2.5
  9
$DIMEXO
 40
0.625
  9
$DIMDLI
 40
3.75
  9
$DIMRND
 40
0.0
  9
$DIMDLE
 40
0.0
  9
$DIMEXE
 40
1.25
  9
$DIMTP
 40
0.0
  9
$DIMTM
 40
0.0
  9
$DIMTXT
 40
2.5
  9
$DIMCEN
 40
2.5
  9
$DIMTSZ
 40
0.0
  9
$DIMTOL
 70
     0
  9
$DIMLIM
 70
     0
  9
$DIMTIH
 70
     0
  9
$DIMTOH
 70
     0
  9
$DIMSE1
 70
     0
  9
$DIMSE2
 70
     0
  9
$DIMTAD
 70
     1
  9
$DIMZIN
 70
     8
  9
$DIMBLK
  1

  9
$DIMASO
 70
     1
  9
$DIMSHO
 70
     1
  9
$DIMPOST
  1

  9
$DIMAPOST
  1

  9
$DIMALT
 70
     0
  9
$DIMALTD
 70
     3
  9
$DIMALTF
 40
0.03937007874016
  9
$DIMLFAC
 40
1.0
  9
$DIMTOFL
 70
     1
  9
$DIMTVP
 40
0.0
  9
$DIMTIX
 70
     0
  9
$DIMSOXD
 70
     0
  9
$DIMSAH
 70
     0
  9
$DIMBLK1
  1

  9
$DIMBLK2
  1

  9
$DIMSTYLE
  2
ISO-25
  9
$DIMCLRD
 70
     0
  9
$DIMCLRE
 70
     0
  9
$DIMCLRT
 70
     0
  9
$DIMTFAC
 40
1.0
  9
$DIMGAP
 40
0.625
  9
$DIMJUST
 70
     0
  9
$DIMSD1
 70
     0
  9
$DIMSD2
 70
     0
  9
$DIMTOLJ
 70
     0
  9
$DIMTZIN
 70
     8
  9
$DIMALTZ
 70
     0
  9
$DIMALTTZ
 70
     0
  9
$DIMFIT
 70
     3
  9
$DIMUPT
 70
     0
  9
$DIMUNIT
 70
     2
  9
$DIMDEC
 70
     2
  9
$DIMTDEC
 70
     2
  9
$DIMALTU
 70
     2
  9
$DIMALTTD
 70
     3
  9
$DIMTXSTY
  7
STANDARD
  9
$DIMAUNIT
 70
     0
  9
$LUNITS
 70
     2
  9
$LUPREC
 70
     4
  9
$SKETCHINC
 40
1.0
  9
$FILLETRAD
 40
10.0
  9
$AUNITS
 70
     0
  9
$AUPREC
 70
     0
  9
$MENU
  1
.
  9
$ELEVATION
 40
0.0
  9
$PELEVATION
 40
0.0
  9
$THICKNESS
 40
0.0
  9
$LIMCHECK
 70
     0
  9
$CHAMFERA
 40
0.0
  9
$CHAMFERB
 40
0.0
  9
$CHAMFERC
 40
0.0
  9
$CHAMFERD
 40
0.0
  9
$SKPOLY
 70
     0
  9
$TDCREATE
 40
2459586.419348831
  9
$TDUPDATE
 40
2459586.4193536
  9
$TDINDWG
 40
0.0000000116
  9
$TDUSRTIMER
 40
0.0000000116
  9
$USRTIMER
 70
     1
  9
$ANGBASE
 50
0.0
  9
$ANGDIR
 70
     0
  9
$PDMODE
 70
     0
  9
$PDSIZE
 40
0.0
  9
$PLINEWID
 40
0.0
  9
$COORDS
 70
     1
  9
$SPLFRAME
 70
     0
  9
$SPLINETYPE
 70
     6
  9
$SPLINESEGS
 70
     8
  9
$ATTDIA
 70
     0
  9
$ATTREQ
 70
     1
  9
$HANDLING
 70
     1
  9
$HANDSEED
  5
698
  9
$SURFTAB1
 70
     6
  9
$SURFTAB2
 70
     6
  9
$SURFTYPE
 70
     6
  9
$SURFU
 70
     6
  9
$SURFV
 70
     6
  9
$UCSNAME
  2

  9
$UCSORG
 10
0.0
 20
0.0
 30
0.0
  9
$UCSXDIR
 10
1.0
 20
0.0
 30
0.0
  9
$UCSYDIR
 10
0.0
 20
1.0
 30
0.0
  9
$PUCSNAME
  2

  9
$PUCSORG
 10
0.0
 20
0.0
 30
0.0
  9
$PUCSXDIR
 10
1.0
 20
0.0
 30
0.0
  9
$PUCSYDIR
 10
0.0
 20
1.0
 30
0.0
  9
$USERI1
 70
     0
  9
$USERI2
 70
     0
  9
$USERI3
 70
     0
  9
$USERI4
 70
     0
  9
$USERI5
 70
     0
  9
$USERR1
 40
0.0
  9
$USERR2
 40
0.0
  9
$USERR3
 40
0.0
  9
$USERR4
 40
0.0
  9
$USERR5
 40
0.0
  9
$WORLDVIEW
 70
     1
  9
$SHADEDGE
 70
     3
  9
$SHADEDIF
 70
    70
  9
$TILEMODE
 70
     1
  9
$MAXACTVP
 70
    64
  9
$PINSBASE
 10
0.0
 20
0.0
 30
0.0
  9
$PLIMCHECK
 70
     0
  9
$PEXTMIN
 10
1.000000000000000E+20
 20
1.000000000000000E+20
 30
1.000000000000000E+20
  9
$PEXTMAX
 10
-1.000000000000000E+20
 20
-1.000000000000000E+20
 30
-1.000000000000000E+20
  9
$PLIMMIN
 10
0.0
 20
0.0
  9
$PLIMMAX
 10
420.0
 20
297.0
  9
$UNITMODE
 70
     0
  9
$VISRETAIN
 70
     1
  9
$PLINEGEN
 70
     0
  9
$PSLTSCALE
 70
     1
  9
$TREEDEPTH
 70
  3020
  9
$PICKSTYLE
 70
     1
  9
$CMLSTYLE
  2
STANDARD
  9
$CMLJUST
 70
     0
  9
$CMLSCALE
 40
20.0
  9
$PROXYGRAPHICS
 70
     1
  9
$MEASUREMENT
 70
     1
  0
ENDSEC
  0
SECTION
  2
CLASSES
  0
CLASS
  1
ACDBDICTIONARYWDFLT
  2
AcDbDictionaryWithDefault
  3
ObjectDBX Classes
 90
        0
280
     0
281
     0
  0
CLASS
  1
VISUALSTYLE
  2
AcDbVisualStyle
  3
ObjectDBX Classes
 90
     4095
280
     0
281
     0
  0
CLASS
  1
MATERIAL
  2
AcDbMaterial
  3
ObjectDBX Classes
 90
     1153
280
     0
281
     0
  0
CLASS
  1
SCALE
  2
AcDbScale
  3
ObjectDBX Classes
 90
     1153
280
     0
281
     0
  0
CLASS
  1
TABLESTYLE
  2
AcDbTableStyle
  3
ObjectDBX Classes
 90
     4095
280
     0
281
     0
  0
CLASS
  1
MLEADERSTYLE
  2
AcDbMLeaderStyle
  3
ACDB_MLEADERSTYLE_CLASS
 90
     4095
280
     0
281
     0
  0
CLASS
  1
SUN
  2
AcDbSun
  3
SCENEOE
 90
     1153
280
     0
281
     0
  0
CLASS
  1
DICTIONARYVAR
  2
AcDbDictionaryVar
  3
ObjectDBX Classes
 90
        0
280
     0
281
     0
  0
CLASS
  1
XRECORD
  2
AcDbXrecord
  3
ObjectDBX Classes
 90
        0
280
     0
281
     0
  0
CLASS
  1
LWPOLYLINE
  2
AcDbPolyline
  3
ObjectDBX Classes
 90
        0
280
     0
281
     1
  0
CLASS
  1
HATCH
  2
AcDbHatch
  3
ObjectDBX Classes
 90
        0
280
     0
281
     1
  0
CLASS
  1
ACDBPLACEHOLDER
  2
AcDbPlaceHolder
  3
ObjectDBX Classes
 90
        0
280
     0
281
     0
  0
CLASS
  1
LAYOUT
  2
AcDbLayout
  3
ObjectDBX Classes
 90
        0
280
     0
281
     0
  0
ENDSEC
  0
SECTION
  2
TABLES
  0
TABLE
  2
VPORT
  5
8
102
{ACAD_XDICTIONARY
360
68D
102
}
330
0
100
AcDbSymbolTable
 70
     1
  0
VPORT
  5
29
330
8
100
AcDbSymbolTableRecord
100
AcDbViewportTableRecord
  2
*ACTIVE
 70
     0
 10
0.0
 20
0.0
 11
1.0
 21
1.0
 12
2940.0
 22
2079.0
 13
0.0
 23
0.0
 14
10.0
 24
10.0
 15
10.0
 25
10.0
 16
0.0
 26
0.0
 36
1.0
 17
0.0
 27
0.0
 37
0.0
 40
3878.0
 41
1.444043321299639
 42
50.0
 43
0.0
 44
0.0
 50
0.0
 51
0.0
 71
     0
 72
  1000
 73
     1
 74
     3
 75
     0
 76
     0
 77
     0
 78
     0
  0
ENDTAB
  0
TABLE
  2
LTYPE
  5
5
330
0
100
AcDbSymbolTable
 70
     8
  0
LTYPE
  5
14
330
5
100
AcDbSymbolTableRecord
100
AcDbLinetypeTableRecord
  2
BYBLOCK
 70
     0
  3

 72
    65
 73
     0
 40
0.0
  0
LTYPE
  5
15
330
5
100
AcDbSymbolTableRecord
100
AcDbLinetypeTableRecord
  2
BYLAYER
 70
     0
  3

 72
    65
 73
     0
 40
0.0
  0
LTYPE
  5
16
330
5
100
AcDbSymbolTableRecord
100
AcDbLinetypeTableRecord
  2
CONTINUOUS
 70
     0
  3
Solid line
 72
    65
 73
     0
 40
0.0
  0
LTYPE
  5
6E
330
5
100
AcDbSymbolTableRecord
100
AcDbLinetypeTableRecord
  2
EXLTYPE0
 70
     0
  3
破線
 72
    65
 73
     2
 40
4.0
 49
3.0
 74
     0
 49
-1.0
 74
     0
  0
LTYPE
  5
6F
330
5
100
AcDbSymbolTableRecord
100
AcDbLinetypeTableRecord
  2
EXLTYPE1
 70
     0
  3
点線
 72
    65
 73
     2
 40
2.0
 49
1.0
 74
     0
 49
-1.0
 74
     0
  0
LTYPE
  5
70
330
5
100
AcDbSymbolTableRecord
100
AcDbLinetypeTableRecord
  2
EXLTYPE2
 70
     0
  3
一点鎖線
 72
    65
 73
     4
 40
13.0
 49
10.0
 74
     0
 49
-1.0
 74
     0
 49
1.0
 74
     0
 49
-1.0
 74
     0
  0
LTYPE
  5
71
330
5
100
AcDbSymbolTableRecord
100
AcDbLinetypeTableRecord
  2
EXLTYPE3
 70
     0
  3
二点鎖線
 72
    65
 73
     6
 40
15.0
 49
10.0
 74
     0
 49
-1.0
 74
     0
 49
1.0
 74
     0
 49
-1.0
 74
     0
 49
1.0
 74
     0
 49
-1.0
 74
     0
  0
LTYPE
  5
72
330
5
100
AcDbSymbolTableRecord
100
AcDbLinetypeTableRecord
  2
EXLTYPE4
 70
     0
  3
一点鎖線2
 72
    65
 73
     4
 40
3.5
 49
2.0
 74
     0
 49
-0.5
 74
     0
 49
0.5
 74
     0
 49
-0.5
 74
     0
  0
LTYPE
  5
73
330
5
100
AcDbSymbolTableRecord
100
AcDbLinetypeTableRecord
  2
EXLTYPE5
 70
     0
  3
二点鎖線2
 72
    65
 73
     6
 40
4.5
 49
2.0
 74
     0
 49
-0.5
 74
     0
 49
0.5
 74
     0
 49
-0.5
 74
     0
 49
0.5
 74
     0
 49
-0.5
 74
     0
  0
LTYPE
  5
74
330
5
100
AcDbSymbolTableRecord
100
AcDbLinetypeTableRecord
  2
EXLTYPE6
 70
     0
  3
一点鎖線4
 72
    65
 73
     4
 40
13.0
 49
10.0
 74
     0
 49
-1.0
 74
     0
 49
1.0
 74
     0
 49
-1.0
 74
     0
  0
ENDTAB
  0
TABLE
  2
LAYER
  5
2
330
0
100
AcDbSymbolTable
 70
     4
  0
LAYER
  5
10
330
2
100
AcDbSymbolTableRecord
100
AcDbLayerTableRecord
  2
0
 70
     0
 62
     7
  6
CONTINUOUS
  0
LAYER
  5
77
330
2
100
AcDbSymbolTableRecord
100
AcDbLayerTableRecord
  2
図面枠
 70
     4
 62
     7
  6
CONTINUOUS
  0
LAYER
  5
78
330
2
100
AcDbSymbolTableRecord
100
AcDbLayerTableRecord
  2
Ｓ_１_１
 70
     0
 62
     7
  6
CONTINUOUS
  0
LAYER
  5
559
330
2
100
AcDbSymbolTableRecord
100
AcDbLayerTableRecord
  2
DEFPOINTS
 70
     0
 62
     7
  6
CONTINUOUS
  0
ENDTAB
  0
TABLE
  2
STYLE
  5
3
330
0
100
AcDbSymbolTable
 70
     5
  0
STYLE
  5
11
330
3
100
AcDbSymbolTableRecord
100
AcDbTextStyleTableRecord
  2
STANDARD
 70
     0
 40
0.0
 41
1.0
 50
0.0
 71
     0
 42
2.5
  3
monotxt
  4
extfont
  0
STYLE
  5
75
330
3
100
AcDbSymbolTableRecord
100
AcDbTextStyleTableRecord
  2
EXCADSTD
 70
     0
 40
0.0
 41
1.0
 50
0.0
 71
     0
 42
2.5
  3
monotxt
  4
extfont
  0
STYLE
  5
76
330
3
100
AcDbSymbolTableRecord
100
AcDbTextStyleTableRecord
  2
EXCADVERT
 70
     4
 40
0.0
 41
1.0
 50
0.0
 71
     0
 42
2.5
  3
monotxt
  4
extfont
  0
STYLE
  5
DC
330
3
100
AcDbSymbolTableRecord
100
AcDbTextStyleTableRecord
  2
EXCADTTF1
 70
     0
 40
0.0
 41
1.0
 50
0.0
 71
     0
 42
2.5
  3
msgothic.ttc
  4

1001
ACAD
1000
MS Gothic
1071
    32817
  0
STYLE
  5
557
330
3
100
AcDbSymbolTableRecord
100
AcDbTextStyleTableRecord
  2
EXCADDIM1
 70
     0
 40
0.0
 41
1.0
 50
0.0
 71
     0
 42
2.5
  3
msgothic.ttc
  4

1001
ACAD
1000
MS Gothic
1071
    32817
  0
ENDTAB
  0
TABLE
  2
VIEW
  5
6
330
0
100
AcDbSymbolTable
 70
     0
  0
ENDTAB
  0
TABLE
  2
UCS
  5
7
330
0
100
AcDbSymbolTable
 70
     0
  0
ENDTAB
  0
TABLE
  2
APPID
  5
9
330
0
100
AcDbSymbolTable
 70
     2
  0
APPID
  5
12
330
9
100
AcDbSymbolTableRecord
100
AcDbRegAppTableRecord
  2
ACAD
 70
     0
  0
APPID
  5
697
330
9
100
AcDbSymbolTableRecord
100
AcDbRegAppTableRecord
  2
ACAD_MLEADERVER
 70
     0
  0
ENDTAB
  0
TABLE
  2
DIMSTYLE
  5
A
330
0
100
AcDbSymbolTable
 70
     1
  0
DIMSTYLE
105
27
102
{ACAD_REACTORS
330
558
330
566
330
572
330
57E
330
58B
330
598
330
5AD
330
5BA
330
5C8
330
5D5
330
60B
330
61C
330
629
330
636
330
642
330
64F
102
}
330
A
100
AcDbSymbolTableRecord
100
AcDbDimStyleTableRecord
  2
ISO-25
 70
     0
  3

  4

  5

  6

  7

 40
1.0
 41
2.5
 42
0.625
 43
3.75
 44
1.25
 45
0.0
 46
0.0
 47
0.0
 48
0.0
140
2.5
141
2.5
142
0.0
143
0.03937007874016
144
1.0
145
0.0
146
1.0
147
0.625
 71
     0
 72
     0
 73
     0
 74
     0
 75
     0
 76
     0
 77
     1
 78
     8
170
     0
171
     3
172
     1
173
     0
174
     0
175
     0
176
     0
177
     0
178
     0
270
     2
271
     2
272
     2
273
     2
274
     3
340
11
275
     0
280
     0
281
     0
282
     0
283
     0
284
     8
285
     0
286
     0
287
     5
288
     0
  0
ENDTAB
  0
TABLE
  2
BLOCK_RECORD
  5
1
330
0
100
AcDbSymbolTable
 70
    30
  0
BLOCK_RECORD
  5
1F
330
1
100
AcDbSymbolTableRecord
100
AcDbBlockTableRecord
  2
*MODEL_SPACE
  0
BLOCK_RECORD
  5
1B
330
1
100
AcDbSymbolTableRecord
100
AcDbBlockTableRecord
  2
*PAPER_SPACE
  0
BLOCK_RECORD
  5
79
330
1
100
AcDbSymbolTableRecord
100
AcDbBlockTableRecord
  2
EX_NORM
  0
BLOCK_RECORD
  5
7C
330
1
100
AcDbSymbolTableRecord
100
AcDbBlockTableRecord
  2
EX_BNORM
  0
BLOCK_RECORD
  5
7F
330
1
100
AcDbSymbolTableRecord
100
AcDbBlockTableRecord
  2
EX_BCIR
  0
BLOCK_RECORD
  5
82
330
1
100
AcDbSymbolTableRecord
100
AcDbBlockTableRecord
  2
EX_RCIVIL
  0
BLOCK_RECORD
  5
85
330
1
100
AcDbSymbolTableRecord
100
AcDbBlockTableRecord
  2
EX_SLANT
  0
BLOCK_RECORD
  5
88
330
1
100
AcDbSymbolTableRecord
100
AcDbBlockTableRecord
  2
EX_NONE
  0
BLOCK_RECORD
  5
8B
330
1
100
AcDbSymbolTableRecord
100
AcDbBlockTableRecord
  2
EX_CIVIL
  0
BLOCK_RECORD
  5
8E
330
1
100
AcDbSymbolTableRecord
100
AcDbBlockTableRecord
  2
EX_WCIR
  0
BLOCK_RECORD
  5
91
330
1
100
AcDbSymbolTableRecord
100
AcDbBlockTableRecord
  2
EX_WCIR2
  0
BLOCK_RECORD
  5
94
330
1
100
AcDbSymbolTableRecord
100
AcDbBlockTableRecord
  2
EX_WNORM
  0
BLOCK_RECORD
  5
97
330
1
100
AcDbSymbolTableRecord
100
AcDbBlockTableRecord
  2
EX_NNORM
  0
BLOCK_RECORD
  5
9A
330
1
100
AcDbSymbolTableRecord
100
AcDbBlockTableRecord
  2
EX_BBOX
  0
BLOCK_RECORD
  5
9D
330
1
100
AcDbSymbolTableRecord
100
AcDbBlockTableRecord
  2
EX_WBOX
  0
BLOCK_RECORD
  5
A0
330
1
100
AcDbSymbolTableRecord
100
AcDbBlockTableRecord
  2
EX_INTEGRAL
  0
BLOCK_RECORD
  5
55A
330
1
100
AcDbSymbolTableRecord
100
AcDbBlockTableRecord
  2
*D15
  0
BLOCK_RECORD
  5
567
330
1
100
AcDbSymbolTableRecord
100
AcDbBlockTableRecord
  2
*D16
  0
BLOCK_RECORD
  5
573
330
1
100
AcDbSymbolTableRecord
100
AcDbBlockTableRecord
  2
*D17
  0
BLOCK_RECORD
  5
57F
330
1
100
AcDbSymbolTableRecord
100
AcDbBlockTableRecord
  2
*D18
  0
BLOCK_RECORD
  5
58C
330
1
100
AcDbSymbolTableRecord
100
AcDbBlockTableRecord
  2
*D19
  0
BLOCK_RECORD
  5
599
330
1
100
AcDbSymbolTableRecord
100
AcDbBlockTableRecord
  2
*D20
  0
BLOCK_RECORD
  5
5AE
330
1
100
AcDbSymbolTableRecord
100
AcDbBlockTableRecord
  2
*D21
  0
BLOCK_RECORD
  5
5BB
330
1
100
AcDbSymbolTableRecord
100
AcDbBlockTableRecord
  2
*D22
  0
BLOCK_RECORD
  5
5C9
330
1
100
AcDbSymbolTableRecord
100
AcDbBlockTableRecord
  2
*D23
  0
BLOCK_RECORD
  5
5D6
330
1
100
AcDbSymbolTableRecord
100
AcDbBlockTableRecord
  2
*D24
  0
BLOCK_RECORD
  5
60C
330
1
100
AcDbSymbolTableRecord
100
AcDbBlockTableRecord
  2
*D25
  0
BLOCK_RECORD
  5
61D
330
1
100
AcDbSymbolTableRecord
100
AcDbBlockTableRecord
  2
*D26
  0
BLOCK_RECORD
  5
62A
330
1
100
AcDbSymbolTableRecord
100
AcDbBlockTableRecord
  2
*D27
  0
BLOCK_RECORD
  5
637
330
1
100
AcDbSymbolTableRecord
100
AcDbBlockTableRecord
  2
*D28
  0
BLOCK_RECORD
  5
643
330
1
100
AcDbSymbolTableRecord
100
AcDbBlockTableRecord
  2
*D29
  0
BLOCK_RECORD
  5
650
330
1
100
AcDbSymbolTableRecord
100
AcDbBlockTableRecord
  2
*D30
  0
ENDTAB
  0
ENDSEC
  0
SECTION
  2
BLOCKS
  0
BLOCK
  5
20
330
1F
100
AcDbEntity
  8
0
100
AcDbBlockBegin
  2
*MODEL_SPACE
 70
     0
 10
0.0
 20
0.0
 30
0.0
  3
*MODEL_SPACE
  1

  0
ENDBLK
  5
21
330
1F
100
AcDbEntity
  8
0
100
AcDbBlockEnd
  0
BLOCK
  5
1C
330
1B
100
AcDbEntity
 67
     1
  8
0
100
AcDbBlockBegin
  2
*PAPER_SPACE
 70
     0
 10
0.0
 20
0.0
 30
0.0
  3
*PAPER_SPACE
  1

  0
ENDBLK
  5
1D
330
1B
100
AcDbEntity
 67
     1
  8
0
100
AcDbBlockEnd
  0
BLOCK
  5
7A
330
79
100
AcDbEntity
  8
0
100
AcDbBlockBegin
  2
EX_NORM
 70
     0
 10
0.0
 20
0.0
 30
0.0
  3
EX_NORM
  1

  0
LINE
  5
A3
330
79
100
AcDbEntity
  8
0
  6
CONTINUOUS
 62
     0
100
AcDbLine
 10
0.0
 20
0.0
 30
0.0
 11
-1.0
 21
0.0
 31
0.0
  0
LINE
  5
A4
330
79
100
AcDbEntity
  8
0
  6
CONTINUOUS
 62
     0
100
AcDbLine
 10
0.0
 20
0.0
 30
0.0
 11
-1.0
 21
0.166666667
 31
0.0
  0
LINE
  5
A5
330
79
100
AcDbEntity
  8
0
  6
CONTINUOUS
 62
     0
100
AcDbLine
 10
0.0
 20
0.0
 30
0.0
 11
-1.0
 21
-0.166666667
 31
0.0
  0
ENDBLK
  5
7B
330
79
100
AcDbEntity
  8
0
100
AcDbBlockEnd
  0
BLOCK
  5
7D
330
7C
100
AcDbEntity
  8
0
100
AcDbBlockBegin
  2
EX_BNORM
 70
     0
 10
0.0
 20
0.0
 30
0.0
  3
EX_BNORM
  1

  0
LINE
  5
A6
330
7C
100
AcDbEntity
  8
0
  6
CONTINUOUS
 62
     0
100
AcDbLine
 10
0.0
 20
0.0
 30
0.0
 11
-1.0
 21
0.0
 31
0.0
  0
LINE
  5
A7
330
7C
100
AcDbEntity
  8
0
  6
CONTINUOUS
 62
     0
100
AcDbLine
 10
0.0
 20
0.0
 30
0.0
 11
-1.0
 21
0.166666667
 31
0.0
  0
LINE
  5
A8
330
7C
100
AcDbEntity
  8
0
  6
CONTINUOUS
 62
     0
100
AcDbLine
 10
0.0
 20
0.0
 30
0.0
 11
-1.0
 21
-0.166666667
 31
0.0
  0
LINE
  5
A9
330
7C
100
AcDbEntity
  8
0
  6
CONTINUOUS
 62
     0
100
AcDbLine
 10
0.0
 20
0.0
 30
0.0
 11
-1.0
 21
0.083333333
 31
0.0
  0
LINE
  5
AA
330
7C
100
AcDbEntity
  8
0
  6
CONTINUOUS
 62
     0
100
AcDbLine
 10
0.0
 20
0.0
 30
0.0
 11
-1.0
 21
-0.083333333
 31
0.0
  0
LINE
  5
AB
330
7C
100
AcDbEntity
  8
0
  6
CONTINUOUS
 62
     0
100
AcDbLine
 10
-1.0
 20
0.166666667
 30
0.0
 11
-1.0
 21
-0.166666667
 31
0.0
  0
ENDBLK
  5
7E
330
7C
100
AcDbEntity
  8
0
100
AcDbBlockEnd
  0
BLOCK
  5
80
330
7F
100
AcDbEntity
  8
0
100
AcDbBlockBegin
  2
EX_BCIR
 70
     0
 10
0.0
 20
0.0
 30
0.0
  3
EX_BCIR
  1

  0
LINE
  5
AC
330
7F
100
AcDbEntity
  8
0
  6
CONTINUOUS
 62
     0
100
AcDbLine
 10
0.0
 20
0.0
 30
0.0
 11
-1.0
 21
0.0
 31
0.0
  0
CIRCLE
  5
AD
330
7F
100
AcDbEntity
  8
0
  6
CONTINUOUS
 62
     0
100
AcDbCircle
 10
0.0
 20
0.0
 30
0.0
 40
0.5
  0
CIRCLE
  5
AE
330
7F
100
AcDbEntity
  8
0
  6
CONTINUOUS
 62
     0
100
AcDbCircle
 10
0.0
 20
0.0
 30
0.0
 40
0.25
  0
ENDBLK
  5
81
330
7F
100
AcDbEntity
  8
0
100
AcDbBlockEnd
  0
BLOCK
  5
83
330
82
100
AcDbEntity
  8
0
100
AcDbBlockBegin
  2
EX_RCIVIL
 70
     0
 10
0.0
 20
0.0
 30
0.0
  3
EX_RCIVIL
  1

  0
LINE
  5
AF
330
82
100
AcDbEntity
  8
0
  6
CONTINUOUS
 62
     0
100
AcDbLine
 10
0.0
 20
0.0
 30
0.0
 11
-1.0
 21
0.0
 31
0.0
  0
LINE
  5
B0
330
82
100
AcDbEntity
  8
0
  6
CONTINUOUS
 62
     0
100
AcDbLine
 10
-1.0
 20
-0.25
 30
0.0
 11
0.0
 21
-0.25
 31
0.0
  0
LINE
  5
B1
330
82
100
AcDbEntity
  8
0
  6
CONTINUOUS
 62
     0
100
AcDbLine
 10
-1.0
 20
-0.125
 30
0.0
 11
0.0
 21
-0.125
 31
0.0
  0
ENDBLK
  5
84
330
82
100
AcDbEntity
  8
0
100
AcDbBlockEnd
  0
BLOCK
  5
86
330
85
100
AcDbEntity
  8
0
100
AcDbBlockBegin
  2
EX_SLANT
 70
     0
 10
0.0
 20
0.0
 30
0.0
  3
EX_SLANT
  1

  0
LINE
  5
B2
330
85
100
AcDbEntity
  8
0
  6
CONTINUOUS
 62
     0
100
AcDbLine
 10
0.0
 20
0.0
 30
0.0
 11
-1.0
 21
0.0
 31
0.0
  0
LINE
  5
B3
330
85
100
AcDbEntity
  8
0
  6
CONTINUOUS
 62
     0
100
AcDbLine
 10
0.707106781
 20
0.707106781
 30
0.0
 11
-0.707106781
 21
-0.707106781
 31
0.0
  0
ENDBLK
  5
87
330
85
100
AcDbEntity
  8
0
100
AcDbBlockEnd
  0
BLOCK
  5
89
330
88
100
AcDbEntity
  8
0
100
AcDbBlockBegin
  2
EX_NONE
 70
     0
 10
0.0
 20
0.0
 30
0.0
  3
EX_NONE
  1

  0
LINE
  5
B4
330
88
100
AcDbEntity
  8
0
  6
CONTINUOUS
 62
     0
100
AcDbLine
 10
0.0
 20
0.0
 30
0.0
 11
-1.0
 21
0.0
 31
0.0
  0
ENDBLK
  5
8A
330
88
100
AcDbEntity
  8
0
100
AcDbBlockEnd
  0
BLOCK
  5
8C
330
8B
100
AcDbEntity
  8
0
100
AcDbBlockBegin
  2
EX_CIVIL
 70
     0
 10
0.0
 20
0.0
 30
0.0
  3
EX_CIVIL
  1

  0
LINE
  5
B5
330
8B
100
AcDbEntity
  8
0
  6
CONTINUOUS
 62
     0
100
AcDbLine
 10
0.0
 20
0.0
 30
0.0
 11
-1.0
 21
0.0
 31
0.0
  0
LINE
  5
B6
330
8B
100
AcDbEntity
  8
0
  6
CONTINUOUS
 62
     0
100
AcDbLine
 10
-1.0
 20
0.25
 30
0.0
 11
0.0
 21
0.25
 31
0.0
  0
LINE
  5
B7
330
8B
100
AcDbEntity
  8
0
  6
CONTINUOUS
 62
     0
100
AcDbLine
 10
-1.0
 20
0.125
 30
0.0
 11
0.0
 21
0.125
 31
0.0
  0
ENDBLK
  5
8D
330
8B
100
AcDbEntity
  8
0
100
AcDbBlockEnd
  0
BLOCK
  5
8F
330
8E
100
AcDbEntity
  8
0
100
AcDbBlockBegin
  2
EX_WCIR
 70
     0
 10
0.0
 20
0.0
 30
0.0
  3
EX_WCIR
  1

  0
LINE
  5
B8
330
8E
100
AcDbEntity
  8
0
  6
CONTINUOUS
 62
     0
100
AcDbLine
 10
0.0
 20
0.0
 30
0.0
 11
-1.0
 21
0.0
 31
0.0
  0
CIRCLE
  5
B9
330
8E
100
AcDbEntity
  8
0
  6
CONTINUOUS
 62
     0
100
AcDbCircle
 10
0.0
 20
0.0
 30
0.0
 40
0.5
  0
ENDBLK
  5
90
330
8E
100
AcDbEntity
  8
0
100
AcDbBlockEnd
  0
BLOCK
  5
92
330
91
100
AcDbEntity
  8
0
100
AcDbBlockBegin
  2
EX_WCIR2
 70
     0
 10
0.0
 20
0.0
 30
0.0
  3
EX_WCIR2
  1

  0
LINE
  5
BA
330
91
100
AcDbEntity
  8
0
  6
CONTINUOUS
 62
     0
100
AcDbLine
 10
-0.5
 20
0.0
 30
0.0
 11
-1.0
 21
0.0
 31
0.0
  0
CIRCLE
  5
BB
330
91
100
AcDbEntity
  8
0
  6
CONTINUOUS
 62
     0
100
AcDbCircle
 10
0.0
 20
0.0
 30
0.0
 40
0.5
  0
ENDBLK
  5
93
330
91
100
AcDbEntity
  8
0
100
AcDbBlockEnd
  0
BLOCK
  5
95
330
94
100
AcDbEntity
  8
0
100
AcDbBlockBegin
  2
EX_WNORM
 70
     0
 10
0.0
 20
0.0
 30
0.0
  3
EX_WNORM
  1

  0
LINE
  5
BC
330
94
100
AcDbEntity
  8
0
  6
CONTINUOUS
 62
     0
100
AcDbLine
 10
-1.0
 20
0.0
 30
0.0
 11
-1.0
 21
0.0
 31
0.0
  0
LINE
  5
BD
330
94
100
AcDbEntity
  8
0
  6
CONTINUOUS
 62
     0
100
AcDbLine
 10
0.0
 20
0.0
 30
0.0
 11
-1.0
 21
0.166666667
 31
0.0
  0
LINE
  5
BE
330
94
100
AcDbEntity
  8
0
  6
CONTINUOUS
 62
     0
100
AcDbLine
 10
0.0
 20
0.0
 30
0.0
 11
-1.0
 21
-0.166666667
 31
0.0
  0
LINE
  5
BF
330
94
100
AcDbEntity
  8
0
  6
CONTINUOUS
 62
     0
100
AcDbLine
 10
-1.0
 20
0.166666667
 30
0.0
 11
-1.0
 21
-0.166666667
 31
0.0
  0
ENDBLK
  5
96
330
94
100
AcDbEntity
  8
0
100
AcDbBlockEnd
  0
BLOCK
  5
98
330
97
100
AcDbEntity
  8
0
100
AcDbBlockBegin
  2
EX_NNORM
 70
     0
 10
0.0
 20
0.0
 30
0.0
  3
EX_NNORM
  1

  0
LINE
  5
C0
330
97
100
AcDbEntity
  8
0
  6
CONTINUOUS
 62
     0
100
AcDbLine
 10
0.0
 20
0.0
 30
0.0
 11
-1.0
 21
0.0
 31
0.0
  0
LINE
  5
C1
330
97
100
AcDbEntity
  8
0
  6
CONTINUOUS
 62
     0
100
AcDbLine
 10
0.0
 20
0.0
 30
0.0
 11
-1.0
 21
0.166666667
 31
0.0
  0
LINE
  5
C2
330
97
100
AcDbEntity
  8
0
  6
CONTINUOUS
 62
     0
100
AcDbLine
 10
0.0
 20
0.0
 30
0.0
 11
-1.0
 21
-0.166666667
 31
0.0
  0
LINE
  5
C3
330
97
100
AcDbEntity
  8
0
  6
CONTINUOUS
 62
     0
100
AcDbLine
 10
-1.0
 20
0.166666667
 30
0.0
 11
-1.0
 21
-0.166666667
 31
0.0
  0
ENDBLK
  5
99
330
97
100
AcDbEntity
  8
0
100
AcDbBlockEnd
  0
BLOCK
  5
9B
330
9A
100
AcDbEntity
  8
0
100
AcDbBlockBegin
  2
EX_BBOX
 70
     0
 10
0.0
 20
0.0
 30
0.0
  3
EX_BBOX
  1

  0
LINE
  5
C4
330
9A
100
AcDbEntity
  8
0
  6
CONTINUOUS
 62
     0
100
AcDbLine
 10
0.0
 20
0.0
 30
0.0
 11
-1.0
 21
0.0
 31
0.0
  0
LINE
  5
C5
330
9A
100
AcDbEntity
  8
0
  6
CONTINUOUS
 62
     0
100
AcDbLine
 10
-0.5
 20
0.5
 30
0.0
 11
0.5
 21
0.5
 31
0.0
  0
LINE
  5
C6
330
9A
100
AcDbEntity
  8
0
  6
CONTINUOUS
 62
     0
100
AcDbLine
 10
0.5
 20
0.5
 30
0.0
 11
0.5
 21
-0.5
 31
0.0
  0
LINE
  5
C7
330
9A
100
AcDbEntity
  8
0
  6
CONTINUOUS
 62
     0
100
AcDbLine
 10
0.5
 20
-0.5
 30
0.0
 11
-0.5
 21
-0.5
 31
0.0
  0
LINE
  5
C8
330
9A
100
AcDbEntity
  8
0
  6
CONTINUOUS
 62
     0
100
AcDbLine
 10
-0.5
 20
-0.5
 30
0.0
 11
-0.5
 21
0.5
 31
0.0
  0
LINE
  5
C9
330
9A
100
AcDbEntity
  8
0
  6
CONTINUOUS
 62
     0
100
AcDbLine
 10
-0.25
 20
0.25
 30
0.0
 11
0.25
 21
0.25
 31
0.0
  0
LINE
  5
CA
330
9A
100
AcDbEntity
  8
0
  6
CONTINUOUS
 62
     0
100
AcDbLine
 10
0.25
 20
0.25
 30
0.0
 11
0.25
 21
-0.25
 31
0.0
  0
LINE
  5
CB
330
9A
100
AcDbEntity
  8
0
  6
CONTINUOUS
 62
     0
100
AcDbLine
 10
0.25
 20
-0.25
 30
0.0
 11
-0.25
 21
-0.25
 31
0.0
  0
LINE
  5
CC
330
9A
100
AcDbEntity
  8
0
  6
CONTINUOUS
 62
     0
100
AcDbLine
 10
-0.25
 20
-0.25
 30
0.0
 11
-0.25
 21
0.25
 31
0.0
  0
ENDBLK
  5
9C
330
9A
100
AcDbEntity
  8
0
100
AcDbBlockEnd
  0
BLOCK
  5
9E
330
9D
100
AcDbEntity
  8
0
100
AcDbBlockBegin
  2
EX_WBOX
 70
     0
 10
0.0
 20
0.0
 30
0.0
  3
EX_WBOX
  1

  0
LINE
  5
CD
330
9D
100
AcDbEntity
  8
0
  6
CONTINUOUS
 62
     0
100
AcDbLine
 10
-0.5
 20
0.0
 30
0.0
 11
-1.0
 21
0.0
 31
0.0
  0
LINE
  5
CE
330
9D
100
AcDbEntity
  8
0
  6
CONTINUOUS
 62
     0
100
AcDbLine
 10
-0.5
 20
0.5
 30
0.0
 11
0.5
 21
0.5
 31
0.0
  0
LINE
  5
CF
330
9D
100
AcDbEntity
  8
0
  6
CONTINUOUS
 62
     0
100
AcDbLine
 10
0.5
 20
0.5
 30
0.0
 11
0.5
 21
-0.5
 31
0.0
  0
LINE
  5
D0
330
9D
100
AcDbEntity
  8
0
  6
CONTINUOUS
 62
     0
100
AcDbLine
 10
0.5
 20
-0.5
 30
0.0
 11
-0.5
 21
-0.5
 31
0.0
  0
LINE
  5
D1
330
9D
100
AcDbEntity
  8
0
  6
CONTINUOUS
 62
     0
100
AcDbLine
 10
-0.5
 20
-0.5
 30
0.0
 11
-0.5
 21
0.5
 31
0.0
  0
ENDBLK
  5
9F
330
9D
100
AcDbEntity
  8
0
100
AcDbBlockEnd
  0
BLOCK
  5
A1
330
A0
100
AcDbEntity
  8
0
100
AcDbBlockBegin
  2
EX_INTEGRAL
 70
     0
 10
0.0
 20
0.0
 30
0.0
  3
EX_INTEGRAL
  1

  0
LINE
  5
D2
330
A0
100
AcDbEntity
  8
0
  6
CONTINUOUS
 62
     0
100
AcDbLine
 10
0.0
 20
0.0
 30
0.0
 11
-1.0
 21
0.0
 31
0.0
  0
ARC
  5
D3
330
A0
100
AcDbEntity
  8
0
  6
CONTINUOUS
 62
     0
100
AcDbCircle
 10
0.542115
 20
0.164992
 30
0.0
 40
0.56667
100
AcDbArc
 50
73.07249033629006
 51
196.9275130221199
  0
ARC
  5
D4
330
A0
100
AcDbEntity
  8
0
  6
CONTINUOUS
 62
     0
100
AcDbCircle
 10
-0.542115
 20
-0.164992
 30
0.0
 40
0.56667
100
AcDbArc
 50
253.0724869220464
 51
16.9275130559125
  0
ENDBLK
  5
A2
330
A0
100
AcDbEntity
  8
0
100
AcDbBlockEnd
  0
BLOCK
  5
55B
330
55A
100
AcDbEntity
  8
0
100
AcDbBlockBegin
  2
*D15
 70
     1
 10
0.0
 20
0.0
 30
0.0
  3
*D15
  1

  0
LINE
  5
55D
330
55A
100
AcDbEntity
  8
Ｓ_１_１
  6
CONTINUOUS
 62
     2
100
AcDbLine
 10
2652.9463565574
 20
1189.5245803279
 30
0.0
 11
2652.9463565574
 21
1694.0
 31
0.0
  0
LINE
  5
55E
330
55A
100
AcDbEntity
  8
Ｓ_１_１
  6
CONTINUOUS
 62
     2
100
AcDbLine
 10
2997.2085655737
 20
1189.5245803279
 30
0.0
 11
2997.2085655737
 21
1694.0
 31
0.0
  0
LINE
  5
55F
330
55A
100
AcDbEntity
  8
Ｓ_１_１
  6
CONTINUOUS
 62
     2
100
AcDbLine
 10
2694.9463565574
 20
1680.0
 30
0.0
 11
2955.2085655737
 21
1680.0
 31
0.0
  0
INSERT
  5
560
330
55A
100
AcDbEntity
  8
Ｓ_１_１
 62
     2
100
AcDbBlockReference
  2
EX_NORM
 10
2652.9463565574
 20
1680.0
 30
0.0
 41
42.0
 42
42.0
 43
42.0
 50
180.0
  0
INSERT
  5
561
330
55A
100
AcDbEntity
  8
Ｓ_１_１
 62
     2
100
AcDbBlockReference
  2
EX_NORM
 10
2997.2085655737
 20
1680.0
 30
0.0
 41
42.0
 42
42.0
 43
42.0
  0
MTEXT
  5
562
330
55A
100
AcDbEntity
  8
Ｓ_１_１
 62
     2
100
AcDbMText
 10
2825.07746106555
 20
1718.5
 30
0.0
 40
48.48065526307409
 41
0.0
 71
     5
 72
     1
  1
344
  7
EXCADDIM1
  0
POINT
  5
563
330
55A
100
AcDbEntity
  8
DEFPOINTS
 62
     0
100
AcDbPoint
 10
2652.9463565574
 20
1168.5245803279
 30
0.0
  0
POINT
  5
564
330
55A
100
AcDbEntity
  8
DEFPOINTS
 62
     0
100
AcDbPoint
 10
2997.2085655737
 20
1168.5245803279
 30
0.0
  0
POINT
  5
565
330
55A
100
AcDbEntity
  8
DEFPOINTS
 62
     0
100
AcDbPoint
 10
2997.2085655737
 20
1680.0
 30
0.0
  0
ENDBLK
  5
55C
330
55A
100
AcDbEntity
  8
0
100
AcDbBlockEnd
  0
BLOCK
  5
568
330
567
100
AcDbEntity
  8
0
100
AcDbBlockBegin
  2
*D16
 70
     1
 10
0.0
 20
0.0
 30
0.0
  3
*D16
  1

  0
LINE
  5
56A
330
567
100
AcDbEntity
  8
Ｓ_１_１
  6
CONTINUOUS
 62
     2
100
AcDbLine
 10
3144.7495860656
 20
1484.6065327869
 30
0.0
 11
3144.7495860656
 21
1694.0
 31
0.0
  0
LINE
  5
56B
330
567
100
AcDbEntity
  8
Ｓ_１_１
  6
CONTINUOUS
 62
     2
100
AcDbLine
 10
3039.2085655737
 20
1680.0
 30
0.0
 11
3102.7495860656
 21
1680.0
 31
0.0
  0
INSERT
  5
56C
330
567
100
AcDbEntity
  8
Ｓ_１_１
 62
     2
100
AcDbBlockReference
  2
EX_NORM
 10
2997.2085655737
 20
1680.0
 30
0.0
 41
42.0
 42
42.0
 43
42.0
 50
180.0
  0
INSERT
  5
56D
330
567
100
AcDbEntity
  8
Ｓ_１_１
 62
     2
100
AcDbBlockReference
  2
EX_NORM
 10
3144.7495860656
 20
1680.0
 30
0.0
 41
42.0
 42
42.0
 43
42.0
  0
MTEXT
  5
56E
330
567
100
AcDbEntity
  8
Ｓ_１_１
 62
     2
100
AcDbMText
 10
3070.97907581965
 20
1718.5
 30
0.0
 40
48.48065526307409
 41
0.0
 71
     5
 72
     1
  1
148
  7
EXCADDIM1
  0
POINT
  5
56F
330
567
100
AcDbEntity
  8
DEFPOINTS
 62
     0
100
AcDbPoint
 10
2997.2085655737
 20
1168.5245803279
 30
0.0
  0
POINT
  5
570
330
567
100
AcDbEntity
  8
DEFPOINTS
 62
     0
100
AcDbPoint
 10
3144.7495860656
 20
1463.6065327869
 30
0.0
  0
POINT
  5
571
330
567
100
AcDbEntity
  8
DEFPOINTS
 62
     0
100
AcDbPoint
 10
3144.7495860656
 20
1680.0
 30
0.0
  0
ENDBLK
  5
569
330
567
100
AcDbEntity
  8
0
100
AcDbBlockEnd
  0
BLOCK
  5
574
330
573
100
AcDbEntity
  8
0
100
AcDbBlockBegin
  2
*D17
 70
     1
 10
0.0
 20
0.0
 30
0.0
  3
*D17
  1

  0
LINE
  5
576
330
573
100
AcDbEntity
  8
Ｓ_１_１
  6
CONTINUOUS
 62
     2
100
AcDbLine
 10
3552.9463418033
 20
1484.6065327869
 30
0.0
 11
3552.9463418033
 21
1694.0
 31
0.0
  0
LINE
  5
577
330
573
100
AcDbEntity
  8
Ｓ_１_１
  6
CONTINUOUS
 62
     2
100
AcDbLine
 10
3186.7495860656
 20
1680.0
 30
0.0
 11
3510.9463418033
 21
1680.0
 31
0.0
  0
INSERT
  5
578
330
573
100
AcDbEntity
  8
Ｓ_１_１
 62
     2
100
AcDbBlockReference
  2
EX_NORM
 10
3144.7495860656
 20
1680.0
 30
0.0
 41
42.0
 42
42.0
 43
42.0
 50
180.0
  0
INSERT
  5
579
330
573
100
AcDbEntity
  8
Ｓ_１_１
 62
     2
100
AcDbBlockReference
  2
EX_NORM
 10
3552.9463418033
 20
1680.0
 30
0.0
 41
42.0
 42
42.0
 43
42.0
  0
MTEXT
  5
57A
330
573
100
AcDbEntity
  8
Ｓ_１_１
 62
     2
100
AcDbMText
 10
3348.84796393445
 20
1718.5
 30
0.0
 40
48.48065526307409
 41
0.0
 71
     5
 72
     1
  1
408
  7
EXCADDIM1
  0
POINT
  5
57B
330
573
100
AcDbEntity
  8
DEFPOINTS
 62
     0
100
AcDbPoint
 10
3144.7495860656
 20
1463.6065327869
 30
0.0
  0
POINT
  5
57C
330
573
100
AcDbEntity
  8
DEFPOINTS
 62
     0
100
AcDbPoint
 10
3552.9463418033
 20
1463.6065327869
 30
0.0
  0
POINT
  5
57D
330
573
100
AcDbEntity
  8
DEFPOINTS
 62
     0
100
AcDbPoint
 10
3552.9463418033
 20
1680.0
 30
0.0
  0
ENDBLK
  5
575
330
573
100
AcDbEntity
  8
0
100
AcDbBlockEnd
  0
BLOCK
  5
580
330
57F
100
AcDbEntity
  8
0
100
AcDbBlockBegin
  2
*D18
 70
     1
 10
0.0
 20
0.0
 30
0.0
  3
*D18
  1

  0
LINE
  5
582
330
57F
100
AcDbEntity
  8
Ｓ_１_１
  6
CONTINUOUS
 62
     2
100
AcDbLine
 10
2652.9463565574
 20
1189.5245803279
 30
0.0
 11
2652.9463565574
 21
1774.0
 31
0.0
  0
LINE
  5
583
330
57F
100
AcDbEntity
  8
Ｓ_１_１
  6
CONTINUOUS
 62
     2
100
AcDbLine
 10
3552.9463418033
 20
1484.6065327869
 30
0.0
 11
3552.9463418033
 21
1774.0
 31
0.0
  0
LINE
  5
584
330
57F
100
AcDbEntity
  8
Ｓ_１_１
  6
CONTINUOUS
 62
     2
100
AcDbLine
 10
2694.9463565574
 20
1760.0
 30
0.0
 11
3510.9463418033
 21
1760.0
 31
0.0
  0
INSERT
  5
585
330
57F
100
AcDbEntity
  8
Ｓ_１_１
 62
     2
100
AcDbBlockReference
  2
EX_NORM
 10
2652.9463565574
 20
1760.0
 30
0.0
 41
42.0
 42
42.0
 43
42.0
 50
180.0
  0
INSERT
  5
586
330
57F
100
AcDbEntity
  8
Ｓ_１_１
 62
     2
100
AcDbBlockReference
  2
EX_NORM
 10
3552.9463418033
 20
1760.0
 30
0.0
 41
42.0
 42
42.0
 43
42.0
  0
MTEXT
  5
587
330
57F
100
AcDbEntity
  8
Ｓ_１_１
 62
     2
100
AcDbMText
 10
3102.94634918035
 20
1798.5
 30
0.0
 40
48.48065526307409
 41
0.0
 71
     5
 72
     1
  1
900
  7
EXCADDIM1
  0
POINT
  5
588
330
57F
100
AcDbEntity
  8
DEFPOINTS
 62
     0
100
AcDbPoint
 10
2652.9463565574
 20
1168.5245803279
 30
0.0
  0
POINT
  5
589
330
57F
100
AcDbEntity
  8
DEFPOINTS
 62
     0
100
AcDbPoint
 10
3552.9463418033
 20
1463.6065327869
 30
0.0
  0
POINT
  5
58A
330
57F
100
AcDbEntity
  8
DEFPOINTS
 62
     0
100
AcDbPoint
 10
3552.9463418033
 20
1760.0
 30
0.0
  0
ENDBLK
  5
581
330
57F
100
AcDbEntity
  8
0
100
AcDbBlockEnd
  0
BLOCK
  5
58D
330
58C
100
AcDbEntity
  8
0
100
AcDbBlockBegin
  2
*D19
 70
     1
 10
0.0
 20
0.0
 30
0.0
  3
*D19
  1

  0
LINE
  5
58F
330
58C
100
AcDbEntity
  8
Ｓ_１_１
  6
CONTINUOUS
 62
     2
100
AcDbLine
 10
3123.7495860656
 20
1463.6065327869
 30
0.0
 11
2466.0
 21
1463.6065327869
 31
0.0
  0
LINE
  5
590
330
58C
100
AcDbEntity
  8
Ｓ_１_１
  6
CONTINUOUS
 62
     2
100
AcDbLine
 10
2631.9463565574
 20
1168.5245803279
 30
0.0
 11
2466.0
 21
1168.5245803279
 31
0.0
  0
LINE
  5
591
330
58C
100
AcDbEntity
  8
Ｓ_１_１
  6
CONTINUOUS
 62
     2
100
AcDbLine
 10
2480.0
 20
1421.6065327869
 30
0.0
 11
2480.0
 21
1210.5245803279
 31
0.0
  0
INSERT
  5
592
330
58C
100
AcDbEntity
  8
Ｓ_１_１
 62
     2
100
AcDbBlockReference
  2
EX_NORM
 10
2480.0
 20
1463.6065327869
 30
0.0
 41
42.0
 42
42.0
 43
42.0
 50
90.0
  0
INSERT
  5
593
330
58C
100
AcDbEntity
  8
Ｓ_１_１
 62
     2
100
AcDbBlockReference
  2
EX_NORM
 10
2480.0
 20
1168.5245803279
 30
0.0
 41
42.0
 42
42.0
 43
42.0
 50
270.0
  0
MTEXT
  5
594
330
58C
100
AcDbEntity
  8
Ｓ_１_１
 62
     2
100
AcDbMText
 10
2441.5
 20
1316.0655565574
 30
0.0
 40
48.48065526307409
 41
0.0
 71
     5
 72
     1
  1
295
  7
EXCADDIM1
 11
0.0
 21
1.0
 31
0.0
  0
POINT
  5
595
330
58C
100
AcDbEntity
  8
DEFPOINTS
 62
     0
100
AcDbPoint
 10
3144.7495860656
 20
1463.6065327869
 30
0.0
  0
POINT
  5
596
330
58C
100
AcDbEntity
  8
DEFPOINTS
 62
     0
100
AcDbPoint
 10
2652.9463565574
 20
1168.5245803279
 30
0.0
  0
POINT
  5
597
330
58C
100
AcDbEntity
  8
DEFPOINTS
 62
     0
100
AcDbPoint
 10
2480.0
 20
1168.5245803279
 30
0.0
  0
ENDBLK
  5
58E
330
58C
100
AcDbEntity
  8
0
100
AcDbBlockEnd
  0
BLOCK
  5
59A
330
599
100
AcDbEntity
  8
0
100
AcDbBlockBegin
  2
*D20
 70
     1
 10
0.0
 20
0.0
 30
0.0
  3
*D20
  1

  0
LINE
  5
59C
330
599
100
AcDbEntity
  8
Ｓ_１_１
  6
CONTINUOUS
 62
     2
100
AcDbLine
 10
2631.9463565574
 20
1168.5245803279
 30
0.0
 11
2466.0
 21
1168.5245803279
 31
0.0
  0
LINE
  5
59D
330
599
100
AcDbEntity
  8
Ｓ_１_１
  6
CONTINUOUS
 62
     2
100
AcDbLine
 10
2631.9463565574
 20
480.0000000000099
 30
0.0
 11
2466.0
 21
480.0000000000099
 31
0.0
  0
LINE
  5
59E
330
599
100
AcDbEntity
  8
Ｓ_１_１
  6
CONTINUOUS
 62
     2
100
AcDbLine
 10
2480.0
 20
1126.5245803279
 30
0.0
 11
2480.0
 21
522.00000000001
 31
0.0
  0
INSERT
  5
59F
330
599
100
AcDbEntity
  8
Ｓ_１_１
 62
     2
100
AcDbBlockReference
  2
EX_NORM
 10
2480.0
 20
1168.5245803279
 30
0.0
 41
42.0
 42
42.0
 43
42.0
 50
90.0
  0
INSERT
  5
5A0
330
599
100
AcDbEntity
  8
Ｓ_１_１
 62
     2
100
AcDbBlockReference
  2
EX_NORM
 10
2480.0
 20
480.0000000000099
 30
0.0
 41
42.0
 42
42.0
 43
42.0
 50
270.0
  0
MTEXT
  5
5A1
330
599
100
AcDbEntity
  8
Ｓ_１_１
 62
     2
100
AcDbMText
 10
2441.5
 20
824.262290163955
 30
0.0
 40
48.48065526307409
 41
0.0
 71
     5
 72
     1
  1
689
  7
EXCADDIM1
 11
0.0
 21
1.0
 31
0.0
  0
POINT
  5
5A2
330
599
100
AcDbEntity
  8
DEFPOINTS
 62
     0
100
AcDbPoint
 10
2652.9463565574
 20
1168.5245803279
 30
0.0
  0
POINT
  5
5A3
330
599
100
AcDbEntity
  8
DEFPOINTS
 62
     0
100
AcDbPoint
 10
2652.9463565574
 20
480.0000000000099
 30
0.0
  0
POINT
  5
5A4
330
599
100
AcDbEntity
  8
DEFPOINTS
 62
     0
100
AcDbPoint
 10
2480.0
 20
480.0000000000099
 30
0.0
  0
ENDBLK
  5
59B
330
599
100
AcDbEntity
  8
0
100
AcDbBlockEnd
  0
BLOCK
  5
5AF
330
5AE
100
AcDbEntity
  8
0
100
AcDbBlockBegin
  2
*D21
 70
     1
 10
0.0
 20
0.0
 30
0.0
  3
*D21
  1

  0
LINE
  5
5B1
330
5AE
100
AcDbEntity
  8
Ｓ_１_１
  6
CONTINUOUS
 62
     2
100
AcDbLine
 10
1021.9672844262
 20
1406.2764344263
 30
0.0
 11
1021.9672844262
 21
1750.0
 31
0.0
  0
LINE
  5
5B2
330
5AE
100
AcDbEntity
  8
Ｓ_１_１
  6
CONTINUOUS
 62
     2
100
AcDbLine
 10
1858.0327745901
 20
1406.2764344263
 30
0.0
 11
1858.0327745901
 21
1750.0
 31
0.0
  0
LINE
  5
5B3
330
5AE
100
AcDbEntity
  8
Ｓ_１_１
  6
CONTINUOUS
 62
     2
100
AcDbLine
 10
1063.9672844262
 20
1736.0
 30
0.0
 11
1816.0327745901
 21
1736.0
 31
0.0
  0
INSERT
  5
5B4
330
5AE
100
AcDbEntity
  8
Ｓ_１_１
 62
     2
100
AcDbBlockReference
  2
EX_NORM
 10
1021.9672844262
 20
1736.0
 30
0.0
 41
42.0
 42
42.0
 43
42.0
 50
180.0
  0
INSERT
  5
5B5
330
5AE
100
AcDbEntity
  8
Ｓ_１_１
 62
     2
100
AcDbBlockReference
  2
EX_NORM
 10
1858.0327745901
 20
1736.0
 30
0.0
 41
42.0
 42
42.0
 43
42.0
  0
MTEXT
  5
5B6
330
5AE
100
AcDbEntity
  8
Ｓ_１_１
 62
     2
100
AcDbMText
 10
1440.00002950815
 20
1774.5
 30
0.0
 40
48.48065526307409
 41
0.0
 71
     5
 72
     1
  1
836
  7
EXCADDIM1
  0
POINT
  5
5B7
330
5AE
100
AcDbEntity
  8
DEFPOINTS
 62
     0
100
AcDbPoint
 10
1021.9672844262
 20
1385.2764344263
 30
0.0
  0
POINT
  5
5B8
330
5AE
100
AcDbEntity
  8
DEFPOINTS
 62
     0
100
AcDbPoint
 10
1858.0327745901
 20
1385.2764344263
 30
0.0
  0
POINT
  5
5B9
330
5AE
100
AcDbEntity
  8
DEFPOINTS
 62
     0
100
AcDbPoint
 10
1858.0327745901
 20
1736.0
 30
0.0
  0
ENDBLK
  5
5B0
330
5AE
100
AcDbEntity
  8
0
100
AcDbBlockEnd
  0
BLOCK
  5
5BC
330
5BB
100
AcDbEntity
  8
0
100
AcDbBlockBegin
  2
*D22
 70
     1
 10
0.0
 20
0.0
 30
0.0
  3
*D22
  1

  0
LINE
  5
5BE
330
5BB
100
AcDbEntity
  8
Ｓ_１_１
  6
CONTINUOUS
 62
     2
100
AcDbLine
 10
1064.901646721284
 20
1547.213257377076
 30
0.0
 11
786.0000000000001
 21
1547.213257377076
 31
0.0
  0
LINE
  5
5BF
330
5BB
100
AcDbEntity
  8
Ｓ_１_１
  6
CONTINUOUS
 62
     2
100
AcDbLine
 10
956.7049155737399
 20
430.820090164
 30
0.0
 11
786.0
 21
430.820090164
 31
0.0
  0
LINE
  5
5C0
330
5BB
100
AcDbEntity
  8
Ｓ_１_１
  6
CONTINUOUS
 62
     2
100
AcDbLine
 10
800.0000000000001
 20
1505.213257377076
 30
0.0
 11
800.0
 21
472.820090164
 31
0.0
  0
INSERT
  5
5C1
330
5BB
100
AcDbEntity
  8
Ｓ_１_１
 62
     2
100
AcDbBlockReference
  2
EX_NORM
 10
800.0000000000001
 20
1547.213257377076
 30
0.0
 41
42.0
 42
42.0
 43
42.0
 50
90.0
  0
INSERT
  5
5C2
330
5BB
100
AcDbEntity
  8
Ｓ_１_１
 62
     2
100
AcDbBlockReference
  2
EX_NORM
 10
800.0
 20
430.820090164
 30
0.0
 41
42.0
 42
42.0
 43
42.0
 50
270.0
  0
MTEXT
  5
5C3
330
5BB
100
AcDbEntity
  8
Ｓ_１_１
 62
     2
100
AcDbMText
 10
761.5000000000001
 20
989.0166737705381
 30
0.0
 40
48.48065526307409
 41
0.0
 71
     5
 72
     1
  1
1116
  7
EXCADDIM1
 11
1.018340501003063E-16
 21
1.0
 31
0.0
  0
POINT
  5
5C4
330
5BB
100
AcDbEntity
  8
DEFPOINTS
 62
     0
100
AcDbPoint
 10
1085.901646721284
 20
1547.213257377076
 30
0.0
  0
POINT
  5
5C5
330
5BB
100
AcDbEntity
  8
DEFPOINTS
 62
     0
100
AcDbPoint
 10
977.7049155737399
 20
430.820090164
 30
0.0
  0
POINT
  5
5C6
330
5BB
100
AcDbEntity
  8
DEFPOINTS
 62
     0
100
AcDbPoint
 10
800.0
 20
430.820090164
 30
0.0
  0
ENDBLK
  5
5BD
330
5BB
100
AcDbEntity
  8
0
100
AcDbBlockEnd
  0
BLOCK
  5
5CA
330
5C9
100
AcDbEntity
  8
0
100
AcDbBlockBegin
  2
*D23
 70
     1
 10
0.0
 20
0.0
 30
0.0
  3
*D23
  1

  0
LINE
  5
5CC
330
5C9
100
AcDbEntity
  8
Ｓ_１_１
  6
CONTINUOUS
 62
     2
100
AcDbLine
 10
3552.9463418033
 20
1484.6065327869
 30
0.0
 11
3552.9463418033
 21
1774.0
 31
0.0
  0
LINE
  5
5CD
330
5C9
100
AcDbEntity
  8
Ｓ_１_１
  6
CONTINUOUS
 62
     2
100
AcDbLine
 10
3827.9463418033
 20
1111.0154461678
 30
0.0
 11
3827.9463418033
 21
1774.0
 31
0.0
  0
LINE
  5
5CE
330
5C9
100
AcDbEntity
  8
Ｓ_１_１
  6
CONTINUOUS
 62
     2
100
AcDbLine
 10
3594.9463418033
 20
1760.0
 30
0.0
 11
3785.9463418033
 21
1760.0
 31
0.0
  0
INSERT
  5
5CF
330
5C9
100
AcDbEntity
  8
Ｓ_１_１
 62
     2
100
AcDbBlockReference
  2
EX_NORM
 10
3552.9463418033
 20
1760.0
 30
0.0
 41
42.0
 42
42.0
 43
42.0
 50
180.0
  0
INSERT
  5
5D0
330
5C9
100
AcDbEntity
  8
Ｓ_１_１
 62
     2
100
AcDbBlockReference
  2
EX_NORM
 10
3827.9463418033
 20
1760.0
 30
0.0
 41
42.0
 42
42.0
 43
42.0
  0
MTEXT
  5
5D1
330
5C9
100
AcDbEntity
  8
Ｓ_１_１
 62
     2
100
AcDbMText
 10
3690.4463418033
 20
1798.5
 30
0.0
 40
48.48065526307409
 41
0.0
 71
     5
 72
     1
  1
275
  7
EXCADDIM1
  0
POINT
  5
5D2
330
5C9
100
AcDbEntity
  8
DEFPOINTS
 62
     0
100
AcDbPoint
 10
3552.9463418033
 20
1463.6065327869
 30
0.0
  0
POINT
  5
5D3
330
5C9
100
AcDbEntity
  8
DEFPOINTS
 62
     0
100
AcDbPoint
 10
3827.9463418033
 20
1090.0154461678
 30
0.0
  0
POINT
  5
5D4
330
5C9
100
AcDbEntity
  8
DEFPOINTS
 62
     0
100
AcDbPoint
 10
3827.9463418033
 20
1760.0
 30
0.0
  0
ENDBLK
  5
5CB
330
5C9
100
AcDbEntity
  8
0
100
AcDbBlockEnd
  0
BLOCK
  5
5D7
330
5D6
100
AcDbEntity
  8
0
100
AcDbBlockBegin
  2
*D24
 70
     1
 10
0.0
 20
0.0
 30
0.0
  3
*D24
  1

  0
LINE
  5
5D9
330
5D6
100
AcDbEntity
  8
Ｓ_１_１
  6
CONTINUOUS
 62
     2
100
AcDbLine
 10
2652.9463565574
 20
1189.5245803279
 30
0.0
 11
2652.9463565574
 21
1854.0
 31
0.0
  0
LINE
  5
5DA
330
5D6
100
AcDbEntity
  8
Ｓ_１_１
  6
CONTINUOUS
 62
     2
100
AcDbLine
 10
3827.946341803263
 20
1111.015446167798
 30
0.0
 11
3827.946341803263
 21
1854.0
 31
0.0
  0
LINE
  5
5DB
330
5D6
100
AcDbEntity
  8
Ｓ_１_１
  6
CONTINUOUS
 62
     2
100
AcDbLine
 10
2694.9463565574
 20
1840.0
 30
0.0
 11
3785.946341803263
 21
1840.0
 31
0.0
  0
INSERT
  5
5DC
330
5D6
100
AcDbEntity
  8
Ｓ_１_１
 62
     2
100
AcDbBlockReference
  2
EX_NORM
 10
2652.9463565574
 20
1840.0
 30
0.0
 41
42.0
 42
42.0
 43
42.0
 50
180.0
  0
INSERT
  5
5DD
330
5D6
100
AcDbEntity
  8
Ｓ_１_１
 62
     2
100
AcDbBlockReference
  2
EX_NORM
 10
3827.946341803263
 20
1840.0
 30
0.0
 41
42.0
 42
42.0
 43
42.0
  0
MTEXT
  5
5DE
330
5D6
100
AcDbEntity
  8
Ｓ_１_１
 62
     2
100
AcDbMText
 10
3240.446349180331
 20
1878.5
 30
0.0
 40
48.48065526307409
 41
0.0
 71
     5
 72
     1
  1
1175
  7
EXCADDIM1
  0
POINT
  5
5DF
330
5D6
100
AcDbEntity
  8
DEFPOINTS
 62
     0
100
AcDbPoint
 10
2652.9463565574
 20
1168.5245803279
 30
0.0
  0
POINT
  5
5E0
330
5D6
100
AcDbEntity
  8
DEFPOINTS
 62
     0
100
AcDbPoint
 10
3827.946341803263
 20
1090.015446167798
 30
0.0
  0
POINT
  5
5E1
330
5D6
100
AcDbEntity
  8
DEFPOINTS
 62
     0
100
AcDbPoint
 10
3827.946341803263
 20
1840.0
 30
0.0
  0
ENDBLK
  5
5D8
330
5D6
100
AcDbEntity
  8
0
100
AcDbBlockEnd
  0
BLOCK
  5
60D
330
60C
100
AcDbEntity
  8
0
100
AcDbBlockBegin
  2
*D25
 70
     1
 10
0.0
 20
0.0
 30
0.0
  3
*D25
  1

  0
LINE
  5
60F
330
60C
100
AcDbEntity
  8
Ｓ_１_１
  6
CONTINUOUS
 62
     2
100
AcDbLine
 10
962.3540581972699
 20
469.43309508124
 30
0.0
 11
962.3540581972699
 21
306.0
 31
0.0
  0
LINE
  5
610
330
60C
100
AcDbEntity
  8
Ｓ_１_１
  6
CONTINUOUS
 62
     2
100
AcDbLine
 10
1917.6457795078
 20
469.43305081949
 30
0.0
 11
1917.6457795078
 21
306.0
 31
0.0
  0
LINE
  5
611
330
60C
100
AcDbEntity
  8
Ｓ_１_１
  6
CONTINUOUS
 62
     2
100
AcDbLine
 10
1004.35405819727
 20
320.0
 30
0.0
 11
1875.6457795078
 21
320.0
 31
0.0
  0
INSERT
  5
612
330
60C
100
AcDbEntity
  8
Ｓ_１_１
 62
     2
100
AcDbBlockReference
  2
EX_NORM
 10
962.3540581972699
 20
320.0
 30
0.0
 41
42.0
 42
42.0
 43
42.0
 50
180.0
  0
INSERT
  5
613
330
60C
100
AcDbEntity
  8
Ｓ_１_１
 62
     2
100
AcDbBlockReference
  2
EX_NORM
 10
1917.6457795078
 20
320.0
 30
0.0
 41
42.0
 42
42.0
 43
42.0
  0
MTEXT
  5
614
330
60C
100
AcDbEntity
  8
Ｓ_１_１
 62
     2
100
AcDbMText
 10
1439.999918852535
 20
358.5
 30
0.0
 40
48.48065526307409
 41
0.0
 71
     5
 72
     1
  1
955
  7
EXCADDIM1
  0
POINT
  5
615
330
60C
100
AcDbEntity
  8
DEFPOINTS
 62
     0
100
AcDbPoint
 10
962.3540581972699
 20
490.43309508124
 30
0.0
  0
POINT
  5
616
330
60C
100
AcDbEntity
  8
DEFPOINTS
 62
     0
100
AcDbPoint
 10
1917.6457795078
 20
490.43305081949
 30
0.0
  0
POINT
  5
617
330
60C
100
AcDbEntity
  8
DEFPOINTS
 62
     0
100
AcDbPoint
 10
1917.6457795078
 20
320.0
 30
0.0
  0
ENDBLK
  5
60E
330
60C
100
AcDbEntity
  8
0
100
AcDbBlockEnd
  0
BLOCK
  5
61E
330
61D
100
AcDbEntity
  8
0
100
AcDbBlockBegin
  2
*D26
 70
     1
 10
0.0
 20
0.0
 30
0.0
  3
*D26
  1

  0
LINE
  5
620
330
61D
100
AcDbEntity
  8
Ｓ_１_１
  6
CONTINUOUS
 62
     2
100
AcDbLine
 10
3573.9463418033
 20
1463.6065327869
 30
0.0
 11
4094.0
 21
1463.6065327869
 31
0.0
  0
LINE
  5
621
330
61D
100
AcDbEntity
  8
Ｓ_１_１
  6
CONTINUOUS
 62
     2
100
AcDbLine
 10
3823.9463418033
 20
1163.6066262295
 30
0.0
 11
4094.0
 21
1163.6066262295
 31
0.0
  0
LINE
  5
622
330
61D
100
AcDbEntity
  8
Ｓ_１_１
  6
CONTINUOUS
 62
     2
100
AcDbLine
 10
4080.0
 20
1421.6065327869
 30
0.0
 11
4080.0
 21
1205.6066262295
 31
0.0
  0
INSERT
  5
623
330
61D
100
AcDbEntity
  8
Ｓ_１_１
 62
     2
100
AcDbBlockReference
  2
EX_NORM
 10
4080.0
 20
1463.6065327869
 30
0.0
 41
42.0
 42
42.0
 43
42.0
 50
90.0
  0
INSERT
  5
624
330
61D
100
AcDbEntity
  8
Ｓ_１_１
 62
     2
100
AcDbBlockReference
  2
EX_NORM
 10
4080.0
 20
1163.6066262295
 30
0.0
 41
42.0
 42
42.0
 43
42.0
 50
270.0
  0
MTEXT
  5
625
330
61D
100
AcDbEntity
  8
Ｓ_１_１
 62
     2
100
AcDbMText
 10
4041.5
 20
1313.6065795082
 30
0.0
 40
48.48065526307409
 41
0.0
 71
     5
 72
     1
  1
300
  7
EXCADDIM1
 11
0.0
 21
1.0
 31
0.0
  0
POINT
  5
626
330
61D
100
AcDbEntity
  8
DEFPOINTS
 62
     0
100
AcDbPoint
 10
3552.9463418033
 20
1463.6065327869
 30
0.0
  0
POINT
  5
627
330
61D
100
AcDbEntity
  8
DEFPOINTS
 62
     0
100
AcDbPoint
 10
3802.9463418033
 20
1163.6066262295
 30
0.0
  0
POINT
  5
628
330
61D
100
AcDbEntity
  8
DEFPOINTS
 62
     0
100
AcDbPoint
 10
4080.0
 20
1163.6066262295
 30
0.0
  0
ENDBLK
  5
61F
330
61D
100
AcDbEntity
  8
0
100
AcDbBlockEnd
  0
BLOCK
  5
62B
330
62A
100
AcDbEntity
  8
0
100
AcDbBlockBegin
  2
*D27
 70
     1
 10
0.0
 20
0.0
 30
0.0
  3
*D27
  1

  0
LINE
  5
62D
330
62A
100
AcDbEntity
  8
Ｓ_１_１
  6
CONTINUOUS
 62
     2
100
AcDbLine
 10
3823.9463418033
 20
1163.6066262295
 30
0.0
 11
4094.0
 21
1163.6066262295
 31
0.0
  0
LINE
  5
62E
330
62A
100
AcDbEntity
  8
Ｓ_１_１
  6
CONTINUOUS
 62
     2
100
AcDbLine
 10
3773.946341803301
 20
563.60662622953
 30
0.0
 11
4094.0
 21
563.60662622953
 31
0.0
  0
LINE
  5
62F
330
62A
100
AcDbEntity
  8
Ｓ_１_１
  6
CONTINUOUS
 62
     2
100
AcDbLine
 10
4080.0
 20
1121.6066262295
 30
0.0
 11
4080.0
 21
605.60662622953
 31
0.0
  0
INSERT
  5
630
330
62A
100
AcDbEntity
  8
Ｓ_１_１
 62
     2
100
AcDbBlockReference
  2
EX_NORM
 10
4080.0
 20
1163.6066262295
 30
0.0
 41
42.0
 42
42.0
 43
42.0
 50
90.0
  0
INSERT
  5
631
330
62A
100
AcDbEntity
  8
Ｓ_１_１
 62
     2
100
AcDbBlockReference
  2
EX_NORM
 10
4080.0
 20
563.60662622953
 30
0.0
 41
42.0
 42
42.0
 43
42.0
 50
270.0
  0
MTEXT
  5
632
330
62A
100
AcDbEntity
  8
Ｓ_１_１
 62
     2
100
AcDbMText
 10
4041.5
 20
863.6066262295149
 30
0.0
 40
48.48065526307409
 41
0.0
 71
     5
 72
     1
  1
600
  7
EXCADDIM1
 11
0.0
 21
1.0
 31
0.0
  0
POINT
  5
633
330
62A
100
AcDbEntity
  8
DEFPOINTS
 62
     0
100
AcDbPoint
 10
3802.9463418033
 20
1163.6066262295
 30
0.0
  0
POINT
  5
634
330
62A
100
AcDbEntity
  8
DEFPOINTS
 62
     0
100
AcDbPoint
 10
3752.946341803301
 20
563.60662622953
 30
0.0
  0
POINT
  5
635
330
62A
100
AcDbEntity
  8
DEFPOINTS
 62
     0
100
AcDbPoint
 10
4080.0
 20
563.60662622953
 30
0.0
  0
ENDBLK
  5
62C
330
62A
100
AcDbEntity
  8
0
100
AcDbBlockEnd
  0
BLOCK
  5
638
330
637
100
AcDbEntity
  8
0
100
AcDbBlockBegin
  2
*D28
 70
     1
 10
0.0
 20
0.0
 30
0.0
  3
*D28
  1

  0
LINE
  5
63A
330
637
100
AcDbEntity
  8
Ｓ_１_１
  6
CONTINUOUS
 62
     2
100
AcDbLine
 10
3573.9463418033
 20
1463.6065327869
 30
0.0
 11
4174.0
 21
1463.6065327869
 31
0.0
  0
LINE
  5
63B
330
637
100
AcDbEntity
  8
Ｓ_１_１
  6
CONTINUOUS
 62
     2
100
AcDbLine
 10
4160.0
 20
1421.6065327869
 30
0.0
 11
4160.0
 21
522.00000000001
 31
0.0
  0
INSERT
  5
63C
330
637
100
AcDbEntity
  8
Ｓ_１_１
 62
     2
100
AcDbBlockReference
  2
EX_NORM
 10
4160.0
 20
1463.6065327869
 30
0.0
 41
42.0
 42
42.0
 43
42.0
 50
90.0
  0
INSERT
  5
63D
330
637
100
AcDbEntity
  8
Ｓ_１_１
 62
     2
100
AcDbBlockReference
  2
EX_NORM
 10
4160.0
 20
480.00000000001
 30
0.0
 41
42.0
 42
42.0
 43
42.0
 50
270.0
  0
MTEXT
  5
63E
330
637
100
AcDbEntity
  8
Ｓ_１_１
 62
     2
100
AcDbMText
 10
4121.5
 20
971.803266393455
 30
0.0
 40
48.48065526307409
 41
0.0
 71
     5
 72
     1
  1
984
  7
EXCADDIM1
 11
0.0
 21
1.0
 31
0.0
  0
POINT
  5
63F
330
637
100
AcDbEntity
  8
DEFPOINTS
 62
     0
100
AcDbPoint
 10
3552.9463418033
 20
1463.6065327869
 30
0.0
  0
POINT
  5
640
330
637
100
AcDbEntity
  8
DEFPOINTS
 62
     0
100
AcDbPoint
 10
4240.0
 20
480.0000000000099
 30
0.0
  0
POINT
  5
641
330
637
100
AcDbEntity
  8
DEFPOINTS
 62
     0
100
AcDbPoint
 10
4160.0
 20
480.00000000001
 30
0.0
  0
ENDBLK
  5
639
330
637
100
AcDbEntity
  8
0
100
AcDbBlockEnd
  0
BLOCK
  5
644
330
643
100
AcDbEntity
  8
0
100
AcDbBlockBegin
  2
*D29
 70
     1
 10
0.0
 20
0.0
 30
0.0
  3
*D29
  1

  0
LINE
  5
646
330
643
100
AcDbEntity
  8
Ｓ_１_１
  6
CONTINUOUS
 62
     2
100
AcDbLine
 10
3573.9463418033
 20
1463.6065327869
 30
0.0
 11
4254.0
 21
1463.6065327869
 31
0.0
  0
LINE
  5
647
330
643
100
AcDbEntity
  8
Ｓ_１_１
  6
CONTINUOUS
 62
     2
100
AcDbLine
 10
3475.5856811475
 20
430.8196622951
 30
0.0
 11
4254.0
 21
430.8196622950999
 31
0.0
  0
LINE
  5
648
330
643
100
AcDbEntity
  8
Ｓ_１_１
  6
CONTINUOUS
 62
     2
100
AcDbLine
 10
4240.0
 20
1421.6065327869
 30
0.0
 11
4240.0
 21
472.8196622950999
 31
0.0
  0
INSERT
  5
649
330
643
100
AcDbEntity
  8
Ｓ_１_１
 62
     2
100
AcDbBlockReference
  2
EX_NORM
 10
4240.0
 20
1463.6065327869
 30
0.0
 41
42.0
 42
42.0
 43
42.0
 50
90.0
  0
INSERT
  5
64A
330
643
100
AcDbEntity
  8
Ｓ_１_１
 62
     2
100
AcDbBlockReference
  2
EX_NORM
 10
4240.0
 20
430.8196622950999
 30
0.0
 41
42.0
 42
42.0
 43
42.0
 50
270.0
  0
MTEXT
  5
64B
330
643
100
AcDbEntity
  8
Ｓ_１_１
 62
     2
100
AcDbMText
 10
4201.5
 20
947.2130975409999
 30
0.0
 40
48.48065526307409
 41
0.0
 71
     5
 72
     1
  1
1033
  7
EXCADDIM1
 11
0.0
 21
1.0
 31
0.0
  0
POINT
  5
64C
330
643
100
AcDbEntity
  8
DEFPOINTS
 62
     0
100
AcDbPoint
 10
3552.9463418033
 20
1463.6065327869
 30
0.0
  0
POINT
  5
64D
330
643
100
AcDbEntity
  8
DEFPOINTS
 62
     0
100
AcDbPoint
 10
3454.5856811475
 20
430.8196622951
 30
0.0
  0
POINT
  5
64E
330
643
100
AcDbEntity
  8
DEFPOINTS
 62
     0
100
AcDbPoint
 10
4240.0
 20
430.8196622950999
 30
0.0
  0
ENDBLK
  5
645
330
643
100
AcDbEntity
  8
0
100
AcDbBlockEnd
  0
BLOCK
  5
651
330
650
100
AcDbEntity
  8
0
100
AcDbBlockBegin
  2
*D30
 70
     1
 10
0.0
 20
0.0
 30
0.0
  3
*D30
  1

  0
LINE
  5
653
330
650
100
AcDbEntity
  8
Ｓ_１_１
  6
CONTINUOUS
 62
     2
100
AcDbLine
 10
3573.9463418033
 20
480.0000000000099
 30
0.0
 11
4174.0
 21
480.0000000000099
 31
0.0
  0
LINE
  5
654
330
650
100
AcDbEntity
  8
Ｓ_１_１
  6
CONTINUOUS
 62
     2
100
AcDbLine
 10
3475.5856811475
 20
430.8196622951
 30
0.0
 11
4174.0
 21
430.8196622951
 31
0.0
  0
LINE
  5
655
330
650
100
AcDbEntity
  8
Ｓ_１_１
  6
CONTINUOUS
 62
     2
100
AcDbLine
 10
4160.0
 20
480.0000000000099
 30
0.0
 11
4160.0
 21
430.8196622951
 31
0.0
  0
LINE
  5
656
330
650
100
AcDbEntity
  8
Ｓ_１_１
  6
CONTINUOUS
 62
     2
100
AcDbLine
 10
4160.0
 20
522.00000000001
 30
0.0
 11
4160.0
 21
564.00000000001
 31
0.0
  0
LINE
  5
657
330
650
100
AcDbEntity
  8
Ｓ_１_１
  6
CONTINUOUS
 62
     2
100
AcDbLine
 10
4160.0
 20
388.8196622951
 30
0.0
 11
4160.0
 21
346.8196622951
 31
0.0
  0
INSERT
  5
658
330
650
100
AcDbEntity
  8
Ｓ_１_１
 62
     2
100
AcDbBlockReference
  2
EX_NORM
 10
4160.0
 20
480.0000000000099
 30
0.0
 41
42.0
 42
42.0
 43
42.0
 50
270.0
  0
INSERT
  5
659
330
650
100
AcDbEntity
  8
Ｓ_１_１
 62
     2
100
AcDbBlockReference
  2
EX_NORM
 10
4160.0
 20
430.8196622951
 30
0.0
 41
42.0
 42
42.0
 43
42.0
 50
90.0
  0
MTEXT
  5
65A
330
650
100
AcDbEntity
  8
Ｓ_１_１
 62
     2
100
AcDbMText
 10
4121.5
 20
357.319662295099
 30
0.0
 40
48.48065526307409
 41
0.0
 71
     5
 72
     1
  1
49
  7
EXCADDIM1
 11
0.0
 21
1.0
 31
0.0
  0
POINT
  5
65B
330
650
100
AcDbEntity
  8
DEFPOINTS
 62
     0
100
AcDbPoint
 10
3552.9463418033
 20
480.0000000000099
 30
0.0
  0
POINT
  5
65C
330
650
100
AcDbEntity
  8
DEFPOINTS
 62
     0
100
AcDbPoint
 10
3454.5856811475
 20
430.8196622951
 30
0.0
  0
POINT
  5
65D
330
650
100
AcDbEntity
  8
DEFPOINTS
 62
     0
100
AcDbPoint
 10
4160.0
 20
430.8196622951
 30
0.0
  0
ENDBLK
  5
652
330
650
100
AcDbEntity
  8
0
100
AcDbBlockEnd
  0
ENDSEC
  0
SECTION
  2
ENTITIES
  0
LINE
  5
D5
330
1F
100
AcDbEntity
  8
図面枠
  6
CONTINUOUS
 62
     5
100
AcDbLine
 10
140.0
 20
140.0
 30
0.0
 11
5740.0
 21
140.0
 31
0.0
  0
LINE
  5
D6
330
1F
100
AcDbEntity
  8
図面枠
  6
CONTINUOUS
 62
     5
100
AcDbLine
 10
5740.0
 20
140.0
 30
0.0
 11
5740.0
 21
4018.0
 31
0.0
  0
LINE
  5
D7
330
1F
100
AcDbEntity
  8
図面枠
  6
CONTINUOUS
 62
     5
100
AcDbLine
 10
5740.0
 20
4018.0
 30
0.0
 11
140.0000000000007
 21
4018.0
 31
0.0
  0
LINE
  5
D8
330
1F
100
AcDbEntity
  8
図面枠
  6
CONTINUOUS
 62
     5
100
AcDbLine
 10
140.0000000000007
 20
4018.0
 30
0.0
 11
140.0
 21
140.0
 31
0.0
  0
LINE
  5
D9
330
1F
100
AcDbEntity
  8
図面枠
  6
CONTINUOUS
 62
     3
100
AcDbLine
 10
210.0
 20
3948.0
 30
0.0
 11
210.0
 21
3822.0
 31
0.0
  0
LINE
  5
DA
330
1F
100
AcDbEntity
  8
図面枠
  6
CONTINUOUS
 62
     3
100
AcDbLine
 10
4270.0
 20
3948.0
 30
0.0
 11
5670.0
 21
3948.0
 31
0.0
  0
LINE
  5
DB
330
1F
100
AcDbEntity
  8
図面枠
  6
CONTINUOUS
 62
     3
100
AcDbLine
 10
4270.0
 20
3864.0
 30
0.0
 11
5670.0
 21
3864.0
 31
0.0
  0
TEXT
  5
DD
330
1F
100
AcDbEntity
  8
図面枠
  6
CONTINUOUS
 62
     4
100
AcDbText
 10
4812.5
 20
3883.359376370907
 30
0.0
 40
48.48065526307409
  1
仕　　　様
 41
0.9992308297349457
  7
EXCADTTF1
 72
     5
 11
5127.5
 21
3883.359376370907
 31
0.0
100
AcDbText
  0
LINE
  5
DE
330
1F
100
AcDbEntity
  8
図面枠
  6
CONTINUOUS
 62
     2
100
AcDbLine
 10
4270.0
 20
3696.0
 30
0.0
 11
5670.0
 21
3696.0
 31
0.0
  0
LINE
  5
DF
330
1F
100
AcDbEntity
  8
図面枠
  6
CONTINUOUS
 62
     2
100
AcDbLine
 10
4270.0
 20
3780.0
 30
0.0
 11
5670.0
 21
3780.0
 31
0.0
  0
TEXT
  5
E0
330
1F
100
AcDbEntity
  8
図面枠
  6
CONTINUOUS
 62
     4
100
AcDbText
 10
4298.0
 20
3799.359376370907
 30
0.0
 40
48.48065526307409
  1
使用ポンプ
 41
0.9992308297349457
  7
EXCADTTF1
 72
     5
 11
4613.0
 21
3799.359376370907
 31
0.0
100
AcDbText
  0
TEXT
  5
E1
330
1F
100
AcDbEntity
  8
図面枠
  6
CONTINUOUS
 62
     4
100
AcDbText
 10
4298.0
 20
3715.359376370907
 30
0.0
 40
48.48065526307409
  1
電動機
 41
0.9992308297349456
  7
EXCADTTF1
 72
     5
 11
4487.0
 21
3715.359376370907
 31
0.0
100
AcDbText
  0
TEXT
  5
E2
330
1F
100
AcDbEntity
  8
図面枠
  6
CONTINUOUS
 62
     4
100
AcDbText
 10
5418.0
 20
3463.359376370907
 30
0.0
 40
48.48065526307409
  1
MPa
 41
0.9992308297349456
  7
EXCADTTF1
 72
     5
 11
5512.5
 21
3463.359376370907
 31
0.0
100
AcDbText
  0
TEXT
  5
E3
330
1F
100
AcDbEntity
  8
図面枠
  6
CONTINUOUS
 62
     4
100
AcDbText
 10
4858.0
 20
3463.359376370907
 30
0.0
 40
48.48065526307409
  1
高圧
 41
0.9992308297349457
  7
EXCADTTF1
 72
     5
 11
4984.0
 21
3463.359376370907
 31
0.0
100
AcDbText
  0
TEXT
  5
E4
330
1F
100
AcDbEntity
  8
図面枠
  6
CONTINUOUS
 62
     4
100
AcDbText
 10
4298.0
 20
3463.359376370907
 30
0.0
 40
48.48065526307409
  1
最高使用圧力
 41
0.9992308297349456
  7
EXCADTTF1
 72
     5
 11
4676.0
 21
3463.359376370907
 31
0.0
100
AcDbText
  0
TEXT
  5
E5
330
1F
100
AcDbEntity
  8
図面枠
  6
CONTINUOUS
 62
     4
100
AcDbText
 10
5299.0
 20
3463.359376370907
 30
0.0
 40
48.48065526307409
  1
70
 41
0.9992308297349457
  7
EXCADTTF1
 72
     5
 11
5362.0
 21
3463.359376370907
 31
0.0
100
AcDbText
  0
LINE
  5
E6
330
1F
100
AcDbEntity
  8
図面枠
  6
CONTINUOUS
 62
     2
100
AcDbLine
 10
4270.0
 20
3612.0
 30
0.0
 11
5670.0
 21
3612.0
 31
0.0
  0
LINE
  5
E7
330
1F
100
AcDbEntity
  8
図面枠
  6
CONTINUOUS
 62
     2
100
AcDbLine
 10
4270.0
 20
3528.0
 30
0.0
 11
5670.0
 21
3528.0
 31
0.0
  0
TEXT
  5
E8
330
1F
100
AcDbEntity
  8
図面枠
  6
CONTINUOUS
 62
     4
100
AcDbText
 10
4298.0
 20
3631.359376370907
 30
0.0
 40
48.48065526307409
  1
周波数
 41
0.9992308297349456
  7
EXCADTTF1
 72
     5
 11
4487.0
 21
3631.359376370907
 31
0.0
100
AcDbText
  0
TEXT
  5
E9
330
1F
100
AcDbEntity
  8
図面枠
  6
CONTINUOUS
 62
     4
100
AcDbText
 10
4298.0
 20
3547.359376370907
 30
0.0
 40
48.48065526307409
  1
回転数
 41
0.9992308297349456
  7
EXCADTTF1
 72
     5
 11
4487.0
 21
3547.359376370907
 31
0.0
100
AcDbText
  0
TEXT
  5
EA
330
1F
100
AcDbEntity
  8
図面枠
  6
CONTINUOUS
 62
     4
100
AcDbText
 10
5418.0
 20
3631.359376370907
 30
0.0
 40
48.48065526307409
  1
Hz
 41
0.9992308297349457
  7
EXCADTTF1
 72
     5
 11
5481.0
 21
3631.359376370907
 31
0.0
100
AcDbText
  0
TEXT
  5
EB
330
1F
100
AcDbEntity
  8
図面枠
  6
CONTINUOUS
 62
     4
100
AcDbText
 10
5418.0
 20
3547.359376370907
 30
0.0
 40
48.48065526307409
  1
rpm
 41
0.9992308297349456
  7
EXCADTTF1
 72
     5
 11
5512.5
 21
3547.359376370907
 31
0.0
100
AcDbText
  0
LINE
  5
EC
330
1F
100
AcDbEntity
  8
図面枠
  6
CONTINUOUS
 62
     3
100
AcDbLine
 10
5670.0
 20
336.0
 30
0.0
 11
5670.0
 21
210.0
 31
0.0
  0
TEXT
  5
ED
330
1F
100
AcDbEntity
  8
図面枠
  6
CONTINUOUS
 62
     4
100
AcDbText
 10
4858.0
 20
3799.359376370907
 30
0.0
 40
48.48065526307409
  1
ERL-6G 2台
 41
0.9992308297349455
  7
EXCADTTF1
 72
     5
 11
5173.0
 21
3799.359376370907
 31
0.0
100
AcDbText
  0
TEXT
  5
EE
330
1F
100
AcDbEntity
  8
図面枠
  6
CONTINUOUS
 62
     4
100
AcDbText
 10
4858.0
 20
3715.359376370907
 30
0.0
 40
48.48065526307409
  1
3.7kW-4P 200V 2台
 41
0.9992308297349455
  7
EXCADTTF1
 72
     5
 11
5393.5
 21
3715.359376370907
 31
0.0
100
AcDbText
  0
TEXT
  5
EF
330
1F
100
AcDbEntity
  8
図面枠
  6
CONTINUOUS
 62
     4
100
AcDbText
 10
5418.0
 20
3379.359376370907
 30
0.0
 40
48.48065526307409
  1
MPa
 41
0.9992308297349456
  7
EXCADTTF1
 72
     5
 11
5512.5
 21
3379.359376370907
 31
0.0
100
AcDbText
  0
TEXT
  5
F0
330
1F
100
AcDbEntity
  8
図面枠
  6
CONTINUOUS
 62
     4
100
AcDbText
 10
4858.0
 20
3379.359376370907
 30
0.0
 40
48.48065526307409
  1
低圧
 41
0.9992308297349457
  7
EXCADTTF1
 72
     5
 11
4984.0
 21
3379.359376370907
 31
0.0
100
AcDbText
  0
LINE
  5
F1
330
1F
100
AcDbEntity
  8
図面枠
  6
CONTINUOUS
 62
     2
100
AcDbLine
 10
4830.0
 20
3444.0
 30
0.0
 11
5670.0
 21
3444.0
 31
0.0
  0
TEXT
  5
F2
330
1F
100
AcDbEntity
  8
図面枠
  6
CONTINUOUS
 62
     4
100
AcDbText
 10
5299.0
 20
3379.359376370907
 30
0.0
 40
48.48065526307409
  1
14
 41
0.9992308297349457
  7
EXCADTTF1
 72
     5
 11
5362.0
 21
3379.359376370907
 31
0.0
100
AcDbText
  0
TEXT
  5
F3
330
1F
100
AcDbEntity
  8
図面枠
  6
CONTINUOUS
 62
     4
100
AcDbText
 10
5418.0
 20
3043.359376370907
 30
0.0
 40
48.48065526307409
  1
kg
 41
0.9992308297349457
  7
EXCADTTF1
 72
     5
 11
5481.0
 21
3043.359376370907
 31
0.0
100
AcDbText
  0
TEXT
  5
F4
330
1F
100
AcDbEntity
  8
図面枠
  6
CONTINUOUS
 62
     4
100
AcDbText
 10
4298.0
 20
3043.359376370907
 30
0.0
 40
48.48065526307409
  1
重量
 41
0.9992308297349457
  7
EXCADTTF1
 72
     5
 11
4424.0
 21
3043.359376370907
 31
0.0
100
AcDbText
  0
TEXT
  5
F5
330
1F
100
AcDbEntity
  8
図面枠
  6
CONTINUOUS
 62
     4
100
AcDbText
 10
4298.0
 20
3127.359376370907
 30
0.0
 40
48.48065526307409
  1
貯油量
 41
0.9992308297349456
  7
EXCADTTF1
 72
     5
 11
4487.0
 21
3127.359376370907
 31
0.0
100
AcDbText
  0
TEXT
  5
F6
330
1F
100
AcDbEntity
  8
図面枠
  6
CONTINUOUS
 62
     4
100
AcDbText
 10
4858.0
 20
3211.359376370907
 30
0.0
 40
48.48065526307409
  1
低圧
 41
0.9992308297349457
  7
EXCADTTF1
 72
     5
 11
4984.0
 21
3211.359376370907
 31
0.0
100
AcDbText
  0
TEXT
  5
F7
330
1F
100
AcDbEntity
  8
図面枠
  6
CONTINUOUS
 62
     4
100
AcDbText
 10
4858.0
 20
3295.359376370907
 30
0.0
 40
48.48065526307409
  1
高圧
 41
0.9992308297349457
  7
EXCADTTF1
 72
     5
 11
4984.0
 21
3295.359376370907
 31
0.0
100
AcDbText
  0
TEXT
  5
F8
330
1F
100
AcDbEntity
  8
図面枠
  6
CONTINUOUS
 62
     4
100
AcDbText
 10
4298.0
 20
3295.359376370907
 30
0.0
 40
48.48065526307409
  1
吐出量
 41
0.9992308297349456
  7
EXCADTTF1
 72
     5
 11
4487.0
 21
3295.359376370907
 31
0.0
100
AcDbText
  0
LINE
  5
F9
330
1F
100
AcDbEntity
  8
図面枠
  6
CONTINUOUS
 62
     2
100
AcDbLine
 10
4830.0
 20
3276.0
 30
0.0
 11
5670.0
 21
3276.0
 31
0.0
  0
LINE
  5
FA
330
1F
100
AcDbEntity
  8
図面枠
  6
CONTINUOUS
 62
     2
100
AcDbLine
 10
4270.0
 20
3108.0
 30
0.0
 11
5670.0
 21
3108.0
 31
0.0
  0
LINE
  5
FB
330
1F
100
AcDbEntity
  8
図面枠
  6
CONTINUOUS
 62
     2
100
AcDbLine
 10
4270.0
 20
3192.0
 30
0.0
 11
5670.0
 21
3192.0
 31
0.0
  0
LINE
  5
FC
330
1F
100
AcDbEntity
  8
図面枠
  6
CONTINUOUS
 62
     2
100
AcDbLine
 10
4270.0
 20
3360.0
 30
0.0
 11
5670.0
 21
3360.0
 31
0.0
  0
TEXT
  5
FD
330
1F
100
AcDbEntity
  8
図面枠
  6
CONTINUOUS
 62
     4
100
AcDbText
 10
5418.0
 20
3295.359376370907
 30
0.0
 40
48.48065526307409
  1
L/min
 41
0.9992308297349457
  7
EXCADTTF1
 72
     5
 11
5575.5
 21
3295.359376370907
 31
0.0
100
AcDbText
  0
TEXT
  5
FE
330
1F
100
AcDbEntity
  8
図面枠
  6
CONTINUOUS
 62
     4
100
AcDbText
 10
5418.0
 20
3211.359376370907
 30
0.0
 40
48.48065526307409
  1
L/min
 41
0.9992308297349457
  7
EXCADTTF1
 72
     5
 11
5575.5
 21
3211.359376370907
 31
0.0
100
AcDbText
  0
TEXT
  5
FF
330
1F
100
AcDbEntity
  8
図面枠
  6
CONTINUOUS
 62
     4
100
AcDbText
 10
5418.0
 20
3127.359376370907
 30
0.0
 40
48.48065526307409
  1
L
 41
0.9992308297349457
  7
EXCADTTF1
 72
     5
 11
5449.5
 21
3127.359376370907
 31
0.0
100
AcDbText
  0
LINE
  5
100
330
1F
100
AcDbEntity
  8
図面枠
  6
CONTINUOUS
 62
     3
100
AcDbLine
 10
4270.0
 20
3024.0
 30
0.0
 11
5670.0
 21
3024.0
 31
0.0
  0
TEXT
  5
101
330
1F
100
AcDbEntity
  8
図面枠
  6
CONTINUOUS
 62
     4
100
AcDbText
 10
5267.5
 20
3295.359376370907
 30
0.0
 40
48.48065526307409
  1
3.2
 41
0.9992308297349456
  7
EXCADTTF1
 72
     5
 11
5362.0
 21
3295.359376370907
 31
0.0
100
AcDbText
  0
TEXT
  5
102
330
1F
100
AcDbEntity
  8
図面枠
  6
CONTINUOUS
 62
     4
100
AcDbText
 10
5236.0
 20
3211.359376370907
 30
0.0
 40
48.48065526307409
  1
10.0
 41
0.9992308297349457
  7
EXCADTTF1
 72
     5
 11
5362.0
 21
3211.359376370907
 31
0.0
100
AcDbText
  0
LINE
  5
103
330
1F
100
AcDbEntity
  8
図面枠
  6
CONTINUOUS
 62
     3
100
AcDbLine
 10
4270.0
 20
3948.0
 30
0.0
 11
4270.0
 21
3024.0
 31
0.0
  0
LINE
  5
104
330
1F
100
AcDbEntity
  8
図面枠
  6
CONTINUOUS
 62
     2
100
AcDbLine
 10
5110.0
 20
3528.0
 30
0.0
 11
5110.0
 21
3024.0
 31
0.0
  0
LINE
  5
105
330
1F
100
AcDbEntity
  8
図面枠
  6
CONTINUOUS
 62
     2
100
AcDbLine
 10
5390.0
 20
3696.0
 30
0.0
 11
5390.0
 21
3024.0
 31
0.0
  0
LINE
  5
106
330
1F
100
AcDbEntity
  8
図面枠
  6
CONTINUOUS
 62
     2
100
AcDbLine
 10
4830.0
 20
3864.0
 30
0.0
 11
4830.0
 21
3192.0
 31
0.0
  0
LINE
  5
107
330
1F
100
AcDbEntity
  8
図面枠
  6
CONTINUOUS
 62
     3
100
AcDbLine
 10
5670.0
 20
3948.0
 30
0.0
 11
5670.0
 21
3024.0
 31
0.0
  0
LINE
  5
108
330
1F
100
AcDbEntity
  8
図面枠
  6
CONTINUOUS
 62
     3
100
AcDbLine
 10
5040.0
 20
336.0
 30
0.0
 11
5040.0
 21
210.0
 31
0.0
  0
LINE
  5
109
330
1F
100
AcDbEntity
  8
図面枠
  6
CONTINUOUS
 62
     3
100
AcDbLine
 10
5040.0
 20
336.0
 30
0.0
 11
5670.0
 21
336.0000000000001
 31
0.0
  0
LINE
  5
10A
330
1F
100
AcDbEntity
  8
図面枠
  6
CONTINUOUS
 62
     3
100
AcDbLine
 10
5040.0
 20
210.0
 30
0.0
 11
5670.0
 21
210.0
 31
0.0
  0
TEXT
  5
10B
330
1F
100
AcDbEntity
  8
図面枠
  6
CONTINUOUS
 62
     4
100
AcDbText
 10
252.0
 20
3854.8125
 30
0.0
 40
64.64087759815243
  1
3.7kW 2連異荷重電動油圧ポンプユニット（インバーター付・遠隔操作対応型）
 41
0.999230769230769
  7
EXCADTTF1
 72
     5
 11
3234.0
 21
3854.8125
 31
0.0
100
AcDbText
  0
LINE
  5
10C
330
1F
100
AcDbEntity
  8
図面枠
  6
CONTINUOUS
 62
     3
100
AcDbLine
 10
210.0
 20
3948.0
 30
0.0
 11
3276.0
 21
3948.000000000001
 31
0.0
  0
LINE
  5
10D
330
1F
100
AcDbEntity
  8
図面枠
  6
CONTINUOUS
 62
     3
100
AcDbLine
 10
210.0
 20
3822.0
 30
0.0
 11
3276.0
 21
3822.0
 31
0.0
  0
LINE
  5
10E
330
1F
100
AcDbEntity
  8
図面枠
  6
CONTINUOUS
 62
     3
100
AcDbLine
 10
3276.0
 20
3948.0
 30
0.0
 11
3276.0
 21
3822.0
 31
0.0
  0
TEXT
  5
10F
330
1F
100
AcDbEntity
  8
図面枠
  6
CONTINUOUS
 62
     4
100
AcDbText
 10
5173.0
 20
3631.359376370907
 30
0.0
 40
48.48065526307409
  1
20～60
 41
0.9992308297349456
  7
EXCADTTF1
 72
     5
 11
5362.0
 21
3631.359376370907
 31
0.0
100
AcDbText
  0
TEXT
  5
110
330
1F
100
AcDbEntity
  8
図面枠
  6
CONTINUOUS
 62
     4
100
AcDbText
 10
5078.5
 20
3547.359376370907
 30
0.0
 40
48.48065526307409
  1
580～1740
 41
0.9992308297349455
  7
EXCADTTF1
 72
     5
 11
5362.0
 21
3547.359376370907
 31
0.0
100
AcDbText
  0
TEXT
  5
111
330
1F
100
AcDbEntity
  8
図面枠
  6
CONTINUOUS
 62
     4
100
AcDbText
 10
5267.5
 20
3127.359376370907
 30
0.0
 40
48.48065526307409
  1
110
 41
0.9992308297349456
  7
EXCADTTF1
 72
     5
 11
5362.0
 21
3127.359376370907
 31
0.0
100
AcDbText
  0
TEXT
  5
112
330
1F
100
AcDbEntity
  8
図面枠
  6
CONTINUOUS
 62
     4
100
AcDbText
 10
5204.5
 20
3043.359376370907
 30
0.0
 40
48.48065526307409
  1
約620
 41
0.9992308297349457
  7
EXCADTTF1
 72
     5
 11
5362.0
 21
3043.359376370907
 31
0.0
100
AcDbText
  0
TEXT
  5
113
330
1F
100
AcDbEntity
  8
図面枠
  6
CONTINUOUS
 62
     4
100
AcDbText
 10
5082.0
 20
242.8125
 30
0.0
 40
64.64087759815243
  1
OTVP-6GL2-J-B
 41
0.999230769230769
  7
EXCADTTF1
 72
     5
 11
5628.0
 21
242.8125
 31
0.0
100
AcDbText
  0
LINE
  5
114
330
1F
100
AcDbEntity
  8
Ｓ_１_１
  6
CONTINUOUS
 62
     3
100
AcDbLine
 10
1041.639351639316
 20
1463.606695081994
 30
0.0
 11
1041.639351639316
 21
480.000000000029
 31
0.0
  0
LINE
  5
115
330
1F
100
AcDbEntity
  8
Ｓ_１_１
  6
CONTINUOUS
 62
     3
100
AcDbLine
 10
1838.360648360624
 20
1463.606695081994
 30
0.0
 11
1838.360648360624
 21
480.000000000029
 31
0.0
  0
LINE
  5
116
330
1F
100
AcDbEntity
  8
Ｓ_１_１
  6
CONTINUOUS
 62
     3
100
AcDbLine
 10
1012.131154918006
 20
519.3444147541304
 30
0.0
 11
1041.639351639316
 21
519.3444147541304
 31
0.0
  0
LINE
  5
117
330
1F
100
AcDbEntity
  8
Ｓ_１_１
  6
CONTINUOUS
 62
     3
100
AcDbLine
 10
1041.639351639316
 20
1168.524580327899
 30
0.0
 11
1838.360648360624
 21
1168.524580327899
 31
0.0
  0
LINE
  5
118
330
1F
100
AcDbEntity
  8
Ｓ_１_１
  6
CONTINUOUS
 62
     3
100
AcDbLine
 10
1046.557379508164
 20
1163.606552459039
 30
0.0
 11
1833.442620491778
 21
1163.606552459039
 31
0.0
  0
LINE
  5
119
330
1F
100
AcDbEntity
  8
Ｓ_１_１
  6
CONTINUOUS
 62
     3
100
AcDbLine
 10
1440.000036885216
 20
1119.344257377072
 30
0.0
 11
1440.000036885216
 21
573.4426327869132
 31
0.0
  0
LINE
  5
11A
330
1F
100
AcDbEntity
  8
Ｓ_１_１
  6
CONTINUOUS
 62
     3
100
AcDbLine
 10
1484.262331967183
 20
915.2460491803539
 30
0.0
 11
1508.852486065544
 21
915.2460491803539
 31
0.0
  0
LINE
  5
11B
330
1F
100
AcDbEntity
  8
Ｓ_１_１
  6
CONTINUOUS
 62
     3
100
AcDbLine
 10
1484.262331967183
 20
802.1313049180571
 30
0.0
 11
1508.852486065544
 21
802.1313049180571
 31
0.0
  0
LINE
  5
11C
330
1F
100
AcDbEntity
  8
Ｓ_１_１
  6
CONTINUOUS
 62
     3
100
AcDbLine
 10
1484.262331967183
 20
915.2460491803539
 30
0.0
 11
1484.262331967183
 21
802.1313049180571
 31
0.0
  0
LINE
  5
11D
330
1F
100
AcDbEntity
  8
Ｓ_１_１
  6
CONTINUOUS
 62
     3
100
AcDbLine
 10
1508.852486065544
 20
915.2460491803539
 30
0.0
 11
1508.852486065544
 21
802.1313049180571
 31
0.0
  0
LINE
  5
11E
330
1F
100
AcDbEntity
  8
Ｓ_１_１
  6
CONTINUOUS
 62
     3
100
AcDbLine
 10
1484.262331967183
 20
890.6558950819908
 30
0.0
 11
1508.852486065544
 21
890.6558950819908
 31
0.0
  0
LINE
  5
11F
330
1F
100
AcDbEntity
  8
Ｓ_１_１
  6
CONTINUOUS
 62
     3
100
AcDbLine
 10
1486.721338524561
 20
912.7870426229747
 30
0.0
 11
1506.393479508166
 21
912.7870426229747
 31
0.0
  0
LINE
  5
120
330
1F
100
AcDbEntity
  8
Ｓ_１_１
  6
CONTINUOUS
 62
     3
100
AcDbLine
 10
1506.393479508166
 20
893.1149016393701
 30
0.0
 11
1486.721338524561
 21
893.1149016393701
 31
0.0
  0
LINE
  5
121
330
1F
100
AcDbEntity
  8
Ｓ_１_１
  6
CONTINUOUS
 62
     3
100
AcDbLine
 10
1486.721338524561
 20
912.7870426229747
 30
0.0
 11
1486.721338524561
 21
893.1149016393701
 31
0.0
  0
LINE
  5
122
330
1F
100
AcDbEntity
  8
Ｓ_１_１
  6
CONTINUOUS
 62
     3
100
AcDbLine
 10
1506.393479508166
 20
912.7870426229747
 30
0.0
 11
1506.393479508166
 21
893.1149016393701
 31
0.0
  0
LINE
  5
123
330
1F
100
AcDbEntity
  8
Ｓ_１_１
  6
CONTINUOUS
 62
     3
100
AcDbLine
 10
1012.131154918006
 20
489.8362180328185
 30
0.0
 11
1041.639351639316
 21
489.8362180328185
 31
0.0
  0
LINE
  5
124
330
1F
100
AcDbEntity
  8
Ｓ_１_１
  6
CONTINUOUS
 62
     3
100
AcDbLine
 10
972.7868877048841
 20
573.4427803278923
 30
0.0
 11
972.7868877048841
 21
435.7378672131454
 31
0.0
  0
LINE
  5
125
330
1F
100
AcDbEntity
  8
Ｓ_１_１
  6
CONTINUOUS
 62
     3
100
AcDbLine
 10
1907.213097540953
 20
573.4427803278923
 30
0.0
 11
1907.213097540953
 21
435.7378672131454
 31
0.0
  0
LINE
  5
126
330
1F
100
AcDbEntity
  8
Ｓ_１_１
  6
CONTINUOUS
 62
     3
100
AcDbLine
 10
1012.131154918006
 20
573.4427803278923
 30
0.0
 11
1012.131154918006
 21
435.7378672131454
 31
0.0
  0
LINE
  5
127
330
1F
100
AcDbEntity
  8
Ｓ_１_１
  6
CONTINUOUS
 62
     3
100
AcDbLine
 10
1867.868845081935
 20
573.4427803278923
 30
0.0
 11
1867.868845081935
 21
435.7378672131454
 31
0.0
  0
LINE
  5
128
330
1F
100
AcDbEntity
  8
Ｓ_１_１
  6
CONTINUOUS
 62
     3
100
AcDbLine
 10
977.7049155737441
 20
578.3608081967523
 30
0.0
 11
1007.213112295056
 21
578.3608081967523
 31
0.0
  0
LINE
  5
129
330
1F
100
AcDbEntity
  8
Ｓ_１_１
  6
CONTINUOUS
 62
     3
100
AcDbLine
 10
1902.295069672106
 20
578.3608081967523
 30
0.0
 11
1872.786872950795
 21
578.3608081967523
 31
0.0
  0
LINE
  5
12A
330
1F
100
AcDbEntity
  8
Ｓ_１_１
  6
CONTINUOUS
 62
     3
100
AcDbLine
 10
1902.295069672106
 20
430.8198245901949
 30
0.0
 11
1872.786872950795
 21
430.8198245901949
 31
0.0
  0
LINE
  5
12B
330
1F
100
AcDbEntity
  8
Ｓ_１_１
  6
CONTINUOUS
 62
     3
100
AcDbLine
 10
1076.065723770454
 20
1242.295072131177
 30
0.0
 11
1076.065723770454
 21
1178.360650819695
 31
0.0
  0
LINE
  5
12C
330
1F
100
AcDbEntity
  8
Ｓ_１_１
  6
CONTINUOUS
 62
     3
100
AcDbLine
 10
1076.065723770454
 20
1242.295072131177
 30
0.0
 11
1076.065723770454
 21
1222.30161639347
 31
0.0
  0
LINE
  5
12D
330
1F
100
AcDbEntity
  8
Ｓ_１_１
  6
CONTINUOUS
 62
     3
100
AcDbLine
 10
1095.73784999997
 20
1242.295072131177
 30
0.0
 11
1095.73784999997
 21
1178.360650819695
 31
0.0
  0
LINE
  5
12E
330
1F
100
AcDbEntity
  8
Ｓ_１_１
  6
CONTINUOUS
 62
     3
100
AcDbLine
 10
1063.770543442597
 20
1168.524816393472
 30
0.0
 11
1069.14054836062
 21
1183.278781967238
 31
0.0
  0
LINE
  5
12F
330
1F
100
AcDbEntity
  8
Ｓ_１_１
  6
CONTINUOUS
 62
     3
100
AcDbLine
 10
1041.639351639316
 20
1463.606695081994
 30
0.0
 11
1838.360648360624
 21
1463.606695081994
 31
0.0
  0
LINE
  5
130
330
1F
100
AcDbEntity
  8
Ｓ_１_１
  6
CONTINUOUS
 62
     3
100
AcDbLine
 10
1102.662936885212
 20
1183.278678688555
 30
0.0
 11
1108.032986065544
 21
1168.524565573796
 31
0.0
  0
LINE
  5
131
330
1F
100
AcDbEntity
  8
Ｓ_１_１
  6
CONTINUOUS
 62
     3
100
AcDbLine
 10
1069.140636885213
 20
1183.278929508218
 30
0.0
 11
1076.065679508172
 21
1185.134478688557
 31
0.0
  0
LINE
  5
132
330
1F
100
AcDbEntity
  8
Ｓ_１_１
  6
CONTINUOUS
 62
     3
100
AcDbLine
 10
1095.737835245867
 20
1185.134419672157
 30
0.0
 11
1102.662877868825
 21
1183.278870491831
 31
0.0
  0
LINE
  5
133
330
1F
100
AcDbEntity
  8
Ｓ_１_１
  6
CONTINUOUS
 62
     3
100
AcDbLine
 10
1794.098353278657
 20
1537.377186885273
 30
0.0
 11
1794.098353278657
 21
1473.442765573804
 31
0.0
  0
LINE
  5
134
330
1F
100
AcDbEntity
  8
Ｓ_１_１
  6
CONTINUOUS
 62
     3
100
AcDbLine
 10
1794.098353278657
 20
1537.377186885273
 30
0.0
 11
1794.098353278657
 21
1517.383731147565
 31
0.0
  0
LINE
  5
135
330
1F
100
AcDbEntity
  8
Ｓ_１_１
  6
CONTINUOUS
 62
     3
100
AcDbLine
 10
1813.770479508172
 20
1537.377186885273
 30
0.0
 11
1813.770479508172
 21
1473.442765573804
 31
0.0
  0
LINE
  5
136
330
1F
100
AcDbEntity
  8
Ｓ_１_１
  6
CONTINUOUS
 62
     3
100
AcDbLine
 10
1781.803231967186
 20
1463.606709836097
 30
0.0
 11
1787.173295901609
 21
1478.360822950844
 31
0.0
  0
LINE
  5
137
330
1F
100
AcDbEntity
  8
Ｓ_１_１
  6
CONTINUOUS
 62
     3
100
AcDbLine
 10
1820.6956254098
 20
1478.360749180353
 30
0.0
 11
1826.065689344236
 21
1463.606636065608
 31
0.0
  0
LINE
  5
138
330
1F
100
AcDbEntity
  8
Ｓ_１_１
  6
CONTINUOUS
 62
     3
100
AcDbLine
 10
1787.173192622925
 20
1478.360822950844
 30
0.0
 11
1794.09823524587
 21
1480.216386885271
 31
0.0
  0
LINE
  5
139
330
1F
100
AcDbEntity
  8
Ｓ_１_１
  6
CONTINUOUS
 62
     3
100
AcDbLine
 10
1813.770568032752
 20
1480.216637704948
 30
0.0
 11
1820.69561065571
 21
1478.361073770519
 31
0.0
  0
LINE
  5
13A
330
1F
100
AcDbEntity
  8
Ｓ_１_１
  6
CONTINUOUS
 62
     3
100
AcDbLine
 10
1076.065576229475
 20
1537.377186885273
 30
0.0
 11
1076.065576229475
 21
1473.442765573804
 31
0.0
  0
LINE
  5
13B
330
1F
100
AcDbEntity
  8
Ｓ_１_１
  6
CONTINUOUS
 62
     3
100
AcDbLine
 10
1076.065576229475
 20
1537.377186885273
 30
0.0
 11
1076.065576229475
 21
1517.383731147565
 31
0.0
  0
LINE
  5
13C
330
1F
100
AcDbEntity
  8
Ｓ_１_１
  6
CONTINUOUS
 62
     3
100
AcDbLine
 10
1095.73770245899
 20
1537.377186885273
 30
0.0
 11
1095.73770245899
 21
1473.442765573804
 31
0.0
  0
LINE
  5
13D
330
1F
100
AcDbEntity
  8
Ｓ_１_１
  6
CONTINUOUS
 62
     3
100
AcDbLine
 10
1063.7704991803
 20
1463.606650819697
 30
0.0
 11
1069.14054836062
 21
1478.360763934456
 31
0.0
  0
LINE
  5
13E
330
1F
100
AcDbEntity
  8
Ｓ_１_１
  6
CONTINUOUS
 62
     3
100
AcDbLine
 10
1102.662730327846
 20
1478.360749180353
 30
0.0
 11
1108.032794262268
 21
1463.606636065608
 31
0.0
  0
LINE
  5
13F
330
1F
100
AcDbEntity
  8
Ｓ_１_１
  6
CONTINUOUS
 62
     3
100
AcDbLine
 10
1069.140577868828
 20
1478.360881967244
 30
0.0
 11
1076.065620491772
 21
1480.216431147568
 31
0.0
  0
LINE
  5
140
330
1F
100
AcDbEntity
  8
Ｓ_１_１
  6
CONTINUOUS
 62
     3
100
AcDbLine
 10
1095.73777622948
 20
1480.216475409864
 30
0.0
 11
1102.662818852425
 21
1478.360926229539
 31
0.0
  0
LINE
  5
141
330
1F
100
AcDbEntity
  8
Ｓ_１_１
  6
CONTINUOUS
 62
     3
100
AcDbLine
 10
1176.877438524565
 20
1498.032934426255
 30
0.0
 11
1176.877438524565
 21
1463.606695081994
 31
0.0
  0
LINE
  5
142
330
1F
100
AcDbEntity
  8
Ｓ_１_１
  6
CONTINUOUS
 62
     3
100
AcDbLine
 10
1238.360731967177
 20
1498.032934426255
 30
0.0
 11
1238.360731967177
 21
1463.606695081994
 31
0.0
  0
LINE
  5
143
330
1F
100
AcDbEntity
  8
Ｓ_１_１
  6
CONTINUOUS
 62
     3
100
AcDbLine
 10
1169.508194262269
 20
1498.032934426255
 30
0.0
 11
1238.360731967177
 21
1498.032934426255
 31
0.0
  0
LINE
  5
144
330
1F
100
AcDbEntity
  8
Ｓ_１_１
  6
CONTINUOUS
 62
     3
100
AcDbLine
 10
1230.991561475385
 20
1498.032934426255
 30
0.0
 11
1230.991561475385
 21
1463.606695081994
 31
0.0
  0
LINE
  5
145
330
1F
100
AcDbEntity
  8
Ｓ_１_１
  6
CONTINUOUS
 62
     3
100
AcDbLine
 10
1199.01646475407
 20
1498.032934426255
 30
0.0
 11
1199.01646475407
 21
1463.606695081994
 31
0.0
  0
LINE
  5
146
330
1F
100
AcDbEntity
  8
Ｓ_１_１
  6
CONTINUOUS
 62
     3
100
AcDbLine
 10
1208.852535245867
 20
1498.032934426255
 30
0.0
 11
1208.852535245867
 21
1463.606695081994
 31
0.0
  0
LINE
  5
147
330
1F
100
AcDbEntity
  8
Ｓ_１_１
  6
CONTINUOUS
 62
     3
100
AcDbLine
 10
1169.508194262269
 20
1498.032934426255
 30
0.0
 11
1169.508194262269
 21
1463.606695081994
 31
0.0
  0
LINE
  5
148
330
1F
100
AcDbEntity
  8
Ｓ_１_１
  6
CONTINUOUS
 62
     3
100
AcDbLine
 10
1907.213097540953
 20
529.1804852459263
 30
0.0
 11
1907.213097540953
 21
484.9181901639586
 31
0.0
  0
LINE
  5
149
330
1F
100
AcDbEntity
  8
Ｓ_１_１
  6
CONTINUOUS
 62
     3
100
AcDbLine
 10
1907.212935245869
 20
529.1806180328149
 30
0.0
 11
1917.645661475381
 21
518.7478918033048
 31
0.0
  0
LINE
  5
14A
330
1F
100
AcDbEntity
  8
Ｓ_１_１
  6
CONTINUOUS
 62
     3
100
AcDbLine
 10
1907.212979508166
 20
480.0002360656017
 30
0.0
 11
1917.645690983574
 21
490.4329622951136
 31
0.0
  0
LINE
  5
14B
330
1F
100
AcDbEntity
  8
Ｓ_１_１
  6
CONTINUOUS
 62
     3
100
AcDbLine
 10
1917.645749999974
 20
518.7477442623258
 30
0.0
 11
1917.645779508167
 21
490.4327262295392
 31
0.0
  0
LINE
  5
14C
330
1F
100
AcDbEntity
  8
Ｓ_１_１
  6
CONTINUOUS
 62
     3
100
AcDbLine
 10
1872.786799180292
 20
578.3611918033057
 30
0.0
 11
1867.868771311445
 21
573.4431491803552
 31
0.0
  0
LINE
  5
14D
330
1F
100
AcDbEntity
  8
Ｓ_１_１
  6
CONTINUOUS
 62
     3
100
AcDbLine
 10
1867.868771311445
 20
435.7380885246148
 30
0.0
 11
1872.786695901608
 21
430.8201639344516
 31
0.0
  0
LINE
  5
14E
330
1F
100
AcDbEntity
  8
Ｓ_１_１
  6
CONTINUOUS
 62
     3
100
AcDbLine
 10
1902.294922131113
 20
430.8201639344516
 30
0.0
 11
1907.212964754063
 21
435.7381918033116
 31
0.0
  0
LINE
  5
14F
330
1F
100
AcDbEntity
  8
Ｓ_１_１
  6
CONTINUOUS
 62
     3
100
AcDbLine
 10
1907.212964754063
 20
573.443045901673
 30
0.0
 11
1902.294922131113
 21
578.3610885246217
 31
0.0
  0
LINE
  5
150
330
1F
100
AcDbEntity
  8
Ｓ_１_１
  6
CONTINUOUS
 62
     3
100
AcDbLine
 10
1872.786872950795
 20
430.8198245901949
 30
0.0
 11
1872.786872950795
 21
578.3608081967523
 31
0.0
  0
LINE
  5
151
330
1F
100
AcDbEntity
  8
Ｓ_１_１
  6
CONTINUOUS
 62
     3
100
AcDbLine
 10
1902.295069672106
 20
430.8198245901949
 30
0.0
 11
1902.295069672106
 21
578.3608081967523
 31
0.0
  0
LINE
  5
152
330
1F
100
AcDbEntity
  8
Ｓ_１_１
  6
CONTINUOUS
 62
     3
100
AcDbLine
 10
962.3542795081612
 20
518.7479360656016
 30
0.0
 11
972.7870057376712
 21
529.1806622951117
 31
0.0
  0
LINE
  5
153
330
1F
100
AcDbEntity
  8
Ｓ_１_１
  6
CONTINUOUS
 62
     3
100
AcDbLine
 10
962.3541909835802
 20
490.4329622951136
 30
0.0
 11
972.7869172130922
 21
480.0002508197049
 31
0.0
  0
LINE
  5
154
330
1F
100
AcDbEntity
  8
Ｓ_１_１
  6
CONTINUOUS
 62
     3
100
AcDbLine
 10
962.3541319671803
 20
518.7478770492016
 30
0.0
 11
962.35405819669
 21
490.43287377052
 31
0.0
  0
LINE
  5
155
330
1F
100
AcDbEntity
  8
Ｓ_１_１
  6
CONTINUOUS
 62
     3
100
AcDbLine
 10
977.7050631147249
 20
578.3610885246217
 30
0.0
 11
972.7870204917745
 21
573.443045901673
 31
0.0
  0
LINE
  5
156
330
1F
100
AcDbEntity
  8
Ｓ_１_１
  6
CONTINUOUS
 62
     3
100
AcDbLine
 10
972.7869172130922
 20
435.7380885246148
 30
0.0
 11
977.7049598360409
 21
430.8200459016643
 31
0.0
  0
LINE
  5
157
330
1F
100
AcDbEntity
  8
Ｓ_１_１
  6
CONTINUOUS
 62
     3
100
AcDbLine
 10
1007.213289344229
 20
430.8201639344516
 30
0.0
 11
1012.131228688495
 21
435.7380885246148
 31
0.0
  0
LINE
  5
158
330
1F
100
AcDbEntity
  8
Ｓ_１_１
  6
CONTINUOUS
 62
     3
100
AcDbLine
 10
1012.131272950792
 20
573.4431049180603
 30
0.0
 11
1007.213245081932
 21
578.3611327869185
 31
0.0
  0
LINE
  5
159
330
1F
100
AcDbEntity
  8
Ｓ_１_１
  6
CONTINUOUS
 62
     3
100
AcDbLine
 10
977.7049155737441
 20
430.8198245901949
 30
0.0
 11
977.7049155737441
 21
578.3608081967523
 31
0.0
  0
LINE
  5
15A
330
1F
100
AcDbEntity
  8
Ｓ_１_１
  6
CONTINUOUS
 62
     3
100
AcDbLine
 10
1007.213112295056
 20
430.8198245901949
 30
0.0
 11
1007.213112295056
 21
578.3608081967523
 31
0.0
  0
LINE
  5
15B
330
1F
100
AcDbEntity
  8
Ｓ_１_１
  6
CONTINUOUS
 62
     3
100
AcDbLine
 10
1046.557379508164
 20
1163.606552459039
 30
0.0
 11
1046.557379508164
 21
529.1803377049455
 31
0.0
  0
LINE
  5
15C
330
1F
100
AcDbEntity
  8
Ｓ_１_１
  6
CONTINUOUS
 62
     3
100
AcDbLine
 10
1833.442620491778
 20
1163.606552459039
 30
0.0
 11
1833.442620491778
 21
529.1803377049455
 31
0.0
  0
LINE
  5
15D
330
1F
100
AcDbEntity
  8
Ｓ_１_１
  6
CONTINUOUS
 62
     3
100
AcDbLine
 10
1041.639351639316
 20
480.000000000029
 30
0.0
 11
1838.360648360624
 21
480.000000000029
 31
0.0
  0
LINE
  5
15E
330
1F
100
AcDbEntity
  8
Ｓ_１_１
  6
CONTINUOUS
 62
     3
100
AcDbLine
 10
1838.360648360624
 20
519.3444147541304
 30
0.0
 11
1867.868845081935
 21
519.3444147541304
 31
0.0
  0
LINE
  5
15F
330
1F
100
AcDbEntity
  8
Ｓ_１_１
  6
CONTINUOUS
 62
     3
100
AcDbLine
 10
1838.360648360624
 20
489.8362180328185
 30
0.0
 11
1867.868845081935
 21
489.8362180328185
 31
0.0
  0
LINE
  5
160
330
1F
100
AcDbEntity
  8
Ｓ_１_１
  6
CONTINUOUS
 62
     3
100
AcDbLine
 10
1095.73770245899
 20
1119.344257377072
 30
0.0
 11
1784.262253278654
 21
1119.344257377072
 31
0.0
  0
LINE
  5
161
330
1F
100
AcDbEntity
  8
Ｓ_１_１
  6
CONTINUOUS
 62
     3
100
AcDbLine
 10
1784.262253278654
 20
1119.344257377072
 30
0.0
 11
1784.262253278654
 21
1065.245906557398
 31
0.0
  0
LINE
  5
162
330
1F
100
AcDbEntity
  8
Ｓ_１_１
  6
CONTINUOUS
 62
     3
100
AcDbLine
 10
1095.73770245899
 20
573.4426327869132
 30
0.0
 11
1784.262253278654
 21
573.4426327869132
 31
0.0
  0
LINE
  5
163
330
1F
100
AcDbEntity
  8
Ｓ_１_１
  6
CONTINUOUS
 62
     3
100
AcDbLine
 10
1764.590112295049
 20
1065.245906557398
 30
0.0
 11
1803.934423770466
 21
1065.245906557398
 31
0.0
  0
LINE
  5
164
330
1F
100
AcDbEntity
  8
Ｓ_１_１
  6
CONTINUOUS
 62
     3
100
AcDbLine
 10
1764.590112295049
 20
1065.245906557398
 30
0.0
 11
1764.590112295049
 21
996.3934426229807
 31
0.0
  0
LINE
  5
165
330
1F
100
AcDbEntity
  8
Ｓ_１_１
  6
CONTINUOUS
 62
     3
100
AcDbLine
 10
1803.934423770466
 20
1065.245906557398
 30
0.0
 11
1803.934423770466
 21
996.3934426229807
 31
0.0
  0
LINE
  5
166
330
1F
100
AcDbEntity
  8
Ｓ_１_１
  6
CONTINUOUS
 62
     3
100
AcDbLine
 10
1792.131130327835
 20
1065.245906557398
 30
0.0
 11
1792.131130327835
 21
996.3934426229807
 31
0.0
  0
LINE
  5
167
330
1F
100
AcDbEntity
  8
Ｓ_１_１
  6
CONTINUOUS
 62
     3
100
AcDbLine
 10
1776.393435245872
 20
1065.245906557398
 30
0.0
 11
1776.393435245872
 21
996.3934426229807
 31
0.0
  0
LINE
  5
168
330
1F
100
AcDbEntity
  8
Ｓ_１_１
  6
CONTINUOUS
 62
     3
100
AcDbLine
 10
1784.262253278654
 20
996.3934426229807
 30
0.0
 11
1784.262253278654
 21
696.393447541006
 31
0.0
  0
LINE
  5
169
330
1F
100
AcDbEntity
  8
Ｓ_１_１
  6
CONTINUOUS
 62
     3
100
AcDbLine
 10
1764.590112295049
 20
996.3934426229807
 30
0.0
 11
1803.934423770466
 21
996.3934426229807
 31
0.0
  0
LINE
  5
16A
330
1F
100
AcDbEntity
  8
Ｓ_１_１
  6
CONTINUOUS
 62
     3
100
AcDbLine
 10
1776.393435245872
 20
627.5409836065865
 30
0.0
 11
1776.393435245872
 21
696.393447541006
 31
0.0
  0
LINE
  5
16B
330
1F
100
AcDbEntity
  8
Ｓ_１_１
  6
CONTINUOUS
 62
     3
100
AcDbLine
 10
1764.590112295049
 20
627.5409836065865
 30
0.0
 11
1803.934423770466
 21
627.5409836065865
 31
0.0
  0
LINE
  5
16C
330
1F
100
AcDbEntity
  8
Ｓ_１_１
  6
CONTINUOUS
 62
     3
100
AcDbLine
 10
1764.590112295049
 20
627.5409836065865
 30
0.0
 11
1764.590112295049
 21
696.393447541006
 31
0.0
  0
LINE
  5
16D
330
1F
100
AcDbEntity
  8
Ｓ_１_１
  6
CONTINUOUS
 62
     3
100
AcDbLine
 10
1803.934423770466
 20
627.5409836065865
 30
0.0
 11
1803.934423770466
 21
696.393447541006
 31
0.0
  0
LINE
  5
16E
330
1F
100
AcDbEntity
  8
Ｓ_１_１
  6
CONTINUOUS
 62
     3
100
AcDbLine
 10
1784.262253278654
 20
573.4426327869132
 30
0.0
 11
1784.262253278654
 21
627.5409836065865
 31
0.0
  0
LINE
  5
16F
330
1F
100
AcDbEntity
  8
Ｓ_１_１
  6
CONTINUOUS
 62
     3
100
AcDbLine
 10
1792.131130327835
 20
627.5409836065865
 30
0.0
 11
1792.131130327835
 21
696.393447541006
 31
0.0
  0
LINE
  5
170
330
1F
100
AcDbEntity
  8
Ｓ_１_１
  6
CONTINUOUS
 62
     3
100
AcDbLine
 10
1764.590112295049
 20
696.393447541006
 30
0.0
 11
1803.934423770466
 21
696.393447541006
 31
0.0
  0
LINE
  5
171
330
1F
100
AcDbEntity
  8
Ｓ_１_１
  6
CONTINUOUS
 62
     3
100
AcDbLine
 10
1103.606594262263
 20
1065.245906557398
 30
0.0
 11
1103.606594262263
 21
996.3934426229807
 31
0.0
  0
LINE
  5
172
330
1F
100
AcDbEntity
  8
Ｓ_１_１
  6
CONTINUOUS
 62
     3
100
AcDbLine
 10
1115.409843442596
 20
1065.245906557398
 30
0.0
 11
1076.065576229475
 21
1065.245906557398
 31
0.0
  0
LINE
  5
173
330
1F
100
AcDbEntity
  8
Ｓ_１_１
  6
CONTINUOUS
 62
     3
100
AcDbLine
 10
1115.409843442596
 20
1065.245906557398
 30
0.0
 11
1115.409843442596
 21
996.3934426229807
 31
0.0
  0
LINE
  5
174
330
1F
100
AcDbEntity
  8
Ｓ_１_１
  6
CONTINUOUS
 62
     3
100
AcDbLine
 10
1076.065576229475
 20
1065.245906557398
 30
0.0
 11
1076.065576229475
 21
996.3934426229807
 31
0.0
  0
LINE
  5
175
330
1F
100
AcDbEntity
  8
Ｓ_１_１
  6
CONTINUOUS
 62
     3
100
AcDbLine
 10
1095.73770245899
 20
1119.344257377072
 30
0.0
 11
1095.73770245899
 21
1065.245906557398
 31
0.0
  0
LINE
  5
176
330
1F
100
AcDbEntity
  8
Ｓ_１_１
  6
CONTINUOUS
 62
     3
100
AcDbLine
 10
1087.868825409809
 20
1065.245906557398
 30
0.0
 11
1087.868825409809
 21
996.3934426229807
 31
0.0
  0
LINE
  5
177
330
1F
100
AcDbEntity
  8
Ｓ_１_１
  6
CONTINUOUS
 62
     3
100
AcDbLine
 10
1095.73770245899
 20
996.3934426229807
 30
0.0
 11
1095.73770245899
 21
696.393447541006
 31
0.0
  0
LINE
  5
178
330
1F
100
AcDbEntity
  8
Ｓ_１_１
  6
CONTINUOUS
 62
     3
100
AcDbLine
 10
1115.409843442596
 20
996.3934426229807
 30
0.0
 11
1076.065576229475
 21
996.3934426229807
 31
0.0
  0
LINE
  5
179
330
1F
100
AcDbEntity
  8
Ｓ_１_１
  6
CONTINUOUS
 62
     3
100
AcDbLine
 10
1103.606594262263
 20
627.5409836065865
 30
0.0
 11
1103.606594262263
 21
696.393447541006
 31
0.0
  0
LINE
  5
17A
330
1F
100
AcDbEntity
  8
Ｓ_１_１
  6
CONTINUOUS
 62
     3
100
AcDbLine
 10
1115.409843442596
 20
627.5409836065865
 30
0.0
 11
1076.065576229475
 21
627.5409836065865
 31
0.0
  0
LINE
  5
17B
330
1F
100
AcDbEntity
  8
Ｓ_１_１
  6
CONTINUOUS
 62
     3
100
AcDbLine
 10
1115.409843442596
 20
627.5409836065865
 30
0.0
 11
1115.409843442596
 21
696.393447541006
 31
0.0
  0
LINE
  5
17C
330
1F
100
AcDbEntity
  8
Ｓ_１_１
  6
CONTINUOUS
 62
     3
100
AcDbLine
 10
1076.065576229475
 20
627.5409836065865
 30
0.0
 11
1076.065576229475
 21
696.393447541006
 31
0.0
  0
LINE
  5
17D
330
1F
100
AcDbEntity
  8
Ｓ_１_１
  6
CONTINUOUS
 62
     3
100
AcDbLine
 10
1095.73770245899
 20
573.4426327869132
 30
0.0
 11
1095.73770245899
 21
627.5409836065865
 31
0.0
  0
LINE
  5
17E
330
1F
100
AcDbEntity
  8
Ｓ_１_１
  6
CONTINUOUS
 62
     3
100
AcDbLine
 10
1087.868825409809
 20
627.5409836065865
 30
0.0
 11
1087.868825409809
 21
696.393447541006
 31
0.0
  0
LINE
  5
17F
330
1F
100
AcDbEntity
  8
Ｓ_１_１
  6
CONTINUOUS
 62
     3
100
AcDbLine
 10
1115.409843442596
 20
696.393447541006
 30
0.0
 11
1076.065576229475
 21
696.393447541006
 31
0.0
  0
LINE
  5
180
330
1F
100
AcDbEntity
  8
Ｓ_１_１
  6
CONTINUOUS
 62
     3
100
AcDbLine
 10
1046.557379508164
 20
529.1803377049455
 30
0.0
 11
1833.442620491778
 21
529.1803377049455
 31
0.0
  0
LINE
  5
181
330
1F
100
AcDbEntity
  8
Ｓ_１_１
  6
CONTINUOUS
 62
     3
100
AcDbLine
 10
1299.836146721282
 20
1391.026091803307
 30
0.0
 11
1299.836146721282
 21
1384.427837704943
 31
0.0
  0
LINE
  5
182
330
1F
100
AcDbEntity
  8
Ｓ_１_１
  6
CONTINUOUS
 62
     3
100
AcDbLine
 10
1403.114717213086
 20
1391.026091803307
 30
0.0
 11
1403.114717213086
 21
1384.427837704943
 31
0.0
  0
LINE
  5
183
330
1F
100
AcDbEntity
  8
Ｓ_１_１
  6
CONTINUOUS
 62
     3
100
AcDbLine
 10
1122.786892622924
 20
1391.026091803307
 30
0.0
 11
1122.786892622924
 21
1384.427837704943
 31
0.0
  0
LINE
  5
184
330
1F
100
AcDbEntity
  8
Ｓ_１_１
  6
CONTINUOUS
 62
     3
100
AcDbLine
 10
1226.065654918004
 20
1391.026091803307
 30
0.0
 11
1226.065654918004
 21
1384.427837704943
 31
0.0
  0
LINE
  5
185
330
1F
100
AcDbEntity
  8
Ｓ_１_１
  6
CONTINUOUS
 62
     3
100
AcDbLine
 10
1106.803423770461
 20
1227.540973770521
 30
0.0
 11
1175.655887704881
 21
1227.540973770521
 31
0.0
  0
LINE
  5
186
330
1F
100
AcDbEntity
  8
Ｓ_１_１
  6
CONTINUOUS
 62
     3
100
AcDbLine
 10
1106.803423770461
 20
1217.704918032816
 30
0.0
 11
1175.655887704881
 21
1217.704918032816
 31
0.0
  0
LINE
  5
187
330
1F
100
AcDbEntity
  8
Ｓ_１_１
  6
CONTINUOUS
 62
     3
100
AcDbLine
 10
1106.803423770461
 20
1227.540973770521
 30
0.0
 11
1106.803423770461
 21
1217.704918032816
 31
0.0
  0
LINE
  5
188
330
1F
100
AcDbEntity
  8
Ｓ_１_１
  6
CONTINUOUS
 62
     3
100
AcDbLine
 10
1124.016543442585
 20
1198.032777049211
 30
0.0
 11
1124.016543442585
 21
1168.524580327899
 31
0.0
  0
LINE
  5
189
330
1F
100
AcDbEntity
  8
Ｓ_１_１
  6
CONTINUOUS
 62
     3
100
AcDbLine
 10
1158.442768032757
 20
1198.032777049211
 30
0.0
 11
1158.442768032757
 21
1168.524580327899
 31
0.0
  0
LINE
  5
18A
330
1F
100
AcDbEntity
  8
Ｓ_１_１
  6
CONTINUOUS
 62
     3
100
AcDbLine
 10
1124.016543442585
 20
1198.032777049211
 30
0.0
 11
1158.442768032757
 21
1198.032777049211
 31
0.0
  0
LINE
  5
18B
330
1F
100
AcDbEntity
  8
Ｓ_１_１
  6
CONTINUOUS
 62
     3
100
AcDbLine
 10
1146.147690983569
 20
1227.540973770521
 30
0.0
 11
1146.147690983569
 21
1198.032777049211
 31
0.0
  0
LINE
  5
18C
330
1F
100
AcDbEntity
  8
Ｓ_１_１
  6
CONTINUOUS
 62
     3
100
AcDbLine
 10
1136.311620491773
 20
1227.540973770521
 30
0.0
 11
1136.311620491773
 21
1198.032777049211
 31
0.0
  0
LINE
  5
18D
330
1F
100
AcDbEntity
  8
Ｓ_１_１
  6
CONTINUOUS
 62
     3
100
AcDbLine
 10
1175.655887704881
 20
1227.540973770521
 30
0.0
 11
1175.655887704881
 21
1217.704918032816
 31
0.0
  0
LINE
  5
18E
330
1F
100
AcDbEntity
  8
Ｓ_１_１
  6
CONTINUOUS
 62
     3
100
AcDbLine
 10
1254.344407377019
 20
1227.540973770521
 30
0.0
 11
1323.196871311438
 21
1227.540973770521
 31
0.0
  0
LINE
  5
18F
330
1F
100
AcDbEntity
  8
Ｓ_１_１
  6
CONTINUOUS
 62
     3
100
AcDbLine
 10
1254.344407377019
 20
1217.704918032816
 30
0.0
 11
1323.196871311438
 21
1217.704918032816
 31
0.0
  0
LINE
  5
190
330
1F
100
AcDbEntity
  8
Ｓ_１_１
  6
CONTINUOUS
 62
     3
100
AcDbLine
 10
1254.344407377019
 20
1227.540973770521
 30
0.0
 11
1254.344407377019
 21
1217.704918032816
 31
0.0
  0
LINE
  5
191
330
1F
100
AcDbEntity
  8
Ｓ_１_１
  6
CONTINUOUS
 62
     3
100
AcDbLine
 10
1271.557527049143
 20
1198.032777049211
 30
0.0
 11
1271.557527049143
 21
1168.524580327899
 31
0.0
  0
LINE
  5
192
330
1F
100
AcDbEntity
  8
Ｓ_１_１
  6
CONTINUOUS
 62
     3
100
AcDbLine
 10
1305.983751639315
 20
1198.032777049211
 30
0.0
 11
1305.983751639315
 21
1168.524580327899
 31
0.0
  0
LINE
  5
193
330
1F
100
AcDbEntity
  8
Ｓ_１_１
  6
CONTINUOUS
 62
     3
100
AcDbLine
 10
1271.557527049143
 20
1198.032777049211
 30
0.0
 11
1305.983751639315
 21
1198.032777049211
 31
0.0
  0
LINE
  5
194
330
1F
100
AcDbEntity
  8
Ｓ_１_１
  6
CONTINUOUS
 62
     3
100
AcDbLine
 10
1293.688674590127
 20
1227.540973770521
 30
0.0
 11
1293.688674590127
 21
1198.032777049211
 31
0.0
  0
LINE
  5
195
330
1F
100
AcDbEntity
  8
Ｓ_１_１
  6
CONTINUOUS
 62
     3
100
AcDbLine
 10
1283.852604098331
 20
1227.540973770521
 30
0.0
 11
1283.852604098331
 21
1198.032777049211
 31
0.0
  0
LINE
  5
196
330
1F
100
AcDbEntity
  8
Ｓ_１_１
  6
CONTINUOUS
 62
     3
100
AcDbLine
 10
1323.196871311438
 20
1227.540973770521
 30
0.0
 11
1323.196871311438
 21
1217.704918032816
 31
0.0
  0
LINE
  5
197
330
1F
100
AcDbEntity
  8
Ｓ_１_１
  6
CONTINUOUS
 62
     3
100
AcDbLine
 10
1420.327910655714
 20
1259.025821311505
 30
0.0
 11
1420.327910655714
 21
1174.426293442646
 31
0.0
  0
LINE
  5
198
330
1F
100
AcDbEntity
  8
Ｓ_１_１
  6
CONTINUOUS
 62
     3
100
AcDbLine
 10
1405.573812295058
 20
1259.025821311505
 30
0.0
 11
1405.573812295058
 21
1174.426293442646
 31
0.0
  0
LINE
  5
199
330
1F
100
AcDbEntity
  8
Ｓ_１_１
  6
CONTINUOUS
 62
     3
100
AcDbLine
 10
1373.606594262264
 20
1174.426293442646
 30
0.0
 11
1506.393479508166
 21
1174.426293442646
 31
0.0
  0
LINE
  5
19A
330
1F
100
AcDbEntity
  8
Ｓ_１_１
  6
CONTINUOUS
 62
     3
100
AcDbLine
 10
1373.606594262264
 20
1174.426293442646
 30
0.0
 11
1373.606594262264
 21
1168.524580327899
 31
0.0
  0
LINE
  5
19B
330
1F
100
AcDbEntity
  8
Ｓ_１_１
  6
CONTINUOUS
 62
     3
100
AcDbLine
 10
1506.393479508166
 20
1174.426293442646
 30
0.0
 11
1506.393479508166
 21
1168.524580327899
 31
0.0
  0
LINE
  5
19C
330
1F
100
AcDbEntity
  8
Ｓ_１_１
  6
CONTINUOUS
 62
     3
100
AcDbLine
 10
1838.360648360624
 20
755.7682475410056
 30
0.0
 11
1858.03277459014
 21
755.7682475410056
 31
0.0
  0
LINE
  5
19D
330
1F
100
AcDbEntity
  8
Ｓ_１_１
  6
CONTINUOUS
 62
     3
100
AcDbLine
 10
1838.360648360624
 20
608.2272639344483
 30
0.0
 11
1858.03277459014
 21
608.2272639344483
 31
0.0
  0
LINE
  5
19E
330
1F
100
AcDbEntity
  8
Ｓ_１_１
  6
CONTINUOUS
 62
     3
100
AcDbLine
 10
1858.03277459014
 20
755.7682475410056
 30
0.0
 11
1858.03277459014
 21
608.2272639344483
 31
0.0
  0
LINE
  5
19F
330
1F
100
AcDbEntity
  8
Ｓ_１_１
  6
CONTINUOUS
 62
     3
100
AcDbLine
 10
1041.639425409807
 20
755.7682475410056
 30
0.0
 11
1021.967284426202
 21
755.7682475410056
 31
0.0
  0
LINE
  5
1A0
330
1F
100
AcDbEntity
  8
Ｓ_１_１
  6
CONTINUOUS
 62
     3
100
AcDbLine
 10
1041.639425409807
 20
608.2272639344483
 30
0.0
 11
1021.967284426202
 21
608.2272639344483
 31
0.0
  0
LINE
  5
1A1
330
1F
100
AcDbEntity
  8
Ｓ_１_１
  6
CONTINUOUS
 62
     3
100
AcDbLine
 10
1021.967284426202
 20
755.7682475410056
 30
0.0
 11
1021.967284426202
 21
608.2272639344483
 31
0.0
  0
LINE
  5
1A2
330
1F
100
AcDbEntity
  8
Ｓ_１_１
  6
CONTINUOUS
 62
     3
100
AcDbLine
 10
1838.360648360624
 20
1385.276434426254
 30
0.0
 11
1858.03277459014
 21
1385.276434426254
 31
0.0
  0
LINE
  5
1A3
330
1F
100
AcDbEntity
  8
Ｓ_１_１
  6
CONTINUOUS
 62
     3
100
AcDbLine
 10
1838.360648360624
 20
1237.735450819695
 30
0.0
 11
1858.03277459014
 21
1237.735450819695
 31
0.0
  0
LINE
  5
1A4
330
1F
100
AcDbEntity
  8
Ｓ_１_１
  6
CONTINUOUS
 62
     3
100
AcDbLine
 10
1858.03277459014
 20
1385.276434426254
 30
0.0
 11
1858.03277459014
 21
1237.735450819695
 31
0.0
  0
LINE
  5
1A5
330
1F
100
AcDbEntity
  8
Ｓ_１_１
  6
CONTINUOUS
 62
     3
100
AcDbLine
 10
1041.639425409807
 20
1385.276434426254
 30
0.0
 11
1021.967284426202
 21
1385.276434426254
 31
0.0
  0
LINE
  5
1A6
330
1F
100
AcDbEntity
  8
Ｓ_１_１
  6
CONTINUOUS
 62
     3
100
AcDbLine
 10
1041.639425409807
 20
1237.735450819695
 30
0.0
 11
1021.967284426202
 21
1237.735450819695
 31
0.0
  0
LINE
  5
1A7
330
1F
100
AcDbEntity
  8
Ｓ_１_１
  6
CONTINUOUS
 62
     3
100
AcDbLine
 10
1021.967284426202
 20
1385.276434426254
 30
0.0
 11
1021.967284426202
 21
1237.735450819695
 31
0.0
  0
LINE
  5
1A8
330
1F
100
AcDbEntity
  8
Ｓ_１_１
  6
CONTINUOUS
 62
     3
100
AcDbLine
 10
1395.737741803248
 20
915.2460491803539
 30
0.0
 11
1371.14754344259
 21
915.2460491803539
 31
0.0
  0
LINE
  5
1A9
330
1F
100
AcDbEntity
  8
Ｓ_１_１
  6
CONTINUOUS
 62
     3
100
AcDbLine
 10
1395.737741803248
 20
802.1313049180571
 30
0.0
 11
1371.14754344259
 21
802.1313049180571
 31
0.0
  0
LINE
  5
1AA
330
1F
100
AcDbEntity
  8
Ｓ_１_１
  6
CONTINUOUS
 62
     3
100
AcDbLine
 10
1395.737741803248
 20
915.2460491803539
 30
0.0
 11
1395.737741803248
 21
802.1313049180571
 31
0.0
  0
LINE
  5
1AB
330
1F
100
AcDbEntity
  8
Ｓ_１_１
  6
CONTINUOUS
 62
     3
100
AcDbLine
 10
1371.14754344259
 20
915.2460491803539
 30
0.0
 11
1371.14754344259
 21
802.1313049180571
 31
0.0
  0
LINE
  5
1AC
330
1F
100
AcDbEntity
  8
Ｓ_１_１
  6
CONTINUOUS
 62
     3
100
AcDbLine
 10
1395.737741803248
 20
890.6558950819908
 30
0.0
 11
1371.14754344259
 21
890.6558950819908
 31
0.0
  0
LINE
  5
1AD
330
1F
100
AcDbEntity
  8
Ｓ_１_１
  6
CONTINUOUS
 62
     3
100
AcDbLine
 10
1393.27872049178
 20
912.7870426229747
 30
0.0
 11
1373.606594262264
 21
912.7870426229747
 31
0.0
  0
LINE
  5
1AE
330
1F
100
AcDbEntity
  8
Ｓ_１_１
  6
CONTINUOUS
 62
     3
100
AcDbLine
 10
1373.606594262264
 20
893.1149016393701
 30
0.0
 11
1393.27872049178
 21
893.1149016393701
 31
0.0
  0
LINE
  5
1AF
330
1F
100
AcDbEntity
  8
Ｓ_１_１
  6
CONTINUOUS
 62
     3
100
AcDbLine
 10
1393.27872049178
 20
912.7870426229747
 30
0.0
 11
1393.27872049178
 21
893.1149016393701
 31
0.0
  0
LINE
  5
1B0
330
1F
100
AcDbEntity
  8
Ｓ_１_１
  6
CONTINUOUS
 62
     3
100
AcDbLine
 10
1373.606594262264
 20
912.7870426229747
 30
0.0
 11
1373.606594262264
 21
893.1149016393701
 31
0.0
  0
ARC
  5
1B1
330
1F
100
AcDbEntity
  8
Ｓ_１_１
  6
CONTINUOUS
 62
     3
100
AcDbCircle
 10
1085.901794262265
 20
1242.295072131177
 30
0.0
 40
9.836070491803278
100
AcDbArc
 50
0.0
 51
179.9999640000459
  0
ARC
  5
1B2
330
1F
100
AcDbEntity
  8
Ｓ_１_１
  6
CONTINUOUS
 62
     3
100
AcDbCircle
 10
1071.147695901609
 20
1178.360650819695
 30
0.0
 40
4.91802786885246
100
AcDbArc
 50
273.4133850000654
 51
0.0
  0
ARC
  5
1B3
330
1F
100
AcDbEntity
  8
Ｓ_１_１
  6
CONTINUOUS
 62
     3
100
AcDbCircle
 10
1100.655892622919
 20
1178.360650819695
 30
0.0
 40
4.91802786885246
100
AcDbArc
 50
179.9999779998794
 51
272.0103439999604
  0
ARC
  5
1B4
330
1F
100
AcDbEntity
  8
Ｓ_１_１
  6
CONTINUOUS
 62
     3
100
AcDbCircle
 10
1803.934423770466
 20
1537.377186885273
 30
0.0
 40
9.836070491803278
100
AcDbArc
 50
0.0
 51
179.9999639999664
  0
ARC
  5
1B5
330
1F
100
AcDbEntity
  8
Ｓ_１_１
  6
CONTINUOUS
 62
     3
100
AcDbCircle
 10
1789.180354918004
 20
1473.442765573804
 30
0.0
 40
4.91802786885246
100
AcDbArc
 50
273.41338500007
 51
0.0
  0
ARC
  5
1B6
330
1F
100
AcDbEntity
  8
Ｓ_１_１
  6
CONTINUOUS
 62
     3
100
AcDbCircle
 10
1818.688595901612
 20
1473.442765573804
 30
0.0
 40
4.91802786885246
100
AcDbArc
 50
179.9999780000384
 51
272.0103439999494
  0
ARC
  5
1B7
330
1F
100
AcDbEntity
  8
Ｓ_１_１
  6
CONTINUOUS
 62
     3
100
AcDbCircle
 10
1085.901646721284
 20
1537.377186885273
 30
0.0
 40
9.836070491803278
100
AcDbArc
 50
0.0
 51
179.9999639999664
  0
ARC
  5
1B8
330
1F
100
AcDbEntity
  8
Ｓ_１_１
  6
CONTINUOUS
 62
     3
100
AcDbCircle
 10
1071.147695901609
 20
1473.442765573804
 30
0.0
 40
4.91802786885246
100
AcDbArc
 50
273.4133850000647
 51
0.0
  0
ARC
  5
1B9
330
1F
100
AcDbEntity
  8
Ｓ_１_１
  6
CONTINUOUS
 62
     3
100
AcDbCircle
 10
1100.655892622919
 20
1473.442765573804
 30
0.0
 40
4.91802786885246
100
AcDbArc
 50
179.9999780000384
 51
272.0103439999547
  0
CIRCLE
  5
1BA
330
1F
100
AcDbEntity
  8
Ｓ_１_１
  6
CONTINUOUS
 62
     3
100
AcDbCircle
 10
1412.950861475386
 20
1271.803268852489
 30
0.0
 40
14.75409836065574
  0
ELLIPSE
  5
1BB
330
1F
100
AcDbEntity
  8
Ｓ_１_１
  6
CONTINUOUS
 62
     3
100
AcDbEllipse
 10
1351.475431967177
 20
1391.026091803307
 30
0.0
 11
51.63928721039105
 21
0.0
 31
0.0
210
0.0
220
0.0
230
1.0
 40
0.8944279999999999
 41
0.0
 42
6.283185307179586
  0
ELLIPSE
  5
1BC
330
1F
100
AcDbEntity
  8
Ｓ_１_１
  6
CONTINUOUS
 62
     3
100
AcDbEllipse
 10
1174.426266393411
 20
1391.026091803307
 30
0.0
 11
51.63938101442078
 21
0.0
 31
0.0
210
0.0
220
0.0
230
1.0
 40
0.8944260000000002
 41
0.0
 42
6.283185307179586
  0
ELLIPSE
  5
1BD
330
1F
100
AcDbEntity
  8
Ｓ_１_１
  6
CONTINUOUS
 62
     3
100
AcDbEllipse
 10
1174.426266393411
 20
1384.427837704943
 30
0.0
 11
51.63938101442078
 21
0.0
 31
0.0
210
0.0
220
0.0
230
1.0
 40
0.894427
 41
3.14159265358979
 42
6.3630789992904
  0
ELLIPSE
  5
1BE
330
1F
100
AcDbEntity
  8
Ｓ_１_１
  6
CONTINUOUS
 62
     3
100
AcDbEllipse
 10
1351.475431967177
 20
1384.427837704943
 30
0.0
 11
51.63928721039105
 21
0.0
 31
0.0
210
0.0
220
0.0
230
1.0
 40
0.8944289999999999
 41
3.14159265358979
 42
6.355492982516531
  0
ELLIPSE
  5
1BF
330
1F
100
AcDbEntity
  8
Ｓ_１_１
  6
CONTINUOUS
 62
     3
100
AcDbEllipse
 10
1262.950794551865
 20
1333.355413940775
 30
0.0
 11
12.39342893049385
 21
0.0
 31
0.0
210
0.0
220
0.0
230
1.0
 40
0.8944280000000001
 41
0.0
 42
6.283185307179586
  0
ELLIPSE
  5
1C0
330
1F
100
AcDbEntity
  8
Ｓ_１_１
  6
CONTINUOUS
 62
     3
100
AcDbEllipse
 10
1262.950794551865
 20
1331.771832957167
 30
0.0
 11
12.39342893049385
 21
0.0
 31
0.0
210
0.0
220
0.0
230
1.0
 40
0.8944289999999999
 41
3.14159265358979
 42
6.355492982516531
  0
LINE
  5
1C1
330
1F
100
AcDbEntity
  8
Ｓ_１_１
  6
CONTINUOUS
 62
     3
100
AcDbLine
 10
1293.933747444124
 20
1274.017555685516
 30
0.0
 11
1293.933747444124
 21
1270.058603226496
 31
0.0
  0
ELLIPSE
  5
1C2
330
1F
100
AcDbEntity
  8
Ｓ_１_１
  6
CONTINUOUS
 62
     3
100
AcDbEllipse
 10
1262.950176296579
 20
1274.017555685516
 30
0.0
 11
30.98357232623463
 21
0.0
 31
0.0
210
0.0
220
0.0
230
1.0
 40
0.8944279999999999
 41
0.0
 42
6.283185307179586
  0
ELLIPSE
  5
1C3
330
1F
100
AcDbEntity
  8
Ｓ_１_１
  6
CONTINUOUS
 62
     3
100
AcDbEllipse
 10
1262.950176296579
 20
1270.058603226496
 30
0.0
 11
30.98357232623463
 21
0.0
 31
0.0
210
0.0
220
0.0
230
1.0
 40
0.894429
 41
3.14159265358979
 42
6.355492982516531
  0
LINE
  5
1C4
330
1F
100
AcDbEntity
  8
Ｓ_１_１
  6
CONTINUOUS
 62
     3
100
AcDbLine
 10
1803.934276535636
 20
1242.295072131177
 30
0.0
 11
1803.934276535636
 21
1178.360650819695
 31
0.0
  0
LINE
  5
1C5
330
1F
100
AcDbEntity
  8
Ｓ_１_１
  6
CONTINUOUS
 62
     3
100
AcDbLine
 10
1803.934276535636
 20
1242.295072131177
 30
0.0
 11
1803.934276535636
 21
1222.30161639347
 31
0.0
  0
LINE
  5
1C6
330
1F
100
AcDbEntity
  8
Ｓ_１_１
  6
CONTINUOUS
 62
     3
100
AcDbLine
 10
1784.262150306121
 20
1242.295072131177
 30
0.0
 11
1784.262150306121
 21
1178.360650819695
 31
0.0
  0
LINE
  5
1C7
330
1F
100
AcDbEntity
  8
Ｓ_１_１
  6
CONTINUOUS
 62
     3
100
AcDbLine
 10
1816.229456863494
 20
1168.524816393472
 30
0.0
 11
1810.859451945471
 21
1183.278781967238
 31
0.0
  0
LINE
  5
1C8
330
1F
100
AcDbEntity
  8
Ｓ_１_１
  6
CONTINUOUS
 62
     3
100
AcDbLine
 10
1777.33706342088
 20
1183.278678688555
 30
0.0
 11
1771.967014240547
 21
1168.524565573796
 31
0.0
  0
LINE
  5
1C9
330
1F
100
AcDbEntity
  8
Ｓ_１_１
  6
CONTINUOUS
 62
     3
100
AcDbLine
 10
1810.859363420878
 20
1183.278929508218
 30
0.0
 11
1803.93432079792
 21
1185.134478688557
 31
0.0
  0
LINE
  5
1CA
330
1F
100
AcDbEntity
  8
Ｓ_１_１
  6
CONTINUOUS
 62
     3
100
AcDbLine
 10
1784.262165060225
 20
1185.134419672157
 30
0.0
 11
1777.337122437266
 21
1183.278870491831
 31
0.0
  0
LINE
  5
1CB
330
1F
100
AcDbEntity
  8
Ｓ_１_１
  6
CONTINUOUS
 62
     3
100
AcDbLine
 10
1580.163853584809
 20
1391.026091803307
 30
0.0
 11
1580.163853584809
 21
1384.427837704943
 31
0.0
  0
LINE
  5
1CC
330
1F
100
AcDbEntity
  8
Ｓ_１_１
  6
CONTINUOUS
 62
     3
100
AcDbLine
 10
1476.885283093005
 20
1391.026091803307
 30
0.0
 11
1476.885283093005
 21
1384.427837704943
 31
0.0
  0
LINE
  5
1CD
330
1F
100
AcDbEntity
  8
Ｓ_１_１
  6
CONTINUOUS
 62
     3
100
AcDbLine
 10
1757.213107683167
 20
1391.026091803307
 30
0.0
 11
1757.213107683167
 21
1384.427837704943
 31
0.0
  0
LINE
  5
1CE
330
1F
100
AcDbEntity
  8
Ｓ_１_１
  6
CONTINUOUS
 62
     3
100
AcDbLine
 10
1653.934345388088
 20
1391.026091803307
 30
0.0
 11
1653.934345388088
 21
1384.427837704943
 31
0.0
  0
LINE
  5
1CF
330
1F
100
AcDbEntity
  8
Ｓ_１_１
  6
CONTINUOUS
 62
     3
100
AcDbLine
 10
1773.196576535629
 20
1227.540973770521
 30
0.0
 11
1704.34411260121
 21
1227.540973770521
 31
0.0
  0
LINE
  5
1D0
330
1F
100
AcDbEntity
  8
Ｓ_１_１
  6
CONTINUOUS
 62
     3
100
AcDbLine
 10
1773.196576535629
 20
1217.704918032816
 30
0.0
 11
1704.34411260121
 21
1217.704918032816
 31
0.0
  0
LINE
  5
1D1
330
1F
100
AcDbEntity
  8
Ｓ_１_１
  6
CONTINUOUS
 62
     3
100
AcDbLine
 10
1773.196576535629
 20
1227.540973770521
 30
0.0
 11
1773.196576535629
 21
1217.704918032816
 31
0.0
  0
LINE
  5
1D2
330
1F
100
AcDbEntity
  8
Ｓ_１_１
  6
CONTINUOUS
 62
     3
100
AcDbLine
 10
1755.983456863506
 20
1198.032777049211
 30
0.0
 11
1755.983456863506
 21
1168.524580327899
 31
0.0
  0
LINE
  5
1D3
330
1F
100
AcDbEntity
  8
Ｓ_１_１
  6
CONTINUOUS
 62
     3
100
AcDbLine
 10
1721.557232273335
 20
1198.032777049211
 30
0.0
 11
1721.557232273335
 21
1168.524580327899
 31
0.0
  0
LINE
  5
1D4
330
1F
100
AcDbEntity
  8
Ｓ_１_１
  6
CONTINUOUS
 62
     3
100
AcDbLine
 10
1755.983456863506
 20
1198.032777049211
 30
0.0
 11
1721.557232273335
 21
1198.032777049211
 31
0.0
  0
LINE
  5
1D5
330
1F
100
AcDbEntity
  8
Ｓ_１_１
  6
CONTINUOUS
 62
     3
100
AcDbLine
 10
1733.852309322521
 20
1227.540973770521
 30
0.0
 11
1733.852309322522
 21
1198.032777049211
 31
0.0
  0
LINE
  5
1D6
330
1F
100
AcDbEntity
  8
Ｓ_１_１
  6
CONTINUOUS
 62
     3
100
AcDbLine
 10
1743.688379814318
 20
1227.540973770521
 30
0.0
 11
1743.688379814318
 21
1198.032777049211
 31
0.0
  0
LINE
  5
1D7
330
1F
100
AcDbEntity
  8
Ｓ_１_１
  6
CONTINUOUS
 62
     3
100
AcDbLine
 10
1704.34411260121
 20
1227.540973770521
 30
0.0
 11
1704.34411260121
 21
1217.704918032816
 31
0.0
  0
LINE
  5
1D8
330
1F
100
AcDbEntity
  8
Ｓ_１_１
  6
CONTINUOUS
 62
     3
100
AcDbLine
 10
1625.655592929072
 20
1227.540973770521
 30
0.0
 11
1556.803128994653
 21
1227.540973770521
 31
0.0
  0
LINE
  5
1D9
330
1F
100
AcDbEntity
  8
Ｓ_１_１
  6
CONTINUOUS
 62
     3
100
AcDbLine
 10
1625.655592929072
 20
1217.704918032816
 30
0.0
 11
1556.803128994653
 21
1217.704918032816
 31
0.0
  0
LINE
  5
1DA
330
1F
100
AcDbEntity
  8
Ｓ_１_１
  6
CONTINUOUS
 62
     3
100
AcDbLine
 10
1625.655592929072
 20
1227.540973770521
 30
0.0
 11
1625.655592929072
 21
1217.704918032816
 31
0.0
  0
LINE
  5
1DB
330
1F
100
AcDbEntity
  8
Ｓ_１_１
  6
CONTINUOUS
 62
     3
100
AcDbLine
 10
1608.442473256948
 20
1198.032777049211
 30
0.0
 11
1608.442473256948
 21
1168.524580327899
 31
0.0
  0
LINE
  5
1DC
330
1F
100
AcDbEntity
  8
Ｓ_１_１
  6
CONTINUOUS
 62
     3
100
AcDbLine
 10
1574.016248666777
 20
1198.032777049211
 30
0.0
 11
1574.016248666777
 21
1168.524580327899
 31
0.0
  0
LINE
  5
1DD
330
1F
100
AcDbEntity
  8
Ｓ_１_１
  6
CONTINUOUS
 62
     3
100
AcDbLine
 10
1608.442473256948
 20
1198.032777049211
 30
0.0
 11
1574.016248666777
 21
1198.032777049211
 31
0.0
  0
LINE
  5
1DE
330
1F
100
AcDbEntity
  8
Ｓ_１_１
  6
CONTINUOUS
 62
     3
100
AcDbLine
 10
1586.311325715964
 20
1227.540973770521
 30
0.0
 11
1586.311325715964
 21
1198.032777049211
 31
0.0
  0
LINE
  5
1DF
330
1F
100
AcDbEntity
  8
Ｓ_１_１
  6
CONTINUOUS
 62
     3
100
AcDbLine
 10
1596.147396207761
 20
1227.540973770521
 30
0.0
 11
1596.147396207761
 21
1198.032777049211
 31
0.0
  0
LINE
  5
1E0
330
1F
100
AcDbEntity
  8
Ｓ_１_１
  6
CONTINUOUS
 62
     3
100
AcDbLine
 10
1556.803128994653
 20
1227.540973770521
 30
0.0
 11
1556.803128994653
 21
1217.704918032816
 31
0.0
  0
LINE
  5
1E1
330
1F
100
AcDbEntity
  8
Ｓ_１_１
  6
CONTINUOUS
 62
     3
100
AcDbLine
 10
1459.672089650378
 20
1259.025821311505
 30
0.0
 11
1459.672089650378
 21
1174.426293442646
 31
0.0
  0
LINE
  5
1E2
330
1F
100
AcDbEntity
  8
Ｓ_１_１
  6
CONTINUOUS
 62
     3
100
AcDbLine
 10
1474.426188011034
 20
1259.025821311505
 30
0.0
 11
1474.426188011034
 21
1174.426293442646
 31
0.0
  0
ARC
  5
1E3
330
1F
100
AcDbEntity
  8
Ｓ_１_１
  6
CONTINUOUS
 62
     3
100
AcDbCircle
 10
1794.098206043827
 20
1242.295072131177
 30
0.0
 40
9.836070491803278
100
AcDbArc
 50
0.0000359999541222
 51
179.9999999999998
  0
ARC
  5
1E4
330
1F
100
AcDbEntity
  8
Ｓ_１_１
  6
CONTINUOUS
 62
     3
100
AcDbCircle
 10
1808.852304404483
 20
1178.360650819695
 30
0.0
 40
4.91802786885246
100
AcDbArc
 50
179.9999999999998
 51
266.5866149999346
  0
ARC
  5
1E5
330
1F
100
AcDbEntity
  8
Ｓ_１_１
  6
CONTINUOUS
 62
     3
100
AcDbCircle
 10
1779.344107683172
 20
1178.360650819695
 30
0.0
 40
4.91802786885246
100
AcDbArc
 50
267.9896560000398
 51
0.0000220001206398
  0
CIRCLE
  5
1E6
330
1F
100
AcDbEntity
  8
Ｓ_１_１
  6
CONTINUOUS
 62
     3
100
AcDbCircle
 10
1467.049138830706
 20
1271.803268852489
 30
0.0
 40
14.75409836065574
  0
ELLIPSE
  5
1E7
330
1F
100
AcDbEntity
  8
Ｓ_１_１
  6
CONTINUOUS
 62
     3
100
AcDbEllipse
 10
1528.524568338914
 20
1391.026091803307
 30
0.0
 11
-51.63928721039105
 21
6.323988779245626E-15
 31
0.0
210
0.0
220
0.0
230
1.0
 40
0.8944279999999999
 41
0.0
 42
6.283185307179586
  0
ELLIPSE
  5
1E8
330
1F
100
AcDbEntity
  8
Ｓ_１_１
  6
CONTINUOUS
 62
     3
100
AcDbEllipse
 10
1705.573733912679
 20
1391.026091803307
 30
0.0
 11
-51.63938101442078
 21
6.324000266926100E-15
 31
0.0
210
0.0
220
0.0
230
1.0
 40
0.8944260000000002
 41
0.0
 42
6.283185307179586
  0
ELLIPSE
  5
1E9
330
1F
100
AcDbEntity
  8
Ｓ_１_１
  6
CONTINUOUS
 62
     3
100
AcDbEllipse
 10
1705.573733912679
 20
1384.427837704943
 30
0.0
 11
-51.63938101442078
 21
6.324000266926100E-15
 31
0.0
210
0.0
220
0.0
230
1.0
 40
0.894427
 41
6.20329161506877
 42
9.424777960769383
  0
ELLIPSE
  5
1EA
330
1F
100
AcDbEntity
  8
Ｓ_１_１
  6
CONTINUOUS
 62
     3
100
AcDbEllipse
 10
1528.524568338914
 20
1384.427837704943
 30
0.0
 11
-51.63928721039105
 21
6.323988779245626E-15
 31
0.0
210
0.0
220
0.0
230
1.0
 40
0.8944289999999999
 41
6.21087763184264
 42
9.424777960769376
  0
ELLIPSE
  5
1EB
330
1F
100
AcDbEntity
  8
Ｓ_１_１
  6
CONTINUOUS
 62
     3
100
AcDbEllipse
 10
1617.049205754226
 20
1333.355413940775
 30
0.0
 11
-12.39342893049385
 21
1.517757307018950E-15
 31
0.0
210
0.0
220
0.0
230
1.0
 40
0.8944280000000001
 41
0.0
 42
6.283185307179586
  0
ELLIPSE
  5
1EC
330
1F
100
AcDbEntity
  8
Ｓ_１_１
  6
CONTINUOUS
 62
     3
100
AcDbEllipse
 10
1617.049205754226
 20
1331.771832957167
 30
0.0
 11
-12.39342893049385
 21
1.517757307018950E-15
 31
0.0
210
0.0
220
0.0
230
1.0
 40
0.8944289999999999
 41
6.21087763184264
 42
9.424777960769376
  0
LINE
  5
1ED
330
1F
100
AcDbEntity
  8
Ｓ_１_１
  6
CONTINUOUS
 62
     3
100
AcDbLine
 10
1586.066252861968
 20
1274.017555685516
 30
0.0
 11
1586.066252861968
 21
1270.058603226496
 31
0.0
  0
ELLIPSE
  5
1EE
330
1F
100
AcDbEntity
  8
Ｓ_１_１
  6
CONTINUOUS
 62
     3
100
AcDbEllipse
 10
1617.049824009513
 20
1274.017555685516
 30
0.0
 11
-30.98357232623463
 21
3.794393267547375E-15
 31
0.0
210
0.0
220
0.0
230
1.0
 40
0.8944279999999999
 41
0.0
 42
6.283185307179586
  0
ELLIPSE
  5
1EF
330
1F
100
AcDbEntity
  8
Ｓ_１_１
  6
CONTINUOUS
 62
     3
100
AcDbEllipse
 10
1617.049824009513
 20
1270.058603226496
 30
0.0
 11
-30.98357232623463
 21
3.794393267547375E-15
 31
0.0
210
0.0
220
0.0
230
1.0
 40
0.894429
 41
6.21087763184264
 42
9.424777960769376
  0
LINE
  5
1F0
330
1F
100
AcDbEntity
  8
Ｓ_１_１
  6
CONTINUOUS
 62
     3
100
AcDbLine
 10
977.7049155737003
 20
430.8200901639993
 30
0.0
 11
1007.2131122951
 21
430.8200901639993
 31
0.0
  0
LINE
  5
1F1
330
1F
100
AcDbEntity
  8
Ｓ_１_１
  6
EXLTYPE2
 62
     1
100
AcDbLine
 10
1442.0491388307
 20
1271.8032688525
 30
0.0
 11
1492.0491388307
 21
1271.8032688525
 31
0.0
  0
LINE
  5
1F2
330
1F
100
AcDbEntity
  8
Ｓ_１_１
  6
EXLTYPE2
 62
     1
100
AcDbLine
 10
1387.9508614754
 20
1271.8032688525
 30
0.0
 11
1437.9508614754
 21
1271.8032688525
 31
0.0
  0
LINE
  5
1F3
330
1F
100
AcDbEntity
  8
Ｓ_１_１
  6
EXLTYPE2
 62
     1
100
AcDbLine
 10
1412.9508614754
 20
1151.720090164
 30
0.0
 11
1412.9508614754
 21
1296.8032688525
 31
0.0
  0
LINE
  5
1F4
330
1F
100
AcDbEntity
  8
Ｓ_１_１
  6
EXLTYPE2
 62
     1
100
AcDbLine
 10
1467.0491388307
 20
1151.720090164
 30
0.0
 11
1467.0491388307
 21
1296.8032688525
 31
0.0
  0
LINE
  5
1F5
330
1F
100
AcDbEntity
  8
Ｓ_１_１
  6
EXLTYPE2
 62
     1
100
AcDbLine
 10
1141.2296557377
 20
1238.720090164
 30
0.0
 11
1141.2296557377
 21
1151.720090164
 31
0.0
  0
LINE
  5
1F6
330
1F
100
AcDbEntity
  8
Ｓ_１_１
  6
EXLTYPE2
 62
     1
100
AcDbLine
 10
1288.7706393442
 20
1238.720090164
 30
0.0
 11
1288.7706393442
 21
1151.720090164
 31
0.0
  0
LINE
  5
1F7
330
1F
100
AcDbEntity
  8
Ｓ_１_１
  6
EXLTYPE2
 62
     1
100
AcDbLine
 10
1591.2293609619
 20
1238.720090164
 30
0.0
 11
1591.2293609619
 21
1151.720090164
 31
0.0
  0
LINE
  5
1F8
330
1F
100
AcDbEntity
  8
Ｓ_１_１
  6
EXLTYPE2
 62
     1
100
AcDbLine
 10
1738.7703445684
 20
1238.720090164
 30
0.0
 11
1738.7703445684
 21
1151.720090164
 31
0.0
  0
LINE
  5
1F9
330
1F
100
AcDbEntity
  8
Ｓ_１_１
  6
CONTINUOUS
 62
     3
100
AcDbLine
 10
1838.360574590204
 20
2159.999999999957
 30
0.0
 11
1838.360574590202
 21
3060.000029508163
 31
0.0
  0
LINE
  5
1FA
330
1F
100
AcDbEntity
  8
Ｓ_１_１
  6
CONTINUOUS
 62
     3
100
AcDbLine
 10
1838.360574590202
 20
3060.000059016357
 30
0.0
 11
1813.770405737752
 21
3060.000059016357
 31
0.0
  0
LINE
  5
1FB
330
1F
100
AcDbEntity
  8
Ｓ_１_１
  6
CONTINUOUS
 62
     3
100
AcDbLine
 10
1398.196689344311
 20
2366.557406557343
 30
0.0
 11
1398.196689344311
 21
2228.852493442582
 31
0.0
  0
LINE
  5
1FC
330
1F
100
AcDbEntity
  8
Ｓ_１_１
  6
CONTINUOUS
 62
     3
100
AcDbLine
 10
1427.704886065621
 20
2366.557406557343
 30
0.0
 11
1427.704886065621
 21
2228.852493442582
 31
0.0
  0
LINE
  5
1FD
330
1F
100
AcDbEntity
  8
Ｓ_１_１
  6
CONTINUOUS
 62
     3
100
AcDbLine
 10
1398.196689344311
 20
2366.557406557343
 30
0.0
 11
1398.196689344311
 21
2228.852493442582
 31
0.0
  0
LINE
  5
1FE
330
1F
100
AcDbEntity
  8
Ｓ_１_１
  6
CONTINUOUS
 62
     3
100
AcDbLine
 10
1427.704886065621
 20
2366.557406557343
 30
0.0
 11
1427.704886065621
 21
2228.852493442582
 31
0.0
  0
LINE
  5
1FF
330
1F
100
AcDbEntity
  8
Ｓ_１_１
  6
CONTINUOUS
 62
     3
100
AcDbLine
 10
1427.704886065621
 20
2366.557406557343
 30
0.0
 11
1427.704886065621
 21
2228.852493442582
 31
0.0
  0
LINE
  5
200
330
1F
100
AcDbEntity
  8
Ｓ_１_１
  6
CONTINUOUS
 62
     3
100
AcDbLine
 10
1452.295040163985
 20
2366.557406557343
 30
0.0
 11
1452.295040163985
 21
2228.852493442582
 31
0.0
  0
LINE
  5
201
330
1F
100
AcDbEntity
  8
Ｓ_１_１
  6
CONTINUOUS
 62
     3
100
AcDbLine
 10
1481.803236885296
 20
2366.557406557343
 30
0.0
 11
1481.803236885296
 21
2228.852493442582
 31
0.0
  0
LINE
  5
202
330
1F
100
AcDbEntity
  8
Ｓ_１_１
  6
CONTINUOUS
 62
     3
100
AcDbLine
 10
1041.639425409878
 20
2159.999999999956
 30
0.0
 11
1066.229431967262
 21
2159.999999999956
 31
0.0
  0
LINE
  5
203
330
1F
100
AcDbEntity
  8
Ｓ_１_１
  6
CONTINUOUS
 62
     3
100
AcDbLine
 10
1085.901720491845
 20
2159.999999999956
 30
0.0
 11
1794.098279508238
 21
2159.999999999957
 31
0.0
  0
LINE
  5
204
330
1F
100
AcDbEntity
  8
Ｓ_１_１
  6
CONTINUOUS
 62
     3
100
AcDbLine
 10
1794.098279508238
 20
2219.01631967209
 30
0.0
 11
1794.098279508238
 21
2159.999970491763
 31
0.0
  0
LINE
  5
205
330
1F
100
AcDbEntity
  8
Ｓ_１_１
  6
CONTINUOUS
 62
     3
100
AcDbLine
 10
1813.770405737752
 20
2219.01631967209
 30
0.0
 11
1813.770405737752
 21
2159.999970491763
 31
0.0
  0
LINE
  5
206
330
1F
100
AcDbEntity
  8
Ｓ_１_１
  6
CONTINUOUS
 62
     3
100
AcDbLine
 10
1794.098279508238
 20
2219.01631967209
 30
0.0
 11
1794.098279508238
 21
2203.911132786852
 31
0.0
  0
LINE
  5
207
330
1F
100
AcDbEntity
  8
Ｓ_１_１
  6
CONTINUOUS
 62
     3
100
AcDbLine
 10
1813.770405737752
 20
2159.999999999957
 30
0.0
 11
1838.360574590204
 21
2159.999999999957
 31
0.0
  0
LINE
  5
208
330
1F
100
AcDbEntity
  8
Ｓ_１_１
  6
CONTINUOUS
 62
     3
100
AcDbLine
 10
1041.639425409878
 20
3060.000029508162
 30
0.0
 11
1041.639425409878
 21
2159.999999999956
 31
0.0
  0
LINE
  5
209
330
1F
100
AcDbEntity
  8
Ｓ_１_１
  6
CONTINUOUS
 62
     3
100
AcDbLine
 10
1066.229431967258
 20
3060.000059016356
 30
0.0
 11
1041.639425409878
 21
3060.000059016356
 31
0.0
  0
LINE
  5
20A
330
1F
100
AcDbEntity
  8
Ｓ_１_１
  6
CONTINUOUS
 62
     3
100
AcDbLine
 10
1794.098279508236
 20
3060.000059016357
 30
0.0
 11
1085.901720491845
 21
3060.000059016356
 31
0.0
  0
LINE
  5
20B
330
1F
100
AcDbEntity
  8
Ｓ_１_１
  6
CONTINUOUS
 62
     3
100
AcDbLine
 10
1794.098279508236
 20
3059.999985245866
 30
0.0
 11
1794.098279508236
 21
3000.983636065541
 31
0.0
  0
LINE
  5
20C
330
1F
100
AcDbEntity
  8
Ｓ_１_１
  6
CONTINUOUS
 62
     3
100
AcDbLine
 10
1813.770405737752
 20
3059.999985245866
 30
0.0
 11
1813.770405737752
 21
3000.983636065541
 31
0.0
  0
LINE
  5
20D
330
1F
100
AcDbEntity
  8
Ｓ_１_１
  6
CONTINUOUS
 62
     3
100
AcDbLine
 10
1794.098279508236
 20
3059.999985245866
 30
0.0
 11
1794.098279508236
 21
3044.894798360614
 31
0.0
  0
LINE
  5
20E
330
1F
100
AcDbEntity
  8
Ｓ_１_１
  6
CONTINUOUS
 62
     3
100
AcDbLine
 10
1066.229594262342
 20
3059.999985245865
 30
0.0
 11
1066.229594262342
 21
3000.98363606554
 31
0.0
  0
LINE
  5
20F
330
1F
100
AcDbEntity
  8
Ｓ_１_１
  6
CONTINUOUS
 62
     3
100
AcDbLine
 10
1085.901720491845
 20
3059.999985245865
 30
0.0
 11
1085.901720491845
 21
3000.98363606554
 31
0.0
  0
LINE
  5
210
330
1F
100
AcDbEntity
  8
Ｓ_１_１
  6
CONTINUOUS
 62
     3
100
AcDbLine
 10
1066.229594262342
 20
3059.999985245865
 30
0.0
 11
1066.229594262342
 21
3044.894798360614
 31
0.0
  0
LINE
  5
211
330
1F
100
AcDbEntity
  8
Ｓ_１_１
  6
CONTINUOUS
 62
     3
100
AcDbLine
 10
1066.229594262342
 20
2219.016319672089
 30
0.0
 11
1066.229594262346
 21
2159.999970491762
 31
0.0
  0
LINE
  5
212
330
1F
100
AcDbEntity
  8
Ｓ_１_１
  6
CONTINUOUS
 62
     3
100
AcDbLine
 10
1085.901720491845
 20
2219.016319672089
 30
0.0
 11
1085.901720491845
 21
2159.999970491762
 31
0.0
  0
LINE
  5
213
330
1F
100
AcDbEntity
  8
Ｓ_１_１
  6
CONTINUOUS
 62
     3
100
AcDbLine
 10
1066.229594262342
 20
2219.016319672089
 30
0.0
 11
1066.229594262342
 21
2203.911132786851
 31
0.0
  0
LINE
  5
214
330
1F
100
AcDbEntity
  8
Ｓ_１_１
  6
CONTINUOUS
 62
     3
100
AcDbLine
 10
1867.868697541026
 20
3030.491906557342
 30
0.0
 11
1867.868697541026
 21
2892.786949180284
 31
0.0
  0
LINE
  5
215
330
1F
100
AcDbEntity
  8
Ｓ_１_１
  6
CONTINUOUS
 62
     3
100
AcDbLine
 10
1872.786725409871
 20
3035.409904917995
 30
0.0
 11
1902.294922131183
 21
3035.409904917995
 31
0.0
  0
LINE
  5
216
330
1F
100
AcDbEntity
  8
Ｓ_１_１
  6
CONTINUOUS
 62
     3
100
AcDbLine
 10
1872.786725409871
 20
2887.868921311438
 30
0.0
 11
1902.294922131183
 21
2887.868921311438
 31
0.0
  0
LINE
  5
217
330
1F
100
AcDbEntity
  8
Ｓ_１_１
  6
CONTINUOUS
 62
     3
100
AcDbLine
 10
1867.868697541026
 20
2976.393511475372
 30
0.0
 11
1838.360574590204
 21
2976.393511475372
 31
0.0
  0
LINE
  5
218
330
1F
100
AcDbEntity
  8
Ｓ_１_１
  6
CONTINUOUS
 62
     3
100
AcDbLine
 10
1867.868697541026
 20
2946.88531475406
 30
0.0
 11
1838.360574590204
 21
2946.88531475406
 31
0.0
  0
LINE
  5
219
330
1F
100
AcDbEntity
  8
Ｓ_１_１
  6
CONTINUOUS
 62
     3
100
AcDbLine
 10
1867.868697541026
 20
2327.21310983603
 30
0.0
 11
1867.868697541026
 21
2189.508196721269
 31
0.0
  0
LINE
  5
21A
330
1F
100
AcDbEntity
  8
Ｓ_１_１
  6
CONTINUOUS
 62
     3
100
AcDbLine
 10
1872.786725409873
 20
2332.13115245898
 30
0.0
 11
1902.294922131184
 21
2332.13115245898
 31
0.0
  0
LINE
  5
21B
330
1F
100
AcDbEntity
  8
Ｓ_１_１
  6
CONTINUOUS
 62
     3
100
AcDbLine
 10
1872.786725409873
 20
2184.590168852422
 30
0.0
 11
1902.294922131184
 21
2184.590168852422
 31
0.0
  0
LINE
  5
21C
330
1F
100
AcDbEntity
  8
Ｓ_１_１
  6
CONTINUOUS
 62
     3
100
AcDbLine
 10
1867.868697541026
 20
2273.114759016357
 30
0.0
 11
1838.360574590204
 21
2273.114759016357
 31
0.0
  0
LINE
  5
21D
330
1F
100
AcDbEntity
  8
Ｓ_１_１
  6
CONTINUOUS
 62
     3
100
AcDbLine
 10
1867.868697541026
 20
2243.606562295045
 30
0.0
 11
1838.360574590204
 21
2243.606562295045
 31
0.0
  0
LINE
  5
21E
330
1F
100
AcDbEntity
  8
Ｓ_１_１
  6
CONTINUOUS
 62
     3
100
AcDbLine
 10
1012.131228688566
 20
2273.114759016356
 30
0.0
 11
1041.639425409878
 21
2273.114759016356
 31
0.0
  0
LINE
  5
21F
330
1F
100
AcDbEntity
  8
Ｓ_１_１
  6
CONTINUOUS
 62
     3
100
AcDbLine
 10
1012.131228688566
 20
2243.606562295044
 30
0.0
 11
1041.639425409878
 21
2243.606562295044
 31
0.0
  0
LINE
  5
220
330
1F
100
AcDbEntity
  8
Ｓ_１_１
  6
CONTINUOUS
 62
     3
100
AcDbLine
 10
1012.131228688566
 20
3030.491862295043
 30
0.0
 11
1012.131228688566
 21
2892.786993442578
 31
0.0
  0
LINE
  5
221
330
1F
100
AcDbEntity
  8
Ｓ_１_１
  6
CONTINUOUS
 62
     3
100
AcDbLine
 10
972.7869614754454
 20
3030.49190655734
 30
0.0
 11
972.7869614754454
 21
2892.786949180282
 31
0.0
  0
LINE
  5
222
330
1F
100
AcDbEntity
  8
Ｓ_１_１
  6
CONTINUOUS
 62
     3
100
AcDbLine
 10
1007.213200819719
 20
3035.409904917994
 30
0.0
 11
977.7050040984068
 21
3035.409904917994
 31
0.0
  0
LINE
  5
223
330
1F
100
AcDbEntity
  8
Ｓ_１_１
  6
CONTINUOUS
 62
     3
100
AcDbLine
 10
1007.213200819719
 20
2887.868921311436
 30
0.0
 11
977.7050040984068
 21
2887.868921311436
 31
0.0
  0
LINE
  5
224
330
1F
100
AcDbEntity
  8
Ｓ_１_１
  6
CONTINUOUS
 62
     3
100
AcDbLine
 10
1012.131228688566
 20
2976.39351147537
 30
0.0
 11
1041.639425409878
 21
2976.393511475371
 31
0.0
  0
LINE
  5
225
330
1F
100
AcDbEntity
  8
Ｓ_１_１
  6
CONTINUOUS
 62
     3
100
AcDbLine
 10
1012.131228688566
 20
2946.885314754058
 30
0.0
 11
1041.639425409878
 21
2946.885314754059
 31
0.0
  0
LINE
  5
226
330
1F
100
AcDbEntity
  8
Ｓ_１_１
  6
CONTINUOUS
 62
     3
100
AcDbLine
 10
1012.131228688566
 20
2327.213109836029
 30
0.0
 11
1012.131228688566
 21
2189.508167213074
 31
0.0
  0
LINE
  5
227
330
1F
100
AcDbEntity
  8
Ｓ_１_１
  6
CONTINUOUS
 62
     3
100
AcDbLine
 10
972.7869614754454
 20
2327.213154098324
 30
0.0
 11
972.7869614754454
 21
2189.508196721267
 31
0.0
  0
LINE
  5
228
330
1F
100
AcDbEntity
  8
Ｓ_１_１
  6
CONTINUOUS
 62
     3
100
AcDbLine
 10
1007.213200819722
 20
2332.131152458979
 30
0.0
 11
977.7050040984103
 21
2332.131152458978
 31
0.0
  0
LINE
  5
229
330
1F
100
AcDbEntity
  8
Ｓ_１_１
  6
CONTINUOUS
 62
     3
100
AcDbLine
 10
1007.213200819722
 20
2184.590168852421
 30
0.0
 11
977.7050040984103
 21
2184.59016885242
 31
0.0
  0
LINE
  5
22A
330
1F
100
AcDbEntity
  8
Ｓ_１_１
  6
CONTINUOUS
 62
     3
100
AcDbLine
 10
1907.212950000043
 20
3030.491862295045
 30
0.0
 11
1907.212950000043
 21
2892.786949180284
 31
0.0
  0
LINE
  5
22B
330
1F
100
AcDbEntity
  8
Ｓ_１_１
  6
CONTINUOUS
 62
     3
100
AcDbLine
 10
1907.212905737746
 20
2986.229611475374
 30
0.0
 11
1917.64566147545
 21
2975.79685573767
 31
0.0
  0
LINE
  5
22C
330
1F
100
AcDbEntity
  8
Ｓ_１_１
  6
CONTINUOUS
 62
     3
100
AcDbLine
 10
1907.212979508236
 20
2937.049244262251
 30
0.0
 11
1917.645705737747
 21
2947.481970491761
 31
0.0
  0
LINE
  5
22D
330
1F
100
AcDbEntity
  8
Ｓ_１_１
  6
CONTINUOUS
 62
     3
100
AcDbLine
 10
1917.645676229553
 20
2975.796899999967
 30
0.0
 11
1917.645690983643
 21
2947.481999999955
 31
0.0
  0
LINE
  5
22E
330
1F
100
AcDbEntity
  8
Ｓ_１_１
  6
CONTINUOUS
 62
     3
100
AcDbLine
 10
1907.212950000043
 20
2282.950799999959
 30
0.0
 11
1917.645676229555
 21
2272.518088524551
 31
0.0
  0
LINE
  5
22F
330
1F
100
AcDbEntity
  8
Ｓ_１_１
  6
CONTINUOUS
 62
     3
100
AcDbLine
 10
1907.212950000043
 20
2233.770462295042
 30
0.0
 11
1917.645690983645
 21
2244.203188524553
 31
0.0
  0
LINE
  5
230
330
1F
100
AcDbEntity
  8
Ｓ_１_１
  6
CONTINUOUS
 62
     3
100
AcDbLine
 10
1907.212950000043
 20
2327.21310983603
 30
0.0
 11
1907.212950000043
 21
2189.508196721269
 31
0.0
  0
LINE
  5
231
330
1F
100
AcDbEntity
  8
Ｓ_１_１
  6
CONTINUOUS
 62
     3
100
AcDbLine
 10
1917.645690983645
 20
2272.518118032745
 30
0.0
 11
1917.645690983645
 21
2244.203218032746
 31
0.0
  0
LINE
  5
232
330
1F
100
AcDbEntity
  8
Ｓ_１_１
  6
CONTINUOUS
 62
     3
100
AcDbLine
 10
962.3540877049563
 20
2272.518059016357
 30
0.0
 11
972.7868139344645
 21
2282.950770491764
 31
0.0
  0
LINE
  5
233
330
1F
100
AcDbEntity
  8
Ｓ_１_１
  6
CONTINUOUS
 62
     3
100
AcDbLine
 10
962.3540434426722
 20
2244.203218032745
 30
0.0
 11
972.7867696721697
 21
2233.770491803234
 31
0.0
  0
LINE
  5
234
330
1F
100
AcDbEntity
  8
Ｓ_１_１
  6
CONTINUOUS
 62
     3
100
AcDbLine
 10
962.3541614754575
 20
2272.51808852455
 30
0.0
 11
962.3541614754575
 21
2244.203188524551
 31
0.0
  0
LINE
  5
235
330
1F
100
AcDbEntity
  8
Ｓ_１_１
  6
CONTINUOUS
 62
     3
100
AcDbLine
 10
962.3541172131627
 20
2975.796811475372
 30
0.0
 11
972.7868434426709
 21
2986.229537704884
 31
0.0
  0
LINE
  5
236
330
1F
100
AcDbEntity
  8
Ｓ_１_１
  6
CONTINUOUS
 62
     3
100
AcDbLine
 10
962.3540729508641
 20
2947.481985245863
 30
0.0
 11
972.7867844262728
 21
2937.049259016353
 31
0.0
  0
LINE
  5
237
330
1F
100
AcDbEntity
  8
Ｓ_１_１
  6
CONTINUOUS
 62
     3
100
AcDbLine
 10
962.3541614754575
 20
2975.796870491759
 30
0.0
 11
962.3541614754575
 21
2947.482014754056
 31
0.0
  0
LINE
  5
238
330
1F
100
AcDbEntity
  8
Ｓ_１_１
  6
CONTINUOUS
 62
     3
100
AcDbLine
 10
977.7050483606909
 20
3035.409860655697
 30
0.0
 11
972.787050000039
 21
3030.49190655734
 31
0.0
  0
LINE
  5
239
330
1F
100
AcDbEntity
  8
Ｓ_１_１
  6
CONTINUOUS
 62
     3
100
AcDbLine
 10
972.7869319672499
 20
2892.786919672088
 30
0.0
 11
977.7049155738131
 21
2887.868936065539
 31
0.0
  0
LINE
  5
23A
330
1F
100
AcDbEntity
  8
Ｓ_１_１
  6
CONTINUOUS
 62
     3
100
AcDbLine
 10
1007.212979508236
 20
2887.86900983603
 30
0.0
 11
1012.130992622991
 21
2892.787067213069
 31
0.0
  0
LINE
  5
23B
330
1F
100
AcDbEntity
  8
Ｓ_１_１
  6
CONTINUOUS
 62
     3
100
AcDbLine
 10
1012.131228688566
 20
3030.49177377045
 30
0.0
 11
1007.213186065615
 21
3035.40980163931
 31
0.0
  0
LINE
  5
23C
330
1F
100
AcDbEntity
  8
Ｓ_１_１
  6
CONTINUOUS
 62
     3
100
AcDbLine
 10
977.7050040984068
 20
2887.868921311436
 30
0.0
 11
977.7050040984068
 21
3035.409904917994
 31
0.0
  0
LINE
  5
23D
330
1F
100
AcDbEntity
  8
Ｓ_１_１
  6
CONTINUOUS
 62
     3
100
AcDbLine
 10
1007.213200819719
 20
2887.868921311436
 30
0.0
 11
1007.213200819719
 21
3035.409904917994
 31
0.0
  0
LINE
  5
23E
330
1F
100
AcDbEntity
  8
Ｓ_１_１
  6
CONTINUOUS
 62
     3
100
AcDbLine
 10
977.7050040984103
 20
2332.131270491764
 30
0.0
 11
972.7869467213568
 21
2327.213242622904
 31
0.0
  0
LINE
  5
23F
330
1F
100
AcDbEntity
  8
Ｓ_１_１
  6
CONTINUOUS
 62
     3
100
AcDbLine
 10
972.7869024590617
 20
2189.50821147537
 30
0.0
 11
977.7049450820086
 21
2184.59016885242
 31
0.0
  0
LINE
  5
240
330
1F
100
AcDbEntity
  8
Ｓ_１_１
  6
CONTINUOUS
 62
     3
100
AcDbLine
 10
1007.213156557424
 20
2184.590168852421
 30
0.0
 11
1012.131213934463
 21
2189.508196721268
 31
0.0
  0
LINE
  5
241
330
1F
100
AcDbEntity
  8
Ｓ_１_１
  6
CONTINUOUS
 62
     3
100
AcDbLine
 10
1012.131154918075
 20
2327.213109836029
 30
0.0
 11
1007.213171311512
 21
2332.131093442579
 31
0.0
  0
LINE
  5
242
330
1F
100
AcDbEntity
  8
Ｓ_１_１
  6
CONTINUOUS
 62
     3
100
AcDbLine
 10
977.7050040984103
 20
2184.59016885242
 30
0.0
 11
977.7050040984103
 21
2332.131152458978
 31
0.0
  0
LINE
  5
243
330
1F
100
AcDbEntity
  8
Ｓ_１_１
  6
CONTINUOUS
 62
     3
100
AcDbLine
 10
1007.213200819722
 20
2184.590168852421
 30
0.0
 11
1007.213200819722
 21
2332.131152458979
 31
0.0
  0
LINE
  5
244
330
1F
100
AcDbEntity
  8
Ｓ_１_１
  6
CONTINUOUS
 62
     3
100
AcDbLine
 10
1872.786710655782
 20
2332.131108196683
 30
0.0
 11
1867.868682786922
 21
2327.213065573733
 31
0.0
  0
LINE
  5
245
330
1F
100
AcDbEntity
  8
Ｓ_１_１
  6
CONTINUOUS
 62
     3
100
AcDbLine
 10
1867.868697541026
 20
2189.508211475372
 30
0.0
 11
1872.786725409873
 21
2184.590168852422
 31
0.0
  0
LINE
  5
246
330
1F
100
AcDbEntity
  8
Ｓ_１_１
  6
CONTINUOUS
 62
     3
100
AcDbLine
 10
1902.294936885288
 20
2184.590183606512
 30
0.0
 11
1907.212979508236
 21
2189.508226229475
 31
0.0
  0
LINE
  5
247
330
1F
100
AcDbEntity
  8
Ｓ_１_１
  6
CONTINUOUS
 62
     3
100
AcDbLine
 10
1907.212935245939
 20
2327.21310983603
 30
0.0
 11
1902.294922131184
 21
2332.131137704876
 31
0.0
  0
LINE
  5
248
330
1F
100
AcDbEntity
  8
Ｓ_１_１
  6
CONTINUOUS
 62
     3
100
AcDbLine
 10
1872.786725409873
 20
2184.590168852422
 30
0.0
 11
1872.786725409873
 21
2332.13115245898
 31
0.0
  0
LINE
  5
249
330
1F
100
AcDbEntity
  8
Ｓ_１_１
  6
CONTINUOUS
 62
     3
100
AcDbLine
 10
1902.294922131184
 20
2184.590168852422
 30
0.0
 11
1902.294922131184
 21
2332.13115245898
 31
0.0
  0
LINE
  5
24A
330
1F
100
AcDbEntity
  8
Ｓ_１_１
  6
CONTINUOUS
 62
     3
100
AcDbLine
 10
1872.786740163974
 20
3035.409875409802
 30
0.0
 11
1867.868712295128
 21
3030.491891803239
 31
0.0
  0
LINE
  5
24B
330
1F
100
AcDbEntity
  8
Ｓ_１_１
  6
CONTINUOUS
 62
     3
100
AcDbLine
 10
1867.868682786922
 20
2892.786963934387
 30
0.0
 11
1872.786725409871
 21
2887.868921311438
 31
0.0
  0
LINE
  5
24C
330
1F
100
AcDbEntity
  8
Ｓ_１_１
  6
CONTINUOUS
 62
     3
100
AcDbLine
 10
1902.294936885286
 20
2887.868906557335
 30
0.0
 11
1907.212964754146
 21
2892.786934426193
 31
0.0
  0
LINE
  5
24D
330
1F
100
AcDbEntity
  8
Ｓ_１_１
  6
CONTINUOUS
 62
     3
100
AcDbLine
 10
1907.212920491849
 20
3030.491862295045
 30
0.0
 11
1902.294877868899
 21
3035.409904917995
 31
0.0
  0
LINE
  5
24E
330
1F
100
AcDbEntity
  8
Ｓ_１_１
  6
CONTINUOUS
 62
     3
100
AcDbLine
 10
1872.786725409871
 20
2887.868921311438
 30
0.0
 11
1872.786725409871
 21
3035.409904917995
 31
0.0
  0
LINE
  5
24F
330
1F
100
AcDbEntity
  8
Ｓ_１_１
  6
CONTINUOUS
 62
     3
100
AcDbLine
 10
1902.294922131183
 20
2887.868921311438
 30
0.0
 11
1902.294922131183
 21
3035.409904917995
 31
0.0
  0
LINE
  5
250
330
1F
100
AcDbEntity
  8
Ｓ_１_１
  6
CONTINUOUS
 62
     3
100
AcDbLine
 10
1838.360574590204
 20
2651.803332786842
 30
0.0
 11
1041.639425409878
 21
2651.803332786841
 31
0.0
  0
LINE
  5
251
330
1F
100
AcDbEntity
  8
Ｓ_１_１
  6
CONTINUOUS
 62
     3
100
AcDbLine
 10
1838.360574590204
 20
2504.262349180285
 30
0.0
 11
1041.639425409878
 21
2504.262349180284
 31
0.0
  0
LINE
  5
252
330
1F
100
AcDbEntity
  8
Ｓ_１_１
  6
CONTINUOUS
 62
     3
100
AcDbLine
 10
1373.606520491845
 20
2199.34429672127
 30
0.0
 11
1506.393405737746
 21
2199.34429672127
 31
0.0
  0
LINE
  5
253
330
1F
100
AcDbEntity
  8
Ｓ_１_１
  6
CONTINUOUS
 62
     3
100
AcDbLine
 10
1373.606520491845
 20
2396.065603278654
 30
0.0
 11
1506.393405737746
 21
2396.065603278654
 31
0.0
  0
LINE
  5
254
330
1F
100
AcDbEntity
  8
Ｓ_１_１
  6
CONTINUOUS
 62
     3
100
AcDbLine
 10
1373.606520491845
 20
2396.065603278654
 30
0.0
 11
1373.606520491845
 21
2199.34429672127
 31
0.0
  0
LINE
  5
255
330
1F
100
AcDbEntity
  8
Ｓ_１_１
  6
CONTINUOUS
 62
     3
100
AcDbLine
 10
1506.393405737746
 20
2396.065603278654
 30
0.0
 11
1506.393405737746
 21
2199.34429672127
 31
0.0
  0
LINE
  5
256
330
1F
100
AcDbEntity
  8
Ｓ_１_１
  6
CONTINUOUS
 62
     3
100
AcDbLine
 10
1145.239590983652
 20
2479.672180327833
 30
0.0
 11
1137.219572950864
 21
2479.672180327833
 31
0.0
  0
LINE
  5
257
330
1F
100
AcDbEntity
  8
Ｓ_１_１
  6
CONTINUOUS
 62
     3
100
AcDbLine
 10
1146.219956557426
 20
2478.767016393407
 30
0.0
 11
1147.999271311517
 21
2456.525522950786
 31
0.0
  0
LINE
  5
258
330
1F
100
AcDbEntity
  8
Ｓ_１_１
  6
CONTINUOUS
 62
     3
100
AcDbLine
 10
1148.114795901687
 20
2455.082026229471
 30
0.0
 11
1134.344368032831
 21
2455.082026229471
 31
0.0
  0
LINE
  5
259
330
1F
100
AcDbEntity
  8
Ｓ_１_１
  6
CONTINUOUS
 62
     3
100
AcDbLine
 10
1134.459759836111
 20
2456.525773770449
 30
0.0
 11
1136.239045082009
 21
2478.767001639304
 31
0.0
  0
LINE
  5
25A
330
1F
100
AcDbEntity
  8
Ｓ_１_１
  6
CONTINUOUS
 62
     3
100
AcDbLine
 10
1106.803350000042
 20
2449.255854098314
 30
0.0
 11
1106.803350000042
 21
2441.235909836029
 31
0.0
  0
LINE
  5
25B
330
1F
100
AcDbEntity
  8
Ｓ_１_１
  6
CONTINUOUS
 62
     3
100
AcDbLine
 10
1107.708528688574
 20
2450.236337704874
 30
0.0
 11
1129.949609016432
 21
2452.015622950784
 31
0.0
  0
LINE
  5
25C
330
1F
100
AcDbEntity
  8
Ｓ_１_１
  6
CONTINUOUS
 62
     3
100
AcDbLine
 10
1131.393518852496
 20
2452.131177049135
 30
0.0
 11
1131.393518852496
 21
2438.360734426187
 31
0.0
  0
LINE
  5
25D
330
1F
100
AcDbEntity
  8
Ｓ_１_１
  6
CONTINUOUS
 62
     3
100
AcDbLine
 10
1129.949653278731
 20
2438.476140983571
 30
0.0
 11
1107.708558196766
 21
2440.255411475366
 31
0.0
  0
LINE
  5
25E
330
1F
100
AcDbEntity
  8
Ｓ_１_１
  6
CONTINUOUS
 62
     3
100
AcDbLine
 10
1136.239000819711
 20
2411.725042622909
 30
0.0
 11
1134.459715573816
 21
2433.965975409791
 31
0.0
  0
LINE
  5
25F
330
1F
100
AcDbEntity
  8
Ｓ_１_１
  6
CONTINUOUS
 62
     3
100
AcDbLine
 10
1134.34422049185
 20
2435.410047540948
 30
0.0
 11
1148.114795901687
 21
2435.410047540948
 31
0.0
  0
LINE
  5
260
330
1F
100
AcDbEntity
  8
Ｓ_１_１
  6
CONTINUOUS
 62
     3
100
AcDbLine
 10
1134.34422049185
 20
2435.410047540948
 30
0.0
 11
1148.114795901687
 21
2435.410047540948
 31
0.0
  0
LINE
  5
261
330
1F
100
AcDbEntity
  8
Ｓ_１_１
  6
CONTINUOUS
 62
     3
100
AcDbLine
 10
1134.34422049185
 20
2435.410047540948
 30
0.0
 11
1148.114795901687
 21
2435.410047540948
 31
0.0
  0
LINE
  5
262
330
1F
100
AcDbEntity
  8
Ｓ_１_１
  6
CONTINUOUS
 62
     3
100
AcDbLine
 10
1137.219572950864
 20
2410.819878688484
 30
0.0
 11
1145.239148360701
 21
2410.819878688484
 31
0.0
  0
LINE
  5
263
330
1F
100
AcDbEntity
  8
Ｓ_１_１
  6
CONTINUOUS
 62
     3
100
AcDbLine
 10
1134.34422049185
 20
2435.410047540948
 30
0.0
 11
1148.114795901687
 21
2435.410047540948
 31
0.0
  0
LINE
  5
264
330
1F
100
AcDbEntity
  8
Ｓ_１_１
  6
CONTINUOUS
 62
     3
100
AcDbLine
 10
1147.998887704964
 20
2433.965931147507
 30
0.0
 11
1146.21963196726
 21
2411.725042622909
 31
0.0
  0
LINE
  5
265
330
1F
100
AcDbEntity
  8
Ｓ_１_１
  6
CONTINUOUS
 62
     3
100
AcDbLine
 10
1175.655813934462
 20
2441.235909836029
 30
0.0
 11
1175.655813934462
 21
2449.255603278651
 31
0.0
  0
LINE
  5
266
330
1F
100
AcDbEntity
  8
Ｓ_１_１
  6
CONTINUOUS
 62
     3
100
AcDbLine
 10
1174.750590983649
 20
2440.255440983572
 30
0.0
 11
1152.509053278731
 21
2438.476111475364
 31
0.0
  0
LINE
  5
267
330
1F
100
AcDbEntity
  8
Ｓ_１_１
  6
CONTINUOUS
 62
     3
100
AcDbLine
 10
1151.06564508201
 20
2438.360586885207
 30
0.0
 11
1151.06564508201
 21
2452.131177049135
 31
0.0
  0
LINE
  5
268
330
1F
100
AcDbEntity
  8
Ｓ_１_１
  6
CONTINUOUS
 62
     3
100
AcDbLine
 10
1152.509466393478
 20
2452.015357377005
 30
0.0
 11
1174.750487704967
 21
2450.236086885211
 31
0.0
  0
LINE
  5
269
330
1F
100
AcDbEntity
  8
Ｓ_１_１
  6
CONTINUOUS
 62
     3
100
AcDbLine
 10
1254.34440737709
 20
2449.255854098314
 30
0.0
 11
1254.34440737709
 21
2441.235909836029
 31
0.0
  0
LINE
  5
26A
330
1F
100
AcDbEntity
  8
Ｓ_１_１
  6
CONTINUOUS
 62
     3
100
AcDbLine
 10
1278.934576229554
 20
2452.131177049135
 30
0.0
 11
1278.934576229554
 21
2438.360734426187
 31
0.0
  0
LINE
  5
26B
330
1F
100
AcDbEntity
  8
Ｓ_１_１
  6
CONTINUOUS
 62
     3
100
AcDbLine
 10
1255.249468032833
 20
2450.236322950783
 30
0.0
 11
1277.490563114798
 21
2452.015622950784
 31
0.0
  0
LINE
  5
26C
330
1F
100
AcDbEntity
  8
Ｓ_１_１
  6
CONTINUOUS
 62
     3
100
AcDbLine
 10
1295.655853278735
 20
2455.082026229471
 30
0.0
 11
1281.885351639386
 21
2455.082026229471
 31
0.0
  0
LINE
  5
26D
330
1F
100
AcDbEntity
  8
Ｓ_１_１
  6
CONTINUOUS
 62
     3
100
AcDbLine
 10
1277.490592622989
 20
2438.476155737661
 30
0.0
 11
1255.249497541025
 21
2440.255426229469
 31
0.0
  0
LINE
  5
26E
330
1F
100
AcDbEntity
  8
Ｓ_１_１
  6
CONTINUOUS
 62
     3
100
AcDbLine
 10
1283.780013934462
 20
2411.725057377012
 30
0.0
 11
1282.000728688565
 21
2433.965975409791
 31
0.0
  0
LINE
  5
26F
330
1F
100
AcDbEntity
  8
Ｓ_１_１
  6
CONTINUOUS
 62
     3
100
AcDbLine
 10
1282.000699180371
 20
2456.525788524552
 30
0.0
 11
1283.779984426268
 21
2478.767001639304
 31
0.0
  0
LINE
  5
270
330
1F
100
AcDbEntity
  8
Ｓ_１_１
  6
CONTINUOUS
 62
     3
100
AcDbLine
 10
1281.885277868896
 20
2435.410047540948
 30
0.0
 11
1295.655779508244
 21
2435.410047540948
 31
0.0
  0
LINE
  5
271
330
1F
100
AcDbEntity
  8
Ｓ_１_１
  6
CONTINUOUS
 62
     3
100
AcDbLine
 10
1284.760556557421
 20
2410.819878688484
 30
0.0
 11
1292.780205737747
 21
2410.819878688484
 31
0.0
  0
LINE
  5
272
330
1F
100
AcDbEntity
  8
Ｓ_１_１
  6
CONTINUOUS
 62
     3
100
AcDbLine
 10
1322.29153032791
 20
2440.255440983572
 30
0.0
 11
1300.050066393482
 21
2438.476111475364
 31
0.0
  0
LINE
  5
273
330
1F
100
AcDbEntity
  8
Ｓ_１_１
  6
CONTINUOUS
 62
     3
100
AcDbLine
 10
1281.885277868896
 20
2435.410047540948
 30
0.0
 11
1295.655779508244
 21
2435.410047540948
 31
0.0
  0
LINE
  5
274
330
1F
100
AcDbEntity
  8
Ｓ_１_１
  6
CONTINUOUS
 62
     3
100
AcDbLine
 10
1298.606628688567
 20
2438.360586885207
 30
0.0
 11
1298.606628688567
 21
2452.131177049135
 31
0.0
  0
LINE
  5
275
330
1F
100
AcDbEntity
  8
Ｓ_１_１
  6
CONTINUOUS
 62
     3
100
AcDbLine
 10
1293.761043442666
 20
2478.767016393407
 30
0.0
 11
1295.540358196758
 21
2456.525552458979
 31
0.0
  0
LINE
  5
276
330
1F
100
AcDbEntity
  8
Ｓ_１_１
  6
CONTINUOUS
 62
     3
100
AcDbLine
 10
1300.050405737753
 20
2452.015357377005
 30
0.0
 11
1322.291500819716
 21
2450.236072131107
 31
0.0
  0
LINE
  5
277
330
1F
100
AcDbEntity
  8
Ｓ_１_１
  6
CONTINUOUS
 62
     3
100
AcDbLine
 10
1281.885277868896
 20
2435.410047540948
 30
0.0
 11
1295.655779508244
 21
2435.410047540948
 31
0.0
  0
LINE
  5
278
330
1F
100
AcDbEntity
  8
Ｓ_１_１
  6
CONTINUOUS
 62
     3
100
AcDbLine
 10
1281.885277868896
 20
2435.410047540948
 30
0.0
 11
1295.655779508244
 21
2435.410047540948
 31
0.0
  0
LINE
  5
279
330
1F
100
AcDbEntity
  8
Ｓ_１_１
  6
CONTINUOUS
 62
     3
100
AcDbLine
 10
1292.78057459021
 20
2479.672180327833
 30
0.0
 11
1284.760556557421
 21
2479.672180327833
 31
0.0
  0
LINE
  5
27A
330
1F
100
AcDbEntity
  8
Ｓ_１_１
  6
CONTINUOUS
 62
     3
100
AcDbLine
 10
1323.196797541019
 20
2441.235909836029
 30
0.0
 11
1323.196797541019
 21
2449.255603278651
 31
0.0
  0
LINE
  5
27B
330
1F
100
AcDbEntity
  8
Ｓ_１_１
  6
CONTINUOUS
 62
     3
100
AcDbLine
 10
1295.539827049224
 20
2433.965945901597
 30
0.0
 11
1293.760571311521
 21
2411.725042622909
 31
0.0
  0
LINE
  5
27C
330
1F
100
AcDbEntity
  8
Ｓ_１_１
  6
CONTINUOUS
 62
     3
100
AcDbLine
 10
1295.539841803315
 20
2286.424932786846
 30
0.0
 11
1293.760586065611
 21
2264.184059016352
 31
0.0
  0
LINE
  5
27D
330
1F
100
AcDbEntity
  8
Ｓ_１_１
  6
CONTINUOUS
 62
     3
100
AcDbLine
 10
1323.196797541019
 20
2293.694940983561
 30
0.0
 11
1323.196797541019
 21
2301.714634426183
 31
0.0
  0
LINE
  5
27E
330
1F
100
AcDbEntity
  8
Ｓ_１_１
  6
CONTINUOUS
 62
     3
100
AcDbLine
 10
1292.780574590211
 20
2332.131181967171
 30
0.0
 11
1284.760556557423
 21
2332.131181967171
 31
0.0
  0
LINE
  5
27F
330
1F
100
AcDbEntity
  8
Ｓ_１_１
  6
CONTINUOUS
 62
     3
100
AcDbLine
 10
1281.885277868898
 20
2287.869034426184
 30
0.0
 11
1295.655779508246
 21
2287.869034426184
 31
0.0
  0
LINE
  5
280
330
1F
100
AcDbEntity
  8
Ｓ_１_１
  6
CONTINUOUS
 62
     3
100
AcDbLine
 10
1281.885277868898
 20
2287.869034426184
 30
0.0
 11
1295.655779508246
 21
2287.869034426184
 31
0.0
  0
LINE
  5
281
330
1F
100
AcDbEntity
  8
Ｓ_１_１
  6
CONTINUOUS
 62
     3
100
AcDbLine
 10
1300.050420491843
 20
2304.474359016358
 30
0.0
 11
1322.291515573808
 21
2302.695073770446
 31
0.0
  0
LINE
  5
282
330
1F
100
AcDbEntity
  8
Ｓ_１_１
  6
CONTINUOUS
 62
     3
100
AcDbLine
 10
1293.761013934474
 20
2331.226032786849
 30
0.0
 11
1295.540343442668
 21
2308.984539344229
 31
0.0
  0
LINE
  5
283
330
1F
100
AcDbEntity
  8
Ｓ_１_１
  6
CONTINUOUS
 62
     3
100
AcDbLine
 10
1298.606628688567
 20
2290.819588524546
 30
0.0
 11
1298.606628688567
 21
2304.590163934385
 31
0.0
  0
LINE
  5
284
330
1F
100
AcDbEntity
  8
Ｓ_１_１
  6
CONTINUOUS
 62
     3
100
AcDbLine
 10
1281.885277868898
 20
2287.869034426184
 30
0.0
 11
1295.655779508246
 21
2287.869034426184
 31
0.0
  0
LINE
  5
285
330
1F
100
AcDbEntity
  8
Ｓ_１_１
  6
CONTINUOUS
 62
     3
100
AcDbLine
 10
1322.291515573808
 20
2292.714457377015
 30
0.0
 11
1300.050051639393
 21
2290.935127868807
 31
0.0
  0
LINE
  5
286
330
1F
100
AcDbEntity
  8
Ｓ_１_１
  6
CONTINUOUS
 62
     3
100
AcDbLine
 10
1284.760556557423
 20
2263.278880327836
 30
0.0
 11
1292.780205737748
 21
2263.278880327836
 31
0.0
  0
LINE
  5
287
330
1F
100
AcDbEntity
  8
Ｓ_１_１
  6
CONTINUOUS
 62
     3
100
AcDbLine
 10
1281.885277868898
 20
2287.869034426184
 30
0.0
 11
1295.655779508246
 21
2287.869034426184
 31
0.0
  0
LINE
  5
288
330
1F
100
AcDbEntity
  8
Ｓ_１_１
  6
CONTINUOUS
 62
     3
100
AcDbLine
 10
1282.000699180371
 20
2308.984804917995
 30
0.0
 11
1283.77998442627
 21
2331.22604754094
 31
0.0
  0
LINE
  5
289
330
1F
100
AcDbEntity
  8
Ｓ_１_１
  6
CONTINUOUS
 62
     3
100
AcDbLine
 10
1283.780013934464
 20
2264.184059016352
 30
0.0
 11
1282.000728688565
 21
2286.424991803232
 31
0.0
  0
LINE
  5
28A
330
1F
100
AcDbEntity
  8
Ｓ_１_１
  6
CONTINUOUS
 62
     3
100
AcDbLine
 10
1277.490548360694
 20
2290.935172131104
 30
0.0
 11
1255.24952704922
 21
2292.714442622912
 31
0.0
  0
LINE
  5
28B
330
1F
100
AcDbEntity
  8
Ｓ_１_１
  6
CONTINUOUS
 62
     3
100
AcDbLine
 10
1295.655853278737
 20
2307.54102786881
 30
0.0
 11
1281.885351639388
 21
2307.54102786881
 31
0.0
  0
LINE
  5
28C
330
1F
100
AcDbEntity
  8
Ｓ_１_１
  6
CONTINUOUS
 62
     3
100
AcDbLine
 10
1255.249468032833
 20
2302.695339344226
 30
0.0
 11
1277.490563114798
 21
2304.474639344227
 31
0.0
  0
LINE
  5
28D
330
1F
100
AcDbEntity
  8
Ｓ_１_１
  6
CONTINUOUS
 62
     3
100
AcDbLine
 10
1106.803350000042
 20
2301.714855737667
 30
0.0
 11
1106.803350000042
 21
2293.694911475367
 31
0.0
  0
LINE
  5
28E
330
1F
100
AcDbEntity
  8
Ｓ_１_１
  6
CONTINUOUS
 62
     3
100
AcDbLine
 10
1131.393518852496
 20
2304.590163934385
 30
0.0
 11
1131.393518852496
 21
2290.81973606554
 31
0.0
  0
LINE
  5
28F
330
1F
100
AcDbEntity
  8
Ｓ_１_１
  6
CONTINUOUS
 62
     3
100
AcDbLine
 10
1107.708528688574
 20
2302.695339344226
 30
0.0
 11
1129.949623770535
 21
2304.474639344227
 31
0.0
  0
LINE
  5
290
330
1F
100
AcDbEntity
  8
Ｓ_１_１
  6
CONTINUOUS
 62
     3
100
AcDbLine
 10
1148.114795901689
 20
2307.54102786881
 30
0.0
 11
1134.344368032831
 21
2307.54102786881
 31
0.0
  0
LINE
  5
291
330
1F
100
AcDbEntity
  8
Ｓ_１_１
  6
CONTINUOUS
 62
     3
100
AcDbLine
 10
1129.949609016432
 20
2290.935172131104
 30
0.0
 11
1107.708513934467
 21
2292.714442622912
 31
0.0
  0
LINE
  5
292
330
1F
100
AcDbEntity
  8
Ｓ_１_１
  6
CONTINUOUS
 62
     3
100
AcDbLine
 10
1136.238986065622
 20
2264.184059016352
 30
0.0
 11
1134.459715573816
 21
2286.425006557336
 31
0.0
  0
LINE
  5
293
330
1F
100
AcDbEntity
  8
Ｓ_１_１
  6
CONTINUOUS
 62
     3
100
AcDbLine
 10
1134.45968606562
 20
2308.984804917995
 30
0.0
 11
1136.238971311519
 21
2331.226018032746
 31
0.0
  0
LINE
  5
294
330
1F
100
AcDbEntity
  8
Ｓ_１_１
  6
CONTINUOUS
 62
     3
100
AcDbLine
 10
1134.34422049185
 20
2287.869034426184
 30
0.0
 11
1148.114795901689
 21
2287.869034426184
 31
0.0
  0
LINE
  5
295
330
1F
100
AcDbEntity
  8
Ｓ_１_１
  6
CONTINUOUS
 62
     3
100
AcDbLine
 10
1137.219572950866
 20
2263.278880327836
 30
0.0
 11
1145.239148360701
 21
2263.278880327836
 31
0.0
  0
LINE
  5
296
330
1F
100
AcDbEntity
  8
Ｓ_１_１
  6
CONTINUOUS
 62
     3
100
AcDbLine
 10
1278.934576229556
 20
2304.590163934385
 30
0.0
 11
1278.934576229556
 21
2290.81973606554
 31
0.0
  0
LINE
  5
297
330
1F
100
AcDbEntity
  8
Ｓ_１_１
  6
CONTINUOUS
 62
     3
100
AcDbLine
 10
1254.34440737709
 20
2301.714855737667
 30
0.0
 11
1254.34440737709
 21
2293.694911475367
 31
0.0
  0
LINE
  5
298
330
1F
100
AcDbEntity
  8
Ｓ_１_１
  6
CONTINUOUS
 62
     3
100
AcDbLine
 10
1174.750576229546
 20
2292.714472131105
 30
0.0
 11
1152.509038524629
 21
2290.935142622911
 31
0.0
  0
LINE
  5
299
330
1F
100
AcDbEntity
  8
Ｓ_１_１
  6
CONTINUOUS
 62
     3
100
AcDbLine
 10
1134.34422049185
 20
2287.869034426184
 30
0.0
 11
1148.114795901689
 21
2287.869034426184
 31
0.0
  0
LINE
  5
29A
330
1F
100
AcDbEntity
  8
Ｓ_１_１
  6
CONTINUOUS
 62
     3
100
AcDbLine
 10
1151.06564508201
 20
2290.819588524546
 30
0.0
 11
1151.06564508201
 21
2304.590163934385
 31
0.0
  0
LINE
  5
29B
330
1F
100
AcDbEntity
  8
Ｓ_１_１
  6
CONTINUOUS
 62
     3
100
AcDbLine
 10
1146.21992704922
 20
2331.226003278643
 30
0.0
 11
1147.999241803325
 21
2308.984539344229
 31
0.0
  0
LINE
  5
29C
330
1F
100
AcDbEntity
  8
Ｓ_１_１
  6
CONTINUOUS
 62
     3
100
AcDbLine
 10
1152.509407377092
 20
2304.474388524551
 30
0.0
 11
1174.750502459057
 21
2302.695103278653
 31
0.0
  0
LINE
  5
29D
330
1F
100
AcDbEntity
  8
Ｓ_１_１
  6
CONTINUOUS
 62
     3
100
AcDbLine
 10
1134.34422049185
 20
2287.869034426184
 30
0.0
 11
1148.114795901689
 21
2287.869034426184
 31
0.0
  0
LINE
  5
29E
330
1F
100
AcDbEntity
  8
Ｓ_１_１
  6
CONTINUOUS
 62
     3
100
AcDbLine
 10
1134.34422049185
 20
2287.869034426184
 30
0.0
 11
1148.114795901689
 21
2287.869034426184
 31
0.0
  0
LINE
  5
29F
330
1F
100
AcDbEntity
  8
Ｓ_１_１
  6
CONTINUOUS
 62
     3
100
AcDbLine
 10
1145.239590983654
 20
2332.131181967171
 30
0.0
 11
1137.219572950866
 21
2332.131181967171
 31
0.0
  0
LINE
  5
2A0
330
1F
100
AcDbEntity
  8
Ｓ_１_１
  6
CONTINUOUS
 62
     3
100
AcDbLine
 10
1175.655813934462
 20
2293.694940983561
 30
0.0
 11
1175.655813934462
 21
2301.714634426183
 31
0.0
  0
LINE
  5
2A1
330
1F
100
AcDbEntity
  8
Ｓ_１_１
  6
CONTINUOUS
 62
     3
100
AcDbLine
 10
1147.998917213157
 20
2286.42494754095
 30
0.0
 11
1146.219646721351
 21
2264.184029508158
 31
0.0
  0
LINE
  5
2A2
330
1F
100
AcDbEntity
  8
Ｓ_１_１
  6
CONTINUOUS
 62
     3
100
AcDbLine
 10
1731.885159836111
 20
2307.541027868811
 30
0.0
 11
1745.655661475446
 21
2307.541027868811
 31
0.0
  0
LINE
  5
2A3
330
1F
100
AcDbEntity
  8
Ｓ_１_１
  6
CONTINUOUS
 62
     3
100
AcDbLine
 10
1772.291427049227
 20
2302.695354098317
 30
0.0
 11
1750.050361475456
 21
2304.474639344228
 31
0.0
  0
LINE
  5
2A4
330
1F
100
AcDbEntity
  8
Ｓ_１_１
  6
CONTINUOUS
 62
     3
100
AcDbLine
 10
1748.606436885291
 20
2304.590163934386
 30
0.0
 11
1748.606436885291
 21
2290.819736065541
 31
0.0
  0
LINE
  5
2A5
330
1F
100
AcDbEntity
  8
Ｓ_１_１
  6
CONTINUOUS
 62
     3
100
AcDbLine
 10
1584.460084426277
 20
2433.965931147508
 30
0.0
 11
1586.239340163982
 21
2411.72504262291
 31
0.0
  0
LINE
  5
2A6
330
1F
100
AcDbEntity
  8
Ｓ_１_１
  6
CONTINUOUS
 62
     3
100
AcDbLine
 10
1556.803231967257
 20
2441.235909836029
 30
0.0
 11
1556.803231967257
 21
2449.255603278651
 31
0.0
  0
LINE
  5
2A7
330
1F
100
AcDbEntity
  8
Ｓ_１_１
  6
CONTINUOUS
 62
     3
100
AcDbLine
 10
1587.219454918079
 20
2479.672180327834
 30
0.0
 11
1595.239399180376
 21
2479.672180327834
 31
0.0
  0
LINE
  5
2A8
330
1F
100
AcDbEntity
  8
Ｓ_１_１
  6
CONTINUOUS
 62
     3
100
AcDbLine
 10
1598.114751639392
 20
2435.410047540949
 30
0.0
 11
1584.344250000044
 21
2435.410047540949
 31
0.0
  0
LINE
  5
2A9
330
1F
100
AcDbEntity
  8
Ｓ_１_１
  6
CONTINUOUS
 62
     3
100
AcDbLine
 10
1598.114751639392
 20
2435.410047540949
 30
0.0
 11
1584.344250000044
 21
2435.410047540949
 31
0.0
  0
LINE
  5
2AA
330
1F
100
AcDbEntity
  8
Ｓ_１_１
  6
CONTINUOUS
 62
     3
100
AcDbLine
 10
1579.949490983647
 20
2452.015357377006
 30
0.0
 11
1557.708395901682
 21
2450.236072131107
 31
0.0
  0
LINE
  5
2AB
330
1F
100
AcDbEntity
  8
Ｓ_１_１
  6
CONTINUOUS
 62
     3
100
AcDbLine
 10
1586.239000819711
 20
2478.767031147498
 30
0.0
 11
1584.45968606562
 21
2456.525537704877
 31
0.0
  0
LINE
  5
2AC
330
1F
100
AcDbEntity
  8
Ｓ_１_１
  6
CONTINUOUS
 62
     3
100
AcDbLine
 10
1581.393400819721
 20
2438.360586885208
 30
0.0
 11
1581.393400819721
 21
2452.131177049136
 31
0.0
  0
LINE
  5
2AD
330
1F
100
AcDbEntity
  8
Ｓ_１_１
  6
CONTINUOUS
 62
     3
100
AcDbLine
 10
1598.114751639392
 20
2435.410047540949
 30
0.0
 11
1584.344250000044
 21
2435.410047540949
 31
0.0
  0
LINE
  5
2AE
330
1F
100
AcDbEntity
  8
Ｓ_１_１
  6
CONTINUOUS
 62
     3
100
AcDbLine
 10
1557.708425409875
 20
2440.255440983572
 30
0.0
 11
1579.949963114792
 21
2438.476111475365
 31
0.0
  0
LINE
  5
2AF
330
1F
100
AcDbEntity
  8
Ｓ_１_１
  6
CONTINUOUS
 62
     3
100
AcDbLine
 10
1595.239472950867
 20
2410.819878688485
 30
0.0
 11
1587.219838524632
 21
2410.819878688485
 31
0.0
  0
LINE
  5
2B0
330
1F
100
AcDbEntity
  8
Ｓ_１_１
  6
CONTINUOUS
 62
     3
100
AcDbLine
 10
1598.114751639392
 20
2435.410047540949
 30
0.0
 11
1584.344250000044
 21
2435.410047540949
 31
0.0
  0
LINE
  5
2B1
330
1F
100
AcDbEntity
  8
Ｓ_１_１
  6
CONTINUOUS
 62
     3
100
AcDbLine
 10
1597.999182786923
 20
2456.525803278643
 30
0.0
 11
1596.219897541027
 21
2478.767016393408
 31
0.0
  0
LINE
  5
2B2
330
1F
100
AcDbEntity
  8
Ｓ_１_１
  6
CONTINUOUS
 62
     3
100
AcDbLine
 10
1596.219897541027
 20
2411.725057377013
 30
0.0
 11
1597.999168032835
 21
2433.965990163895
 31
0.0
  0
LINE
  5
2B3
330
1F
100
AcDbEntity
  8
Ｓ_１_１
  6
CONTINUOUS
 62
     3
100
AcDbLine
 10
1602.509333606602
 20
2438.476155737662
 30
0.0
 11
1624.750428688567
 21
2440.25542622947
 31
0.0
  0
LINE
  5
2B4
330
1F
100
AcDbEntity
  8
Ｓ_１_１
  6
CONTINUOUS
 62
     3
100
AcDbLine
 10
1584.344176229553
 20
2455.082026229471
 30
0.0
 11
1598.114677868887
 21
2455.082026229471
 31
0.0
  0
LINE
  5
2B5
330
1F
100
AcDbEntity
  8
Ｓ_１_１
  6
CONTINUOUS
 62
     3
100
AcDbLine
 10
1624.750428688567
 20
2450.236322950784
 30
0.0
 11
1602.509333606602
 21
2452.015608196682
 31
0.0
  0
LINE
  5
2B6
330
1F
100
AcDbEntity
  8
Ｓ_１_１
  6
CONTINUOUS
 62
     3
100
AcDbLine
 10
1773.196605737743
 20
2301.714855737668
 30
0.0
 11
1773.196605737743
 21
2293.694911475368
 31
0.0
  0
LINE
  5
2B7
330
1F
100
AcDbEntity
  8
Ｓ_１_１
  6
CONTINUOUS
 62
     3
100
AcDbLine
 10
1624.750428688567
 20
2302.695383606524
 30
0.0
 11
1602.509333606602
 21
2304.474668852421
 31
0.0
  0
LINE
  5
2B8
330
1F
100
AcDbEntity
  8
Ｓ_１_１
  6
CONTINUOUS
 62
     3
100
AcDbLine
 10
1584.344176229553
 20
2307.541027868811
 30
0.0
 11
1598.114677868889
 21
2307.541027868811
 31
0.0
  0
LINE
  5
2B9
330
1F
100
AcDbEntity
  8
Ｓ_１_１
  6
CONTINUOUS
 62
     3
100
AcDbLine
 10
1602.509377868899
 20
2290.935186885208
 30
0.0
 11
1624.750399180373
 21
2292.714457377016
 31
0.0
  0
LINE
  5
2BA
330
1F
100
AcDbEntity
  8
Ｓ_１_１
  6
CONTINUOUS
 62
     3
100
AcDbLine
 10
1596.219897541027
 20
2264.184103278649
 30
0.0
 11
1597.999182786925
 21
2286.425006557337
 31
0.0
  0
LINE
  5
2BB
330
1F
100
AcDbEntity
  8
Ｓ_１_１
  6
CONTINUOUS
 62
     3
100
AcDbLine
 10
1597.999182786925
 20
2308.984804917996
 30
0.0
 11
1596.219897541027
 21
2331.22603278685
 31
0.0
  0
LINE
  5
2BC
330
1F
100
AcDbEntity
  8
Ｓ_１_１
  6
CONTINUOUS
 62
     3
100
AcDbLine
 10
1598.114751639392
 20
2287.869034426185
 30
0.0
 11
1584.344250000044
 21
2287.869034426185
 31
0.0
  0
LINE
  5
2BD
330
1F
100
AcDbEntity
  8
Ｓ_１_１
  6
CONTINUOUS
 62
     3
100
AcDbLine
 10
1595.239472950867
 20
2263.278880327837
 30
0.0
 11
1587.219838524632
 21
2263.278880327837
 31
0.0
  0
LINE
  5
2BE
330
1F
100
AcDbEntity
  8
Ｓ_１_１
  6
CONTINUOUS
 62
     3
100
AcDbLine
 10
1773.196605737743
 20
2449.255854098315
 30
0.0
 11
1773.196605737743
 21
2441.23590983603
 31
0.0
  0
LINE
  5
2BF
330
1F
100
AcDbEntity
  8
Ｓ_１_１
  6
CONTINUOUS
 62
     3
100
AcDbLine
 10
1748.606436885291
 20
2452.131177049136
 30
0.0
 11
1748.606436885291
 21
2438.360734426188
 31
0.0
  0
LINE
  5
2C0
330
1F
100
AcDbEntity
  8
Ｓ_１_１
  6
CONTINUOUS
 62
     3
100
AcDbLine
 10
1772.291382786931
 20
2450.236308196681
 30
0.0
 11
1750.050287704966
 21
2452.015608196682
 31
0.0
  0
LINE
  5
2C1
330
1F
100
AcDbEntity
  8
Ｓ_１_１
  6
CONTINUOUS
 62
     3
100
AcDbLine
 10
1731.885159836111
 20
2455.082026229471
 30
0.0
 11
1745.655661475445
 21
2455.082026229471
 31
0.0
  0
LINE
  5
2C2
330
1F
100
AcDbEntity
  8
Ｓ_１_１
  6
CONTINUOUS
 62
     3
100
AcDbLine
 10
1750.050346721353
 20
2438.476140983572
 30
0.0
 11
1772.291441803316
 21
2440.255411475367
 31
0.0
  0
LINE
  5
2C3
330
1F
100
AcDbEntity
  8
Ｓ_１_１
  6
CONTINUOUS
 62
     3
100
AcDbLine
 10
1743.760925409881
 20
2411.72504262291
 30
0.0
 11
1745.540210655778
 21
2433.965990163895
 31
0.0
  0
LINE
  5
2C4
330
1F
100
AcDbEntity
  8
Ｓ_１_１
  6
CONTINUOUS
 62
     3
100
AcDbLine
 10
1745.540122131184
 20
2456.525803278643
 30
0.0
 11
1743.760836885287
 21
2478.767016393408
 31
0.0
  0
LINE
  5
2C5
330
1F
100
AcDbEntity
  8
Ｓ_１_１
  6
CONTINUOUS
 62
     3
100
AcDbLine
 10
1745.655735245949
 20
2435.410047540949
 30
0.0
 11
1731.885233606601
 21
2435.410047540949
 31
0.0
  0
LINE
  5
2C6
330
1F
100
AcDbEntity
  8
Ｓ_１_１
  6
CONTINUOUS
 62
     3
100
AcDbLine
 10
1742.780382786934
 20
2410.819878688485
 30
0.0
 11
1734.760807377099
 21
2410.819878688485
 31
0.0
  0
LINE
  5
2C7
330
1F
100
AcDbEntity
  8
Ｓ_１_１
  6
CONTINUOUS
 62
     3
100
AcDbLine
 10
1601.065453278734
 20
2452.131177049136
 30
0.0
 11
1601.065453278734
 21
2438.360734426188
 31
0.0
  0
LINE
  5
2C8
330
1F
100
AcDbEntity
  8
Ｓ_１_１
  6
CONTINUOUS
 62
     3
100
AcDbLine
 10
1625.655622131186
 20
2449.255854098315
 30
0.0
 11
1625.655622131186
 21
2441.23590983603
 31
0.0
  0
LINE
  5
2C9
330
1F
100
AcDbEntity
  8
Ｓ_１_１
  6
CONTINUOUS
 62
     3
100
AcDbLine
 10
1557.708440163979
 20
2292.714442622912
 30
0.0
 11
1579.949904098406
 21
2290.935127868808
 31
0.0
  0
LINE
  5
2CA
330
1F
100
AcDbEntity
  8
Ｓ_１_１
  6
CONTINUOUS
 62
     3
100
AcDbLine
 10
1705.249409016433
 20
2440.255440983573
 30
0.0
 11
1727.490887704964
 21
2438.476111475365
 31
0.0
  0
LINE
  5
2CB
330
1F
100
AcDbEntity
  8
Ｓ_１_１
  6
CONTINUOUS
 62
     3
100
AcDbLine
 10
1745.655735245949
 20
2435.410047540949
 30
0.0
 11
1731.885233606601
 21
2435.410047540949
 31
0.0
  0
LINE
  5
2CC
330
1F
100
AcDbEntity
  8
Ｓ_１_１
  6
CONTINUOUS
 62
     3
100
AcDbLine
 10
1728.934384426278
 20
2438.360586885208
 30
0.0
 11
1728.934384426278
 21
2452.131177049136
 31
0.0
  0
LINE
  5
2CD
330
1F
100
AcDbEntity
  8
Ｓ_１_１
  6
CONTINUOUS
 62
     3
100
AcDbLine
 10
1733.779925409883
 20
2478.767031147498
 30
0.0
 11
1732.000595901687
 21
2456.525522950787
 31
0.0
  0
LINE
  5
2CE
330
1F
100
AcDbEntity
  8
Ｓ_１_１
  6
CONTINUOUS
 62
     3
100
AcDbLine
 10
1727.490430327907
 20
2452.015342622916
 30
0.0
 11
1705.249409016433
 21
2450.236072131107
 31
0.0
  0
LINE
  5
2CF
330
1F
100
AcDbEntity
  8
Ｓ_１_１
  6
CONTINUOUS
 62
     3
100
AcDbLine
 10
1745.655735245949
 20
2435.410047540949
 30
0.0
 11
1731.885233606601
 21
2435.410047540949
 31
0.0
  0
LINE
  5
2D0
330
1F
100
AcDbEntity
  8
Ｓ_１_１
  6
CONTINUOUS
 62
     3
100
AcDbLine
 10
1598.114751639392
 20
2287.869034426185
 30
0.0
 11
1584.344250000044
 21
2287.869034426185
 31
0.0
  0
LINE
  5
2D1
330
1F
100
AcDbEntity
  8
Ｓ_１_１
  6
CONTINUOUS
 62
     3
100
AcDbLine
 10
1581.393400819721
 20
2290.819588524547
 30
0.0
 11
1581.393400819721
 21
2304.590163934386
 31
0.0
  0
LINE
  5
2D2
330
1F
100
AcDbEntity
  8
Ｓ_１_１
  6
CONTINUOUS
 62
     3
100
AcDbLine
 10
1745.655735245949
 20
2435.410047540949
 30
0.0
 11
1731.885233606601
 21
2435.410047540949
 31
0.0
  0
LINE
  5
2D3
330
1F
100
AcDbEntity
  8
Ｓ_１_１
  6
CONTINUOUS
 62
     3
100
AcDbLine
 10
1586.238956557416
 20
2331.226018032747
 30
0.0
 11
1584.45962704922
 21
2308.98453934423
 31
0.0
  0
LINE
  5
2D4
330
1F
100
AcDbEntity
  8
Ｓ_１_１
  6
CONTINUOUS
 62
     3
100
AcDbLine
 10
1579.949476229556
 20
2304.474359016358
 30
0.0
 11
1557.708381147579
 21
2302.69508852455
 31
0.0
  0
LINE
  5
2D5
330
1F
100
AcDbEntity
  8
Ｓ_１_１
  6
CONTINUOUS
 62
     3
100
AcDbLine
 10
1732.001068032834
 20
2286.424962295041
 30
0.0
 11
1733.78033852463
 21
2264.184059016352
 31
0.0
  0
LINE
  5
2D6
330
1F
100
AcDbEntity
  8
Ｓ_１_１
  6
CONTINUOUS
 62
     3
100
AcDbLine
 10
1704.344215573814
 20
2293.694940983562
 30
0.0
 11
1704.344215573814
 21
2301.714634426184
 31
0.0
  0
LINE
  5
2D7
330
1F
100
AcDbEntity
  8
Ｓ_１_１
  6
CONTINUOUS
 62
     3
100
AcDbLine
 10
1734.760364754145
 20
2332.131181967172
 30
0.0
 11
1742.780382786934
 21
2332.131181967172
 31
0.0
  0
LINE
  5
2D8
330
1F
100
AcDbEntity
  8
Ｓ_１_１
  6
CONTINUOUS
 62
     3
100
AcDbLine
 10
1745.655735245949
 20
2287.869034426185
 30
0.0
 11
1731.885233606601
 21
2287.869034426185
 31
0.0
  0
LINE
  5
2D9
330
1F
100
AcDbEntity
  8
Ｓ_１_１
  6
CONTINUOUS
 62
     3
100
AcDbLine
 10
1745.655735245949
 20
2287.869034426185
 30
0.0
 11
1731.885233606601
 21
2287.869034426185
 31
0.0
  0
LINE
  5
2DA
330
1F
100
AcDbEntity
  8
Ｓ_１_１
  6
CONTINUOUS
 62
     3
100
AcDbLine
 10
1727.490415573817
 20
2304.474359016358
 30
0.0
 11
1705.249394262342
 21
2302.695073770447
 31
0.0
  0
LINE
  5
2DB
330
1F
100
AcDbEntity
  8
Ｓ_１_１
  6
CONTINUOUS
 62
     3
100
AcDbLine
 10
1733.779940163973
 20
2331.226003278644
 30
0.0
 11
1732.000625409883
 21
2308.98453934423
 31
0.0
  0
LINE
  5
2DC
330
1F
100
AcDbEntity
  8
Ｓ_１_１
  6
CONTINUOUS
 62
     3
100
AcDbLine
 10
1728.934384426278
 20
2290.819588524547
 30
0.0
 11
1728.934384426278
 21
2304.590163934386
 31
0.0
  0
LINE
  5
2DD
330
1F
100
AcDbEntity
  8
Ｓ_１_１
  6
CONTINUOUS
 62
     3
100
AcDbLine
 10
1745.655735245949
 20
2287.869034426185
 30
0.0
 11
1731.885233606601
 21
2287.869034426185
 31
0.0
  0
LINE
  5
2DE
330
1F
100
AcDbEntity
  8
Ｓ_１_１
  6
CONTINUOUS
 62
     3
100
AcDbLine
 10
1705.249350000046
 20
2292.71442786881
 30
0.0
 11
1727.490902459054
 21
2290.935098360615
 31
0.0
  0
LINE
  5
2DF
330
1F
100
AcDbEntity
  8
Ｓ_１_１
  6
CONTINUOUS
 62
     3
100
AcDbLine
 10
1625.655622131186
 20
2301.714855737668
 30
0.0
 11
1625.655622131186
 21
2293.694911475368
 31
0.0
  0
LINE
  5
2E0
330
1F
100
AcDbEntity
  8
Ｓ_１_１
  6
CONTINUOUS
 62
     3
100
AcDbLine
 10
1601.065453278734
 20
2304.590163934386
 30
0.0
 11
1601.065453278734
 21
2290.819736065541
 31
0.0
  0
LINE
  5
2E1
330
1F
100
AcDbEntity
  8
Ｓ_１_１
  6
CONTINUOUS
 62
     3
100
AcDbLine
 10
1742.780382786934
 20
2263.278880327837
 30
0.0
 11
1734.760807377099
 21
2263.278880327837
 31
0.0
  0
LINE
  5
2E2
330
1F
100
AcDbEntity
  8
Ｓ_１_１
  6
CONTINUOUS
 62
     3
100
AcDbLine
 10
1745.655735245949
 20
2287.869034426185
 30
0.0
 11
1731.885233606601
 21
2287.869034426185
 31
0.0
  0
LINE
  5
2E3
330
1F
100
AcDbEntity
  8
Ｓ_１_１
  6
CONTINUOUS
 62
     3
100
AcDbLine
 10
1745.540122131186
 20
2308.984804917996
 30
0.0
 11
1743.760836885287
 21
2331.226018032747
 31
0.0
  0
LINE
  5
2E4
330
1F
100
AcDbEntity
  8
Ｓ_１_１
  6
CONTINUOUS
 62
     3
100
AcDbLine
 10
1743.760925409881
 20
2264.184059016352
 30
0.0
 11
1745.540210655778
 21
2286.425006557337
 31
0.0
  0
LINE
  5
2E5
330
1F
100
AcDbEntity
  8
Ｓ_１_１
  6
CONTINUOUS
 62
     3
100
AcDbLine
 10
1750.05039098365
 20
2290.935157377015
 30
0.0
 11
1772.291412295124
 21
2292.71442786881
 31
0.0
  0
LINE
  5
2E6
330
1F
100
AcDbEntity
  8
Ｓ_１_１
  6
CONTINUOUS
 62
     3
100
AcDbLine
 10
1598.114751639392
 20
2287.869034426185
 30
0.0
 11
1584.344250000044
 21
2287.869034426185
 31
0.0
  0
LINE
  5
2E7
330
1F
100
AcDbEntity
  8
Ｓ_１_１
  6
CONTINUOUS
 62
     3
100
AcDbLine
 10
1598.114751639392
 20
2287.869034426185
 30
0.0
 11
1584.344250000044
 21
2287.869034426185
 31
0.0
  0
LINE
  5
2E8
330
1F
100
AcDbEntity
  8
Ｓ_１_１
  6
CONTINUOUS
 62
     3
100
AcDbLine
 10
1587.219454918079
 20
2332.131181967172
 30
0.0
 11
1595.239399180376
 21
2332.131181967172
 31
0.0
  0
LINE
  5
2E9
330
1F
100
AcDbEntity
  8
Ｓ_１_１
  6
CONTINUOUS
 62
     3
100
AcDbLine
 10
1556.803231967257
 20
2293.694940983562
 30
0.0
 11
1556.803231967257
 21
2301.714634426184
 31
0.0
  0
LINE
  5
2EA
330
1F
100
AcDbEntity
  8
Ｓ_１_１
  6
CONTINUOUS
 62
     3
100
AcDbLine
 10
1584.46005491807
 20
2286.424947540951
 30
0.0
 11
1586.239325409879
 21
2264.184073770456
 31
0.0
  0
LINE
  5
2EB
330
1F
100
AcDbEntity
  8
Ｓ_１_１
  6
CONTINUOUS
 62
     3
100
AcDbLine
 10
1734.760364754145
 20
2479.672180327834
 30
0.0
 11
1742.780382786934
 21
2479.672180327834
 31
0.0
  0
LINE
  5
2EC
330
1F
100
AcDbEntity
  8
Ｓ_１_１
  6
CONTINUOUS
 62
     3
100
AcDbLine
 10
1704.344215573814
 20
2441.23590983603
 30
0.0
 11
1704.344215573814
 21
2449.255603278652
 31
0.0
  0
LINE
  5
2ED
330
1F
100
AcDbEntity
  8
Ｓ_１_１
  6
CONTINUOUS
 62
     3
100
AcDbLine
 10
1732.001009016434
 20
2433.965931147508
 30
0.0
 11
1733.780279508243
 21
2411.72504262291
 31
0.0
  0
LINE
  5
2EE
330
1F
100
AcDbEntity
  8
Ｓ_１_１
  6
CONTINUOUS
 62
     3
100
AcDbLine
 10
1122.786818852506
 20
2612.213940983569
 30
0.0
 11
1122.786818852506
 21
2599.017477049139
 31
0.0
  0
LINE
  5
2EF
330
1F
100
AcDbEntity
  8
Ｓ_１_１
  6
CONTINUOUS
 62
     3
100
AcDbLine
 10
1226.065581147584
 20
2612.213940983569
 30
0.0
 11
1226.065581147584
 21
2599.017477049139
 31
0.0
  0
LINE
  5
2F0
330
1F
100
AcDbEntity
  8
Ｓ_１_１
  6
CONTINUOUS
 62
     3
100
AcDbLine
 10
1299.836072950862
 20
2612.213940983569
 30
0.0
 11
1299.836072950862
 21
2599.017477049139
 31
0.0
  0
LINE
  5
2F1
330
1F
100
AcDbEntity
  8
Ｓ_１_１
  6
CONTINUOUS
 62
     3
100
AcDbLine
 10
1403.114643442666
 20
2612.213940983569
 30
0.0
 11
1403.114643442666
 21
2599.017477049139
 31
0.0
  0
LINE
  5
2F2
330
1F
100
AcDbEntity
  8
Ｓ_１_１
  6
CONTINUOUS
 62
     3
100
AcDbLine
 10
1476.885135245946
 20
2612.213940983569
 30
0.0
 11
1476.885135245946
 21
2599.017477049139
 31
0.0
  0
LINE
  5
2F3
330
1F
100
AcDbEntity
  8
Ｓ_１_１
  6
CONTINUOUS
 62
     3
100
AcDbLine
 10
1580.163823770536
 20
2612.21394098357
 30
0.0
 11
1580.163823770536
 21
2599.01747704914
 31
0.0
  0
LINE
  5
2F4
330
1F
100
AcDbEntity
  8
Ｓ_１_１
  6
CONTINUOUS
 62
     3
100
AcDbLine
 10
1653.934315573813
 20
2612.21394098357
 30
0.0
 11
1653.934315573813
 21
2599.01747704914
 31
0.0
  0
LINE
  5
2F5
330
1F
100
AcDbEntity
  8
Ｓ_１_１
  6
CONTINUOUS
 62
     3
100
AcDbLine
 10
1757.212989344302
 20
2612.21394098357
 30
0.0
 11
1757.212989344302
 21
2599.01747704914
 31
0.0
  0
LINE
  5
2F6
330
1F
100
AcDbEntity
  8
Ｓ_１_１
  6
CONTINUOUS
 62
     3
100
AcDbLine
 10
1231.967205737752
 20
2555.029239344223
 30
0.0
 11
1231.967205737752
 21
2544.472062295043
 31
0.0
  0
LINE
  5
2F7
330
1F
100
AcDbEntity
  8
Ｓ_１_１
  6
CONTINUOUS
 62
     3
100
AcDbLine
 10
1293.934359836103
 20
2555.029239344223
 30
0.0
 11
1293.934359836103
 21
2544.472062295043
 31
0.0
  0
LINE
  5
2F8
330
1F
100
AcDbEntity
  8
Ｓ_１_１
  6
CONTINUOUS
 62
     3
100
AcDbLine
 10
1648.032838524627
 20
2555.029239344224
 30
0.0
 11
1648.032838524627
 21
2544.472062295044
 31
0.0
  0
LINE
  5
2F9
330
1F
100
AcDbEntity
  8
Ｓ_１_１
  6
CONTINUOUS
 62
     3
100
AcDbLine
 10
1586.065595901682
 20
2555.029239344224
 30
0.0
 11
1586.065595901682
 21
2544.472062295044
 31
0.0
  0
CIRCLE
  5
2FA
330
1F
100
AcDbEntity
  8
Ｓ_１_１
  6
CONTINUOUS
 62
     3
100
AcDbCircle
 10
1412.950787704967
 20
2297.704883606524
 30
0.0
 40
14.75409836065574
  0
ARC
  5
2FB
330
1F
100
AcDbEntity
  8
Ｓ_１_１
  6
CONTINUOUS
 62
     3
100
AcDbCircle
 10
1412.950787704967
 20
2366.557406557343
 30
0.0
 40
14.75409836065574
100
AcDbArc
 50
0.0000000000001719
 51
179.9999640000297
  0
ARC
  5
2FC
330
1F
100
AcDbEntity
  8
Ｓ_１_１
  6
CONTINUOUS
 62
     3
100
AcDbCircle
 10
1412.950787704967
 20
2228.852493442582
 30
0.0
 40
14.75409836065574
100
AcDbArc
 50
179.9999780000109
 51
0.0000100000002178
  0
CIRCLE
  5
2FD
330
1F
100
AcDbEntity
  8
Ｓ_１_１
  6
CONTINUOUS
 62
     3
100
AcDbCircle
 10
1412.950787704967
 20
2297.704883606524
 30
0.0
 40
14.75409836065574
  0
ARC
  5
2FE
330
1F
100
AcDbEntity
  8
Ｓ_１_１
  6
CONTINUOUS
 62
     3
100
AcDbCircle
 10
1412.950787704967
 20
2366.557406557343
 30
0.0
 40
14.75409836065574
100
AcDbArc
 50
0.0000000000001719
 51
179.9999640000297
  0
ARC
  5
2FF
330
1F
100
AcDbEntity
  8
Ｓ_１_１
  6
CONTINUOUS
 62
     3
100
AcDbCircle
 10
1412.950787704967
 20
2228.852493442582
 30
0.0
 40
14.75409836065574
100
AcDbArc
 50
179.9999780000109
 51
0.0000100000002178
  0
CIRCLE
  5
300
330
1F
100
AcDbEntity
  8
Ｓ_１_１
  6
CONTINUOUS
 62
     3
100
AcDbCircle
 10
1412.950787704967
 20
2297.704883606524
 30
0.0
 40
14.75409836065574
  0
ARC
  5
301
330
1F
100
AcDbEntity
  8
Ｓ_１_１
  6
CONTINUOUS
 62
     3
100
AcDbCircle
 10
1412.950787704967
 20
2366.557406557343
 30
0.0
 40
14.75409836065574
100
AcDbArc
 50
0.0000000000001719
 51
179.9999640000297
  0
ARC
  5
302
330
1F
100
AcDbEntity
  8
Ｓ_１_１
  6
CONTINUOUS
 62
     3
100
AcDbCircle
 10
1412.950787704967
 20
2228.852493442582
 30
0.0
 40
14.75409836065574
100
AcDbArc
 50
179.9999780000109
 51
0.0000100000002178
  0
CIRCLE
  5
303
330
1F
100
AcDbEntity
  8
Ｓ_１_１
  6
CONTINUOUS
 62
     3
100
AcDbCircle
 10
1467.049138524641
 20
2297.704883606524
 30
0.0
 40
14.75409836065574
  0
ARC
  5
304
330
1F
100
AcDbEntity
  8
Ｓ_１_１
  6
CONTINUOUS
 62
     3
100
AcDbCircle
 10
1467.049138524641
 20
2366.557406557343
 30
0.0
 40
14.75409836065574
100
AcDbArc
 50
0.0000000000001719
 51
179.9999640000297
  0
ARC
  5
305
330
1F
100
AcDbEntity
  8
Ｓ_１_１
  6
CONTINUOUS
 62
     3
100
AcDbCircle
 10
1467.049138524641
 20
2228.852493442582
 30
0.0
 40
14.75409836065574
100
AcDbArc
 50
179.9999780000109
 51
0.0000100000002178
  0
ARC
  5
306
330
1F
100
AcDbEntity
  8
Ｓ_１_１
  6
CONTINUOUS
 62
     3
100
AcDbCircle
 10
1803.934350000047
 20
2159.999970491763
 30
0.0
 40
9.836070491803278
100
AcDbArc
 50
179.9999779999919
 51
0.0000099999970092
  0
ARC
  5
307
330
1F
100
AcDbEntity
  8
Ｓ_１_１
  6
CONTINUOUS
 62
     3
100
AcDbCircle
 10
1803.934350000047
 20
2219.01631967209
 30
0.0
 40
9.836070491803278
100
AcDbArc
 50
0.0000000000001719
 51
179.9999639999664
  0
CIRCLE
  5
308
330
1F
100
AcDbEntity
  8
Ｓ_１_１
  6
CONTINUOUS
 62
     3
100
AcDbCircle
 10
1203.934433606601
 20
2882.950849180293
 30
0.0
 40
34.42622459016393
  0
ARC
  5
309
330
1F
100
AcDbEntity
  8
Ｓ_１_１
  6
CONTINUOUS
 62
     3
100
AcDbCircle
 10
1233.74842377053
 20
2900.163968852417
 30
0.0
 40
4.91802786885246
100
AcDbArc
 50
300.0000260000257
 51
124.0958629999517
  0
ARC
  5
30A
330
1F
100
AcDbEntity
  8
Ｓ_１_１
  6
CONTINUOUS
 62
     3
100
AcDbCircle
 10
1203.934433606601
 20
2917.377073770452
 30
0.0
 40
4.91802786885246
100
AcDbArc
 50
0.0000000000001719
 51
184.0958649999933
  0
ARC
  5
30B
330
1F
100
AcDbEntity
  8
Ｓ_１_１
  6
CONTINUOUS
 62
     3
100
AcDbCircle
 10
1174.120428688566
 20
2900.163968852417
 30
0.0
 40
4.91802786885246
100
AcDbArc
 50
60.00000200005852
 51
244.0958800000671
  0
ARC
  5
30C
330
1F
100
AcDbEntity
  8
Ｓ_１_１
  6
CONTINUOUS
 62
     3
100
AcDbCircle
 10
1174.120428688566
 20
2900.163968852417
 30
0.0
 40
4.91802786885246
100
AcDbArc
 50
60.00000200005852
 51
244.0958800000671
  0
ARC
  5
30D
330
1F
100
AcDbEntity
  8
Ｓ_１_１
  6
CONTINUOUS
 62
     3
100
AcDbCircle
 10
1174.120428688566
 20
2900.163968852417
 30
0.0
 40
4.91802786885246
100
AcDbArc
 50
60.00000200005852
 51
244.0958800000671
  0
ARC
  5
30E
330
1F
100
AcDbEntity
  8
Ｓ_１_１
  6
CONTINUOUS
 62
     3
100
AcDbCircle
 10
1174.120428688566
 20
2865.737729508156
 30
0.0
 40
4.91802786885246
100
AcDbArc
 50
120.0000030000264
 51
304.0958679999872
  0
ARC
  5
30F
330
1F
100
AcDbEntity
  8
Ｓ_１_１
  6
CONTINUOUS
 62
     3
100
AcDbCircle
 10
1203.934433606601
 20
2848.524624590123
 30
0.0
 40
4.91802786885246
100
AcDbArc
 50
180.000008999969
 51
4.095856000008373
  0
ARC
  5
310
330
1F
100
AcDbEntity
  8
Ｓ_１_１
  6
CONTINUOUS
 62
     3
100
AcDbCircle
 10
1233.74842377053
 20
2865.737729508156
 30
0.0
 40
4.91802786885246
100
AcDbArc
 50
240.0000239999636
 51
64.09586099986883
  0
ARC
  5
311
330
1F
100
AcDbEntity
  8
Ｓ_１_１
  6
CONTINUOUS
 62
     3
100
AcDbCircle
 10
1803.934350000047
 20
2189.508196721269
 30
0.0
 40
22.1311475409836
100
AcDbArc
 50
0.0000000000001719
 51
63.61219500002966
  0
ARC
  5
312
330
1F
100
AcDbEntity
  8
Ｓ_１_１
  6
CONTINUOUS
 62
     3
100
AcDbCircle
 10
1803.934350000047
 20
2189.508196721269
 30
0.0
 40
22.1311475409836
100
AcDbArc
 50
116.387830000005
 51
243.6121389999863
  0
ARC
  5
313
330
1F
100
AcDbEntity
  8
Ｓ_１_１
  6
CONTINUOUS
 62
     3
100
AcDbCircle
 10
1803.934350000047
 20
2189.508196721269
 30
0.0
 40
22.1311475409836
100
AcDbArc
 50
296.387804999985
 51
0.0000000000001719
  0
ARC
  5
314
330
1F
100
AcDbEntity
  8
Ｓ_１_１
  6
CONTINUOUS
 62
     3
100
AcDbCircle
 10
1803.934350000047
 20
2189.508196721269
 30
0.0
 40
19.67212622950819
100
AcDbArc
 50
0.0000000000001719
 51
60.00001500002965
  0
ARC
  5
315
330
1F
100
AcDbEntity
  8
Ｓ_１_１
  6
CONTINUOUS
 62
     3
100
AcDbCircle
 10
1803.934350000047
 20
2189.508196721269
 30
0.0
 40
19.67212622950819
100
AcDbArc
 50
120.0000029999836
 51
239.999978999986
  0
ARC
  5
316
330
1F
100
AcDbEntity
  8
Ｓ_１_１
  6
CONTINUOUS
 62
     3
100
AcDbCircle
 10
1803.934350000047
 20
2189.508196721269
 30
0.0
 40
19.67212622950819
100
AcDbArc
 50
299.9999849999891
 51
0.0000000000001719
  0
ARC
  5
317
330
1F
100
AcDbEntity
  8
Ｓ_１_１
  6
CONTINUOUS
 62
     3
100
AcDbCircle
 10
1803.934350000045
 20
3030.491862295045
 30
0.0
 40
19.67212622950819
100
AcDbArc
 50
0.0000000000001719
 51
60.00001500001235
  0
ARC
  5
318
330
1F
100
AcDbEntity
  8
Ｓ_１_１
  6
CONTINUOUS
 62
     3
100
AcDbCircle
 10
1803.934350000045
 20
3030.491862295045
 30
0.0
 40
19.67212622950819
100
AcDbArc
 50
120.0000030000011
 51
239.9999789999883
  0
ARC
  5
319
330
1F
100
AcDbEntity
  8
Ｓ_１_１
  6
CONTINUOUS
 62
     3
100
AcDbCircle
 10
1803.934350000045
 20
3030.491862295045
 30
0.0
 40
19.67212622950819
100
AcDbArc
 50
299.9999849999718
 51
0.0000000000001719
  0
ARC
  5
31A
330
1F
100
AcDbEntity
  8
Ｓ_１_１
  6
CONTINUOUS
 62
     3
100
AcDbCircle
 10
1803.934350000047
 20
3000.983636065541
 30
0.0
 40
9.836070491803278
100
AcDbArc
 50
179.9999780000714
 51
0.0000099999916807
  0
ARC
  5
31B
330
1F
100
AcDbEntity
  8
Ｓ_１_１
  6
CONTINUOUS
 62
     3
100
AcDbCircle
 10
1803.934350000045
 20
3059.999985245866
 30
0.0
 40
9.836070491803278
100
AcDbArc
 50
0.0000000000001719
 51
179.9999640000406
  0
ARC
  5
31C
330
1F
100
AcDbEntity
  8
Ｓ_１_１
  6
CONTINUOUS
 62
     3
100
AcDbCircle
 10
1803.934350000045
 20
3030.491862295045
 30
0.0
 40
22.1311475409836
100
AcDbArc
 50
0.0000000000001719
 51
63.61219500001506
  0
ARC
  5
31D
330
1F
100
AcDbEntity
  8
Ｓ_１_１
  6
CONTINUOUS
 62
     3
100
AcDbCircle
 10
1803.934350000045
 20
3030.491862295045
 30
0.0
 40
22.1311475409836
100
AcDbArc
 50
116.3878300000164
 51
243.6121389999884
  0
ARC
  5
31E
330
1F
100
AcDbEntity
  8
Ｓ_１_１
  6
CONTINUOUS
 62
     3
100
AcDbCircle
 10
1803.934350000045
 20
3030.491862295045
 30
0.0
 40
22.1311475409836
100
AcDbArc
 50
296.3878049999704
 51
0.0000000000001719
  0
ARC
  5
31F
330
1F
100
AcDbEntity
  8
Ｓ_１_１
  6
CONTINUOUS
 62
     3
100
AcDbCircle
 10
1076.065650000037
 20
3030.491862295044
 30
0.0
 40
19.67212622950819
100
AcDbArc
 50
0.0000000000001719
 51
60.0000149999825
  0
ARC
  5
320
330
1F
100
AcDbEntity
  8
Ｓ_１_１
  6
CONTINUOUS
 62
     3
100
AcDbCircle
 10
1076.065650000037
 20
3030.491862295044
 30
0.0
 40
19.67212622950819
100
AcDbArc
 50
120.0000030000103
 51
239.999979000018
  0
ARC
  5
321
330
1F
100
AcDbEntity
  8
Ｓ_１_１
  6
CONTINUOUS
 62
     3
100
AcDbCircle
 10
1076.065650000037
 20
3030.491862295044
 30
0.0
 40
19.67212622950819
100
AcDbArc
 50
299.9999850000016
 51
0.0000000000001719
  0
ARC
  5
322
330
1F
100
AcDbEntity
  8
Ｓ_１_１
  6
CONTINUOUS
 62
     3
100
AcDbCircle
 10
1076.065650000037
 20
3000.98363606554
 30
0.0
 40
9.836070491803278
100
AcDbArc
 50
179.9999780000714
 51
0.0000099999916807
  0
ARC
  5
323
330
1F
100
AcDbEntity
  8
Ｓ_１_１
  6
CONTINUOUS
 62
     3
100
AcDbCircle
 10
1076.065650000037
 20
3059.999985245865
 30
0.0
 40
9.836070491803278
100
AcDbArc
 50
0.0000000000001719
 51
179.9999640000406
  0
ARC
  5
324
330
1F
100
AcDbEntity
  8
Ｓ_１_１
  6
CONTINUOUS
 62
     3
100
AcDbCircle
 10
1076.065650000037
 20
3030.491862295044
 30
0.0
 40
22.1311475409836
100
AcDbArc
 50
0.0000000000001719
 51
63.61219499998766
  0
ARC
  5
325
330
1F
100
AcDbEntity
  8
Ｓ_１_１
  6
CONTINUOUS
 62
     3
100
AcDbCircle
 10
1076.065650000037
 20
3030.491862295044
 30
0.0
 40
22.1311475409836
100
AcDbArc
 50
116.3878299999869
 51
243.612139000018
  0
ARC
  5
326
330
1F
100
AcDbEntity
  8
Ｓ_１_１
  6
CONTINUOUS
 62
     3
100
AcDbCircle
 10
1076.065650000037
 20
3030.491862295044
 30
0.0
 40
22.1311475409836
100
AcDbArc
 50
296.3878049999979
 51
0.0000000000001719
  0
ARC
  5
327
330
1F
100
AcDbEntity
  8
Ｓ_１_１
  6
CONTINUOUS
 62
     3
100
AcDbCircle
 10
1076.065650000037
 20
2189.508196721268
 30
0.0
 40
19.67212622950819
100
AcDbArc
 50
0.0000000000001719
 51
60.00001499999974
  0
ARC
  5
328
330
1F
100
AcDbEntity
  8
Ｓ_１_１
  6
CONTINUOUS
 62
     3
100
AcDbCircle
 10
1076.065650000037
 20
2189.508196721268
 30
0.0
 40
19.67212622950819
100
AcDbArc
 50
120.0000029999812
 51
239.999979000018
  0
ARC
  5
329
330
1F
100
AcDbEntity
  8
Ｓ_１_１
  6
CONTINUOUS
 62
     3
100
AcDbCircle
 10
1076.065650000037
 20
2189.508196721268
 30
0.0
 40
19.67212622950819
100
AcDbArc
 50
299.999985000028
 51
0.0000000000001719
  0
ARC
  5
32A
330
1F
100
AcDbEntity
  8
Ｓ_１_１
  6
CONTINUOUS
 62
     3
100
AcDbCircle
 10
1076.065650000037
 20
2159.999970491762
 30
0.0
 40
9.836070491803278
100
AcDbArc
 50
179.9999779999919
 51
0.0000099999970092
  0
ARC
  5
32B
330
1F
100
AcDbEntity
  8
Ｓ_１_１
  6
CONTINUOUS
 62
     3
100
AcDbCircle
 10
1076.065650000037
 20
2219.016319672089
 30
0.0
 40
9.836070491803278
100
AcDbArc
 50
0.0000000000001719
 51
179.9999639999664
  0
ARC
  5
32C
330
1F
100
AcDbEntity
  8
Ｓ_１_１
  6
CONTINUOUS
 62
     3
100
AcDbCircle
 10
1076.065650000037
 20
2189.508196721268
 30
0.0
 40
22.1311475409836
100
AcDbArc
 50
0.0000000000001719
 51
63.61219500000233
  0
ARC
  5
32D
330
1F
100
AcDbEntity
  8
Ｓ_１_１
  6
CONTINUOUS
 62
     3
100
AcDbCircle
 10
1076.065650000037
 20
2189.508196721268
 30
0.0
 40
22.1311475409836
100
AcDbArc
 50
116.3878299999733
 51
243.612139000018
  0
ARC
  5
32E
330
1F
100
AcDbEntity
  8
Ｓ_１_１
  6
CONTINUOUS
 62
     3
100
AcDbCircle
 10
1076.065650000037
 20
2189.508196721268
 30
0.0
 40
22.1311475409836
100
AcDbArc
 50
296.387805000021
 51
0.0000000000001719
  0
CIRCLE
  5
32F
330
1F
100
AcDbEntity
  8
Ｓ_１_１
  6
CONTINUOUS
 62
     3
100
AcDbCircle
 10
1141.229589344304
 20
2445.245955737661
 30
0.0
 40
4.91802786885246
  0
ARC
  5
330
330
1F
100
AcDbEntity
  8
Ｓ_１_１
  6
CONTINUOUS
 62
     3
100
AcDbCircle
 10
1152.901659836107
 20
2456.917731147505
 30
0.0
 40
4.91802786885246
100
AcDbArc
 50
184.5739270000064
 51
265.4260930001058
  0
ARC
  5
331
330
1F
100
AcDbEntity
  8
Ｓ_１_１
  6
CONTINUOUS
 62
     3
100
AcDbCircle
 10
1152.901202459065
 20
2433.573752458982
 30
0.0
 40
4.91802786885246
100
AcDbArc
 50
94.57392700001695
 51
175.4261010000134
  0
ARC
  5
332
330
1F
100
AcDbEntity
  8
Ｓ_１_１
  6
CONTINUOUS
 62
     3
100
AcDbCircle
 10
1129.557356557416
 20
2433.573781967174
 30
0.0
 40
4.91802786885246
100
AcDbArc
 50
4.573933999953802
 51
85.42610499992875
  0
ARC
  5
333
330
1F
100
AcDbEntity
  8
Ｓ_１_１
  6
CONTINUOUS
 62
     3
100
AcDbCircle
 10
1129.557356557416
 20
2456.917996721272
 30
0.0
 40
4.91802786885246
100
AcDbArc
 50
274.5739360000404
 51
355.42609199999
  0
ARC
  5
334
330
1F
100
AcDbEntity
  8
Ｓ_１_１
  6
CONTINUOUS
 62
     3
100
AcDbCircle
 10
1107.78702049184
 20
2449.255854098314
 30
0.0
 40
0.983611475409836
100
AcDbArc
 50
94.5739409994536
 51
180.0000049994171
  0
ARC
  5
335
330
1F
100
AcDbEntity
  8
Ｓ_１_１
  6
CONTINUOUS
 62
     3
100
AcDbCircle
 10
1107.78702049184
 20
2441.235909836029
 30
0.0
 40
0.983611475409836
100
AcDbArc
 50
179.9999910001275
 51
265.4260960005058
  0
ARC
  5
336
330
1F
100
AcDbEntity
  8
Ｓ_１_１
  6
CONTINUOUS
 62
     3
100
AcDbCircle
 10
1137.219572950864
 20
2411.803490163894
 30
0.0
 40
0.983611475409836
100
AcDbArc
 50
184.5739399998099
 51
269.9999970001485
  0
ARC
  5
337
330
1F
100
AcDbEntity
  8
Ｓ_１_１
  6
CONTINUOUS
 62
     3
100
AcDbCircle
 10
1174.672143442664
 20
2441.235909836029
 30
0.0
 40
0.983611475409836
100
AcDbArc
 50
274.5739289997745
 51
0.0000000000001719
  0
ARC
  5
338
330
1F
100
AcDbEntity
  8
Ｓ_１_１
  6
CONTINUOUS
 62
     3
100
AcDbCircle
 10
1137.219572950864
 20
2478.688568852422
 30
0.0
 40
0.983611475409836
100
AcDbArc
 50
90.00000299985159
 51
175.4260869999985
  0
ARC
  5
339
330
1F
100
AcDbEntity
  8
Ｓ_１_１
  6
CONTINUOUS
 62
     3
100
AcDbCircle
 10
1174.672143442664
 20
2449.255603278651
 30
0.0
 40
0.983611475409836
100
AcDbArc
 50
0.0000000000001719
 51
85.42609799986073
  0
ARC
  5
33A
330
1F
100
AcDbEntity
  8
Ｓ_１_１
  6
CONTINUOUS
 62
     3
100
AcDbCircle
 10
1145.239590983652
 20
2478.688568852422
 30
0.0
 40
0.983611475409836
100
AcDbArc
 50
4.573925999590556
 51
90.00000299995752
  0
ARC
  5
33B
330
1F
100
AcDbEntity
  8
Ｓ_１_１
  6
CONTINUOUS
 62
     3
100
AcDbCircle
 10
1145.239148360701
 20
2411.803490163894
 30
0.0
 40
0.983611475409836
100
AcDbArc
 50
269.9999969999896
 51
355.4261010000405
  0
CIRCLE
  5
33C
330
1F
100
AcDbEntity
  8
Ｓ_１_１
  6
CONTINUOUS
 62
     3
100
AcDbCircle
 10
1288.770572950862
 20
2445.245955737661
 30
0.0
 40
4.91802786885246
  0
ARC
  5
33D
330
1F
100
AcDbEntity
  8
Ｓ_１_１
  6
CONTINUOUS
 62
     3
100
AcDbCircle
 10
1292.780205737747
 20
2411.803490163894
 30
0.0
 40
0.983611475409836
100
AcDbArc
 50
269.9999970000425
 51
355.4261010001123
  0
ARC
  5
33E
330
1F
100
AcDbEntity
  8
Ｓ_１_１
  6
CONTINUOUS
 62
     3
100
AcDbCircle
 10
1292.78057459021
 20
2478.688568852422
 30
0.0
 40
0.983611475409836
100
AcDbArc
 50
4.573925999590556
 51
90.00000299995752
  0
ARC
  5
33F
330
1F
100
AcDbEntity
  8
Ｓ_１_１
  6
CONTINUOUS
 62
     3
100
AcDbCircle
 10
1322.213127049221
 20
2449.255603278651
 30
0.0
 40
0.983611475409836
100
AcDbArc
 50
0.0000000000001719
 51
85.42609799986073
  0
ARC
  5
340
330
1F
100
AcDbEntity
  8
Ｓ_１_１
  6
CONTINUOUS
 62
     3
100
AcDbCircle
 10
1284.760556557421
 20
2478.688568852422
 30
0.0
 40
0.983611475409836
100
AcDbArc
 50
90.00000299995752
 51
175.4260870000112
  0
ARC
  5
341
330
1F
100
AcDbEntity
  8
Ｓ_１_１
  6
CONTINUOUS
 62
     3
100
AcDbCircle
 10
1322.213127049221
 20
2441.235909836029
 30
0.0
 40
0.983611475409836
100
AcDbArc
 50
274.5739289997745
 51
0.0000000000001719
  0
ARC
  5
342
330
1F
100
AcDbEntity
  8
Ｓ_１_１
  6
CONTINUOUS
 62
     3
100
AcDbCircle
 10
1284.760556557421
 20
2411.803490163894
 30
0.0
 40
0.983611475409836
100
AcDbArc
 50
184.5739399997972
 51
269.9999970000425
  0
ARC
  5
343
330
1F
100
AcDbEntity
  8
Ｓ_１_１
  6
CONTINUOUS
 62
     3
100
AcDbCircle
 10
1255.328004098397
 20
2441.235909836029
 30
0.0
 40
0.983611475409836
100
AcDbArc
 50
179.9999910001275
 51
265.4260960004001
  0
ARC
  5
344
330
1F
100
AcDbEntity
  8
Ｓ_１_１
  6
CONTINUOUS
 62
     3
100
AcDbCircle
 10
1255.328004098397
 20
2449.255854098314
 30
0.0
 40
0.983611475409836
100
AcDbArc
 50
94.57394099955924
 51
180.0000049994171
  0
ARC
  5
345
330
1F
100
AcDbEntity
  8
Ｓ_１_１
  6
CONTINUOUS
 62
     3
100
AcDbCircle
 10
1277.098487704954
 20
2456.917996721272
 30
0.0
 40
4.91802786885246
100
AcDbArc
 50
274.5739360000192
 51
355.42609199999
  0
ARC
  5
346
330
1F
100
AcDbEntity
  8
Ｓ_１_１
  6
CONTINUOUS
 62
     3
100
AcDbCircle
 10
1277.098413934464
 20
2433.573781967174
 30
0.0
 40
4.91802786885246
100
AcDbArc
 50
4.573933999953802
 51
85.4261049999499
  0
ARC
  5
347
330
1F
100
AcDbEntity
  8
Ｓ_１_１
  6
CONTINUOUS
 62
     3
100
AcDbCircle
 10
1300.442259836111
 20
2433.573752458982
 30
0.0
 40
4.91802786885246
100
AcDbArc
 50
94.57392699999586
 51
175.4261010000126
  0
ARC
  5
348
330
1F
100
AcDbEntity
  8
Ｓ_１_１
  6
CONTINUOUS
 62
     3
100
AcDbCircle
 10
1300.442717213155
 20
2456.917731147505
 30
0.0
 40
4.91802786885246
100
AcDbArc
 50
184.5739270000064
 51
265.4260930000846
  0
CIRCLE
  5
349
330
1F
100
AcDbEntity
  8
Ｓ_１_１
  6
CONTINUOUS
 62
     3
100
AcDbCircle
 10
1141.229589344304
 20
2297.704957377014
 30
0.0
 40
4.91802786885246
  0
ARC
  5
34A
330
1F
100
AcDbEntity
  8
Ｓ_１_１
  6
CONTINUOUS
 62
     3
100
AcDbCircle
 10
1300.442717213155
 20
2309.376732786844
 30
0.0
 40
4.91802786885246
100
AcDbArc
 50
184.5739270000064
 51
265.4260930000825
  0
ARC
  5
34B
330
1F
100
AcDbEntity
  8
Ｓ_１_１
  6
CONTINUOUS
 62
     3
100
AcDbCircle
 10
1300.442259836112
 20
2286.032768852424
 30
0.0
 40
4.91802786885246
100
AcDbArc
 50
94.57392700000639
 51
175.4261010000134
  0
ARC
  5
34C
330
1F
100
AcDbEntity
  8
Ｓ_１_１
  6
CONTINUOUS
 62
     3
100
AcDbCircle
 10
1277.098413934465
 20
2286.03281311472
 30
0.0
 40
4.91802786885246
100
AcDbArc
 50
4.573933999964401
 51
85.42610499994869
  0
ARC
  5
34D
330
1F
100
AcDbEntity
  8
Ｓ_１_１
  6
CONTINUOUS
 62
     3
100
AcDbCircle
 10
1277.098487704954
 20
2309.376983606521
 30
0.0
 40
4.91802786885246
100
AcDbArc
 50
274.5739360000171
 51
355.42609199999
  0
ARC
  5
34E
330
1F
100
AcDbEntity
  8
Ｓ_１_１
  6
CONTINUOUS
 62
     3
100
AcDbCircle
 10
1255.328004098397
 20
2301.714855737667
 30
0.0
 40
0.983611475409836
100
AcDbArc
 50
94.57394099955924
 51
180.0000050002118
  0
ARC
  5
34F
330
1F
100
AcDbEntity
  8
Ｓ_１_１
  6
CONTINUOUS
 62
     3
100
AcDbCircle
 10
1255.328004098397
 20
2293.694911475367
 30
0.0
 40
0.983611475409836
100
AcDbArc
 50
179.9999910000745
 51
265.4260960003367
  0
ARC
  5
350
330
1F
100
AcDbEntity
  8
Ｓ_１_１
  6
CONTINUOUS
 62
     3
100
AcDbCircle
 10
1284.760556557423
 20
2264.262506557337
 30
0.0
 40
0.983611475409836
100
AcDbArc
 50
184.573939999793
 51
269.9999969999896
  0
ARC
  5
351
330
1F
100
AcDbEntity
  8
Ｓ_１_１
  6
CONTINUOUS
 62
     3
100
AcDbCircle
 10
1322.213127049223
 20
2293.694940983561
 30
0.0
 40
0.983611475409836
100
AcDbArc
 50
274.5739289997787
 51
0.0000000000001719
  0
ARC
  5
352
330
1F
100
AcDbEntity
  8
Ｓ_１_１
  6
CONTINUOUS
 62
     3
100
AcDbCircle
 10
1284.760556557423
 20
2331.147599999954
 30
0.0
 40
0.983611475409836
100
AcDbArc
 50
90.00000300001054
 51
175.4260870000112
  0
ARC
  5
353
330
1F
100
AcDbEntity
  8
Ｓ_１_１
  6
CONTINUOUS
 62
     3
100
AcDbCircle
 10
1322.213127049223
 20
2301.714634426183
 30
0.0
 40
0.983611475409836
100
AcDbArc
 50
0.0000000000001719
 51
85.42609799997692
  0
ARC
  5
354
330
1F
100
AcDbEntity
  8
Ｓ_１_１
  6
CONTINUOUS
 62
     3
100
AcDbCircle
 10
1292.780574590211
 20
2331.147599999954
 30
0.0
 40
0.983611475409836
100
AcDbArc
 50
4.573926000386966
 51
90.00000299995752
  0
ARC
  5
355
330
1F
100
AcDbEntity
  8
Ｓ_１_１
  6
CONTINUOUS
 62
     3
100
AcDbCircle
 10
1292.780205737748
 20
2264.262506557337
 30
0.0
 40
0.983611475409836
100
AcDbArc
 50
269.9999970000425
 51
355.426101000108
  0
CIRCLE
  5
356
330
1F
100
AcDbEntity
  8
Ｓ_１_１
  6
CONTINUOUS
 62
     3
100
AcDbCircle
 10
1288.770572950862
 20
2297.704957377014
 30
0.0
 40
4.91802786885246
  0
ARC
  5
357
330
1F
100
AcDbEntity
  8
Ｓ_１_１
  6
CONTINUOUS
 62
     3
100
AcDbCircle
 10
1145.239148360701
 20
2264.262506557337
 30
0.0
 40
0.983611475409836
100
AcDbArc
 50
269.9999969999896
 51
355.4261010000405
  0
ARC
  5
358
330
1F
100
AcDbEntity
  8
Ｓ_１_１
  6
CONTINUOUS
 62
     3
100
AcDbCircle
 10
1145.239590983654
 20
2331.147599999954
 30
0.0
 40
0.983611475409836
100
AcDbArc
 50
4.573926000386966
 51
90.00000299995752
  0
ARC
  5
359
330
1F
100
AcDbEntity
  8
Ｓ_１_１
  6
CONTINUOUS
 62
     3
100
AcDbCircle
 10
1174.672143442665
 20
2301.714634426183
 30
0.0
 40
0.983611475409836
100
AcDbArc
 50
0.0000000000001719
 51
85.42609799997692
  0
ARC
  5
35A
330
1F
100
AcDbEntity
  8
Ｓ_１_１
  6
CONTINUOUS
 62
     3
100
AcDbCircle
 10
1137.219572950866
 20
2331.147599999954
 30
0.0
 40
0.983611475409836
100
AcDbArc
 50
90.00000299995752
 51
175.426087000007
  0
ARC
  5
35B
330
1F
100
AcDbEntity
  8
Ｓ_１_１
  6
CONTINUOUS
 62
     3
100
AcDbCircle
 10
1174.672143442665
 20
2293.694940983561
 30
0.0
 40
0.983611475409836
100
AcDbArc
 50
274.5739289997787
 51
0.0000000000001719
  0
ARC
  5
35C
330
1F
100
AcDbEntity
  8
Ｓ_１_１
  6
CONTINUOUS
 62
     3
100
AcDbCircle
 10
1137.219572950866
 20
2264.262506557337
 30
0.0
 40
0.983611475409836
100
AcDbArc
 50
184.5739399998014
 51
269.9999970000425
  0
ARC
  5
35D
330
1F
100
AcDbEntity
  8
Ｓ_１_１
  6
CONTINUOUS
 62
     3
100
AcDbCircle
 10
1107.78702049184
 20
2293.694911475367
 30
0.0
 40
0.983611475409836
100
AcDbArc
 50
179.9999910000745
 51
265.4260960004423
  0
ARC
  5
35E
330
1F
100
AcDbEntity
  8
Ｓ_１_１
  6
CONTINUOUS
 62
     3
100
AcDbCircle
 10
1107.78702049184
 20
2301.714855737667
 30
0.0
 40
0.983611475409836
100
AcDbArc
 50
94.5739409994536
 51
180.0000050002118
  0
ARC
  5
35F
330
1F
100
AcDbEntity
  8
Ｓ_１_１
  6
CONTINUOUS
 62
     3
100
AcDbCircle
 10
1129.557356557416
 20
2309.376983606521
 30
0.0
 40
4.91802786885246
100
AcDbArc
 50
274.5739360000277
 51
355.42609199999
  0
ARC
  5
360
330
1F
100
AcDbEntity
  8
Ｓ_１_１
  6
CONTINUOUS
 62
     3
100
AcDbCircle
 10
1129.557356557416
 20
2286.03281311472
 30
0.0
 40
4.91802786885246
100
AcDbArc
 50
4.573933999964401
 51
85.42610499991694
  0
ARC
  5
361
330
1F
100
AcDbEntity
  8
Ｓ_１_１
  6
CONTINUOUS
 62
     3
100
AcDbCircle
 10
1152.901202459065
 20
2286.032768852424
 30
0.0
 40
4.91802786885246
100
AcDbArc
 50
94.57392700000639
 51
175.4261010000134
  0
ARC
  5
362
330
1F
100
AcDbEntity
  8
Ｓ_１_１
  6
CONTINUOUS
 62
     3
100
AcDbCircle
 10
1152.901659836109
 20
2309.376732786844
 30
0.0
 40
4.91802786885246
100
AcDbArc
 50
184.5739270000064
 51
265.4260930000825
  0
CIRCLE
  5
363
330
1F
100
AcDbEntity
  8
Ｓ_１_１
  6
CONTINUOUS
 62
     3
100
AcDbCircle
 10
1738.770454918074
 20
2445.245955737662
 30
0.0
 40
4.91802786885246
  0
ARC
  5
364
330
1F
100
AcDbEntity
  8
Ｓ_１_１
  6
CONTINUOUS
 62
     3
100
AcDbCircle
 10
1579.557238524631
 20
2456.917731147505
 30
0.0
 40
4.91802786885246
100
AcDbArc
 50
274.5739020000103
 51
355.4260739999637
  0
ARC
  5
365
330
1F
100
AcDbEntity
  8
Ｓ_１_１
  6
CONTINUOUS
 62
     3
100
AcDbCircle
 10
1579.557695901687
 20
2433.573752458983
 30
0.0
 40
4.91802786885246
100
AcDbArc
 50
4.573899000000166
 51
85.42607100010905
  0
ARC
  5
366
330
1F
100
AcDbEntity
  8
Ｓ_１_１
  6
CONTINUOUS
 62
     3
100
AcDbCircle
 10
1602.901541803321
 20
2433.573781967175
 30
0.0
 40
4.91802786885246
100
AcDbArc
 50
94.57389299999745
 51
175.4260600000224
  0
ARC
  5
367
330
1F
100
AcDbEntity
  8
Ｓ_１_１
  6
CONTINUOUS
 62
     3
100
AcDbCircle
 10
1602.901541803321
 20
2456.917996721273
 30
0.0
 40
4.91802786885246
100
AcDbArc
 50
184.5739129999279
 51
265.4260590000757
  0
ARC
  5
368
330
1F
100
AcDbEntity
  8
Ｓ_１_１
  6
CONTINUOUS
 62
     3
100
AcDbCircle
 10
1624.672025409878
 20
2449.255854098315
 30
0.0
 40
0.983611475409836
100
AcDbArc
 50
0.0000000000001719
 51
85.42606400020149
  0
ARC
  5
369
330
1F
100
AcDbEntity
  8
Ｓ_１_１
  6
CONTINUOUS
 62
     3
100
AcDbCircle
 10
1624.672025409878
 20
2441.23590983603
 30
0.0
 40
0.983611475409836
100
AcDbArc
 50
274.5738949998935
 51
0.0000000000001719
  0
ARC
  5
36A
330
1F
100
AcDbEntity
  8
Ｓ_１_１
  6
CONTINUOUS
 62
     3
100
AcDbCircle
 10
1595.239472950867
 20
2411.803490163895
 30
0.0
 40
0.983611475409836
100
AcDbArc
 50
269.9999970000425
 51
355.4260659997257
  0
ARC
  5
36B
330
1F
100
AcDbEntity
  8
Ｓ_１_１
  6
CONTINUOUS
 62
     3
100
AcDbCircle
 10
1557.786828688564
 20
2441.235909836029
 30
0.0
 40
0.983611475409836
100
AcDbArc
 50
179.9999910001275
 51
265.4260689999052
  0
ARC
  5
36C
330
1F
100
AcDbEntity
  8
Ｓ_１_１
  6
CONTINUOUS
 62
     3
100
AcDbCircle
 10
1595.239399180376
 20
2478.688568852423
 30
0.0
 40
0.983611475409836
100
AcDbArc
 50
4.573907999556428
 51
90.00000300075223
  0
ARC
  5
36D
330
1F
100
AcDbEntity
  8
Ｓ_１_１
  6
CONTINUOUS
 62
     3
100
AcDbCircle
 10
1557.786828688564
 20
2449.255603278651
 30
0.0
 40
0.983611475409836
100
AcDbArc
 50
94.57390699979437
 51
180.0000050002118
  0
ARC
  5
36E
330
1F
100
AcDbEntity
  8
Ｓ_１_１
  6
CONTINUOUS
 62
     3
100
AcDbCircle
 10
1587.219454918079
 20
2478.688568852423
 30
0.0
 40
0.983611475409836
100
AcDbArc
 50
90.00000300001054
 51
175.4260729998025
  0
ARC
  5
36F
330
1F
100
AcDbEntity
  8
Ｓ_１_１
  6
CONTINUOUS
 62
     3
100
AcDbCircle
 10
1587.219838524632
 20
2411.803490163895
 30
0.0
 40
0.983611475409836
100
AcDbArc
 50
184.5738989998921
 51
269.9999970000425
  0
ARC
  5
370
330
1F
100
AcDbEntity
  8
Ｓ_１_１
  6
CONTINUOUS
 62
     3
100
AcDbCircle
 10
1587.219838524632
 20
2264.262506557338
 30
0.0
 40
0.983611475409836
100
AcDbArc
 50
184.5738989998921
 51
269.9999970000425
  0
ARC
  5
371
330
1F
100
AcDbEntity
  8
Ｓ_１_１
  6
CONTINUOUS
 62
     3
100
AcDbCircle
 10
1587.219454918079
 20
2331.147599999955
 30
0.0
 40
0.983611475409836
100
AcDbArc
 50
90.00000299995752
 51
175.4260729997982
  0
ARC
  5
372
330
1F
100
AcDbEntity
  8
Ｓ_１_１
  6
CONTINUOUS
 62
     3
100
AcDbCircle
 10
1557.786828688564
 20
2301.714634426184
 30
0.0
 40
0.983611475409836
100
AcDbArc
 50
94.57390699972677
 51
180.0000049994701
  0
ARC
  5
373
330
1F
100
AcDbEntity
  8
Ｓ_１_１
  6
CONTINUOUS
 62
     3
100
AcDbCircle
 10
1595.239399180376
 20
2331.147599999955
 30
0.0
 40
0.983611475409836
100
AcDbArc
 50
4.573908000344303
 51
90.00000300075223
  0
ARC
  5
374
330
1F
100
AcDbEntity
  8
Ｓ_１_１
  6
CONTINUOUS
 62
     3
100
AcDbCircle
 10
1557.786828688564
 20
2293.694940983562
 30
0.0
 40
0.983611475409836
100
AcDbArc
 50
179.9999909992799
 51
265.4260689999052
  0
ARC
  5
375
330
1F
100
AcDbEntity
  8
Ｓ_１_１
  6
CONTINUOUS
 62
     3
100
AcDbCircle
 10
1595.239472950867
 20
2264.262506557338
 30
0.0
 40
0.983611475409836
100
AcDbArc
 50
269.9999970000425
 51
355.4260659997257
  0
ARC
  5
376
330
1F
100
AcDbEntity
  8
Ｓ_１_１
  6
CONTINUOUS
 62
     3
100
AcDbCircle
 10
1624.672025409878
 20
2293.694911475368
 30
0.0
 40
0.983611475409836
100
AcDbArc
 50
274.5738949998977
 51
0.0000000000001719
  0
ARC
  5
377
330
1F
100
AcDbEntity
  8
Ｓ_１_１
  6
CONTINUOUS
 62
     3
100
AcDbCircle
 10
1624.672025409878
 20
2301.714855737668
 30
0.0
 40
0.983611475409836
100
AcDbArc
 50
0.0000000000001719
 51
85.42606400019731
  0
ARC
  5
378
330
1F
100
AcDbEntity
  8
Ｓ_１_１
  6
CONTINUOUS
 62
     3
100
AcDbCircle
 10
1602.901541803321
 20
2309.376983606522
 30
0.0
 40
4.91802786885246
100
AcDbArc
 50
184.5739130000758
 51
265.4260590000757
  0
ARC
  5
379
330
1F
100
AcDbEntity
  8
Ｓ_１_１
  6
CONTINUOUS
 62
     3
100
AcDbCircle
 10
1602.901541803321
 20
2286.032813114721
 30
0.0
 40
4.91802786885246
100
AcDbArc
 50
94.5738929999987
 51
175.4260600000224
  0
ARC
  5
37A
330
1F
100
AcDbEntity
  8
Ｓ_１_１
  6
CONTINUOUS
 62
     3
100
AcDbCircle
 10
1579.557695901687
 20
2286.032768852425
 30
0.0
 40
4.91802786885246
100
AcDbArc
 50
4.573898999999306
 51
85.4260710000985
  0
CIRCLE
  5
37B
330
1F
100
AcDbEntity
  8
Ｓ_１_１
  6
CONTINUOUS
 62
     3
100
AcDbCircle
 10
1591.229471311517
 20
2445.245955737662
 30
0.0
 40
4.91802786885246
  0
ARC
  5
37C
330
1F
100
AcDbEntity
  8
Ｓ_１_１
  6
CONTINUOUS
 62
     3
100
AcDbCircle
 10
1734.760807377099
 20
2411.803490163895
 30
0.0
 40
0.983611475409836
100
AcDbArc
 50
184.5738989998964
 51
269.9999969992479
  0
ARC
  5
37D
330
1F
100
AcDbEntity
  8
Ｓ_１_１
  6
CONTINUOUS
 62
     3
100
AcDbCircle
 10
1734.760364754145
 20
2478.688568852423
 30
0.0
 40
0.983611475409836
100
AcDbArc
 50
90.00000299995752
 51
175.4260729997982
  0
ARC
  5
37E
330
1F
100
AcDbEntity
  8
Ｓ_１_１
  6
CONTINUOUS
 62
     3
100
AcDbCircle
 10
1705.327812295121
 20
2449.255603278652
 30
0.0
 40
0.983611475409836
100
AcDbArc
 50
94.57390699979437
 51
180.0000050002118
  0
ARC
  5
37F
330
1F
100
AcDbEntity
  8
Ｓ_１_１
  6
CONTINUOUS
 62
     3
100
AcDbCircle
 10
1742.780382786934
 20
2478.688568852423
 30
0.0
 40
0.983611475409836
100
AcDbArc
 50
4.573907999556428
 51
90.00000300075223
  0
ARC
  5
380
330
1F
100
AcDbEntity
  8
Ｓ_１_１
  6
CONTINUOUS
 62
     3
100
AcDbCircle
 10
1705.327812295121
 20
2441.23590983603
 30
0.0
 40
0.983611475409836
100
AcDbArc
 50
179.9999910001275
 51
265.4260689999094
  0
ARC
  5
381
330
1F
100
AcDbEntity
  8
Ｓ_１_１
  6
CONTINUOUS
 62
     3
100
AcDbCircle
 10
1742.780382786934
 20
2411.803490163895
 30
0.0
 40
0.983611475409836
100
AcDbArc
 50
269.9999969992479
 51
355.4260659996622
  0
ARC
  5
382
330
1F
100
AcDbEntity
  8
Ｓ_１_１
  6
CONTINUOUS
 62
     3
100
AcDbCircle
 10
1772.213009016436
 20
2441.23590983603
 30
0.0
 40
0.983611475409836
100
AcDbArc
 50
274.5738949998935
 51
0.0000000000001719
  0
ARC
  5
383
330
1F
100
AcDbEntity
  8
Ｓ_１_１
  6
CONTINUOUS
 62
     3
100
AcDbCircle
 10
1772.213009016436
 20
2449.255854098315
 30
0.0
 40
0.983611475409836
100
AcDbArc
 50
0.0000000000001719
 51
85.42606400014867
  0
ARC
  5
384
330
1F
100
AcDbEntity
  8
Ｓ_１_１
  6
CONTINUOUS
 62
     3
100
AcDbCircle
 10
1750.442525409879
 20
2456.917996721273
 30
0.0
 40
4.91802786885246
100
AcDbArc
 50
184.5739129999279
 51
265.4260590000757
  0
ARC
  5
385
330
1F
100
AcDbEntity
  8
Ｓ_１_１
  6
CONTINUOUS
 62
     3
100
AcDbCircle
 10
1750.442525409879
 20
2433.573781967175
 30
0.0
 40
4.91802786885246
100
AcDbArc
 50
94.57389299999745
 51
175.4260600000224
  0
ARC
  5
386
330
1F
100
AcDbEntity
  8
Ｓ_１_１
  6
CONTINUOUS
 62
     3
100
AcDbCircle
 10
1727.098679508244
 20
2433.573752458983
 30
0.0
 40
4.91802786885246
100
AcDbArc
 50
4.573898999999306
 51
85.4260710000985
  0
ARC
  5
387
330
1F
100
AcDbEntity
  8
Ｓ_１_１
  6
CONTINUOUS
 62
     3
100
AcDbCircle
 10
1579.557238524631
 20
2309.376732786845
 30
0.0
 40
4.91802786885246
100
AcDbArc
 50
274.5739020000103
 51
355.4260739999539
  0
ARC
  5
388
330
1F
100
AcDbEntity
  8
Ｓ_１_１
  6
CONTINUOUS
 62
     3
100
AcDbCircle
 10
1727.098222131188
 20
2456.917731147505
 30
0.0
 40
4.91802786885246
100
AcDbArc
 50
274.5739020000103
 51
355.4260739999644
  0
ARC
  5
389
330
1F
100
AcDbEntity
  8
Ｓ_１_１
  6
CONTINUOUS
 62
     3
100
AcDbCircle
 10
1727.098222131188
 20
2309.376732786845
 30
0.0
 40
4.91802786885246
100
AcDbArc
 50
274.5739020000103
 51
355.4260739999539
  0
ARC
  5
38A
330
1F
100
AcDbEntity
  8
Ｓ_１_１
  6
CONTINUOUS
 62
     3
100
AcDbCircle
 10
1727.098679508244
 20
2286.032768852425
 30
0.0
 40
4.91802786885246
100
AcDbArc
 50
4.573898999999306
 51
85.4260710000985
  0
ARC
  5
38B
330
1F
100
AcDbEntity
  8
Ｓ_１_１
  6
CONTINUOUS
 62
     3
100
AcDbCircle
 10
1750.442525409879
 20
2286.032813114721
 30
0.0
 40
4.91802786885246
100
AcDbArc
 50
94.5738929999987
 51
175.4260600000224
  0
ARC
  5
38C
330
1F
100
AcDbEntity
  8
Ｓ_１_１
  6
CONTINUOUS
 62
     3
100
AcDbCircle
 10
1750.442525409879
 20
2309.376983606522
 30
0.0
 40
4.91802786885246
100
AcDbArc
 50
184.5739130000758
 51
265.4260590000757
  0
ARC
  5
38D
330
1F
100
AcDbEntity
  8
Ｓ_１_１
  6
CONTINUOUS
 62
     3
100
AcDbCircle
 10
1772.213009016436
 20
2301.714855737668
 30
0.0
 40
0.983611475409836
100
AcDbArc
 50
0.0000000000001719
 51
85.42606400019731
  0
ARC
  5
38E
330
1F
100
AcDbEntity
  8
Ｓ_１_１
  6
CONTINUOUS
 62
     3
100
AcDbCircle
 10
1772.213009016436
 20
2293.694911475368
 30
0.0
 40
0.983611475409836
100
AcDbArc
 50
274.5738949998977
 51
0.0000000000001719
  0
ARC
  5
38F
330
1F
100
AcDbEntity
  8
Ｓ_１_１
  6
CONTINUOUS
 62
     3
100
AcDbCircle
 10
1742.780382786934
 20
2264.262506557338
 30
0.0
 40
0.983611475409836
100
AcDbArc
 50
269.9999969992479
 51
355.4260659996622
  0
ARC
  5
390
330
1F
100
AcDbEntity
  8
Ｓ_１_１
  6
CONTINUOUS
 62
     3
100
AcDbCircle
 10
1705.327812295121
 20
2293.694940983562
 30
0.0
 40
0.983611475409836
100
AcDbArc
 50
179.9999909992799
 51
265.4260689999052
  0
ARC
  5
391
330
1F
100
AcDbEntity
  8
Ｓ_１_１
  6
CONTINUOUS
 62
     3
100
AcDbCircle
 10
1742.780382786934
 20
2331.147599999955
 30
0.0
 40
0.983611475409836
100
AcDbArc
 50
4.573908000344303
 51
90.00000300075223
  0
ARC
  5
392
330
1F
100
AcDbEntity
  8
Ｓ_１_１
  6
CONTINUOUS
 62
     3
100
AcDbCircle
 10
1705.327812295121
 20
2301.714634426184
 30
0.0
 40
0.983611475409836
100
AcDbArc
 50
94.57390699972677
 51
180.0000049994171
  0
ARC
  5
393
330
1F
100
AcDbEntity
  8
Ｓ_１_１
  6
CONTINUOUS
 62
     3
100
AcDbCircle
 10
1734.760364754145
 20
2331.147599999955
 30
0.0
 40
0.983611475409836
100
AcDbArc
 50
90.00000299995752
 51
175.4260729997982
  0
ARC
  5
394
330
1F
100
AcDbEntity
  8
Ｓ_１_１
  6
CONTINUOUS
 62
     3
100
AcDbCircle
 10
1734.760807377099
 20
2264.262506557338
 30
0.0
 40
0.983611475409836
100
AcDbArc
 50
184.5738989998964
 51
269.9999969992479
  0
CIRCLE
  5
395
330
1F
100
AcDbEntity
  8
Ｓ_１_１
  6
CONTINUOUS
 62
     3
100
AcDbCircle
 10
1591.229471311517
 20
2297.704957377015
 30
0.0
 40
4.91802786885246
  0
CIRCLE
  5
396
330
1F
100
AcDbEntity
  8
Ｓ_１_１
  6
CONTINUOUS
 62
     3
100
AcDbCircle
 10
1738.770454918074
 20
2297.704957377015
 30
0.0
 40
4.91802786885246
  0
ELLIPSE
  5
397
330
1F
100
AcDbEntity
  8
Ｓ_１_１
  6
CONTINUOUS
 62
     3
100
AcDbEllipse
 10
1174.426192622992
 20
2599.017477049139
 30
0.0
 11
51.63938101442079
 21
0.0
 31
0.0
210
0.0
220
0.0
230
1.0
 40
0.4472129999999999
 41
0.0
 42
6.283185307179586
  0
ELLIPSE
  5
398
330
1F
100
AcDbEntity
  8
Ｓ_１_１
  6
CONTINUOUS
 62
     3
100
AcDbEllipse
 10
1174.426192622992
 20
2612.213940983569
 30
0.0
 11
51.63938101442079
 21
0.0
 31
0.0
210
0.0
220
0.0
230
1.0
 40
0.4472129999999999
 41
0.0
 42
3.141589020535539
  0
ELLIPSE
  5
399
330
1F
100
AcDbEntity
  8
Ｓ_１_１
  6
CONTINUOUS
 62
     3
100
AcDbEllipse
 10
1351.475358196758
 20
2599.017477049139
 30
0.0
 11
51.63928721039106
 21
0.0
 31
0.0
210
0.0
220
0.0
230
1.0
 40
0.4472139999999999
 41
0.0
 42
6.283185307179586
  0
ELLIPSE
  5
39A
330
1F
100
AcDbEntity
  8
Ｓ_１_１
  6
CONTINUOUS
 62
     3
100
AcDbEllipse
 10
1351.475358196758
 20
2612.213940983569
 30
0.0
 11
51.63928721039106
 21
0.0
 31
0.0
210
0.0
220
0.0
230
1.0
 40
0.4472139999999999
 41
0.0000000356205754
 42
3.141594470031257
  0
ELLIPSE
  5
39B
330
1F
100
AcDbEntity
  8
Ｓ_１_１
  6
CONTINUOUS
 62
     3
100
AcDbEllipse
 10
1528.52447950824
 20
2612.213940983569
 30
0.0
 11
51.6393434928089
 21
0.0
 31
0.0
210
0.0
220
0.0
230
1.0
 40
0.4472139999999999
 41
0.0
 42
3.141592653589786
  0
ELLIPSE
  5
39C
330
1F
100
AcDbEntity
  8
Ｓ_１_１
  6
CONTINUOUS
 62
     3
100
AcDbEllipse
 10
1528.52447950824
 20
2599.017477049139
 30
0.0
 11
51.6393434928089
 21
0.0
 31
0.0
210
0.0
220
0.0
230
1.0
 40
0.4472139999999999
 41
0.0
 42
6.283185307179586
  0
ELLIPSE
  5
39D
330
1F
100
AcDbEntity
  8
Ｓ_１_１
  6
CONTINUOUS
 62
     3
100
AcDbEllipse
 10
1705.573645082006
 20
2612.21394098357
 30
0.0
 11
51.6393434928089
 21
0.0
 31
0.0
210
0.0
220
0.0
230
1.0
 40
0.4472139999999999
 41
0.0
 42
3.141592653589786
  0
ELLIPSE
  5
39E
330
1F
100
AcDbEntity
  8
Ｓ_１_１
  6
CONTINUOUS
 62
     3
100
AcDbEllipse
 10
1705.573645082006
 20
2599.01747704914
 30
0.0
 11
51.6393434928089
 21
0.0
 31
0.0
210
0.0
220
0.0
230
1.0
 40
0.4472139999999999
 41
0.0
 42
6.283185307179586
  0
ELLIPSE
  5
39F
330
1F
100
AcDbEntity
  8
Ｓ_１_１
  6
CONTINUOUS
 62
     3
100
AcDbEllipse
 10
1262.950782786927
 20
2544.472062295043
 30
0.0
 11
-30.9835835827182
 21
3.794394646069033E-15
 31
0.0
210
0.0
220
0.0
230
1.0
 40
0.4472139999999999
 41
0.0
 42
6.283185307179586
  0
ELLIPSE
  5
3A0
330
1F
100
AcDbEntity
  8
Ｓ_１_１
  6
CONTINUOUS
 62
     3
100
AcDbEllipse
 10
1262.950782786927
 20
2555.029239344223
 30
0.0
 11
-30.9835835827182
 21
3.794394646069033E-15
 31
0.0
210
0.0
220
0.0
230
1.0
 40
0.4472139999999999
 41
3.141592653589786
 42
6.283179252131327
  0
ELLIPSE
  5
3A1
330
1F
100
AcDbEntity
  8
Ｓ_１_１
  6
CONTINUOUS
 62
     3
100
AcDbEllipse
 10
1617.049217213154
 20
2544.472062295044
 30
0.0
 11
30.98362110433008
 21
0.0
 31
0.0
210
0.0
220
0.0
230
1.0
 40
0.4472130000000001
 41
0.0
 42
6.283185307179586
  0
ELLIPSE
  5
3A2
330
1F
100
AcDbEntity
  8
Ｓ_１_１
  6
CONTINUOUS
 62
     3
100
AcDbEllipse
 10
1617.049217213154
 20
2555.029239344224
 30
0.0
 11
30.98362110433008
 21
0.0
 31
0.0
210
0.0
220
0.0
230
1.0
 40
0.4472130000000001
 41
0.0
 42
3.141592653589786
  0
LINE
  5
3A3
330
1F
100
AcDbEntity
  8
Ｓ_１_１
  6
CONTINUOUS
 62
     3
100
AcDbLine
 10
1125.00000000004
 20
3060.000059016356
 30
0.0
 11
1125.00000000004
 21
3310.000029508163
 31
0.0
  0
LINE
  5
3A4
330
1F
100
AcDbEntity
  8
Ｓ_１_１
  6
CONTINUOUS
 62
     3
100
AcDbLine
 10
1125.00000000004
 20
3310.000029508163
 30
0.0
 11
1755.00000000004
 21
3310.000029508163
 31
0.0
  0
LINE
  5
3A5
330
1F
100
AcDbEntity
  8
Ｓ_１_１
  6
CONTINUOUS
 62
     3
100
AcDbLine
 10
1755.000000000042
 20
3310.000029508163
 30
0.0
 11
1755.00000000004
 21
3060.000059016356
 31
0.0
  0
LINE
  5
3A6
330
1F
100
AcDbEntity
  8
Ｓ_１_１
  6
CONTINUOUS
 62
     3
100
AcDbLine
 10
1793.442842109471
 20
3060.000059016356
 30
0.0
 11
1793.442842109471
 21
3070.000029508163
 31
0.0
  0
LINE
  5
3A7
330
1F
100
AcDbEntity
  8
Ｓ_１_１
  6
CONTINUOUS
 62
     3
100
AcDbLine
 10
1793.442842109471
 20
3070.000029508163
 30
0.0
 11
1833.442841803319
 21
3070.000029508163
 31
0.0
  0
LINE
  5
3A8
330
1F
100
AcDbEntity
  8
Ｓ_１_１
  6
CONTINUOUS
 62
     3
100
AcDbLine
 10
1833.442841803319
 20
3060.000059016357
 30
0.0
 11
1833.442841803319
 21
3070.000029508163
 31
0.0
  0
LINE
  5
3A9
330
1F
100
AcDbEntity
  8
Ｓ_１_１
  6
CONTINUOUS
 62
     3
100
AcDbLine
 10
1803.442842109469
 20
3315.000029508163
 30
0.0
 11
1440.00000000004
 21
3315.000029508163
 31
0.0
  0
LINE
  5
3AA
330
1F
100
AcDbEntity
  8
Ｓ_１_１
  6
CONTINUOUS
 62
     3
100
AcDbLine
 10
1823.442842109469
 20
3070.000029508163
 30
0.0
 11
1823.442842109469
 21
3325.000029508163
 31
0.0
  0
LINE
  5
3AB
330
1F
100
AcDbEntity
  8
Ｓ_１_１
  6
CONTINUOUS
 62
     3
100
AcDbLine
 10
1440.00000000004
 20
3335.000029508163
 30
0.0
 11
1813.442842109471
 21
3335.000029508163
 31
0.0
  0
LINE
  5
3AC
330
1F
100
AcDbEntity
  8
Ｓ_１_１
  6
CONTINUOUS
 62
     3
100
AcDbLine
 10
1803.442842109469
 20
3070.000029508163
 30
0.0
 11
1803.442842109469
 21
3325.000029508163
 31
0.0
  0
ARC
  5
3AD
330
1F
100
AcDbEntity
  8
Ｓ_１_１
  6
CONTINUOUS
 62
     3
100
AcDbCircle
 10
1813.442842109471
 20
3325.000029508163
 30
0.0
 40
9.99999999999909
100
AcDbArc
 50
0.0000000000001719
 51
179.9999999999999
  0
LINE
  5
3AE
330
1F
100
AcDbEntity
  8
Ｓ_１_１
  6
CONTINUOUS
 62
     3
100
AcDbLine
 10
1076.557157890611
 20
3315.000029508163
 30
0.0
 11
1440.00000000004
 21
3315.000029508163
 31
0.0
  0
LINE
  5
3AF
330
1F
100
AcDbEntity
  8
Ｓ_１_１
  6
CONTINUOUS
 62
     3
100
AcDbLine
 10
1056.557157890611
 20
3070.000029508163
 30
0.0
 11
1056.557157890611
 21
3325.000029508163
 31
0.0
  0
LINE
  5
3B0
330
1F
100
AcDbEntity
  8
Ｓ_１_１
  6
CONTINUOUS
 62
     3
100
AcDbLine
 10
1440.00000000004
 20
3335.000029508163
 30
0.0
 11
1066.557157890609
 21
3335.000029508163
 31
0.0
  0
LINE
  5
3B1
330
1F
100
AcDbEntity
  8
Ｓ_１_１
  6
CONTINUOUS
 62
     3
100
AcDbLine
 10
1076.557157890611
 20
3070.000029508163
 30
0.0
 11
1076.557157890611
 21
3325.000029508163
 31
0.0
  0
ARC
  5
3B2
330
1F
100
AcDbEntity
  8
Ｓ_１_１
  6
CONTINUOUS
 62
     3
100
AcDbCircle
 10
1066.557157890609
 20
3325.000029508163
 30
0.0
 40
9.99999999999909
100
AcDbArc
 50
0.0000000000001719
 51
179.9999999999999
  0
LINE
  5
3B3
330
1F
100
AcDbEntity
  8
Ｓ_１_１
  6
CONTINUOUS
 62
     3
100
AcDbLine
 10
1086.557157890609
 20
3060.000059016356
 30
0.0
 11
1086.557157890609
 21
3070.000029508163
 31
0.0
  0
LINE
  5
3B4
330
1F
100
AcDbEntity
  8
Ｓ_１_１
  6
CONTINUOUS
 62
     3
100
AcDbLine
 10
1086.557157890609
 20
3070.000029508163
 30
0.0
 11
1046.557158196762
 21
3070.000029508163
 31
0.0
  0
LINE
  5
3B5
330
1F
100
AcDbEntity
  8
Ｓ_１_１
  6
CONTINUOUS
 62
     3
100
AcDbLine
 10
1046.557158196762
 20
3060.000059016357
 30
0.0
 11
1046.557158196762
 21
3070.000029508163
 31
0.0
  0
LINE
  5
3B6
330
1F
100
AcDbEntity
  8
Ｓ_１_１
  6
EXLTYPE2
 62
     1
100
AcDbLine
 10
1492.0491385246
 20
2297.7048836065
 30
0.0
 11
1442.0491385246
 21
2297.7048836065
 31
0.0
  0
LINE
  5
3B7
330
1F
100
AcDbEntity
  8
Ｓ_１_１
  6
EXLTYPE2
 62
     1
100
AcDbLine
 10
1467.0491385246
 20
2272.7048836065
 30
0.0
 11
1467.0491385246
 21
2322.7048836065
 31
0.0
  0
LINE
  5
3B8
330
1F
100
AcDbEntity
  8
Ｓ_１_１
  6
EXLTYPE2
 62
     1
100
AcDbLine
 10
1437.950787705
 20
2297.7048836065
 30
0.0
 11
1387.950787705
 21
2297.7048836065
 31
0.0
  0
LINE
  5
3B9
330
1F
100
AcDbEntity
  8
Ｓ_１_１
  6
EXLTYPE2
 62
     1
100
AcDbLine
 10
1412.950787705
 20
2272.7048836065
 30
0.0
 11
1412.950787705
 21
2322.7048836065
 31
0.0
  0
LINE
  5
3BA
330
1F
100
AcDbEntity
  8
Ｓ_１_１
  6
CONTINUOUS
 62
     3
100
AcDbLine
 10
2798.028318852456
 20
1259.025806557385
 30
0.0
 11
2798.028318852456
 21
1227.540973770505
 31
0.0
  0
LINE
  5
3BB
330
1F
100
AcDbEntity
  8
Ｓ_１_１
  6
CONTINUOUS
 62
     3
100
AcDbLine
 10
2783.2742204918
 20
1259.025806557385
 30
0.0
 11
2783.2742204918
 21
1227.5409737705
 31
0.0
  0
CIRCLE
  5
3BC
330
1F
100
AcDbEntity
  8
Ｓ_１_１
  6
CONTINUOUS
 62
     3
100
AcDbCircle
 10
3817.946341803263
 20
690.0154461677957
 30
0.0
 40
10.0
  0
CIRCLE
  5
3BD
330
1F
100
AcDbEntity
  8
Ｓ_１_１
  6
CONTINUOUS
 62
     3
100
AcDbCircle
 10
3817.946341803263
 20
1080.015446167798
 30
0.0
 40
10.0
  0
LINE
  5
3BE
330
1F
100
AcDbEntity
  8
Ｓ_１_１
  6
CONTINUOUS
 62
     3
100
AcDbLine
 10
3774.946341803265
 20
1063.606626229526
 30
0.0
 11
3552.946341803265
 21
1063.606626229524
 31
0.0
  0
LINE
  5
3BF
330
1F
100
AcDbEntity
  8
Ｓ_１_１
  6
CONTINUOUS
 62
     3
100
AcDbLine
 10
3552.946341803263
 20
723.6066262295262
 30
0.0
 11
3774.946341803265
 21
723.6066262295262
 31
0.0
  0
LINE
  5
3C0
330
1F
100
AcDbEntity
  8
Ｓ_１_１
  6
CONTINUOUS
 62
     3
100
AcDbLine
 10
3774.946341803265
 20
1063.606626229526
 30
0.0
 11
3774.946341803265
 21
723.6066262295262
 31
0.0
  0
LINE
  5
3C1
330
1F
100
AcDbEntity
  8
Ｓ_１_１
  6
CONTINUOUS
 62
     3
100
AcDbLine
 10
3562.946341803263
 20
1163.606626229526
 30
0.0
 11
3802.946341803264
 21
1163.606626229526
 31
0.0
  0
LINE
  5
3C2
330
1F
100
AcDbEntity
  8
Ｓ_１_１
  6
CONTINUOUS
 62
     3
100
AcDbLine
 10
3802.946341803264
 20
642.9344537323195
 30
0.0
 11
3802.946341803262
 21
613.6066262295262
 31
0.0
  0
LINE
  5
3C3
330
1F
100
AcDbEntity
  8
Ｓ_１_１
  6
CONTINUOUS
 62
     3
100
AcDbLine
 10
3802.946341803264
 20
1103.244202723121
 30
0.0
 11
3802.946341803264
 21
666.7866896124724
 31
0.0
  0
LINE
  5
3C4
330
1F
100
AcDbEntity
  8
Ｓ_１_１
  6
CONTINUOUS
 62
     3
100
AcDbLine
 10
3802.946341803264
 20
1163.606626229526
 30
0.0
 11
3802.946341803264
 21
1127.096438603276
 31
0.0
  0
ARC
  5
3C5
330
1F
100
AcDbEntity
  8
Ｓ_１_１
  6
CONTINUOUS
 62
     3
100
AcDbCircle
 10
3787.946341803262
 20
680.0154461677976
 30
0.0
 40
40.0
100
AcDbArc
 50
270.0000000000014
 51
0.0
  0
LINE
  5
3C6
330
1F
100
AcDbEntity
  8
Ｓ_１_１
  6
CONTINUOUS
 62
     3
100
AcDbLine
 10
3827.946341803263
 20
680.0154461677976
 30
0.0
 11
3827.946341803263
 21
1090.015446167798
 31
0.0
  0
ARC
  5
3C7
330
1F
100
AcDbEntity
  8
Ｓ_１_１
  6
CONTINUOUS
 62
     3
100
AcDbCircle
 10
3787.946341803263
 20
680.0154461677976
 30
0.0
 40
20.0
100
AcDbArc
 50
270.0000000000002
 51
0.0
  0
LINE
  5
3C8
330
1F
100
AcDbEntity
  8
Ｓ_１_１
  6
CONTINUOUS
 62
     3
100
AcDbLine
 10
3807.946341803263
 20
1090.015446167798
 30
0.0
 11
3807.946341803263
 21
680.0154461677976
 31
0.0
  0
LINE
  5
3C9
330
1F
100
AcDbEntity
  8
Ｓ_１_１
  6
CONTINUOUS
 62
     3
100
AcDbLine
 10
3562.946341803263
 20
640.0154461677976
 30
0.0
 11
3787.946341803263
 21
640.0154461677976
 31
0.0
  0
LINE
  5
3CA
330
1F
100
AcDbEntity
  8
Ｓ_１_１
  6
CONTINUOUS
 62
     3
100
AcDbLine
 10
3562.946341803263
 20
660.0154461677976
 30
0.0
 11
3787.946341803263
 21
660.0154461677976
 31
0.0
  0
LINE
  5
3CB
330
1F
100
AcDbEntity
  8
Ｓ_１_１
  6
CONTINUOUS
 62
     3
100
AcDbLine
 10
3562.946341803263
 20
700.0154461677976
 30
0.0
 11
3552.946341803263
 21
700.0154461677976
 31
0.0
  0
LINE
  5
3CC
330
1F
100
AcDbEntity
  8
Ｓ_１_１
  6
CONTINUOUS
 62
     3
100
AcDbLine
 10
3562.946341803263
 20
600.0154461677976
 30
0.0
 11
3562.946341803262
 21
700.0154461677976
 31
0.0
  0
LINE
  5
3CD
330
1F
100
AcDbEntity
  8
Ｓ_１_１
  6
CONTINUOUS
 62
     3
100
AcDbLine
 10
3552.946341803263
 20
600.0154461677976
 30
0.0
 11
3562.946341803263
 21
600.0154461677976
 31
0.0
  0
ARC
  5
3CE
330
1F
100
AcDbEntity
  8
Ｓ_１_１
  6
CONTINUOUS
 62
     3
100
AcDbCircle
 10
3787.946341803262
 20
1090.015446167798
 30
0.0
 40
40.0
100
AcDbArc
 50
0.0000000000013178
 51
89.9999999999987
  0
LINE
  5
3CF
330
1F
100
AcDbEntity
  8
Ｓ_１_１
  6
CONTINUOUS
 62
     3
100
AcDbLine
 10
3562.946341803263
 20
1130.015446167798
 30
0.0
 11
3787.946341803263
 21
1130.015446167798
 31
0.0
  0
ARC
  5
3D0
330
1F
100
AcDbEntity
  8
Ｓ_１_１
  6
CONTINUOUS
 62
     3
100
AcDbCircle
 10
3787.946341803263
 20
1090.015446167798
 30
0.0
 40
20.0
100
AcDbArc
 50
0.0
 51
89.99999999999991
  0
LINE
  5
3D1
330
1F
100
AcDbEntity
  8
Ｓ_１_１
  6
CONTINUOUS
 62
     3
100
AcDbLine
 10
3562.946341803263
 20
1110.015446167798
 30
0.0
 11
3787.946341803263
 21
1110.015446167798
 31
0.0
  0
LINE
  5
3D2
330
1F
100
AcDbEntity
  8
Ｓ_１_１
  6
CONTINUOUS
 62
     3
100
AcDbLine
 10
3562.946341803263
 20
1070.015446167798
 30
0.0
 11
3552.946341803263
 21
1070.015446167798
 31
0.0
  0
LINE
  5
3D3
330
1F
100
AcDbEntity
  8
Ｓ_１_１
  6
CONTINUOUS
 62
     3
100
AcDbLine
 10
3562.946341803263
 20
1170.015446167798
 30
0.0
 11
3562.946341803262
 21
1070.015446167798
 31
0.0
  0
LINE
  5
3D4
330
1F
100
AcDbEntity
  8
Ｓ_１_１
  6
CONTINUOUS
 62
     3
100
AcDbLine
 10
3552.946341803263
 20
1170.015446167798
 30
0.0
 11
3562.946341803263
 21
1170.015446167798
 31
0.0
  0
LINE
  5
3D5
330
1F
100
AcDbEntity
  8
Ｓ_１_１
  6
CONTINUOUS
 62
     3
100
AcDbLine
 10
3752.946341803262
 20
563.6066262295262
 30
0.0
 11
3802.946341803262
 21
613.6066262295262
 31
0.0
  0
LINE
  5
3D6
330
1F
100
AcDbEntity
  8
Ｓ_１_１
  6
CONTINUOUS
 62
     3
100
AcDbLine
 10
3552.946341803263
 20
563.6066262295262
 30
0.0
 11
3752.946341803262
 21
563.6066262295262
 31
0.0
  0
CIRCLE
  5
3D7
330
1F
100
AcDbEntity
  8
Ｓ_１_１
  6
CONTINUOUS
 62
     3
100
AcDbCircle
 10
2790.651269672128
 20
1271.803268852473
 30
0.0
 40
14.75409836065574
  0
CIRCLE
  5
3D8
330
1F
100
AcDbEntity
  8
Ｓ_１_１
  6
CONTINUOUS
 62
     3
100
AcDbCircle
 10
2790.651269672128
 20
1271.803268852473
 30
0.0
 40
14.75409836065574
  0
ARC
  5
3D9
330
1F
100
AcDbEntity
  8
Ｓ_１_１
  6
CONTINUOUS
 62
     3
100
AcDbCircle
 10
3074.368464754091
 20
1333.841345901648
 30
0.0
 40
7.868847540983606
100
AcDbArc
 50
100.3048389999817
 51
153.4349400000021
  0
ARC
  5
3DA
330
1F
100
AcDbEntity
  8
Ｓ_１_１
  6
CONTINUOUS
 62
     3
100
AcDbCircle
 10
3074.368464754091
 20
1333.841345901648
 30
0.0
 40
7.868847540983606
100
AcDbArc
 50
153.4349400000021
 51
206.5650419999594
  0
ARC
  5
3DB
330
1F
100
AcDbEntity
  8
Ｓ_１_１
  6
CONTINUOUS
 62
     3
100
AcDbCircle
 10
3026.201364754085
 20
1248.50414262296
 30
0.0
 40
1.967208196721312
100
AcDbArc
 50
153.4349400000329
 51
243.4349360001097
  0
ARC
  5
3DC
330
1F
100
AcDbEntity
  8
Ｓ_１_１
  6
CONTINUOUS
 62
     3
100
AcDbCircle
 10
3052.154458196709
 20
1300.410181967227
 30
0.0
 40
1.967208196721312
100
AcDbArc
 50
63.43494499972381
 51
153.4349400000448
  0
ARC
  5
3DD
330
1F
100
AcDbEntity
  8
Ｓ_１_１
  6
CONTINUOUS
 62
     3
100
AcDbCircle
 10
3071.509238524582
 20
1345.718129508201
 30
0.0
 40
1.967208196721312
100
AcDbArc
 50
153.4349399997012
 51
243.4349359999438
  0
ARC
  5
3DE
330
1F
100
AcDbEntity
  8
Ｓ_１_１
  6
CONTINUOUS
 62
     3
100
AcDbCircle
 10
3115.937369672121
 20
1434.574259016401
 30
0.0
 40
1.967208196721312
100
AcDbArc
 50
63.43494500023317
 51
153.4349400000448
  0
ARC
  5
3DF
330
1F
100
AcDbEntity
  8
Ｓ_１_１
  6
CONTINUOUS
 62
     3
100
AcDbCircle
 10
3498.8479762295
 20
1129.180165573782
 30
0.0
 40
9.836070491803278
100
AcDbArc
 50
0.0
 51
90.0000029999816
  0
ARC
  5
3E0
330
1F
100
AcDbEntity
  8
Ｓ_１_１
  6
CONTINUOUS
 62
     3
100
AcDbCircle
 10
3498.8479762295
 20
755.4096786885293
 30
0.0
 40
9.836070491803278
100
AcDbArc
 50
269.9999970000184
 51
0.0
  0
ARC
  5
3E1
330
1F
100
AcDbEntity
  8
Ｓ_１_１
  6
CONTINUOUS
 62
     3
100
AcDbCircle
 10
3026.71684344262
 20
755.4096786885293
 30
0.0
 40
9.836070491803278
100
AcDbArc
 50
179.9999909999704
 51
270.0000009999673
  0
ARC
  5
3E2
330
1F
100
AcDbEntity
  8
Ｓ_１_１
  6
CONTINUOUS
 62
     3
100
AcDbCircle
 10
3026.71684344262
 20
1129.180165573782
 30
0.0
 40
9.836070491803278
100
AcDbArc
 50
90.00000300006106
 51
180.0000050000011
  0
CIRCLE
  5
3E3
330
1F
100
AcDbEntity
  8
Ｓ_１_１
  6
CONTINUOUS
 62
     3
100
AcDbCircle
 10
3454.585681147533
 20
504.5901540983741
 30
0.0
 40
19.67212622950819
  0
CIRCLE
  5
3E4
330
1F
100
AcDbEntity
  8
Ｓ_１_１
  6
CONTINUOUS
 62
     3
100
AcDbCircle
 10
2751.306928688517
 20
504.5901540983741
 30
0.0
 40
19.67212622950819
  0
CIRCLE
  5
3E5
330
1F
100
AcDbEntity
  8
Ｓ_１_１
  6
CONTINUOUS
 62
     3
100
AcDbCircle
 10
2751.306928688517
 20
504.5901540983741
 30
0.0
 40
73.77049180327869
  0
ARC
  5
3E6
330
1F
100
AcDbEntity
  8
Ｓ_１_１
  6
CONTINUOUS
 62
     3
100
AcDbCircle
 10
2682.454553278678
 20
1212.786875409851
 30
0.0
 40
39.34426721311475
100
AcDbArc
 50
302.7497919999993
 51
0.0
  0
ARC
  5
3E7
330
1F
100
AcDbEntity
  8
Ｓ_１_１
  6
CONTINUOUS
 62
     3
100
AcDbCircle
 10
2705.838692622942
 20
1176.431877049186
 30
0.0
 40
3.88192131147541
100
AcDbArc
 50
122.7500149998899
 51
199.9997279998874
  0
ARC
  5
3E8
330
1F
100
AcDbEntity
  8
Ｓ_１_１
  6
CONTINUOUS
 62
     3
100
AcDbCircle
 10
2658.738254918022
 20
1176.320513114766
 30
0.0
 40
4.155890163934427
100
AcDbArc
 50
0.0
 51
56.96103900000594
  0
CIRCLE
  5
3E9
330
1F
100
AcDbEntity
  8
Ｓ_１_１
  6
CONTINUOUS
 62
     3
100
AcDbCircle
 10
2682.454553278678
 20
1212.786875409851
 30
0.0
 40
22.1311475409836
  0
ARC
  5
3EA
330
1F
100
AcDbEntity
  8
Ｓ_１_１
  6
CONTINUOUS
 62
     3
100
AcDbCircle
 10
2682.454553278678
 20
1212.786875409851
 30
0.0
 40
39.34426721311475
100
AcDbArc
 50
0.0
 51
236.9616109999971
  0
ARC
  5
3EB
330
1F
100
AcDbEntity
  8
Ｓ_１_１
  6
CONTINUOUS
 62
     3
100
AcDbCircle
 10
3523.438145081951
 20
1507.868827868861
 30
0.0
 40
39.34426721311475
100
AcDbArc
 50
302.749792
 51
0.0
  0
ARC
  5
3EC
330
1F
100
AcDbEntity
  8
Ｓ_１_１
  6
CONTINUOUS
 62
     3
100
AcDbCircle
 10
3546.822210655726
 20
1471.513844262301
 30
0.0
 40
3.88192131147541
100
AcDbArc
 50
122.7500149998939
 51
199.9997279999517
  0
ARC
  5
3ED
330
1F
100
AcDbEntity
  8
Ｓ_１_１
  6
CONTINUOUS
 62
     3
100
AcDbCircle
 10
3499.721787704909
 20
1471.402480327881
 30
0.0
 40
4.155890163934427
100
AcDbArc
 50
0.0
 51
56.96103900000594
  0
CIRCLE
  5
3EE
330
1F
100
AcDbEntity
  8
Ｓ_１_１
  6
CONTINUOUS
 62
     3
100
AcDbCircle
 10
3523.438145081951
 20
1507.868827868861
 30
0.0
 40
22.1311475409836
  0
ARC
  5
3EF
330
1F
100
AcDbEntity
  8
Ｓ_１_１
  6
CONTINUOUS
 62
     3
100
AcDbCircle
 10
3523.438145081951
 20
1507.868827868861
 30
0.0
 40
39.34426721311475
100
AcDbArc
 50
0.0
 51
236.9616110000131
  0
CIRCLE
  5
3F0
330
1F
100
AcDbEntity
  8
Ｓ_１_１
  6
CONTINUOUS
 62
     3
100
AcDbCircle
 10
3213.602079508182
 20
848.852296721323
 30
0.0
 40
9.836070491803278
  0
CIRCLE
  5
3F1
330
1F
100
AcDbEntity
  8
Ｓ_１_１
  6
CONTINUOUS
 62
     3
100
AcDbCircle
 10
3331.634866393427
 20
848.852296721323
 30
0.0
 40
9.836070491803278
  0
CIRCLE
  5
3F2
330
1F
100
AcDbEntity
  8
Ｓ_１_１
  6
CONTINUOUS
 62
     3
100
AcDbCircle
 10
3331.634866393427
 20
952.1309852459126
 30
0.0
 40
9.836070491803278
  0
CIRCLE
  5
3F3
330
1F
100
AcDbEntity
  8
Ｓ_１_１
  6
CONTINUOUS
 62
     3
100
AcDbCircle
 10
3213.602079508182
 20
952.1309852459126
 30
0.0
 40
9.836070491803278
  0
CIRCLE
  5
3F4
330
1F
100
AcDbEntity
  8
Ｓ_１_１
  6
CONTINUOUS
 62
     3
100
AcDbCircle
 10
3331.634866393427
 20
848.852296721323
 30
0.0
 40
14.75409836065574
  0
CIRCLE
  5
3F5
330
1F
100
AcDbEntity
  8
Ｓ_１_１
  6
CONTINUOUS
 62
     3
100
AcDbCircle
 10
3331.634866393427
 20
952.1309852459126
 30
0.0
 40
14.75409836065574
  0
CIRCLE
  5
3F6
330
1F
100
AcDbEntity
  8
Ｓ_１_１
  6
CONTINUOUS
 62
     3
100
AcDbCircle
 10
3213.602079508182
 20
848.852296721323
 30
0.0
 40
14.75409836065574
  0
CIRCLE
  5
3F7
330
1F
100
AcDbEntity
  8
Ｓ_１_１
  6
CONTINUOUS
 62
     3
100
AcDbCircle
 10
3213.602079508182
 20
952.1309852459126
 30
0.0
 40
14.75409836065574
  0
CIRCLE
  5
3F8
330
1F
100
AcDbEntity
  8
Ｓ_１_１
  6
CONTINUOUS
 62
     3
100
AcDbCircle
 10
3272.618472950805
 20
1025.901477049192
 30
0.0
 40
14.75409836065574
  0
CIRCLE
  5
3F9
330
1F
100
AcDbEntity
  8
Ｓ_１_１
  6
CONTINUOUS
 62
     3
100
AcDbCircle
 10
3454.585681147533
 20
504.5901540983741
 30
0.0
 40
24.59016885245902
  0
CIRCLE
  5
3FA
330
1F
100
AcDbEntity
  8
Ｓ_１_１
  6
CONTINUOUS
 62
     3
100
AcDbCircle
 10
2751.307002459007
 20
504.5901540983741
 30
0.0
 40
24.59016885245902
  0
CIRCLE
  5
3FB
330
1F
100
AcDbEntity
  8
Ｓ_１_１
  6
CONTINUOUS
 62
     3
100
AcDbCircle
 10
3454.585681147533
 20
504.5901540983741
 30
0.0
 40
63.93442131147541
  0
CIRCLE
  5
3FC
330
1F
100
AcDbEntity
  8
Ｓ_１_１
  6
CONTINUOUS
 62
     3
100
AcDbCircle
 10
2751.307002459007
 20
504.5901540983741
 30
0.0
 40
63.93442131147541
  0
CIRCLE
  5
3FD
330
1F
100
AcDbEntity
  8
Ｓ_１_１
  6
CONTINUOUS
 62
     3
100
AcDbCircle
 10
3454.585681147533
 20
504.5901540983741
 30
0.0
 40
73.77049180327869
  0
LINE
  5
3FE
330
1F
100
AcDbEntity
  8
Ｓ_１_１
  6
CONTINUOUS
 62
     3
100
AcDbLine
 10
3382.521677868847
 20
1120.453381967227
 30
0.0
 11
3382.521677868847
 21
1075.877414754106
 31
0.0
  0
LINE
  5
3FF
330
1F
100
AcDbEntity
  8
Ｓ_１_１
  6
CONTINUOUS
 62
     3
100
AcDbLine
 10
3152.087492622939
 20
1120.453381967227
 30
0.0
 11
3152.087492622939
 21
1075.877414754106
 31
0.0
  0
LINE
  5
400
330
1F
100
AcDbEntity
  8
Ｓ_１_１
  6
CONTINUOUS
 62
     3
100
AcDbLine
 10
2972.618477868843
 20
1227.540973770505
 30
0.0
 11
2972.618477868843
 21
1217.704903278696
 31
0.0
  0
LINE
  5
401
330
1F
100
AcDbEntity
  8
Ｓ_１_１
  6
CONTINUOUS
 62
     3
100
AcDbLine
 10
2933.274210655722
 20
1227.540973770505
 30
0.0
 11
2933.274210655722
 21
1198.032777049195
 31
0.0
  0
LINE
  5
402
330
1F
100
AcDbEntity
  8
Ｓ_１_１
  6
CONTINUOUS
 62
     3
100
AcDbLine
 10
2943.110281147532
 20
1227.540973770505
 30
0.0
 11
2943.110281147532
 21
1198.032777049195
 31
0.0
  0
LINE
  5
403
330
1F
100
AcDbEntity
  8
Ｓ_１_１
  6
CONTINUOUS
 62
     3
100
AcDbLine
 10
2920.979133606549
 20
1198.032777049195
 30
0.0
 11
2955.405358196706
 21
1198.032777049195
 31
0.0
  0
LINE
  5
404
330
1F
100
AcDbEntity
  8
Ｓ_１_１
  6
CONTINUOUS
 62
     3
100
AcDbLine
 10
2955.405358196706
 20
1198.032777049195
 30
0.0
 11
2955.405358196706
 21
1168.524580327883
 31
0.0
  0
LINE
  5
405
330
1F
100
AcDbEntity
  8
Ｓ_１_１
  6
CONTINUOUS
 62
     3
100
AcDbLine
 10
2920.979133606549
 20
1198.032777049195
 30
0.0
 11
2920.979133606549
 21
1168.524580327883
 31
0.0
  0
LINE
  5
406
330
1F
100
AcDbEntity
  8
Ｓ_１_１
  6
CONTINUOUS
 62
     3
100
AcDbLine
 10
2903.766013934411
 20
1227.540973770505
 30
0.0
 11
2903.766013934411
 21
1217.704903278696
 31
0.0
  0
LINE
  5
407
330
1F
100
AcDbEntity
  8
Ｓ_１_１
  6
CONTINUOUS
 62
     3
100
AcDbLine
 10
2903.766013934411
 20
1217.704903278696
 30
0.0
 11
2972.618477868843
 21
1217.704903278696
 31
0.0
  0
LINE
  5
408
330
1F
100
AcDbEntity
  8
Ｓ_１_１
  6
CONTINUOUS
 62
     3
100
AcDbLine
 10
2903.766013934411
 20
1227.540973770505
 30
0.0
 11
2972.618477868843
 21
1227.540973770505
 31
0.0
  0
LINE
  5
409
330
1F
100
AcDbEntity
  8
Ｓ_１_１
  6
CONTINUOUS
 62
     3
100
AcDbLine
 10
2825.077494262286
 20
1227.540973770505
 30
0.0
 11
2825.077494262286
 21
1217.704903278696
 31
0.0
  0
LINE
  5
40A
330
1F
100
AcDbEntity
  8
Ｓ_１_１
  6
CONTINUOUS
 62
     3
100
AcDbLine
 10
2785.733227049165
 20
1227.540973770505
 30
0.0
 11
2785.733227049165
 21
1198.032777049195
 31
0.0
  0
LINE
  5
40B
330
1F
100
AcDbEntity
  8
Ｓ_１_１
  6
CONTINUOUS
 62
     3
100
AcDbLine
 10
2795.569297540974
 20
1227.540973770505
 30
0.0
 11
2795.569297540974
 21
1198.032777049195
 31
0.0
  0
LINE
  5
40C
330
1F
100
AcDbEntity
  8
Ｓ_１_１
  6
CONTINUOUS
 62
     3
100
AcDbLine
 10
2773.438149999991
 20
1198.032777049195
 30
0.0
 11
2807.864374590149
 21
1198.032777049195
 31
0.0
  0
LINE
  5
40D
330
1F
100
AcDbEntity
  8
Ｓ_１_１
  6
CONTINUOUS
 62
     3
100
AcDbLine
 10
2807.864374590149
 20
1198.032777049195
 30
0.0
 11
2807.864374590149
 21
1168.524580327883
 31
0.0
  0
LINE
  5
40E
330
1F
100
AcDbEntity
  8
Ｓ_１_１
  6
CONTINUOUS
 62
     3
100
AcDbLine
 10
2773.438149999991
 20
1198.032777049195
 30
0.0
 11
2773.438149999991
 21
1168.524580327883
 31
0.0
  0
LINE
  5
40F
330
1F
100
AcDbEntity
  8
Ｓ_１_１
  6
CONTINUOUS
 62
     3
100
AcDbLine
 10
2756.225030327854
 20
1227.540973770505
 30
0.0
 11
2756.225030327854
 21
1217.704903278696
 31
0.0
  0
LINE
  5
410
330
1F
100
AcDbEntity
  8
Ｓ_１_１
  6
CONTINUOUS
 62
     3
100
AcDbLine
 10
2756.225030327854
 20
1217.704903278696
 30
0.0
 11
2825.077494262286
 21
1217.704903278696
 31
0.0
  0
LINE
  5
411
330
1F
100
AcDbEntity
  8
Ｓ_１_１
  6
CONTINUOUS
 62
     3
100
AcDbLine
 10
2756.225030327854
 20
1227.540973770505
 30
0.0
 11
2825.077494262286
 21
1227.540973770505
 31
0.0
  0
LINE
  5
412
330
1F
100
AcDbEntity
  8
Ｓ_１_１
  6
CONTINUOUS
 62
     3
100
AcDbLine
 10
3066.061095901624
 20
907.8686901639467
 30
0.0
 11
3085.733222131139
 21
907.8686901639467
 31
0.0
  0
LINE
  5
413
330
1F
100
AcDbEntity
  8
Ｓ_１_１
  6
CONTINUOUS
 62
     3
100
AcDbLine
 10
3267.639658196718
 20
1379.996532786892
 30
0.0
 11
3267.639658196718
 21
1242.291619672143
 31
0.0
  0
LINE
  5
414
330
1F
100
AcDbEntity
  8
Ｓ_１_１
  6
CONTINUOUS
 62
     3
100
AcDbLine
 10
3267.639658196718
 20
1379.996532786892
 30
0.0
 11
3385.672445081964
 21
1379.996532786892
 31
0.0
  0
LINE
  5
415
330
1F
100
AcDbEntity
  8
Ｓ_１_１
  6
CONTINUOUS
 62
     3
100
AcDbLine
 10
3385.672445081964
 20
1379.996532786892
 30
0.0
 11
3385.672445081964
 21
1242.291619672143
 31
0.0
  0
LINE
  5
416
330
1F
100
AcDbEntity
  8
Ｓ_１_１
  6
CONTINUOUS
 62
     3
100
AcDbLine
 10
3267.639658196718
 20
1242.291619672143
 30
0.0
 11
3385.672445081964
 21
1242.291619672143
 31
0.0
  0
LINE
  5
417
330
1F
100
AcDbEntity
  8
Ｓ_１_１
  6
CONTINUOUS
 62
     3
100
AcDbLine
 10
3262.721615573755
 20
1237.373577049195
 30
0.0
 11
3390.59047295081
 21
1237.373577049195
 31
0.0
  0
LINE
  5
418
330
1F
100
AcDbEntity
  8
Ｓ_１_１
  6
CONTINUOUS
 62
     3
100
AcDbLine
 10
3267.639658196718
 20
1348.029314754112
 30
0.0
 11
3385.672445081964
 21
1348.029314754112
 31
0.0
  0
LINE
  5
419
330
1F
100
AcDbEntity
  8
Ｓ_１_１
  6
CONTINUOUS
 62
     3
100
AcDbLine
 10
3390.59047295081
 20
1384.914560655752
 30
0.0
 11
3390.59047295081
 21
1237.373577049195
 31
0.0
  0
LINE
  5
41A
330
1F
100
AcDbEntity
  8
Ｓ_１_１
  6
CONTINUOUS
 62
     3
100
AcDbLine
 10
3262.721615573755
 20
1384.914560655752
 30
0.0
 11
3262.721615573755
 21
1237.373577049195
 31
0.0
  0
LINE
  5
41B
330
1F
100
AcDbEntity
  8
Ｓ_１_１
  6
CONTINUOUS
 62
     3
100
AcDbLine
 10
3267.639658196718
 20
1274.258822950833
 30
0.0
 11
3385.672445081964
 21
1274.258822950833
 31
0.0
  0
LINE
  5
41C
330
1F
100
AcDbEntity
  8
Ｓ_１_１
  6
CONTINUOUS
 62
     3
100
AcDbLine
 10
3262.721615573755
 20
1384.914560655752
 30
0.0
 11
3390.59047295081
 21
1384.914560655752
 31
0.0
  0
LINE
  5
41D
330
1F
100
AcDbEntity
  8
Ｓ_１_１
  6
CONTINUOUS
 62
     3
100
AcDbLine
 10
3267.639658196718
 20
1311.144068852473
 30
0.0
 11
3385.672445081964
 21
1311.144068852473
 31
0.0
  0
LINE
  5
41E
330
1F
100
AcDbEntity
  8
Ｓ_１_１
  6
CONTINUOUS
 62
     3
100
AcDbLine
 10
2775.887566393435
 20
672.1615229508316
 30
0.0
 11
2893.920353278681
 21
672.1615229508316
 31
0.0
  0
LINE
  5
41F
330
1F
100
AcDbEntity
  8
Ｓ_１_１
  6
CONTINUOUS
 62
     3
100
AcDbLine
 10
2893.920353278681
 20
809.8664360655803
 30
0.0
 11
2893.920353278681
 21
672.1615229508316
 31
0.0
  0
LINE
  5
420
330
1F
100
AcDbEntity
  8
Ｓ_１_１
  6
CONTINUOUS
 62
     3
100
AcDbLine
 10
2775.887566393435
 20
809.8664360655803
 30
0.0
 11
2893.920353278681
 21
809.8664360655803
 31
0.0
  0
LINE
  5
421
330
1F
100
AcDbEntity
  8
Ｓ_１_１
  6
CONTINUOUS
 62
     3
100
AcDbLine
 10
2775.887566393435
 20
809.8664360655803
 30
0.0
 11
2775.887566393435
 21
672.1615229508316
 31
0.0
  0
LINE
  5
422
330
1F
100
AcDbEntity
  8
Ｓ_１_１
  6
CONTINUOUS
 62
     3
100
AcDbLine
 10
3079.866948360642
 20
1344.838372131151
 30
0.0
 11
3084.265779508184
 21
1342.638963934432
 31
0.0
  0
LINE
  5
423
330
1F
100
AcDbEntity
  8
Ｓ_１_１
  6
CONTINUOUS
 62
     3
100
AcDbLine
 10
3078.767281147528
 20
1342.639111475426
 30
0.0
 11
3072.960849999992
 21
1341.583396721326
 31
0.0
  0
LINE
  5
424
330
1F
100
AcDbEntity
  8
Ｓ_１_１
  6
CONTINUOUS
 62
     3
100
AcDbLine
 10
3069.969692622937
 20
1325.043727868862
 30
0.0
 11
3067.330435245894
 21
1330.322227868859
 31
0.0
  0
LINE
  5
425
330
1F
100
AcDbEntity
  8
Ｓ_１_１
  6
CONTINUOUS
 62
     3
100
AcDbLine
 10
3068.869892622946
 20
1322.844260655744
 30
0.0
 11
3079.866948360642
 21
1344.838372131151
 31
0.0
  0
LINE
  5
426
330
1F
100
AcDbEntity
  8
Ｓ_１_１
  6
CONTINUOUS
 62
     3
100
AcDbLine
 10
3068.869892622946
 20
1322.844260655744
 30
0.0
 11
3073.268723770486
 21
1320.644852459025
 31
0.0
  0
LINE
  5
427
330
1F
100
AcDbEntity
  8
Ｓ_１_１
  6
CONTINUOUS
 62
     3
100
AcDbLine
 10
3024.441805737691
 20
1249.383914754111
 30
0.0
 11
3050.39486967212
 21
1301.290027868868
 31
0.0
  0
LINE
  5
428
330
1F
100
AcDbEntity
  8
Ｓ_１_１
  6
CONTINUOUS
 62
     3
100
AcDbLine
 10
3053.03415655737
 20
1302.169844262304
 30
0.0
 11
3061.831804098349
 21
1297.771027868866
 31
0.0
  0
LINE
  5
429
330
1F
100
AcDbEntity
  8
Ｓ_１_１
  6
CONTINUOUS
 62
     3
100
AcDbLine
 10
3025.32156311474
 20
1246.744657377056
 30
0.0
 11
3034.119210655731
 21
1242.345840983618
 31
0.0
  0
LINE
  5
42A
330
1F
100
AcDbEntity
  8
Ｓ_１_１
  6
CONTINUOUS
 62
     3
100
AcDbLine
 10
3069.749649999995
 20
1346.597872131159
 30
0.0
 11
3114.177766393429
 21
1435.454090163939
 31
0.0
  0
LINE
  5
42B
330
1F
100
AcDbEntity
  8
Ｓ_１_１
  6
CONTINUOUS
 62
     3
100
AcDbLine
 10
3070.629407377044
 20
1343.958614754103
 30
0.0
 11
3082.066371311465
 21
1338.240132786892
 31
0.0
  0
LINE
  5
42C
330
1F
100
AcDbEntity
  8
Ｓ_１_１
  6
CONTINUOUS
 62
     3
100
AcDbLine
 10
3116.817053278679
 20
1436.333906557387
 30
0.0
 11
3128.254017213101
 21
1430.615424590178
 31
0.0
  0
LINE
  5
42D
330
1F
100
AcDbEntity
  8
Ｓ_１_１
  6
CONTINUOUS
 62
     3
100
AcDbLine
 10
2770.969523770486
 20
667.2434950819734
 30
0.0
 11
2898.838381147527
 21
667.2434950819734
 31
0.0
  0
LINE
  5
42E
330
1F
100
AcDbEntity
  8
Ｓ_１_１
  6
CONTINUOUS
 62
     3
100
AcDbLine
 10
2775.887566393435
 20
777.8992327868909
 30
0.0
 11
2893.920353278681
 21
777.8992327868909
 31
0.0
  0
LINE
  5
42F
330
1F
100
AcDbEntity
  8
Ｓ_１_１
  6
CONTINUOUS
 62
     3
100
AcDbLine
 10
2898.838381147527
 20
814.7844786885289
 30
0.0
 11
2898.838381147527
 21
667.2434950819734
 31
0.0
  0
LINE
  5
430
330
1F
100
AcDbEntity
  8
Ｓ_１_１
  6
CONTINUOUS
 62
     3
100
AcDbLine
 10
2770.969523770486
 20
814.7844786885289
 30
0.0
 11
2770.969523770486
 21
667.2434950819734
 31
0.0
  0
LINE
  5
431
330
1F
100
AcDbEntity
  8
Ｓ_１_１
  6
CONTINUOUS
 62
     3
100
AcDbLine
 10
2775.887566393435
 20
704.1287409836114
 30
0.0
 11
2893.920353278681
 21
704.1287409836114
 31
0.0
  0
LINE
  5
432
330
1F
100
AcDbEntity
  8
Ｓ_１_１
  6
CONTINUOUS
 62
     3
100
AcDbLine
 10
2775.887566393435
 20
741.0139868852511
 30
0.0
 11
2893.920353278681
 21
741.0139868852511
 31
0.0
  0
LINE
  5
433
330
1F
100
AcDbEntity
  8
Ｓ_１_１
  6
CONTINUOUS
 62
     3
100
AcDbLine
 10
2770.969523770486
 20
814.7844786885289
 30
0.0
 11
2898.838381147527
 21
814.7844786885289
 31
0.0
  0
LINE
  5
434
330
1F
100
AcDbEntity
  8
Ｓ_１_１
  6
CONTINUOUS
 62
     3
100
AcDbLine
 10
2657.864384426226
 20
1163.606537704933
 30
0.0
 11
2657.864384426226
 21
558.6885196721378
 31
0.0
  0
LINE
  5
435
330
1F
100
AcDbEntity
  8
Ｓ_１_１
  6
CONTINUOUS
 62
     3
100
AcDbLine
 10
3548.028299180314
 20
1458.688504918048
 30
0.0
 11
3548.028299180314
 21
558.6885196721378
 31
0.0
  0
LINE
  5
436
330
1F
100
AcDbEntity
  8
Ｓ_１_１
  6
CONTINUOUS
 62
     3
100
AcDbLine
 10
3147.789018852446
 20
1458.688504918048
 30
0.0
 11
3548.028299180314
 21
1458.688504918048
 31
0.0
  0
LINE
  5
437
330
1F
100
AcDbEntity
  8
Ｓ_１_１
  6
CONTINUOUS
 62
     3
100
AcDbLine
 10
3000.248109016379
 20
1163.606626229513
 30
0.0
 11
3147.789107377039
 21
1458.688519672139
 31
0.0
  0
LINE
  5
438
330
1F
100
AcDbEntity
  8
Ｓ_１_１
  6
CONTINUOUS
 62
     3
100
AcDbLine
 10
3152.087492622939
 20
1120.453381967227
 30
0.0
 11
3382.521677868847
 21
1120.453381967227
 31
0.0
  0
LINE
  5
439
330
1F
100
AcDbEntity
  8
Ｓ_１_１
  6
CONTINUOUS
 62
     3
100
AcDbLine
 10
3152.087492622939
 20
1075.877414754106
 30
0.0
 11
3382.521677868847
 21
1075.877414754106
 31
0.0
  0
LINE
  5
43A
330
1F
100
AcDbEntity
  8
Ｓ_１_１
  6
CONTINUOUS
 62
     3
100
AcDbLine
 10
3026.71684344262
 20
1139.016221311489
 30
0.0
 11
3498.8479762295
 21
1139.016221311489
 31
0.0
  0
LINE
  5
43B
330
1F
100
AcDbEntity
  8
Ｓ_１_１
  6
CONTINUOUS
 62
     3
100
AcDbLine
 10
3016.88077295081
 20
1129.180165573782
 30
0.0
 11
3016.88077295081
 21
755.4096786885293
 31
0.0
  0
LINE
  5
43C
330
1F
100
AcDbEntity
  8
Ｓ_１_１
  6
CONTINUOUS
 62
     3
100
AcDbLine
 10
2997.208617213102
 20
1168.524683606565
 30
0.0
 11
3144.749615573762
 21
1463.606591803295
 31
0.0
  0
LINE
  5
43D
330
1F
100
AcDbEntity
  8
Ｓ_１_１
  6
CONTINUOUS
 62
     3
100
AcDbLine
 10
2657.864384426226
 20
1163.606537704933
 30
0.0
 11
3000.248109016379
 21
1163.606537704933
 31
0.0
  0
LINE
  5
43E
330
1F
100
AcDbEntity
  8
Ｓ_１_１
  6
CONTINUOUS
 62
     3
100
AcDbLine
 10
3526.86566967212
 20
480.0000000000127
 30
0.0
 11
3552.946341803263
 21
480.0000000000127
 31
0.0
  0
LINE
  5
43F
330
1F
100
AcDbEntity
  8
Ｓ_１_１
  6
CONTINUOUS
 62
     3
100
AcDbLine
 10
2819.743577868846
 20
480.0000000000127
 30
0.0
 11
3380.256422131141
 21
480.0000000000127
 31
0.0
  0
LINE
  5
440
330
1F
100
AcDbEntity
  8
Ｓ_１_１
  6
CONTINUOUS
 62
     3
100
AcDbLine
 10
3398.028309016378
 20
1498.032772131156
 30
0.0
 11
3398.028309016378
 21
1463.606532786895
 31
0.0
  0
LINE
  5
441
330
1F
100
AcDbEntity
  8
Ｓ_１_１
  6
CONTINUOUS
 62
     3
100
AcDbLine
 10
3388.192238524582
 20
1498.032772131156
 30
0.0
 11
3388.192238524582
 21
1463.606532786895
 31
0.0
  0
LINE
  5
442
330
1F
100
AcDbEntity
  8
Ｓ_１_１
  6
CONTINUOUS
 62
     3
100
AcDbLine
 10
3363.602084426221
 20
1498.032772131156
 30
0.0
 11
3363.602084426221
 21
1463.606532786895
 31
0.0
  0
LINE
  5
443
330
1F
100
AcDbEntity
  8
Ｓ_１_１
  6
CONTINUOUS
 62
     3
100
AcDbLine
 10
3353.766013934411
 20
1498.032772131156
 30
0.0
 11
3353.766013934411
 21
1463.606532786895
 31
0.0
  0
LINE
  5
444
330
1F
100
AcDbEntity
  8
Ｓ_１_１
  6
CONTINUOUS
 62
     3
100
AcDbLine
 10
3336.552894262287
 20
1498.032772131156
 30
0.0
 11
3336.552894262287
 21
1463.606532786895
 31
0.0
  0
LINE
  5
445
330
1F
100
AcDbEntity
  8
Ｓ_１_１
  6
CONTINUOUS
 62
     3
100
AcDbLine
 10
3415.241413934412
 20
1498.032772131156
 30
0.0
 11
3415.241413934412
 21
1463.606532786895
 31
0.0
  0
LINE
  5
446
330
1F
100
AcDbEntity
  8
Ｓ_１_１
  6
CONTINUOUS
 62
     3
100
AcDbLine
 10
2682.454449999995
 20
1190.655949180336
 30
0.0
 11
2699.215754918026
 21
1183.278781967221
 31
0.0
  0
LINE
  5
447
330
1F
100
AcDbEntity
  8
Ｓ_１_１
  6
CONTINUOUS
 62
     3
100
AcDbLine
 10
2665.693528688518
 20
1183.278752459029
 30
0.0
 11
2682.454597540975
 21
1190.655801639356
 31
0.0
  0
LINE
  5
448
330
1F
100
AcDbEntity
  8
Ｓ_１_１
  6
CONTINUOUS
 62
     3
100
AcDbLine
 10
2704.585671311469
 20
1168.524727868862
 30
0.0
 11
2699.215577868839
 21
1183.278826229518
 31
0.0
  0
LINE
  5
449
330
1F
100
AcDbEntity
  8
Ｓ_１_１
  6
CONTINUOUS
 62
     3
100
AcDbLine
 10
2660.323376229502
 20
1168.524801639353
 30
0.0
 11
2665.693469672118
 21
1183.278900000008
 31
0.0
  0
LINE
  5
44A
330
1F
100
AcDbEntity
  8
Ｓ_１_１
  6
CONTINUOUS
 62
     3
100
AcDbLine
 10
2665.693336885241
 20
1183.278678688539
 30
0.0
 11
2699.215607377046
 21
1183.278678688539
 31
0.0
  0
LINE
  5
44B
330
1F
100
AcDbEntity
  8
Ｓ_１_１
  6
CONTINUOUS
 62
     3
100
AcDbLine
 10
3523.438263114739
 20
1485.737650819685
 30
0.0
 11
3540.199302459002
 21
1478.360601639357
 31
0.0
  0
LINE
  5
44C
330
1F
100
AcDbEntity
  8
Ｓ_１_１
  6
CONTINUOUS
 62
     3
100
AcDbLine
 10
3506.677179508191
 20
1478.360675409847
 30
0.0
 11
3523.438218852456
 21
1485.737724590175
 31
0.0
  0
LINE
  5
44D
330
1F
100
AcDbEntity
  8
Ｓ_１_１
  6
CONTINUOUS
 62
     3
100
AcDbLine
 10
3545.568968032783
 20
1463.606680327875
 30
0.0
 11
3540.198889344256
 21
1478.36077868853
 31
0.0
  0
LINE
  5
44E
330
1F
100
AcDbEntity
  8
Ｓ_１_１
  6
CONTINUOUS
 62
     3
100
AcDbLine
 10
3501.306790983601
 20
1463.606695081978
 30
0.0
 11
3506.676884426217
 21
1478.360793442634
 31
0.0
  0
LINE
  5
44F
330
1F
100
AcDbEntity
  8
Ｓ_１_１
  6
CONTINUOUS
 62
     3
100
AcDbLine
 10
3506.677090983598
 20
1478.360631147551
 30
0.0
 11
3540.199199180319
 21
1478.360631147551
 31
0.0
  0
LINE
  5
450
330
1F
100
AcDbEntity
  8
Ｓ_１_１
  6
CONTINUOUS
 62
     3
100
AcDbLine
 10
3336.552894262287
 20
1498.032772131156
 30
0.0
 11
3415.241413934412
 21
1498.032772131156
 31
0.0
  0
LINE
  5
451
330
1F
100
AcDbEntity
  8
Ｓ_１_１
  6
CONTINUOUS
 62
     3
100
AcDbLine
 10
3410.323386065566
 20
1498.032772131156
 30
0.0
 11
3410.323386065566
 21
1463.606532786895
 31
0.0
  0
LINE
  5
452
330
1F
100
AcDbEntity
  8
Ｓ_１_１
  6
CONTINUOUS
 62
     3
100
AcDbLine
 10
3341.470936885237
 20
1498.032772131156
 30
0.0
 11
3341.470936885237
 21
1463.606532786895
 31
0.0
  0
LINE
  5
453
330
1F
100
AcDbEntity
  8
Ｓ_１_１
  6
CONTINUOUS
 62
     3
100
AcDbLine
 10
3066.061095901624
 20
888.1965639344307
 30
0.0
 11
3085.733222131139
 21
888.1965639344307
 31
0.0
  0
LINE
  5
454
330
1F
100
AcDbEntity
  8
Ｓ_１_１
  6
CONTINUOUS
 62
     3
100
AcDbLine
 10
3085.733222131139
 20
986.5572098360717
 30
0.0
 11
3085.733222131139
 21
888.1965639344307
 31
0.0
  0
LINE
  5
455
330
1F
100
AcDbEntity
  8
Ｓ_１_１
  6
CONTINUOUS
 62
     3
100
AcDbLine
 10
3066.061095901624
 20
986.5572098360717
 30
0.0
 11
3066.061095901624
 21
888.1965639344307
 31
0.0
  0
LINE
  5
456
330
1F
100
AcDbEntity
  8
Ｓ_１_１
  6
CONTINUOUS
 62
     3
100
AcDbLine
 10
3066.061095901624
 20
986.5572098360717
 30
0.0
 11
3085.733222131139
 21
986.5572098360717
 31
0.0
  0
LINE
  5
457
330
1F
100
AcDbEntity
  8
Ｓ_１_１
  6
CONTINUOUS
 62
     3
100
AcDbLine
 10
3061.143068032778
 20
883.2785213114803
 30
0.0
 11
3090.651264754089
 21
883.2785213114803
 31
0.0
  0
LINE
  5
458
330
1F
100
AcDbEntity
  8
Ｓ_１_１
  6
CONTINUOUS
 62
     3
100
AcDbLine
 10
3061.143068032778
 20
991.4752524590203
 30
0.0
 11
3090.651264754089
 21
991.4752524590203
 31
0.0
  0
LINE
  5
459
330
1F
100
AcDbEntity
  8
Ｓ_１_１
  6
CONTINUOUS
 62
     3
100
AcDbLine
 10
3090.651264754089
 20
991.4752524590203
 30
0.0
 11
3090.651264754089
 21
883.2785213114803
 31
0.0
  0
LINE
  5
45A
330
1F
100
AcDbEntity
  8
Ｓ_１_１
  6
CONTINUOUS
 62
     3
100
AcDbLine
 10
3061.143068032778
 20
991.4752524590203
 30
0.0
 11
3061.143068032778
 21
883.2785213114803
 31
0.0
  0
LINE
  5
45B
330
1F
100
AcDbEntity
  8
Ｓ_１_１
  6
CONTINUOUS
 62
     3
100
AcDbLine
 10
3026.71684344262
 20
745.5736081967334
 30
0.0
 11
3498.8479762295
 21
745.5736081967334
 31
0.0
  0
LINE
  5
45C
330
1F
100
AcDbEntity
  8
Ｓ_１_１
  6
CONTINUOUS
 62
     3
100
AcDbLine
 10
3508.684046721296
 20
1129.180165573782
 30
0.0
 11
3508.684046721296
 21
755.4096786885293
 31
0.0
  0
LINE
  5
45D
330
1F
100
AcDbEntity
  8
Ｓ_１_１
  6
CONTINUOUS
 62
     3
100
AcDbLine
 10
2652.946356557366
 20
1168.524580327883
 30
0.0
 11
2997.208646721309
 21
1168.524580327883
 31
0.0
  0
LINE
  5
45E
330
1F
100
AcDbEntity
  8
Ｓ_１_１
  6
CONTINUOUS
 62
     3
100
AcDbLine
 10
3552.946341803263
 20
1463.606532786895
 30
0.0
 11
3552.946341803263
 21
479.9998377049305
 31
0.0
  0
LINE
  5
45F
330
1F
100
AcDbEntity
  8
Ｓ_１_１
  6
CONTINUOUS
 62
     3
100
AcDbLine
 10
2652.946356557366
 20
1168.524580327883
 30
0.0
 11
2652.946356557366
 21
479.9998377049305
 31
0.0
  0
LINE
  5
460
330
1F
100
AcDbEntity
  8
Ｓ_１_１
  6
CONTINUOUS
 62
     3
100
AcDbLine
 10
2652.946356557366
 20
480.0000000000127
 30
0.0
 11
2679.02695491802
 21
480.0000000000127
 31
0.0
  0
LINE
  5
461
330
1F
100
AcDbEntity
  8
Ｓ_１_１
  6
CONTINUOUS
 62
     3
100
AcDbLine
 10
3144.749615573762
 20
1463.606532786895
 30
0.0
 11
3552.946341803263
 21
1463.606532786895
 31
0.0
  0
LINE
  5
462
330
1F
100
AcDbEntity
  8
Ｓ_１_１
  6
CONTINUOUS
 62
     3
100
AcDbLine
 10
2657.864384426226
 20
558.6885196721378
 30
0.0
 11
2701.152643695656
 21
558.6885196721378
 31
0.0
  0
LINE
  5
463
330
1F
100
AcDbEntity
  8
Ｓ_１_１
  6
CONTINUOUS
 62
     3
100
AcDbLine
 10
2801.461213681378
 20
558.6885196721378
 30
0.0
 11
3404.431396154672
 21
558.6885196721378
 31
0.0
  0
LINE
  5
464
330
1F
100
AcDbEntity
  8
Ｓ_１_１
  6
CONTINUOUS
 62
     3
100
AcDbLine
 10
3504.739966140394
 20
558.6885196721378
 30
0.0
 11
3548.028299180314
 21
558.6885196721378
 31
0.0
  0
LINE
  5
465
330
1F
100
AcDbEntity
  8
Ｓ_１_１
  6
EXLTYPE2
 62
     1
100
AcDbLine
 10
2751.3069286885
 20
404.5901540984005
 30
0.0
 11
2751.3069286885
 21
604.5901540984005
 31
0.0
  0
LINE
  5
466
330
1F
100
AcDbEntity
  8
Ｓ_１_１
  6
EXLTYPE2
 62
     1
100
AcDbLine
 10
2651.3069286885
 20
504.5901540984005
 30
0.0
 11
2851.3069286885
 21
504.5901540984005
 31
0.0
  0
LINE
  5
467
330
1F
100
AcDbEntity
  8
Ｓ_１_１
  6
EXLTYPE2
 62
     1
100
AcDbLine
 10
3454.5856811475
 20
404.5901540984005
 30
0.0
 11
3454.5856811475
 21
604.5901540984005
 31
0.0
  0
LINE
  5
468
330
1F
100
AcDbEntity
  8
Ｓ_１_１
  6
EXLTYPE2
 62
     1
100
AcDbLine
 10
3354.5856811475
 20
504.5901540984005
 30
0.0
 11
3554.5856811475
 21
504.5901540984005
 31
0.0
  0
LINE
  5
469
330
1F
100
AcDbEntity
  8
Ｓ_１_１
  6
EXLTYPE2
 62
     1
100
AcDbLine
 10
3272.6184729508
 20
1000.9014770492
 30
0.0
 11
3272.6184729508
 21
1050.9014770492
 31
0.0
  0
LINE
  5
46A
330
1F
100
AcDbEntity
  8
Ｓ_１_１
  6
EXLTYPE2
 62
     1
100
AcDbLine
 10
3247.6184729508
 20
1025.9014770492
 30
0.0
 11
3297.6184729508
 21
1025.9014770492
 31
0.0
  0
LINE
  5
46B
330
1F
100
AcDbEntity
  8
Ｓ_１_１
  6
EXLTYPE2
 62
     1
100
AcDbLine
 10
3213.6020795082
 20
927.1309852459008
 30
0.0
 11
3213.6020795082
 21
977.1309852459008
 31
0.0
  0
LINE
  5
46C
330
1F
100
AcDbEntity
  8
Ｓ_１_１
  6
EXLTYPE2
 62
     1
100
AcDbLine
 10
3188.6020795082
 20
952.1309852459007
 30
0.0
 11
3238.6020795082
 21
952.1309852459007
 31
0.0
  0
LINE
  5
46D
330
1F
100
AcDbEntity
  8
Ｓ_１_１
  6
EXLTYPE2
 62
     1
100
AcDbLine
 10
3213.6020795082
 20
823.8522967213003
 30
0.0
 11
3213.6020795082
 21
873.8522967213003
 31
0.0
  0
LINE
  5
46E
330
1F
100
AcDbEntity
  8
Ｓ_１_１
  6
EXLTYPE2
 62
     1
100
AcDbLine
 10
3188.6020795082
 20
848.8522967213003
 30
0.0
 11
3238.6020795082
 21
848.8522967213003
 31
0.0
  0
LINE
  5
46F
330
1F
100
AcDbEntity
  8
Ｓ_１_１
  6
EXLTYPE2
 62
     1
100
AcDbLine
 10
3331.6348663934
 20
823.8522967213003
 30
0.0
 11
3331.6348663934
 21
873.8522967213003
 31
0.0
  0
LINE
  5
470
330
1F
100
AcDbEntity
  8
Ｓ_１_１
  6
EXLTYPE2
 62
     1
100
AcDbLine
 10
3306.6348663934
 20
848.8522967213003
 30
0.0
 11
3356.6348663934
 21
848.8522967213003
 31
0.0
  0
LINE
  5
471
330
1F
100
AcDbEntity
  8
Ｓ_１_１
  6
EXLTYPE2
 62
     1
100
AcDbLine
 10
3331.6348663934
 20
927.1309852459008
 30
0.0
 11
3331.6348663934
 21
977.1309852459008
 31
0.0
  0
LINE
  5
472
330
1F
100
AcDbEntity
  8
Ｓ_１_１
  6
EXLTYPE2
 62
     1
100
AcDbLine
 10
3306.6348663934
 20
952.1309852459007
 30
0.0
 11
3356.6348663934
 21
952.1309852459007
 31
0.0
  0
LINE
  5
473
330
1F
100
AcDbEntity
  8
Ｓ_１_１
  6
EXLTYPE2
 62
     1
100
AcDbLine
 10
2765.6512696721
 20
1271.8032688525
 30
0.0
 11
2815.6512696721
 21
1271.8032688525
 31
0.0
  0
LINE
  5
474
330
1F
100
AcDbEntity
  8
Ｓ_１_１
  6
EXLTYPE2
 62
     1
100
AcDbLine
 10
2938.192245901599
 20
1238.720090164001
 30
0.0
 11
2938.192245901599
 21
1151.720090164001
 31
0.0
  0
LINE
  5
475
330
1F
100
AcDbEntity
  8
Ｓ_１_１
  6
EXLTYPE2
 62
     1
100
AcDbLine
 10
2790.6512696721
 20
1151.720090164001
 30
0.0
 11
2790.6512696721
 21
1296.8032688525
 31
0.0
  0
LINE
  5
476
330
1F
100
AcDbEntity
  8
Ｓ_１_１
  6
CONTINUOUS
 62
     3
100
AcDbLine
 10
3598.360722131178
 20
3143.606532786884
 30
0.0
 11
2801.639277868891
 21
3143.606532786884
 31
0.0
  0
LINE
  5
477
330
1F
100
AcDbEntity
  8
Ｓ_１_１
  6
CONTINUOUS
 62
     3
100
AcDbLine
 10
3598.360722131178
 20
3143.606532786884
 30
0.0
 11
3598.360722131178
 21
2159.999911475408
 31
0.0
  0
LINE
  5
478
330
1F
100
AcDbEntity
  8
Ｓ_１_１
  6
CONTINUOUS
 62
     3
100
AcDbLine
 10
2801.639277868891
 20
3143.606532786884
 30
0.0
 11
2801.639277868891
 21
2159.999911475408
 31
0.0
  0
LINE
  5
479
330
1F
100
AcDbEntity
  8
Ｓ_１_１
  6
CONTINUOUS
 62
     3
100
AcDbLine
 10
3627.86891885249
 20
2199.344178688529
 30
0.0
 11
3598.360722131178
 21
2199.344178688529
 31
0.0
  0
LINE
  5
47A
330
1F
100
AcDbEntity
  8
Ｓ_１_１
  6
CONTINUOUS
 62
     3
100
AcDbLine
 10
3627.86891885249
 20
2169.836026229515
 30
0.0
 11
3598.360722131178
 21
2169.836026229515
 31
0.0
  0
LINE
  5
47B
330
1F
100
AcDbEntity
  8
Ｓ_１_１
  6
CONTINUOUS
 62
     3
100
AcDbLine
 10
3667.21318606561
 20
2253.442544262307
 30
0.0
 11
3667.21318606561
 21
2115.73761639344
 31
0.0
  0
LINE
  5
47C
330
1F
100
AcDbEntity
  8
Ｓ_１_１
  6
CONTINUOUS
 62
     3
100
AcDbLine
 10
2732.786813934459
 20
2253.442573770499
 30
0.0
 11
2732.786813934459
 21
2115.73761639344
 31
0.0
  0
LINE
  5
47D
330
1F
100
AcDbEntity
  8
Ｓ_１_１
  6
CONTINUOUS
 62
     3
100
AcDbLine
 10
3627.86891885249
 20
2253.442470491802
 30
0.0
 11
3627.86891885249
 21
2115.73761639344
 31
0.0
  0
LINE
  5
47E
330
1F
100
AcDbEntity
  8
Ｓ_１_１
  6
CONTINUOUS
 62
     3
100
AcDbLine
 10
2772.131081147579
 20
2253.442544262307
 30
0.0
 11
2772.131081147579
 21
2115.737704918034
 31
0.0
  0
LINE
  5
47F
330
1F
100
AcDbEntity
  8
Ｓ_１_１
  6
CONTINUOUS
 62
     3
100
AcDbLine
 10
3662.29514344266
 20
2258.360572131152
 30
0.0
 11
3632.78694672135
 21
2258.360572131152
 31
0.0
  0
LINE
  5
480
330
1F
100
AcDbEntity
  8
Ｓ_１_１
  6
CONTINUOUS
 62
     3
100
AcDbLine
 10
3662.29514344266
 20
2110.819588524595
 30
0.0
 11
3632.78694672135
 21
2110.819588524595
 31
0.0
  0
LINE
  5
481
330
1F
100
AcDbEntity
  8
Ｓ_１_１
  6
CONTINUOUS
 62
     3
100
AcDbLine
 10
2737.704841803304
 20
2258.360572131152
 30
0.0
 11
2767.213038524616
 21
2258.360572131152
 31
0.0
  0
LINE
  5
482
330
1F
100
AcDbEntity
  8
Ｓ_１_１
  6
CONTINUOUS
 62
     3
100
AcDbLine
 10
3470.491879508225
 20
3178.032757377056
 30
0.0
 11
3470.491879508225
 21
3143.606532786884
 31
0.0
  0
LINE
  5
483
330
1F
100
AcDbEntity
  8
Ｓ_１_１
  6
CONTINUOUS
 62
     3
100
AcDbLine
 10
3401.639415573807
 20
3178.032757377056
 30
0.0
 11
3470.491879508225
 21
3178.032757377056
 31
0.0
  0
LINE
  5
484
330
1F
100
AcDbEntity
  8
Ｓ_１_１
  6
CONTINUOUS
 62
     3
100
AcDbLine
 10
3549.180399180364
 20
3099.344237704916
 30
0.0
 11
3549.180399180364
 21
2848.524580327872
 31
0.0
  0
LINE
  5
485
330
1F
100
AcDbEntity
  8
Ｓ_１_１
  6
CONTINUOUS
 62
     3
100
AcDbLine
 10
3549.180399180364
 20
3099.344237704916
 30
0.0
 11
2850.819600819704
 21
3099.344237704916
 31
0.0
  0
LINE
  5
486
330
1F
100
AcDbEntity
  8
Ｓ_１_１
  6
CONTINUOUS
 62
     3
100
AcDbLine
 10
3549.180399180364
 20
2848.524580327872
 30
0.0
 11
2850.819600819704
 21
2848.524580327872
 31
0.0
  0
LINE
  5
487
330
1F
100
AcDbEntity
  8
Ｓ_１_１
  6
CONTINUOUS
 62
     3
100
AcDbLine
 10
2826.213527049216
 20
3217.158501639356
 30
0.0
 11
2826.213527049216
 21
3153.224080327873
 31
0.0
  0
LINE
  5
488
330
1F
100
AcDbEntity
  8
Ｓ_１_１
  6
CONTINUOUS
 62
     3
100
AcDbLine
 10
2826.213527049216
 20
3217.158501639356
 30
0.0
 11
2826.213527049216
 21
3197.165031147544
 31
0.0
  0
LINE
  5
489
330
1F
100
AcDbEntity
  8
Ｓ_１_１
  6
CONTINUOUS
 62
     3
100
AcDbLine
 10
2845.885653278719
 20
3217.158501639356
 30
0.0
 11
2845.885653278719
 21
3153.224080327873
 31
0.0
  0
LINE
  5
48A
330
1F
100
AcDbEntity
  8
Ｓ_１_１
  6
CONTINUOUS
 62
     3
100
AcDbLine
 10
2813.918390983642
 20
3143.388142622955
 30
0.0
 11
2819.288454918065
 21
3158.142240983609
 31
0.0
  0
LINE
  5
48B
330
1F
100
AcDbEntity
  8
Ｓ_１_１
  6
CONTINUOUS
 62
     3
100
AcDbLine
 10
2852.810784426257
 20
3158.142063934436
 30
0.0
 11
2858.180833606589
 21
3143.38796557378
 31
0.0
  0
LINE
  5
48C
330
1F
100
AcDbEntity
  8
Ｓ_１_１
  6
CONTINUOUS
 62
     3
100
AcDbLine
 10
2819.288602459046
 20
3158.14209344263
 30
0.0
 11
2826.213645082003
 21
3159.997657377058
 31
0.0
  0
LINE
  5
48D
330
1F
100
AcDbEntity
  8
Ｓ_１_１
  6
CONTINUOUS
 62
     3
100
AcDbLine
 10
2845.885682786913
 20
3159.997716393444
 30
0.0
 11
2852.81072540987
 21
3158.14216721312
 31
0.0
  0
LINE
  5
48E
330
1F
100
AcDbEntity
  8
Ｓ_１_１
  6
CONTINUOUS
 62
     3
100
AcDbLine
 10
3544.246451639377
 20
3217.158501639356
 30
0.0
 11
3544.246451639377
 21
3153.224080327873
 31
0.0
  0
LINE
  5
48F
330
1F
100
AcDbEntity
  8
Ｓ_１_１
  6
CONTINUOUS
 62
     3
100
AcDbLine
 10
3544.246451639377
 20
3217.158501639356
 30
0.0
 11
3544.246451639377
 21
3197.165031147544
 31
0.0
  0
LINE
  5
490
330
1F
100
AcDbEntity
  8
Ｓ_１_１
  6
CONTINUOUS
 62
     3
100
AcDbLine
 10
3563.918577868881
 20
3217.158501639356
 30
0.0
 11
3563.918577868881
 21
3153.224080327873
 31
0.0
  0
LINE
  5
491
330
1F
100
AcDbEntity
  8
Ｓ_１_１
  6
CONTINUOUS
 62
     3
100
AcDbLine
 10
3531.951168032823
 20
3143.388024590167
 30
0.0
 11
3537.321217213144
 21
3158.142137704926
 31
0.0
  0
LINE
  5
492
330
1F
100
AcDbEntity
  8
Ｓ_１_１
  6
CONTINUOUS
 62
     3
100
AcDbLine
 10
3570.843369672162
 20
3158.142019672139
 30
0.0
 11
3576.213433606585
 21
3143.38790655738
 31
0.0
  0
LINE
  5
493
330
1F
100
AcDbEntity
  8
Ｓ_１_１
  6
CONTINUOUS
 62
     3
100
AcDbLine
 10
3537.32146803282
 20
3158.142137704926
 30
0.0
 11
3544.246510655765
 21
3159.997701639353
 31
0.0
  0
LINE
  5
494
330
1F
100
AcDbEntity
  8
Ｓ_１_１
  6
CONTINUOUS
 62
     3
100
AcDbLine
 10
3563.918474590197
 20
3159.997716393444
 30
0.0
 11
3570.843517213141
 21
3158.14216721312
 31
0.0
  0
LINE
  5
495
330
1F
100
AcDbEntity
  8
Ｓ_１_１
  6
CONTINUOUS
 62
     3
100
AcDbLine
 10
3401.639415573807
 20
3178.032757377056
 30
0.0
 11
3401.639415573807
 21
3143.606532786884
 31
0.0
  0
LINE
  5
496
330
1F
100
AcDbEntity
  8
Ｓ_１_１
  6
CONTINUOUS
 62
     3
100
AcDbLine
 10
3554.09842704921
 20
2843.606552459027
 30
0.0
 11
2845.901572950859
 21
2843.606552459027
 31
0.0
  0
LINE
  5
497
330
1F
100
AcDbEntity
  8
Ｓ_１_１
  6
CONTINUOUS
 62
     3
100
AcDbLine
 10
3554.09842704921
 20
3104.262280327879
 30
0.0
 11
2845.901572950859
 21
3104.262280327879
 31
0.0
  0
LINE
  5
498
330
1F
100
AcDbEntity
  8
Ｓ_１_１
  6
CONTINUOUS
 62
     3
100
AcDbLine
 10
3554.09842704921
 20
3104.262280327879
 30
0.0
 11
3554.09842704921
 21
2843.606552459027
 31
0.0
  0
LINE
  5
499
330
1F
100
AcDbEntity
  8
Ｓ_１_１
  6
CONTINUOUS
 62
     3
100
AcDbLine
 10
2722.354190983644
 20
2198.747478688532
 30
0.0
 11
2732.786917213141
 21
2209.180204918042
 31
0.0
  0
LINE
  5
49A
330
1F
100
AcDbEntity
  8
Ｓ_１_１
  6
CONTINUOUS
 62
     3
100
AcDbLine
 10
2722.35417622954
 20
2170.43256393443
 30
0.0
 11
2732.786902459052
 21
2159.999852459023
 31
0.0
  0
LINE
  5
49B
330
1F
100
AcDbEntity
  8
Ｓ_１_１
  6
CONTINUOUS
 62
     3
100
AcDbLine
 10
2722.354161475437
 20
2198.747508196724
 30
0.0
 11
2722.354161475437
 21
2170.432608196727
 31
0.0
  0
LINE
  5
49C
330
1F
100
AcDbEntity
  8
Ｓ_１_１
  6
CONTINUOUS
 62
     3
100
AcDbLine
 10
3667.213023770526
 20
2209.180411475409
 30
0.0
 11
3677.645750000038
 21
2198.747685245911
 31
0.0
  0
LINE
  5
49D
330
1F
100
AcDbEntity
  8
Ｓ_１_１
  6
CONTINUOUS
 62
     3
100
AcDbLine
 10
3667.213141803313
 20
2160.000044262299
 30
0.0
 11
3677.64585327872
 21
2170.432755737706
 31
0.0
  0
LINE
  5
49E
330
1F
100
AcDbEntity
  8
Ｓ_１_１
  6
CONTINUOUS
 62
     3
100
AcDbLine
 10
3677.64598606561
 20
2198.747478688532
 30
0.0
 11
3677.64598606561
 21
2170.432608196727
 31
0.0
  0
LINE
  5
49F
330
1F
100
AcDbEntity
  8
Ｓ_１_１
  6
CONTINUOUS
 62
     3
100
AcDbLine
 10
2737.704856557409
 20
2258.360527868856
 30
0.0
 11
2732.786828688562
 21
2253.442529508202
 31
0.0
  0
LINE
  5
4A0
330
1F
100
AcDbEntity
  8
Ｓ_１_１
  6
CONTINUOUS
 62
     3
100
AcDbLine
 10
2732.786740163968
 20
2115.737704918034
 30
0.0
 11
2737.704768032816
 21
2110.819662295085
 31
0.0
  0
LINE
  5
4A1
330
1F
100
AcDbEntity
  8
Ｓ_１_１
  6
CONTINUOUS
 62
     3
100
AcDbLine
 10
2767.213097541016
 20
2110.819618032789
 30
0.0
 11
2772.131110655773
 21
2115.737675409842
 31
0.0
  0
LINE
  5
4A2
330
1F
100
AcDbEntity
  8
Ｓ_１_１
  6
CONTINUOUS
 62
     3
100
AcDbLine
 10
2772.131051639373
 20
2253.442573770499
 30
0.0
 11
2767.213009016422
 21
2258.360601639346
 31
0.0
  0
LINE
  5
4A3
330
1F
100
AcDbEntity
  8
Ｓ_１_１
  6
CONTINUOUS
 62
     3
100
AcDbLine
 10
2737.704841803304
 20
2258.360572131152
 30
0.0
 11
2737.704841803304
 21
2110.819588524595
 31
0.0
  0
LINE
  5
4A4
330
1F
100
AcDbEntity
  8
Ｓ_１_１
  6
CONTINUOUS
 62
     3
100
AcDbLine
 10
2767.213038524616
 20
2258.360572131152
 30
0.0
 11
2767.213038524616
 21
2110.819588524595
 31
0.0
  0
LINE
  5
4A5
330
1F
100
AcDbEntity
  8
Ｓ_１_１
  6
CONTINUOUS
 62
     3
100
AcDbLine
 10
3632.786828688563
 20
2258.360424590173
 30
0.0
 11
3627.868830327895
 21
2253.442352459017
 31
0.0
  0
LINE
  5
4A6
330
1F
100
AcDbEntity
  8
Ｓ_１_１
  6
CONTINUOUS
 62
     3
100
AcDbLine
 10
3627.868668032826
 20
2115.737793442628
 30
0.0
 11
3632.786710655775
 21
2110.819765573782
 31
0.0
  0
LINE
  5
4A7
330
1F
100
AcDbEntity
  8
Ｓ_１_１
  6
CONTINUOUS
 62
     3
100
AcDbLine
 10
3662.294892622984
 20
2110.819706557382
 30
0.0
 11
3667.212920491829
 21
2115.737749180331
 31
0.0
  0
LINE
  5
4A8
330
1F
100
AcDbEntity
  8
Ｓ_１_１
  6
CONTINUOUS
 62
     3
100
AcDbLine
 10
3667.212920491829
 20
2253.442588524589
 30
0.0
 11
3662.294892622984
 21
2258.36063114754
 31
0.0
  0
LINE
  5
4A9
330
1F
100
AcDbEntity
  8
Ｓ_１_１
  6
CONTINUOUS
 62
     3
100
AcDbLine
 10
3632.78694672135
 20
2258.360572131152
 30
0.0
 11
3632.78694672135
 21
2110.819588524595
 31
0.0
  0
LINE
  5
4AA
330
1F
100
AcDbEntity
  8
Ｓ_１_１
  6
CONTINUOUS
 62
     3
100
AcDbLine
 10
3662.29514344266
 20
2258.360572131152
 30
0.0
 11
3662.29514344266
 21
2110.819588524595
 31
0.0
  0
LINE
  5
4AB
330
1F
100
AcDbEntity
  8
Ｓ_１_１
  6
CONTINUOUS
 62
     3
100
AcDbLine
 10
3598.360722131178
 20
2160.000000000002
 30
0.0
 11
2801.639277868891
 21
2160.000000000002
 31
0.0
  0
LINE
  5
4AC
330
1F
100
AcDbEntity
  8
Ｓ_１_１
  6
CONTINUOUS
 62
     3
100
AcDbLine
 10
2801.639277868891
 20
2199.344178688529
 30
0.0
 11
2772.13115491807
 21
2199.344178688529
 31
0.0
  0
LINE
  5
4AD
330
1F
100
AcDbEntity
  8
Ｓ_１_１
  6
CONTINUOUS
 62
     3
100
AcDbLine
 10
2801.639277868891
 20
2169.836026229515
 30
0.0
 11
2772.13115491807
 21
2169.836026229515
 31
0.0
  0
LINE
  5
4AE
330
1F
100
AcDbEntity
  8
Ｓ_１_１
  6
CONTINUOUS
 62
     3
100
AcDbLine
 10
2845.901572950859
 20
3104.262280327879
 30
0.0
 11
2845.901572950859
 21
2843.606552459027
 31
0.0
  0
LINE
  5
4AF
330
1F
100
AcDbEntity
  8
Ｓ_１_１
  6
CONTINUOUS
 62
     3
100
AcDbLine
 10
2850.819600819704
 20
3099.344237704916
 30
0.0
 11
2850.819600819704
 21
2848.524580327872
 31
0.0
  0
LINE
  5
4B0
330
1F
100
AcDbEntity
  8
Ｓ_１_１
  6
CONTINUOUS
 62
     3
100
AcDbLine
 10
3593.442694262332
 20
3138.688504918038
 30
0.0
 11
2806.557305737736
 21
3138.688504918038
 31
0.0
  0
LINE
  5
4B1
330
1F
100
AcDbEntity
  8
Ｓ_１_１
  6
CONTINUOUS
 62
     3
100
AcDbLine
 10
3593.442694262332
 20
3138.688504918038
 30
0.0
 11
3593.442694262332
 21
2209.18032295083
 31
0.0
  0
LINE
  5
4B2
330
1F
100
AcDbEntity
  8
Ｓ_１_１
  6
CONTINUOUS
 62
     3
100
AcDbLine
 10
2806.557305737736
 20
3138.688504918038
 30
0.0
 11
2806.557305737736
 21
2209.18032295083
 31
0.0
  0
LINE
  5
4B3
330
1F
100
AcDbEntity
  8
Ｓ_１_１
  6
CONTINUOUS
 62
     3
100
AcDbLine
 10
3593.442694262332
 20
2209.18032295083
 30
0.0
 11
2806.557305737736
 21
2209.18032295083
 31
0.0
  0
LINE
  5
4B4
330
1F
100
AcDbEntity
  8
Ｓ_１_１
  6
CONTINUOUS
 62
     3
100
AcDbLine
 10
3598.360722131178
 20
2435.768188524593
 30
0.0
 11
3618.032848360694
 21
2435.768188524593
 31
0.0
  0
LINE
  5
4B5
330
1F
100
AcDbEntity
  8
Ｓ_１_１
  6
CONTINUOUS
 62
     3
100
AcDbLine
 10
3598.360722131178
 20
2288.227219672139
 30
0.0
 11
3618.032848360694
 21
2288.227219672139
 31
0.0
  0
LINE
  5
4B6
330
1F
100
AcDbEntity
  8
Ｓ_１_１
  6
CONTINUOUS
 62
     3
100
AcDbLine
 10
3618.032848360694
 20
2435.768188524593
 30
0.0
 11
3618.032848360694
 21
2288.227219672139
 31
0.0
  0
LINE
  5
4B7
330
1F
100
AcDbEntity
  8
Ｓ_１_１
  6
CONTINUOUS
 62
     3
100
AcDbLine
 10
2801.63949918036
 20
2435.768188524593
 30
0.0
 11
2781.967372950859
 21
2435.768188524593
 31
0.0
  0
LINE
  5
4B8
330
1F
100
AcDbEntity
  8
Ｓ_１_１
  6
CONTINUOUS
 62
     3
100
AcDbLine
 10
2801.63949918036
 20
2288.227219672139
 30
0.0
 11
2781.967372950859
 21
2288.227219672139
 31
0.0
  0
LINE
  5
4B9
330
1F
100
AcDbEntity
  8
Ｓ_１_１
  6
CONTINUOUS
 62
     3
100
AcDbLine
 10
2781.967372950859
 20
2435.768188524593
 30
0.0
 11
2781.967372950859
 21
2288.227219672139
 31
0.0
  0
LINE
  5
4BA
330
1F
100
AcDbEntity
  8
Ｓ_１_１
  6
CONTINUOUS
 62
     3
100
AcDbLine
 10
2781.967372950859
 20
3065.27637540984
 30
0.0
 11
2781.967372950859
 21
2917.735421311476
 31
0.0
  0
LINE
  5
4BB
330
1F
100
AcDbEntity
  8
Ｓ_１_１
  6
CONTINUOUS
 62
     3
100
AcDbLine
 10
2801.63949918036
 20
2917.735421311476
 30
0.0
 11
2781.967372950859
 21
2917.735421311476
 31
0.0
  0
LINE
  5
4BC
330
1F
100
AcDbEntity
  8
Ｓ_１_１
  6
CONTINUOUS
 62
     3
100
AcDbLine
 10
2801.63949918036
 20
3065.27637540984
 30
0.0
 11
2781.967372950859
 21
3065.27637540984
 31
0.0
  0
LINE
  5
4BD
330
1F
100
AcDbEntity
  8
Ｓ_１_１
  6
CONTINUOUS
 62
     3
100
AcDbLine
 10
3618.032848360694
 20
3065.27637540984
 30
0.0
 11
3618.032848360694
 21
2917.735421311476
 31
0.0
  0
LINE
  5
4BE
330
1F
100
AcDbEntity
  8
Ｓ_１_１
  6
CONTINUOUS
 62
     3
100
AcDbLine
 10
3598.360722131178
 20
2917.735421311476
 30
0.0
 11
3618.032848360694
 21
2917.735421311476
 31
0.0
  0
LINE
  5
4BF
330
1F
100
AcDbEntity
  8
Ｓ_１_１
  6
CONTINUOUS
 62
     3
100
AcDbLine
 10
3598.360722131178
 20
3065.27637540984
 30
0.0
 11
3618.032848360694
 21
3065.27637540984
 31
0.0
  0
CIRCLE
  5
4C0
330
1F
100
AcDbEntity
  8
Ｓ_１_１
  6
CONTINUOUS
 62
     3
100
AcDbCircle
 10
3352.459092622979
 20
3020.655718032791
 30
0.0
 40
9.836070491803278
  0
CIRCLE
  5
4C1
330
1F
100
AcDbEntity
  8
Ｓ_１_１
  6
CONTINUOUS
 62
     3
100
AcDbCircle
 10
3254.09843196725
 20
3020.655718032791
 30
0.0
 40
9.836070491803278
  0
CIRCLE
  5
4C2
330
1F
100
AcDbEntity
  8
Ｓ_１_１
  6
CONTINUOUS
 62
     3
100
AcDbCircle
 10
3027.868854918064
 20
3020.655718032791
 30
0.0
 40
9.836070491803278
  0
CIRCLE
  5
4C3
330
1F
100
AcDbEntity
  8
Ｓ_１_１
  6
CONTINUOUS
 62
     3
100
AcDbCircle
 10
2929.508194262332
 20
3020.655718032791
 30
0.0
 40
9.836070491803278
  0
CIRCLE
  5
4C4
330
1F
100
AcDbEntity
  8
Ｓ_１_１
  6
CONTINUOUS
 62
     3
100
AcDbCircle
 10
3352.459092622979
 20
2922.295057377047
 30
0.0
 40
14.75409836065574
  0
CIRCLE
  5
4C5
330
1F
100
AcDbEntity
  8
Ｓ_１_１
  6
CONTINUOUS
 62
     3
100
AcDbCircle
 10
3254.09843196725
 20
2922.295057377047
 30
0.0
 40
14.75409836065574
  0
CIRCLE
  5
4C6
330
1F
100
AcDbEntity
  8
Ｓ_１_１
  6
CONTINUOUS
 62
     3
100
AcDbCircle
 10
3027.868854918064
 20
2922.295057377047
 30
0.0
 40
14.75409836065574
  0
CIRCLE
  5
4C7
330
1F
100
AcDbEntity
  8
Ｓ_１_１
  6
CONTINUOUS
 62
     3
100
AcDbCircle
 10
2929.508194262332
 20
2922.295057377047
 30
0.0
 40
14.75409836065574
  0
CIRCLE
  5
4C8
330
1F
100
AcDbEntity
  8
Ｓ_１_１
  6
CONTINUOUS
 62
     3
100
AcDbCircle
 10
2929.508194262332
 20
3020.655718032791
 30
0.0
 40
7.377049180327869
  0
CIRCLE
  5
4C9
330
1F
100
AcDbEntity
  8
Ｓ_１_１
  6
CONTINUOUS
 62
     3
100
AcDbCircle
 10
3027.868854918064
 20
3020.655718032791
 30
0.0
 40
7.377049180327869
  0
CIRCLE
  5
4CA
330
1F
100
AcDbEntity
  8
Ｓ_１_１
  6
CONTINUOUS
 62
     3
100
AcDbCircle
 10
3254.09843196725
 20
3020.655718032791
 30
0.0
 40
7.377049180327869
  0
CIRCLE
  5
4CB
330
1F
100
AcDbEntity
  8
Ｓ_１_１
  6
CONTINUOUS
 62
     3
100
AcDbCircle
 10
3352.459092622979
 20
3020.655718032791
 30
0.0
 40
7.377049180327869
  0
ARC
  5
4CC
330
1F
100
AcDbEntity
  8
Ｓ_１_１
  6
CONTINUOUS
 62
     3
100
AcDbCircle
 10
2836.049597541012
 20
3217.158501639356
 30
0.0
 40
9.836070491803278
100
AcDbArc
 50
0.0
 51
179.9999640000512
  0
ARC
  5
4CD
330
1F
100
AcDbEntity
  8
Ｓ_１_１
  6
CONTINUOUS
 62
     3
100
AcDbCircle
 10
2821.295499180358
 20
3153.224080327873
 30
0.0
 40
4.91802786885246
100
AcDbArc
 50
273.4133850000654
 51
0.0
  0
ARC
  5
4CE
330
1F
100
AcDbEntity
  8
Ｓ_１_１
  6
CONTINUOUS
 62
     3
100
AcDbCircle
 10
2850.803695901668
 20
3153.224080327873
 30
0.0
 40
4.91802786885246
100
AcDbArc
 50
179.9999780000384
 51
272.0103440001191
  0
ARC
  5
4CF
330
1F
100
AcDbEntity
  8
Ｓ_１_１
  6
CONTINUOUS
 62
     3
100
AcDbCircle
 10
3554.082522131173
 20
3217.158501639356
 30
0.0
 40
9.836070491803278
100
AcDbArc
 50
0.0
 51
179.9999640000512
  0
ARC
  5
4D0
330
1F
100
AcDbEntity
  8
Ｓ_１_１
  6
CONTINUOUS
 62
     3
100
AcDbCircle
 10
3539.328423770519
 20
3153.224080327873
 30
0.0
 40
4.91802786885246
100
AcDbArc
 50
273.4133850000547
 51
0.0
  0
ARC
  5
4D1
330
1F
100
AcDbEntity
  8
Ｓ_１_１
  6
CONTINUOUS
 62
     3
100
AcDbCircle
 10
3568.836620491829
 20
3153.224080327873
 30
0.0
 40
4.91802786885246
100
AcDbArc
 50
179.9999780000384
 51
272.0103440001191
  0
CIRCLE
  5
4D2
330
1F
100
AcDbEntity
  8
Ｓ_１_１
  6
CONTINUOUS
 62
     3
100
AcDbCircle
 10
3480.327935245932
 20
3020.655718032791
 30
0.0
 40
14.75409836065574
  0
CIRCLE
  5
4D3
330
1F
100
AcDbEntity
  8
Ｓ_１_１
  6
CONTINUOUS
 62
     3
100
AcDbCircle
 10
3480.327935245932
 20
2922.295057377047
 30
0.0
 40
14.75409836065574
  0
LINE
  5
4D4
330
1F
100
AcDbEntity
  8
Ｓ_１_１
  6
CONTINUOUS
 62
     3
100
AcDbLine
 10
2945.000000000034
 20
2743.606552459027
 30
0.0
 11
2945.000000000034
 21
2403.606552459025
 31
0.0
  0
LINE
  5
4D5
330
1F
100
AcDbEntity
  8
Ｓ_１_１
  6
CONTINUOUS
 62
     3
100
AcDbLine
 10
2945.000000000034
 20
2403.606552459025
 30
0.0
 11
3175.000000000035
 21
2403.606552459025
 31
0.0
  0
LINE
  5
4D6
330
1F
100
AcDbEntity
  8
Ｓ_１_１
  6
CONTINUOUS
 62
     3
100
AcDbLine
 10
3175.000000000035
 20
2403.606552459025
 30
0.0
 11
3175.000000000035
 21
2743.606552459027
 31
0.0
  0
LINE
  5
4D7
330
1F
100
AcDbEntity
  8
Ｓ_１_１
  6
CONTINUOUS
 62
     3
100
AcDbLine
 10
3175.000000000035
 20
2743.606552459027
 30
0.0
 11
2945.000000000034
 21
2743.606552459027
 31
0.0
  0
LINE
  5
4D8
330
1F
100
AcDbEntity
  8
Ｓ_１_１
  6
CONTINUOUS
 62
     3
100
AcDbLine
 10
2955.000000000034
 20
2733.606552459027
 30
0.0
 11
2955.000000000034
 21
2413.606552459025
 31
0.0
  0
LINE
  5
4D9
330
1F
100
AcDbEntity
  8
Ｓ_１_１
  6
CONTINUOUS
 62
     3
100
AcDbLine
 10
3165.000000000035
 20
2733.606552459027
 30
0.0
 11
3165.000000000035
 21
2413.606552459025
 31
0.0
  0
LINE
  5
4DA
330
1F
100
AcDbEntity
  8
Ｓ_１_１
  6
CONTINUOUS
 62
     3
100
AcDbLine
 10
2955.000000000034
 20
2733.606552459027
 30
0.0
 11
3015.000000000034
 21
2743.606552459027
 31
0.0
  0
LINE
  5
4DB
330
1F
100
AcDbEntity
  8
Ｓ_１_１
  6
CONTINUOUS
 62
     3
100
AcDbLine
 10
3165.000000000035
 20
2733.606552459027
 30
0.0
 11
3105.000000000034
 21
2743.606552459027
 31
0.0
  0
LINE
  5
4DC
330
1F
100
AcDbEntity
  8
Ｓ_１_１
  6
CONTINUOUS
 62
     3
100
AcDbLine
 10
2975.000000000034
 20
2723.606552459027
 30
0.0
 11
2975.000000000034
 21
2503.606552459025
 31
0.0
  0
LINE
  5
4DD
330
1F
100
AcDbEntity
  8
Ｓ_１_１
  6
CONTINUOUS
 62
     3
100
AcDbLine
 10
3045.000000000034
 20
2733.606552459027
 30
0.0
 11
3045.000000000034
 21
2503.606552459025
 31
0.0
  0
LINE
  5
4DE
330
1F
100
AcDbEntity
  8
Ｓ_１_１
  6
CONTINUOUS
 62
     3
100
AcDbLine
 10
2975.000000000034
 20
2503.606552459025
 30
0.0
 11
3155.000000000035
 21
2503.606552459025
 31
0.0
  0
LINE
  5
4DF
330
1F
100
AcDbEntity
  8
Ｓ_１_１
  6
CONTINUOUS
 62
     3
100
AcDbLine
 10
3155.000000000035
 20
2723.606552459027
 30
0.0
 11
3155.000000000035
 21
2503.606552459025
 31
0.0
  0
LINE
  5
4E0
330
1F
100
AcDbEntity
  8
Ｓ_１_１
  6
CONTINUOUS
 62
     3
100
AcDbLine
 10
2975.000000000034
 20
2573.606552459025
 30
0.0
 11
3045.000000000034
 21
2573.606552459025
 31
0.0
  0
CIRCLE
  5
4E1
330
1F
100
AcDbEntity
  8
Ｓ_１_１
  6
CONTINUOUS
 62
     3
100
AcDbCircle
 10
3010.000000000034
 20
2538.606552459025
 30
0.0
 40
25.49509756796397
  0
LINE
  5
4E2
330
1F
100
AcDbEntity
  8
Ｓ_１_１
  6
CONTINUOUS
 62
     3
100
AcDbLine
 10
2995.000000000034
 20
2543.606552459025
 30
0.0
 11
3025.000000000034
 21
2543.606552459025
 31
0.0
  0
LINE
  5
4E3
330
1F
100
AcDbEntity
  8
Ｓ_１_１
  6
CONTINUOUS
 62
     3
100
AcDbLine
 10
2995.000000000034
 20
2533.606552459025
 30
0.0
 11
3025.000000000034
 21
2533.606552459025
 31
0.0
  0
LINE
  5
4E4
330
1F
100
AcDbEntity
  8
Ｓ_１_１
  6
CONTINUOUS
 62
     3
100
AcDbLine
 10
2985.000000000034
 20
2703.606552459027
 30
0.0
 11
3035.000000000034
 21
2703.606552459027
 31
0.0
  0
LINE
  5
4E5
330
1F
100
AcDbEntity
  8
Ｓ_１_１
  6
CONTINUOUS
 62
     3
100
AcDbLine
 10
2985.000000000034
 20
2613.606552459027
 30
0.0
 11
3035.000000000034
 21
2613.606552459027
 31
0.0
  0
LINE
  5
4E6
330
1F
100
AcDbEntity
  8
Ｓ_１_１
  6
CONTINUOUS
 62
     3
100
AcDbLine
 10
3010.000000000034
 20
2703.606552459027
 30
0.0
 11
3010.000000000034
 21
2613.606552459027
 31
0.0
  0
LINE
  5
4E7
330
1F
100
AcDbEntity
  8
Ｓ_１_１
  6
CONTINUOUS
 62
     3
100
AcDbLine
 10
2985.000000000034
 20
2653.606552459027
 30
0.0
 11
3035.000000000034
 21
2653.606552459027
 31
0.0
  0
LINE
  5
4E8
330
1F
100
AcDbEntity
  8
Ｓ_１_１
  6
CONTINUOUS
 62
     3
100
AcDbLine
 10
2985.000000000034
 20
2663.606552459027
 30
0.0
 11
3035.000000000034
 21
2663.606552459027
 31
0.0
  0
ELLIPSE
  5
4E9
330
1F
100
AcDbEntity
  8
Ｓ_１_１
  6
CONTINUOUS
 62
     3
100
AcDbEllipse
 10
3105.000000000034
 20
2678.606552459027
 30
0.0
 11
-2.105712784409822E-14
 21
54.99999999999999
 31
0.0
210
0.0
220
0.0
230
1.0
 40
0.5454545454545455
 41
0.0
 42
6.283185307179586
  0
ELLIPSE
  5
4EA
330
1F
100
AcDbEntity
  8
Ｓ_１_１
  6
CONTINUOUS
 62
     3
100
AcDbEllipse
 10
3105.000000000034
 20
2672.606552459027
 30
0.0
 11
-1.684570227527858E-14
 21
44.0
 31
0.0
210
0.0
220
0.0
230
1.0
 40
0.5454545454545454
 41
0.0
 42
6.283185307179586
  0
LINE
  5
4EB
330
1F
100
AcDbEntity
  8
Ｓ_１_１
  6
CONTINUOUS
 62
     3
100
AcDbLine
 10
3090.000000000034
 20
2693.606552459027
 30
0.0
 11
3090.000000000034
 21
2683.606552459027
 31
0.0
  0
LINE
  5
4EC
330
1F
100
AcDbEntity
  8
Ｓ_１_１
  6
CONTINUOUS
 62
     3
100
AcDbLine
 10
3090.000000000034
 20
2683.606552459027
 30
0.0
 11
3120.000000000034
 21
2683.606552459027
 31
0.0
  0
LINE
  5
4ED
330
1F
100
AcDbEntity
  8
Ｓ_１_１
  6
CONTINUOUS
 62
     3
100
AcDbLine
 10
3120.000000000034
 20
2683.606552459027
 30
0.0
 11
3120.000000000034
 21
2693.606552459027
 31
0.0
  0
LINE
  5
4EE
330
1F
100
AcDbEntity
  8
Ｓ_１_１
  6
CONTINUOUS
 62
     3
100
AcDbLine
 10
3120.000000000034
 20
2693.606552459027
 30
0.0
 11
3090.000000000034
 21
2693.606552459027
 31
0.0
  0
CIRCLE
  5
4EF
330
1F
100
AcDbEntity
  8
Ｓ_１_１
  6
CONTINUOUS
 62
     3
100
AcDbCircle
 10
2995.000000000034
 20
2683.606552459027
 30
0.0
 40
14.14213562373106
  0
CIRCLE
  5
4F0
330
1F
100
AcDbEntity
  8
Ｓ_１_１
  6
CONTINUOUS
 62
     3
100
AcDbCircle
 10
3025.000000000034
 20
2683.606552459027
 30
0.0
 40
10.0
  0
LINE
  5
4F1
330
1F
100
AcDbEntity
  8
Ｓ_１_１
  6
CONTINUOUS
 62
     3
100
AcDbLine
 10
3225.000000000035
 20
2743.606552459027
 30
0.0
 11
3225.000000000035
 21
2403.606552459025
 31
0.0
  0
LINE
  5
4F2
330
1F
100
AcDbEntity
  8
Ｓ_１_１
  6
CONTINUOUS
 62
     3
100
AcDbLine
 10
3225.000000000035
 20
2403.606552459025
 30
0.0
 11
3455.000000000035
 21
2403.606552459025
 31
0.0
  0
LINE
  5
4F3
330
1F
100
AcDbEntity
  8
Ｓ_１_１
  6
CONTINUOUS
 62
     3
100
AcDbLine
 10
3455.000000000035
 20
2403.606552459025
 30
0.0
 11
3455.000000000035
 21
2743.606552459027
 31
0.0
  0
LINE
  5
4F4
330
1F
100
AcDbEntity
  8
Ｓ_１_１
  6
CONTINUOUS
 62
     3
100
AcDbLine
 10
3455.000000000035
 20
2743.606552459027
 30
0.0
 11
3225.000000000035
 21
2743.606552459027
 31
0.0
  0
LINE
  5
4F5
330
1F
100
AcDbEntity
  8
Ｓ_１_１
  6
CONTINUOUS
 62
     3
100
AcDbLine
 10
3235.000000000035
 20
2733.606552459027
 30
0.0
 11
3235.000000000035
 21
2413.606552459025
 31
0.0
  0
LINE
  5
4F6
330
1F
100
AcDbEntity
  8
Ｓ_１_１
  6
CONTINUOUS
 62
     3
100
AcDbLine
 10
3445.000000000035
 20
2733.606552459027
 30
0.0
 11
3445.000000000035
 21
2413.606552459025
 31
0.0
  0
LINE
  5
4F7
330
1F
100
AcDbEntity
  8
Ｓ_１_１
  6
CONTINUOUS
 62
     3
100
AcDbLine
 10
3235.000000000035
 20
2733.606552459027
 30
0.0
 11
3295.000000000035
 21
2743.606552459027
 31
0.0
  0
LINE
  5
4F8
330
1F
100
AcDbEntity
  8
Ｓ_１_１
  6
CONTINUOUS
 62
     3
100
AcDbLine
 10
3445.000000000035
 20
2733.606552459027
 30
0.0
 11
3385.000000000035
 21
2743.606552459027
 31
0.0
  0
LINE
  5
4F9
330
1F
100
AcDbEntity
  8
Ｓ_１_１
  6
CONTINUOUS
 62
     3
100
AcDbLine
 10
3255.000000000035
 20
2723.606552459027
 30
0.0
 11
3255.000000000035
 21
2503.606552459025
 31
0.0
  0
LINE
  5
4FA
330
1F
100
AcDbEntity
  8
Ｓ_１_１
  6
CONTINUOUS
 62
     3
100
AcDbLine
 10
3325.000000000035
 20
2733.606552459027
 30
0.0
 11
3325.000000000035
 21
2503.606552459025
 31
0.0
  0
LINE
  5
4FB
330
1F
100
AcDbEntity
  8
Ｓ_１_１
  6
CONTINUOUS
 62
     3
100
AcDbLine
 10
3255.000000000035
 20
2503.606552459025
 30
0.0
 11
3435.000000000035
 21
2503.606552459025
 31
0.0
  0
LINE
  5
4FC
330
1F
100
AcDbEntity
  8
Ｓ_１_１
  6
CONTINUOUS
 62
     3
100
AcDbLine
 10
3435.000000000035
 20
2723.606552459027
 30
0.0
 11
3435.000000000035
 21
2503.606552459025
 31
0.0
  0
LINE
  5
4FD
330
1F
100
AcDbEntity
  8
Ｓ_１_１
  6
CONTINUOUS
 62
     3
100
AcDbLine
 10
3255.000000000035
 20
2573.606552459025
 30
0.0
 11
3325.000000000035
 21
2573.606552459025
 31
0.0
  0
CIRCLE
  5
4FE
330
1F
100
AcDbEntity
  8
Ｓ_１_１
  6
CONTINUOUS
 62
     3
100
AcDbCircle
 10
3290.000000000035
 20
2538.606552459025
 30
0.0
 40
25.49509756796397
  0
LINE
  5
4FF
330
1F
100
AcDbEntity
  8
Ｓ_１_１
  6
CONTINUOUS
 62
     3
100
AcDbLine
 10
3275.000000000035
 20
2543.606552459025
 30
0.0
 11
3305.000000000035
 21
2543.606552459025
 31
0.0
  0
LINE
  5
500
330
1F
100
AcDbEntity
  8
Ｓ_１_１
  6
CONTINUOUS
 62
     3
100
AcDbLine
 10
3275.000000000035
 20
2533.606552459025
 30
0.0
 11
3305.000000000035
 21
2533.606552459025
 31
0.0
  0
LINE
  5
501
330
1F
100
AcDbEntity
  8
Ｓ_１_１
  6
CONTINUOUS
 62
     3
100
AcDbLine
 10
3265.000000000035
 20
2703.606552459027
 30
0.0
 11
3315.000000000035
 21
2703.606552459027
 31
0.0
  0
LINE
  5
502
330
1F
100
AcDbEntity
  8
Ｓ_１_１
  6
CONTINUOUS
 62
     3
100
AcDbLine
 10
3265.000000000035
 20
2613.606552459027
 30
0.0
 11
3315.000000000035
 21
2613.606552459027
 31
0.0
  0
LINE
  5
503
330
1F
100
AcDbEntity
  8
Ｓ_１_１
  6
CONTINUOUS
 62
     3
100
AcDbLine
 10
3290.000000000035
 20
2703.606552459027
 30
0.0
 11
3290.000000000035
 21
2613.606552459027
 31
0.0
  0
LINE
  5
504
330
1F
100
AcDbEntity
  8
Ｓ_１_１
  6
CONTINUOUS
 62
     3
100
AcDbLine
 10
3265.000000000035
 20
2653.606552459027
 30
0.0
 11
3315.000000000035
 21
2653.606552459027
 31
0.0
  0
LINE
  5
505
330
1F
100
AcDbEntity
  8
Ｓ_１_１
  6
CONTINUOUS
 62
     3
100
AcDbLine
 10
3265.000000000035
 20
2663.606552459027
 30
0.0
 11
3315.000000000035
 21
2663.606552459027
 31
0.0
  0
ELLIPSE
  5
506
330
1F
100
AcDbEntity
  8
Ｓ_１_１
  6
CONTINUOUS
 62
     3
100
AcDbEllipse
 10
3385.000000000035
 20
2678.606552459027
 30
0.0
 11
-2.105712784409822E-14
 21
54.99999999999999
 31
0.0
210
0.0
220
0.0
230
1.0
 40
0.5454545454545455
 41
0.0
 42
6.283185307179586
  0
ELLIPSE
  5
507
330
1F
100
AcDbEntity
  8
Ｓ_１_１
  6
CONTINUOUS
 62
     3
100
AcDbEllipse
 10
3385.000000000035
 20
2672.606552459027
 30
0.0
 11
-1.684570227527858E-14
 21
44.0
 31
0.0
210
0.0
220
0.0
230
1.0
 40
0.5454545454545454
 41
0.0
 42
6.283185307179586
  0
LINE
  5
508
330
1F
100
AcDbEntity
  8
Ｓ_１_１
  6
CONTINUOUS
 62
     3
100
AcDbLine
 10
3370.000000000035
 20
2693.606552459027
 30
0.0
 11
3370.000000000035
 21
2683.606552459027
 31
0.0
  0
LINE
  5
509
330
1F
100
AcDbEntity
  8
Ｓ_１_１
  6
CONTINUOUS
 62
     3
100
AcDbLine
 10
3370.000000000035
 20
2683.606552459027
 30
0.0
 11
3400.000000000035
 21
2683.606552459027
 31
0.0
  0
LINE
  5
50A
330
1F
100
AcDbEntity
  8
Ｓ_１_１
  6
CONTINUOUS
 62
     3
100
AcDbLine
 10
3400.000000000035
 20
2683.606552459027
 30
0.0
 11
3400.000000000035
 21
2693.606552459027
 31
0.0
  0
LINE
  5
50B
330
1F
100
AcDbEntity
  8
Ｓ_１_１
  6
CONTINUOUS
 62
     3
100
AcDbLine
 10
3400.000000000035
 20
2693.606552459027
 30
0.0
 11
3370.000000000035
 21
2693.606552459027
 31
0.0
  0
CIRCLE
  5
50C
330
1F
100
AcDbEntity
  8
Ｓ_１_１
  6
CONTINUOUS
 62
     3
100
AcDbCircle
 10
3275.000000000035
 20
2683.606552459027
 30
0.0
 40
14.14213562373106
  0
CIRCLE
  5
50D
330
1F
100
AcDbEntity
  8
Ｓ_１_１
  6
CONTINUOUS
 62
     3
100
AcDbCircle
 10
3305.000000000035
 20
2683.606552459027
 30
0.0
 40
10.0
  0
LINE
  5
50E
330
1F
100
AcDbEntity
  8
Ｓ_１_１
  6
CONTINUOUS
 62
     3
100
AcDbLine
 10
2895.000000000034
 20
2833.606552459027
 30
0.0
 11
3505.000000000035
 21
2833.606552459027
 31
0.0
  0
LINE
  5
50F
330
1F
100
AcDbEntity
  8
Ｓ_１_１
  6
CONTINUOUS
 62
     3
100
AcDbLine
 10
2885.000000000034
 20
2843.606552459027
 30
0.0
 11
3515.000000000035
 21
2843.606552459027
 31
0.0
  0
LINE
  5
510
330
1F
100
AcDbEntity
  8
Ｓ_１_１
  6
CONTINUOUS
 62
     3
100
AcDbLine
 10
2885.000000000034
 20
2293.606552459027
 30
0.0
 11
2895.000000000034
 21
2293.606552459027
 31
0.0
  0
LINE
  5
511
330
1F
100
AcDbEntity
  8
Ｓ_１_１
  6
CONTINUOUS
 62
     3
100
AcDbLine
 10
2885.000000000034
 20
2243.606552459027
 30
0.0
 11
2895.000000000034
 21
2243.606552459027
 31
0.0
  0
LINE
  5
512
330
1F
100
AcDbEntity
  8
Ｓ_１_１
  6
CONTINUOUS
 62
     3
100
AcDbLine
 10
3515.000000000035
 20
2293.606552459027
 30
0.0
 11
3505.000000000035
 21
2293.606552459027
 31
0.0
  0
LINE
  5
513
330
1F
100
AcDbEntity
  8
Ｓ_１_１
  6
CONTINUOUS
 62
     3
100
AcDbLine
 10
3515.000000000035
 20
2243.606552459027
 30
0.0
 11
3505.000000000035
 21
2243.606552459027
 31
0.0
  0
ARC
  5
514
330
1F
100
AcDbEntity
  8
Ｓ_１_１
  6
CONTINUOUS
 62
     3
100
AcDbCircle
 10
2826.557305737736
 20
2800.015372397296
 30
0.0
 40
10.0
100
AcDbArc
 50
0.0
 51
179.9999999999998
  0
LINE
  5
515
330
1F
100
AcDbEntity
  8
Ｓ_１_１
  6
CONTINUOUS
 62
     3
100
AcDbLine
 10
2816.557305737736
 20
2800.015372397296
 30
0.0
 11
2816.557305737736
 21
2330.015372397296
 31
0.0
  0
LINE
  5
516
330
1F
100
AcDbEntity
  8
Ｓ_１_１
  6
CONTINUOUS
 62
     3
100
AcDbLine
 10
2836.557305737736
 20
2800.015372397296
 30
0.0
 11
2836.557305737736
 21
2330.015372397296
 31
0.0
  0
ARC
  5
517
330
1F
100
AcDbEntity
  8
Ｓ_１_１
  6
CONTINUOUS
 62
     3
100
AcDbCircle
 10
2826.557305737736
 20
2330.015372397296
 30
0.0
 40
10.0
100
AcDbArc
 50
179.9999999999998
 51
0.0
  0
LINE
  5
518
330
1F
100
AcDbEntity
  8
Ｓ_１_１
  6
CONTINUOUS
 62
     3
100
AcDbLine
 10
2806.557305737736
 20
2280.015372397296
 30
0.0
 11
2846.557305737736
 21
2280.015372397296
 31
0.0
  0
LINE
  5
519
330
1F
100
AcDbEntity
  8
Ｓ_１_１
  6
CONTINUOUS
 62
     3
100
AcDbLine
 10
2846.557305737736
 20
2280.015372397296
 30
0.0
 11
2846.557305737736
 21
2360.015372397296
 31
0.0
  0
LINE
  5
51A
330
1F
100
AcDbEntity
  8
Ｓ_１_１
  6
CONTINUOUS
 62
     3
100
AcDbLine
 10
2806.557305737736
 20
2380.015372397296
 30
0.0
 11
2816.557305737736
 21
2380.015372397296
 31
0.0
  0
LINE
  5
51B
330
1F
100
AcDbEntity
  8
Ｓ_１_１
  6
CONTINUOUS
 62
     3
100
AcDbLine
 10
2806.557305737736
 20
2850.015372397296
 30
0.0
 11
2846.557305737736
 21
2850.015372397296
 31
0.0
  0
LINE
  5
51C
330
1F
100
AcDbEntity
  8
Ｓ_１_１
  6
CONTINUOUS
 62
     3
100
AcDbLine
 10
2846.557305737736
 20
2850.015372397296
 30
0.0
 11
2846.557305737736
 21
2770.015372397296
 31
0.0
  0
LINE
  5
51D
330
1F
100
AcDbEntity
  8
Ｓ_１_１
  6
CONTINUOUS
 62
     3
100
AcDbLine
 10
2806.557305737736
 20
2750.015372397296
 30
0.0
 11
2816.557305737736
 21
2750.015372397296
 31
0.0
  0
LINE
  5
51E
330
1F
100
AcDbEntity
  8
Ｓ_１_１
  6
CONTINUOUS
 62
     3
100
AcDbLine
 10
2885.000000000034
 20
2770.015372397296
 30
0.0
 11
2885.000000000034
 21
2843.606552459027
 31
0.0
  0
LINE
  5
51F
330
1F
100
AcDbEntity
  8
Ｓ_１_１
  6
CONTINUOUS
 62
     3
100
AcDbLine
 10
2895.000000000034
 20
2833.606552459027
 30
0.0
 11
2895.000000000034
 21
2770.015372397296
 31
0.0
  0
LINE
  5
520
330
1F
100
AcDbEntity
  8
Ｓ_１_１
  6
CONTINUOUS
 62
     3
100
AcDbLine
 10
2885.000000000034
 20
2243.606552459027
 30
0.0
 11
2885.000000000034
 21
2360.015372397296
 31
0.0
  0
LINE
  5
521
330
1F
100
AcDbEntity
  8
Ｓ_１_１
  6
CONTINUOUS
 62
     3
100
AcDbLine
 10
2885.000000000034
 20
2380.015372397296
 30
0.0
 11
2885.000000000034
 21
2750.015372397296
 31
0.0
  0
LINE
  5
522
330
1F
100
AcDbEntity
  8
Ｓ_１_１
  6
CONTINUOUS
 62
     3
100
AcDbLine
 10
2895.000000000034
 20
2750.015372397296
 30
0.0
 11
2895.000000000034
 21
2380.015372397296
 31
0.0
  0
LINE
  5
523
330
1F
100
AcDbEntity
  8
Ｓ_１_１
  6
CONTINUOUS
 62
     3
100
AcDbLine
 10
2895.000000000034
 20
2360.015372397296
 30
0.0
 11
2895.000000000034
 21
2243.606552459027
 31
0.0
  0
ARC
  5
524
330
1F
100
AcDbEntity
  8
Ｓ_１_１
  6
CONTINUOUS
 62
     3
100
AcDbCircle
 10
3573.442694568483
 20
2800.015372397296
 30
0.0
 40
10.0
100
AcDbArc
 50
0.0
 51
179.9999999999998
  0
LINE
  5
525
330
1F
100
AcDbEntity
  8
Ｓ_１_１
  6
CONTINUOUS
 62
     3
100
AcDbLine
 10
3583.442694568483
 20
2800.015372397296
 30
0.0
 11
3583.442694568483
 21
2330.015372397296
 31
0.0
  0
LINE
  5
526
330
1F
100
AcDbEntity
  8
Ｓ_１_１
  6
CONTINUOUS
 62
     3
100
AcDbLine
 10
3563.442694568483
 20
2800.015372397296
 30
0.0
 11
3563.442694568483
 21
2330.015372397296
 31
0.0
  0
ARC
  5
527
330
1F
100
AcDbEntity
  8
Ｓ_１_１
  6
CONTINUOUS
 62
     3
100
AcDbCircle
 10
3573.442694568483
 20
2330.015372397296
 30
0.0
 40
10.0
100
AcDbArc
 50
179.9999999999998
 51
0.0
  0
LINE
  5
528
330
1F
100
AcDbEntity
  8
Ｓ_１_１
  6
CONTINUOUS
 62
     3
100
AcDbLine
 10
3593.442694568482
 20
2280.015372397296
 30
0.0
 11
3553.442694568483
 21
2280.015372397296
 31
0.0
  0
LINE
  5
529
330
1F
100
AcDbEntity
  8
Ｓ_１_１
  6
CONTINUOUS
 62
     3
100
AcDbLine
 10
3553.442694568483
 20
2280.015372397296
 30
0.0
 11
3553.442694568483
 21
2360.015372397296
 31
0.0
  0
LINE
  5
52A
330
1F
100
AcDbEntity
  8
Ｓ_１_１
  6
CONTINUOUS
 62
     3
100
AcDbLine
 10
3593.442694568482
 20
2380.015372397296
 30
0.0
 11
3583.442694568483
 21
2380.015372397296
 31
0.0
  0
LINE
  5
52B
330
1F
100
AcDbEntity
  8
Ｓ_１_１
  6
CONTINUOUS
 62
     3
100
AcDbLine
 10
3593.442694568482
 20
2850.015372397296
 30
0.0
 11
3553.442694568483
 21
2850.015372397296
 31
0.0
  0
LINE
  5
52C
330
1F
100
AcDbEntity
  8
Ｓ_１_１
  6
CONTINUOUS
 62
     3
100
AcDbLine
 10
3553.442694568483
 20
2850.015372397296
 30
0.0
 11
3553.442694568483
 21
2770.015372397296
 31
0.0
  0
LINE
  5
52D
330
1F
100
AcDbEntity
  8
Ｓ_１_１
  6
CONTINUOUS
 62
     3
100
AcDbLine
 10
3593.442694568482
 20
2750.015372397296
 30
0.0
 11
3583.442694568483
 21
2750.015372397296
 31
0.0
  0
LINE
  5
52E
330
1F
100
AcDbEntity
  8
Ｓ_１_１
  6
CONTINUOUS
 62
     3
100
AcDbLine
 10
2836.557305737736
 20
2750.015372397296
 30
0.0
 11
3200.000000000035
 21
2750.015372397296
 31
0.0
  0
LINE
  5
52F
330
1F
100
AcDbEntity
  8
Ｓ_１_１
  6
CONTINUOUS
 62
     3
100
AcDbLine
 10
2836.557305737736
 20
2770.015372397296
 30
0.0
 11
3200.000000000035
 21
2770.015372397296
 31
0.0
  0
LINE
  5
530
330
1F
100
AcDbEntity
  8
Ｓ_１_１
  6
CONTINUOUS
 62
     3
100
AcDbLine
 10
3563.442694568483
 20
2770.015372397296
 30
0.0
 11
3200.000000000035
 21
2770.015372397296
 31
0.0
  0
LINE
  5
531
330
1F
100
AcDbEntity
  8
Ｓ_１_１
  6
CONTINUOUS
 62
     3
100
AcDbLine
 10
3563.442694568483
 20
2750.015372397296
 30
0.0
 11
3200.000000000035
 21
2750.015372397296
 31
0.0
  0
LINE
  5
532
330
1F
100
AcDbEntity
  8
Ｓ_１_１
  6
CONTINUOUS
 62
     3
100
AcDbLine
 10
2836.557305737736
 20
2380.015372397296
 30
0.0
 11
3200.000000000035
 21
2380.015372397296
 31
0.0
  0
LINE
  5
533
330
1F
100
AcDbEntity
  8
Ｓ_１_１
  6
CONTINUOUS
 62
     3
100
AcDbLine
 10
3563.442694568483
 20
2380.015372397296
 30
0.0
 11
3200.000000000035
 21
2380.015372397296
 31
0.0
  0
LINE
  5
534
330
1F
100
AcDbEntity
  8
Ｓ_１_１
  6
CONTINUOUS
 62
     3
100
AcDbLine
 10
2836.557305737736
 20
2360.015372397296
 30
0.0
 11
3200.000000000035
 21
2360.015372397296
 31
0.0
  0
LINE
  5
535
330
1F
100
AcDbEntity
  8
Ｓ_１_１
  6
CONTINUOUS
 62
     3
100
AcDbLine
 10
3563.442694568483
 20
2360.015372397296
 30
0.0
 11
3200.000000000035
 21
2360.015372397296
 31
0.0
  0
LINE
  5
536
330
1F
100
AcDbEntity
  8
Ｓ_１_１
  6
CONTINUOUS
 62
     3
100
AcDbLine
 10
3505.000000000035
 20
2833.606552459027
 30
0.0
 11
3505.000000000035
 21
2770.015372397296
 31
0.0
  0
LINE
  5
537
330
1F
100
AcDbEntity
  8
Ｓ_１_１
  6
CONTINUOUS
 62
     3
100
AcDbLine
 10
3515.000000000035
 20
2770.015372397296
 30
0.0
 11
3515.000000000035
 21
2843.606552459027
 31
0.0
  0
LINE
  5
538
330
1F
100
AcDbEntity
  8
Ｓ_１_１
  6
CONTINUOUS
 62
     3
100
AcDbLine
 10
3505.000000000035
 20
2750.015372397296
 30
0.0
 11
3505.000000000035
 21
2380.015372397296
 31
0.0
  0
LINE
  5
539
330
1F
100
AcDbEntity
  8
Ｓ_１_１
  6
CONTINUOUS
 62
     3
100
AcDbLine
 10
3505.000000000035
 20
2360.015372397296
 30
0.0
 11
3505.000000000035
 21
2243.606552459027
 31
0.0
  0
LINE
  5
53A
330
1F
100
AcDbEntity
  8
Ｓ_１_１
  6
CONTINUOUS
 62
     3
100
AcDbLine
 10
3515.000000000035
 20
2243.606552459027
 30
0.0
 11
3515.000000000035
 21
2360.015372397296
 31
0.0
  0
LINE
  5
53B
330
1F
100
AcDbEntity
  8
Ｓ_１_１
  6
CONTINUOUS
 62
     3
100
AcDbLine
 10
3515.000000000035
 20
2380.015372397296
 30
0.0
 11
3515.000000000035
 21
2750.015372397296
 31
0.0
  0
LINE
  5
53C
330
1F
100
AcDbEntity
  8
Ｓ_１_１
  6
CONTINUOUS
 62
     3
100
AcDbLine
 10
3463.12262049184
 20
3178.032757377056
 30
0.0
 11
3463.12262049184
 21
3143.606532786884
 31
0.0
  0
LINE
  5
53D
330
1F
100
AcDbEntity
  8
Ｓ_１_１
  6
CONTINUOUS
 62
     3
100
AcDbLine
 10
3409.008659836103
 20
3178.032757377056
 30
0.0
 11
3409.008659836103
 21
3143.606532786884
 31
0.0
  0
LINE
  5
53E
330
1F
100
AcDbEntity
  8
Ｓ_１_１
  6
CONTINUOUS
 62
     3
100
AcDbLine
 10
3440.983682786915
 20
3178.032757377056
 30
0.0
 11
3440.983682786915
 21
3143.606532786884
 31
0.0
  0
LINE
  5
53F
330
1F
100
AcDbEntity
  8
Ｓ_１_１
  6
CONTINUOUS
 62
     3
100
AcDbLine
 10
3431.147612295119
 20
3178.032757377056
 30
0.0
 11
3431.147612295119
 21
3143.606532786884
 31
0.0
  0
TEXT
  5
540
330
1F
100
AcDbEntity
  8
Ｓ_１_１
  6
CONTINUOUS
 62
     2
100
AcDbText
 10
3087.672115430505
 20
2534.535393336724
 30
0.0
 40
34.62903863489857
  1
A
 41
0.9992308539366184
  7
EXCADTTF1
 72
     5
 11
3110.172115430505
 21
2534.535393336724
 31
0.0
100
AcDbText
  0
TEXT
  5
541
330
1F
100
AcDbEntity
  8
Ｓ_１_１
  6
CONTINUOUS
 62
     2
100
AcDbText
 10
3367.672115430505
 20
2534.535393336724
 30
0.0
 40
34.62903863489857
  1
B
 41
0.9992308539366184
  7
EXCADTTF1
 72
     5
 11
3390.172115430505
 21
2534.535393336724
 31
0.0
100
AcDbText
  0
LINE
  5
542
330
1F
100
AcDbEntity
  8
Ｓ_１_１
  6
CONTINUOUS
 62
     3
100
AcDbLine
 10
2737.7048418033
 20
2110.8195885244
 30
0.0
 11
2767.213038524601
 21
2110.8195885244
 31
0.0
  0
LINE
  5
543
330
1F
100
AcDbEntity
  8
Ｓ_１_１
  6
EXLTYPE2
 62
     1
100
AcDbLine
 10
2929.5081942623
 20
2897.295057376999
 30
0.0
 11
2929.5081942623
 21
2947.295057376999
 31
0.0
  0
LINE
  5
544
330
1F
100
AcDbEntity
  8
Ｓ_１_１
  6
EXLTYPE2
 62
     1
100
AcDbLine
 10
2904.5081942623
 20
2922.295057376999
 30
0.0
 11
2954.5081942623
 21
2922.295057376999
 31
0.0
  0
LINE
  5
545
330
1F
100
AcDbEntity
  8
Ｓ_１_１
  6
EXLTYPE2
 62
     1
100
AcDbLine
 10
2929.5081942623
 20
2995.6557180328
 30
0.0
 11
2929.5081942623
 21
3045.6557180328
 31
0.0
  0
LINE
  5
546
330
1F
100
AcDbEntity
  8
Ｓ_１_１
  6
EXLTYPE2
 62
     1
100
AcDbLine
 10
2904.5081942623
 20
3020.6557180328
 30
0.0
 11
2954.5081942623
 21
3020.6557180328
 31
0.0
  0
LINE
  5
547
330
1F
100
AcDbEntity
  8
Ｓ_１_１
  6
EXLTYPE2
 62
     1
100
AcDbLine
 10
3027.8688549181
 20
2995.6557180328
 30
0.0
 11
3027.8688549181
 21
3045.6557180328
 31
0.0
  0
LINE
  5
548
330
1F
100
AcDbEntity
  8
Ｓ_１_１
  6
EXLTYPE2
 62
     1
100
AcDbLine
 10
3002.8688549181
 20
3020.6557180328
 30
0.0
 11
3052.8688549181
 21
3020.6557180328
 31
0.0
  0
LINE
  5
549
330
1F
100
AcDbEntity
  8
Ｓ_１_１
  6
EXLTYPE2
 62
     1
100
AcDbLine
 10
3027.8688549181
 20
2897.295057376999
 30
0.0
 11
3027.8688549181
 21
2947.295057376999
 31
0.0
  0
LINE
  5
54A
330
1F
100
AcDbEntity
  8
Ｓ_１_１
  6
EXLTYPE2
 62
     1
100
AcDbLine
 10
3002.8688549181
 20
2922.295057376999
 30
0.0
 11
3052.8688549181
 21
2922.295057376999
 31
0.0
  0
LINE
  5
54B
330
1F
100
AcDbEntity
  8
Ｓ_１_１
  6
EXLTYPE2
 62
     1
100
AcDbLine
 10
3254.098431967201
 20
2897.295057376999
 30
0.0
 11
3254.098431967201
 21
2947.295057376999
 31
0.0
  0
LINE
  5
54C
330
1F
100
AcDbEntity
  8
Ｓ_１_１
  6
EXLTYPE2
 62
     1
100
AcDbLine
 10
3229.098431967201
 20
2922.295057376999
 30
0.0
 11
3279.098431967201
 21
2922.295057376999
 31
0.0
  0
LINE
  5
54D
330
1F
100
AcDbEntity
  8
Ｓ_１_１
  6
EXLTYPE2
 62
     1
100
AcDbLine
 10
3254.098431967201
 20
2995.6557180328
 30
0.0
 11
3254.098431967201
 21
3045.6557180328
 31
0.0
  0
LINE
  5
54E
330
1F
100
AcDbEntity
  8
Ｓ_１_１
  6
EXLTYPE2
 62
     1
100
AcDbLine
 10
3229.098431967201
 20
3020.6557180328
 30
0.0
 11
3279.098431967201
 21
3020.6557180328
 31
0.0
  0
LINE
  5
54F
330
1F
100
AcDbEntity
  8
Ｓ_１_１
  6
EXLTYPE2
 62
     1
100
AcDbLine
 10
3352.459092623001
 20
2995.6557180328
 30
0.0
 11
3352.459092623001
 21
3045.6557180328
 31
0.0
  0
LINE
  5
550
330
1F
100
AcDbEntity
  8
Ｓ_１_１
  6
EXLTYPE2
 62
     1
100
AcDbLine
 10
3327.459092623001
 20
3020.6557180328
 30
0.0
 11
3377.459092623001
 21
3020.6557180328
 31
0.0
  0
LINE
  5
551
330
1F
100
AcDbEntity
  8
Ｓ_１_１
  6
EXLTYPE2
 62
     1
100
AcDbLine
 10
3352.459092623001
 20
2897.295057376999
 30
0.0
 11
3352.459092623001
 21
2947.295057376999
 31
0.0
  0
LINE
  5
552
330
1F
100
AcDbEntity
  8
Ｓ_１_１
  6
EXLTYPE2
 62
     1
100
AcDbLine
 10
3327.459092623001
 20
2922.295057376999
 30
0.0
 11
3377.459092623001
 21
2922.295057376999
 31
0.0
  0
LINE
  5
553
330
1F
100
AcDbEntity
  8
Ｓ_１_１
  6
EXLTYPE2
 62
     1
100
AcDbLine
 10
3480.327935245901
 20
2897.295057376999
 30
0.0
 11
3480.327935245901
 21
2947.295057376999
 31
0.0
  0
LINE
  5
554
330
1F
100
AcDbEntity
  8
Ｓ_１_１
  6
EXLTYPE2
 62
     1
100
AcDbLine
 10
3455.327935245901
 20
2922.295057376999
 30
0.0
 11
3505.327935245901
 21
2922.295057376999
 31
0.0
  0
LINE
  5
555
330
1F
100
AcDbEntity
  8
Ｓ_１_１
  6
EXLTYPE2
 62
     1
100
AcDbLine
 10
3480.327935245901
 20
2995.6557180328
 30
0.0
 11
3480.327935245901
 21
3045.6557180328
 31
0.0
  0
LINE
  5
556
330
1F
100
AcDbEntity
  8
Ｓ_１_１
  6
EXLTYPE2
 62
     1
100
AcDbLine
 10
3455.327935245901
 20
3020.6557180328
 30
0.0
 11
3505.327935245901
 21
3020.6557180328
 31
0.0
  0
DIMENSION
  5
558
330
1F
100
AcDbEntity
  8
Ｓ_１_１
  6
CONTINUOUS
 62
     2
100
AcDbDimension
  2
*D15
 10
2997.2085655737
 20
1680.0
 30
0.0
 11
2825.07746106555
 21
1718.5
 31
0.0
 70
   160
  3
ISO-25
100
AcDbAlignedDimension
 13
2652.9463565574
 23
1168.5245803279
 33
0.0
 14
2997.2085655737
 24
1168.5245803279
 34
0.0
100
AcDbRotatedDimension
1001
ACAD
1000
DSTYLE
1002
{
1070
   270
1070
     2
1070
     6
1000
EX_NORM
1070
     7
1000
EX_NORM
1070
    41
1040
42.0
1070
    42
1040
21.0
1070
    44
1040
14.0
1070
    73
1070
     0
1070
    74
1070
     0
1070
    75
1070
     0
1070
    76
1070
     0
1070
    77
1070
     1
1070
    78
1070
     0
1070
   140
1040
48.48065526307409
1070
   147
1040
0.0
1070
   173
1070
     1
1070
   176
1070
     2
1070
   177
1070
     2
1070
   178
1070
     2
1070
   271
1070
     0
1070
   277
1070
     2
1070
   279
1070
     2
1070
   280
1070
     0
1070
   287
1070
     5
1070
   340
1005
557
1002
}
  0
DIMENSION
  5
566
330
1F
100
AcDbEntity
  8
Ｓ_１_１
  6
CONTINUOUS
 62
     2
100
AcDbDimension
  2
*D16
 10
3144.7495860656
 20
1680.0
 30
0.0
 11
3070.97907581965
 21
1718.5
 31
0.0
 70
   160
  3
ISO-25
100
AcDbAlignedDimension
 13
2997.2085655737
 23
1168.5245803279
 33
0.0
 14
3144.7495860656
 24
1463.6065327869
 34
0.0
100
AcDbRotatedDimension
1001
ACAD
1000
DSTYLE
1002
{
1070
   270
1070
     2
1070
     6
1000
EX_NORM
1070
     7
1000
EX_NORM
1070
    41
1040
42.0
1070
    42
1040
21.0
1070
    44
1040
14.0
1070
    73
1070
     0
1070
    74
1070
     0
1070
    75
1070
     1
1070
    76
1070
     0
1070
    77
1070
     1
1070
    78
1070
     0
1070
   140
1040
48.48065526307409
1070
   147
1040
0.0
1070
   173
1070
     1
1070
   176
1070
     2
1070
   177
1070
     2
1070
   178
1070
     2
1070
   271
1070
     0
1070
   277
1070
     2
1070
   279
1070
     2
1070
   280
1070
     0
1070
   287
1070
     5
1070
   340
1005
557
1002
}
  0
DIMENSION
  5
572
330
1F
100
AcDbEntity
  8
Ｓ_１_１
  6
CONTINUOUS
 62
     2
100
AcDbDimension
  2
*D17
 10
3552.9463418033
 20
1680.0
 30
0.0
 11
3348.84796393445
 21
1718.5
 31
0.0
 70
   160
  3
ISO-25
100
AcDbAlignedDimension
 13
3144.7495860656
 23
1463.6065327869
 33
0.0
 14
3552.9463418033
 24
1463.6065327869
 34
0.0
100
AcDbRotatedDimension
1001
ACAD
1000
DSTYLE
1002
{
1070
   270
1070
     2
1070
     6
1000
EX_NORM
1070
     7
1000
EX_NORM
1070
    41
1040
42.0
1070
    42
1040
21.0
1070
    44
1040
14.0
1070
    73
1070
     0
1070
    74
1070
     0
1070
    75
1070
     1
1070
    76
1070
     0
1070
    77
1070
     1
1070
    78
1070
     0
1070
   140
1040
48.48065526307409
1070
   147
1040
0.0
1070
   173
1070
     1
1070
   176
1070
     2
1070
   177
1070
     2
1070
   178
1070
     2
1070
   271
1070
     0
1070
   277
1070
     2
1070
   279
1070
     2
1070
   280
1070
     0
1070
   287
1070
     5
1070
   340
1005
557
1002
}
  0
DIMENSION
  5
57E
330
1F
100
AcDbEntity
  8
Ｓ_１_１
  6
CONTINUOUS
 62
     2
100
AcDbDimension
  2
*D18
 10
3552.9463418033
 20
1760.0
 30
0.0
 11
3102.94634918035
 21
1798.5
 31
0.0
 70
   160
  3
ISO-25
100
AcDbAlignedDimension
 13
2652.9463565574
 23
1168.5245803279
 33
0.0
 14
3552.9463418033
 24
1463.6065327869
 34
0.0
100
AcDbRotatedDimension
1001
ACAD
1000
DSTYLE
1002
{
1070
   270
1070
     2
1070
     6
1000
EX_NORM
1070
     7
1000
EX_NORM
1070
    41
1040
42.0
1070
    42
1040
21.0
1070
    44
1040
14.0
1070
    73
1070
     0
1070
    74
1070
     0
1070
    75
1070
     0
1070
    76
1070
     0
1070
    77
1070
     1
1070
    78
1070
     8
1070
   140
1040
48.48065526307409
1070
   147
1040
0.0
1070
   173
1070
     1
1070
   176
1070
     2
1070
   177
1070
     2
1070
   178
1070
     2
1070
   271
1070
     2
1070
   277
1070
     2
1070
   279
1070
     2
1070
   280
1070
     0
1070
   287
1070
     5
1070
   340
1005
557
1002
}
  0
DIMENSION
  5
58B
330
1F
100
AcDbEntity
  8
Ｓ_１_１
  6
CONTINUOUS
 62
     2
100
AcDbDimension
  2
*D19
 10
2480.0
 20
1168.5245803279
 30
0.0
 11
2441.5
 21
1316.0655565574
 31
0.0
 70
   160
  3
ISO-25
100
AcDbAlignedDimension
 13
3144.7495860656
 23
1463.6065327869
 33
0.0
 14
2652.9463565574
 24
1168.5245803279
 34
0.0
 50
90.0
100
AcDbRotatedDimension
1001
ACAD
1000
DSTYLE
1002
{
1070
   270
1070
     2
1070
     6
1000
EX_NORM
1070
     7
1000
EX_NORM
1070
    41
1040
42.0
1070
    42
1040
21.0
1070
    44
1040
14.0
1070
    73
1070
     0
1070
    74
1070
     0
1070
    75
1070
     0
1070
    76
1070
     0
1070
    77
1070
     1
1070
    78
1070
     0
1070
   140
1040
48.48065526307409
1070
   147
1040
0.0
1070
   173
1070
     1
1070
   176
1070
     2
1070
   177
1070
     2
1070
   178
1070
     2
1070
   271
1070
     0
1070
   277
1070
     2
1070
   279
1070
     2
1070
   280
1070
     0
1070
   287
1070
     5
1070
   340
1005
557
1002
}
  0
DIMENSION
  5
598
330
1F
100
AcDbEntity
  8
Ｓ_１_１
  6
CONTINUOUS
 62
     2
100
AcDbDimension
  2
*D20
 10
2480.0
 20
480.0000000000099
 30
0.0
 11
2441.5
 21
824.262290163955
 31
0.0
 70
   160
  3
ISO-25
100
AcDbAlignedDimension
 13
2652.9463565574
 23
1168.5245803279
 33
0.0
 14
2652.9463565574
 24
480.0000000000099
 34
0.0
 50
90.0
100
AcDbRotatedDimension
1001
ACAD
1000
DSTYLE
1002
{
1070
   270
1070
     2
1070
     6
1000
EX_NORM
1070
     7
1000
EX_NORM
1070
    41
1040
42.0
1070
    42
1040
21.0
1070
    44
1040
14.0
1070
    73
1070
     0
1070
    74
1070
     0
1070
    75
1070
     0
1070
    76
1070
     0
1070
    77
1070
     1
1070
    78
1070
     0
1070
   140
1040
48.48065526307409
1070
   147
1040
0.0
1070
   173
1070
     1
1070
   176
1070
     2
1070
   177
1070
     2
1070
   178
1070
     2
1070
   271
1070
     0
1070
   277
1070
     2
1070
   279
1070
     2
1070
   280
1070
     0
1070
   287
1070
     5
1070
   340
1005
557
1002
}
  0
LINE
  5
5A5
330
1F
100
AcDbEntity
  8
Ｓ_１_１
  6
EXLTYPE2
 62
     1
100
AcDbLine
 10
952.35409508194
 20
504.5903754098599
 30
0.0
 11
1927.645749999974
 21
504.5903754098599
 31
0.0
  0
LINE
  5
5A6
330
1F
100
AcDbEntity
  8
Ｓ_１_１
  6
EXLTYPE2
 62
     1
100
AcDbLine
 10
2712.35409508194
 20
2184.59037540983
 30
0.0
 11
3687.645749999974
 21
2184.59037540983
 31
0.0
  0
LINE
  5
5A7
330
1F
100
AcDbEntity
  8
Ｓ_１_１
  6
EXLTYPE2
 62
     1
100
AcDbLine
 10
952.3541614754603
 20
2258.3606385246
 30
0.0
 11
1051.639425409878
 21
2258.3606385246
 31
0.0
  0
LINE
  5
5A8
330
1F
100
AcDbEntity
  8
Ｓ_１_１
  6
EXLTYPE2
 62
     1
100
AcDbLine
 10
1828.360574590204
 20
2258.3606385246
 30
0.0
 11
1927.645816393494
 21
2258.3606385246
 31
0.0
  0
LINE
  5
5A9
330
1F
100
AcDbEntity
  8
Ｓ_１_１
  6
EXLTYPE2
 62
     1
100
AcDbLine
 10
3474.0938778689
 20
1507.8688278689
 30
0.0
 11
3572.7824122951
 21
1507.8688278689
 31
0.0
  0
LINE
  5
5AA
330
1F
100
AcDbEntity
  8
Ｓ_１_１
  6
EXLTYPE2
 62
     1
100
AcDbLine
 10
3523.438145082
 20
1458.5245606558
 30
0.0
 11
3523.438145082
 21
1557.213095082
 31
0.0
  0
LINE
  5
5AB
330
1F
100
AcDbEntity
  8
Ｓ_１_１
  6
EXLTYPE2
 62
     1
100
AcDbLine
 10
2633.1102860656
 20
1212.7868754099
 30
0.0
 11
2731.7988204918
 21
1212.7868754099
 31
0.0
  0
LINE
  5
5AC
330
1F
100
AcDbEntity
  8
Ｓ_１_１
  6
EXLTYPE2
 62
     1
100
AcDbLine
 10
2682.4545532787
 20
1163.4426081968
 30
0.0
 11
2682.4545532787
 21
1262.131142623
 31
0.0
  0
DIMENSION
  5
5AD
330
1F
100
AcDbEntity
  8
Ｓ_１_１
  6
CONTINUOUS
 62
     2
100
AcDbDimension
  2
*D21
 10
1858.0327745901
 20
1736.0
 30
0.0
 11
1440.00002950815
 21
1774.5
 31
0.0
 70
   160
  3
ISO-25
100
AcDbAlignedDimension
 13
1021.9672844262
 23
1385.2764344263
 33
0.0
 14
1858.0327745901
 24
1385.2764344263
 34
0.0
100
AcDbRotatedDimension
1001
ACAD
1000
DSTYLE
1002
{
1070
   270
1070
     2
1070
     6
1000
EX_NORM
1070
     7
1000
EX_NORM
1070
    41
1040
42.0
1070
    42
1040
21.0
1070
    44
1040
14.0
1070
    73
1070
     0
1070
    74
1070
     0
1070
    75
1070
     0
1070
    76
1070
     0
1070
    77
1070
     1
1070
    78
1070
     0
1070
   140
1040
48.48065526307409
1070
   147
1040
0.0
1070
   173
1070
     1
1070
   176
1070
     2
1070
   177
1070
     2
1070
   178
1070
     2
1070
   271
1070
     0
1070
   277
1070
     2
1070
   279
1070
     2
1070
   280
1070
     0
1070
   287
1070
     5
1070
   340
1005
557
1002
}
  0
DIMENSION
  5
5BA
330
1F
100
AcDbEntity
  8
Ｓ_１_１
  6
CONTINUOUS
 62
     2
100
AcDbDimension
  2
*D22
 10
800.0
 20
430.820090164
 30
0.0
 11
761.5000000000001
 21
989.0166737705381
 31
0.0
 70
   160
  3
ISO-25
100
AcDbAlignedDimension
 13
1085.901646721284
 23
1547.213257377076
 33
0.0
 14
977.7049155737399
 24
430.820090164
 34
0.0
 50
90.0
100
AcDbRotatedDimension
1001
ACAD
1000
DSTYLE
1002
{
1070
   270
1070
     2
1070
     6
1000
EX_NORM
1070
     7
1000
EX_NORM
1070
    41
1040
42.0
1070
    42
1040
21.0
1070
    44
1040
14.0
1070
    73
1070
     0
1070
    74
1070
     0
1070
    75
1070
     0
1070
    76
1070
     0
1070
    77
1070
     1
1070
    78
1070
     0
1070
   140
1040
48.48065526307409
1070
   147
1040
0.0
1070
   173
1070
     1
1070
   176
1070
     2
1070
   177
1070
     2
1070
   178
1070
     2
1070
   271
1070
     0
1070
   277
1070
     2
1070
   279
1070
     2
1070
   280
1070
     0
1070
   287
1070
     5
1070
   340
1005
557
1002
}
  0
LINE
  5
5C7
330
1F
100
AcDbEntity
  8
Ｓ_１_１
  6
CONTINUOUS
 62
     2
100
AcDbLine
 10
3552.9463418033
 20
1484.6065327869
 30
0.0
 11
3552.9463418033
 21
1694.0
 31
0.0
  0
DIMENSION
  5
5C8
330
1F
100
AcDbEntity
  8
Ｓ_１_１
  6
CONTINUOUS
 62
     2
100
AcDbDimension
  2
*D23
 10
3827.9463418033
 20
1760.0
 30
0.0
 11
3690.4463418033
 21
1798.5
 31
0.0
 70
   160
  3
ISO-25
100
AcDbAlignedDimension
 13
3552.9463418033
 23
1463.6065327869
 33
0.0
 14
3827.9463418033
 24
1090.0154461678
 34
0.0
100
AcDbRotatedDimension
1001
ACAD
1000
DSTYLE
1002
{
1070
   270
1070
     2
1070
     6
1000
EX_NORM
1070
     7
1000
EX_NORM
1070
    41
1040
42.0
1070
    42
1040
21.0
1070
    44
1040
14.0
1070
    73
1070
     0
1070
    74
1070
     0
1070
    75
1070
     0
1070
    76
1070
     0
1070
    77
1070
     1
1070
    78
1070
     8
1070
   140
1040
48.48065526307409
1070
   147
1040
0.0
1070
   173
1070
     1
1070
   176
1070
     2
1070
   177
1070
     2
1070
   178
1070
     2
1070
   271
1070
     2
1070
   277
1070
     2
1070
   279
1070
     2
1070
   280
1070
     0
1070
   287
1070
     5
1070
   340
1005
557
1002
}
  0
DIMENSION
  5
5D5
330
1F
100
AcDbEntity
  8
Ｓ_１_１
  6
CONTINUOUS
 62
     2
100
AcDbDimension
  2
*D24
 10
3827.946341803263
 20
1840.0
 30
0.0
 11
3240.446349180331
 21
1878.5
 31
0.0
 70
   160
  3
ISO-25
100
AcDbAlignedDimension
 13
2652.9463565574
 23
1168.5245803279
 33
0.0
 14
3827.946341803263
 24
1090.015446167798
 34
0.0
100
AcDbRotatedDimension
1001
ACAD
1000
DSTYLE
1002
{
1070
   270
1070
     2
1070
     6
1000
EX_NORM
1070
     7
1000
EX_NORM
1070
    41
1040
42.0
1070
    42
1040
21.0
1070
    44
1040
14.0
1070
    73
1070
     0
1070
    74
1070
     0
1070
    75
1070
     0
1070
    76
1070
     0
1070
    77
1070
     1
1070
    78
1070
     8
1070
   140
1040
48.48065526307409
1070
   147
1040
0.0
1070
   173
1070
     1
1070
   176
1070
     2
1070
   177
1070
     2
1070
   178
1070
     2
1070
   271
1070
     2
1070
   277
1070
     2
1070
   279
1070
     2
1070
   280
1070
     0
1070
   287
1070
     5
1070
   340
1005
557
1002
}
  0
LINE
  5
5E2
330
1F
100
AcDbEntity
  8
Ｓ_１_１
  6
EXLTYPE2
 62
     1
100
AcDbLine
 10
1154.5901663935
 20
2882.9508491803
 30
0.0
 11
1253.2787008197
 21
2882.9508491803
 31
0.0
  0
LINE
  5
5E3
330
1F
100
AcDbEntity
  8
Ｓ_１_１
  6
EXLTYPE2
 62
     1
100
AcDbLine
 10
1203.9344336066
 20
2833.6065819672
 30
0.0
 11
1203.9344336066
 21
2932.2951163934
 31
0.0
  0
LINE
  5
5E4
330
1F
100
AcDbEntity
  8
Ｓ_１_１
  6
EXLTYPE2
 62
     1
100
AcDbLine
 10
1043.934502459001
 20
3030.491862295
 30
0.0
 11
1108.196797541
 21
3030.491862295
 31
0.0
  0
LINE
  5
5E5
330
1F
100
AcDbEntity
  8
Ｓ_１_１
  6
EXLTYPE2
 62
     1
100
AcDbLine
 10
1076.06565
 20
3079.8361590163
 30
0.0
 11
1076.06565
 21
2981.1475655737
 31
0.0
  0
LINE
  5
5E6
330
1F
100
AcDbEntity
  8
Ｓ_１_１
  6
EXLTYPE2
 62
     1
100
AcDbLine
 10
1803.93435
 20
3079.8361590163
 30
0.0
 11
1803.93435
 21
2981.1475655737
 31
0.0
  0
LINE
  5
5E7
330
1F
100
AcDbEntity
  8
Ｓ_１_１
  6
EXLTYPE2
 62
     1
100
AcDbLine
 10
1771.803202459
 20
3030.491862295
 30
0.0
 11
1836.065497541
 21
3030.491862295
 31
0.0
  0
LINE
  5
5E8
330
1F
100
AcDbEntity
  8
Ｓ_１_１
  6
EXLTYPE2
 62
     1
100
AcDbLine
 10
952.3541540984602
 20
2961.6394204919
 30
0.0
 11
1051.639418032878
 21
2961.6394204919
 31
0.0
  0
LINE
  5
5E9
330
1F
100
AcDbEntity
  8
Ｓ_１_１
  6
EXLTYPE2
 62
     1
100
AcDbLine
 10
1828.360567213204
 20
2961.6394204919
 30
0.0
 11
1927.645809016494
 21
2961.6394204919
 31
0.0
  0
LINE
  5
5EA
330
1F
100
AcDbEntity
  8
Ｓ_１_１
  6
EXLTYPE2
 62
     1
100
AcDbLine
 10
1591.2294713115
 20
2253.278732786828
 30
0.0
 11
1591.2294713115
 21
2342.131181967172
 31
0.0
  0
LINE
  5
5EB
330
1F
100
AcDbEntity
  8
Ｓ_１_１
  6
EXLTYPE2
 62
     1
100
AcDbLine
 10
1546.803246721328
 20
2297.704957377
 30
0.0
 11
1635.655695901673
 21
2297.704957377
 31
0.0
  0
LINE
  5
5EC
330
1F
100
AcDbEntity
  8
Ｓ_１_１
  6
EXLTYPE2
 62
     1
100
AcDbLine
 10
1738.7704549181
 20
2253.278732786828
 30
0.0
 11
1738.7704549181
 21
2342.131181967172
 31
0.0
  0
LINE
  5
5ED
330
1F
100
AcDbEntity
  8
Ｓ_１_１
  6
EXLTYPE2
 62
     1
100
AcDbLine
 10
1694.344230327928
 20
2297.704957377
 30
0.0
 11
1783.196679508273
 21
2297.704957377
 31
0.0
  0
LINE
  5
5EE
330
1F
100
AcDbEntity
  8
Ｓ_１_１
  6
EXLTYPE2
 62
     1
100
AcDbLine
 10
1738.7704549181
 20
2400.819731147528
 30
0.0
 11
1738.7704549181
 21
2489.672180327872
 31
0.0
  0
LINE
  5
5EF
330
1F
100
AcDbEntity
  8
Ｓ_１_１
  6
EXLTYPE2
 62
     1
100
AcDbLine
 10
1694.344230327928
 20
2445.2459557377
 30
0.0
 11
1783.196679508273
 21
2445.2459557377
 31
0.0
  0
LINE
  5
5F0
330
1F
100
AcDbEntity
  8
Ｓ_１_１
  6
EXLTYPE2
 62
     1
100
AcDbLine
 10
1591.2294713115
 20
2400.819731147528
 30
0.0
 11
1591.2294713115
 21
2489.672180327872
 31
0.0
  0
LINE
  5
5F1
330
1F
100
AcDbEntity
  8
Ｓ_１_１
  6
EXLTYPE2
 62
     1
100
AcDbLine
 10
1546.803246721328
 20
2445.2459557377
 30
0.0
 11
1635.655695901673
 21
2445.2459557377
 31
0.0
  0
LINE
  5
5F2
330
1F
100
AcDbEntity
  8
Ｓ_１_１
  6
EXLTYPE2
 62
     1
100
AcDbLine
 10
1288.7705729509
 20
2400.819731147528
 30
0.0
 11
1288.7705729509
 21
2489.672180327872
 31
0.0
  0
LINE
  5
5F3
330
1F
100
AcDbEntity
  8
Ｓ_１_１
  6
EXLTYPE2
 62
     1
100
AcDbLine
 10
1244.344348360728
 20
2445.2459557377
 30
0.0
 11
1333.196797541072
 21
2445.2459557377
 31
0.0
  0
LINE
  5
5F4
330
1F
100
AcDbEntity
  8
Ｓ_１_１
  6
EXLTYPE2
 62
     1
100
AcDbLine
 10
1141.2295893443
 20
2400.819731147528
 30
0.0
 11
1141.2295893443
 21
2489.672180327872
 31
0.0
  0
LINE
  5
5F5
330
1F
100
AcDbEntity
  8
Ｓ_１_１
  6
EXLTYPE2
 62
     1
100
AcDbLine
 10
1096.803364754128
 20
2445.2459557377
 30
0.0
 11
1185.655813934472
 21
2445.2459557377
 31
0.0
  0
LINE
  5
5F6
330
1F
100
AcDbEntity
  8
Ｓ_１_１
  6
EXLTYPE2
 62
     1
100
AcDbLine
 10
1141.2295893443
 20
2253.278732786828
 30
0.0
 11
1141.2295893443
 21
2342.131181967172
 31
0.0
  0
LINE
  5
5F7
330
1F
100
AcDbEntity
  8
Ｓ_１_１
  6
EXLTYPE2
 62
     1
100
AcDbLine
 10
1096.803364754128
 20
2297.704957377
 30
0.0
 11
1185.655813934472
 21
2297.704957377
 31
0.0
  0
LINE
  5
5F8
330
1F
100
AcDbEntity
  8
Ｓ_１_１
  6
EXLTYPE2
 62
     1
100
AcDbLine
 10
1288.7705729509
 20
2253.278732786828
 30
0.0
 11
1288.7705729509
 21
2342.131181967172
 31
0.0
  0
LINE
  5
5F9
330
1F
100
AcDbEntity
  8
Ｓ_１_１
  6
EXLTYPE2
 62
     1
100
AcDbLine
 10
1244.344348360728
 20
2297.704957377
 30
0.0
 11
1333.196797541072
 21
2297.704957377
 31
0.0
  0
LINE
  5
5FA
330
1F
100
AcDbEntity
  8
Ｓ_１_１
  6
EXLTYPE2
 62
     1
100
AcDbLine
 10
1043.934502459001
 20
2189.5081967213
 30
0.0
 11
1108.196797541
 21
2189.5081967213
 31
0.0
  0
LINE
  5
5FB
330
1F
100
AcDbEntity
  8
Ｓ_１_１
  6
EXLTYPE2
 62
     1
100
AcDbLine
 10
1076.06565
 20
2238.8524934426
 30
0.0
 11
1076.06565
 21
2140.1639
 31
0.0
  0
LINE
  5
5FC
330
1F
100
AcDbEntity
  8
Ｓ_１_１
  6
EXLTYPE2
 62
     1
100
AcDbLine
 10
1771.803202459
 20
2189.5081967213
 30
0.0
 11
1836.065497541
 21
2189.5081967213
 31
0.0
  0
LINE
  5
5FD
330
1F
100
AcDbEntity
  8
Ｓ_１_１
  6
EXLTYPE2
 62
     1
100
AcDbLine
 10
1803.93435
 20
2238.8524934426
 30
0.0
 11
1803.93435
 21
2140.1639
 31
0.0
  0
LINE
  5
5FE
330
1F
100
AcDbEntity
  8
Ｓ_１_１
  6
EXLTYPE2
 62
     1
100
AcDbLine
 10
2836.049597541
 20
3236.9945721312
 30
0.0
 11
2836.049597541
 21
3133.606532786884
 31
0.0
  0
LINE
  5
5FF
330
1F
100
AcDbEntity
  8
Ｓ_１_１
  6
EXLTYPE2
 62
     1
100
AcDbLine
 10
3554.0825221312
 20
3236.9945721312
 30
0.0
 11
3554.0825221312
 21
3133.606532786884
 31
0.0
  0
LINE
  5
600
330
1F
100
AcDbEntity
  8
Ｓ_１_１
  6
EXLTYPE2
 62
     1
100
AcDbLine
 10
3436.065647541
 20
3188.032757377056
 30
0.0
 11
3436.065647541
 21
3133.606532786884
 31
0.0
  0
LINE
  5
601
330
1F
100
AcDbEntity
  8
Ｓ_１_１
  6
EXLTYPE2
 62
     1
100
AcDbLine
 10
3375.8971540983
 20
1508.032772131156
 30
0.0
 11
3375.8971540983
 21
1453.606547540984
 31
0.0
  0
LINE
  5
602
330
1F
100
AcDbEntity
  8
Ｓ_１_１
  6
EXLTYPE2
 62
     1
100
AcDbLine
 10
1085.901499180299
 20
1557.2132573771
 30
0.0
 11
1085.901499180299
 21
1453.825218032784
 31
0.0
  0
LINE
  5
603
330
1F
100
AcDbEntity
  8
Ｓ_１_１
  6
EXLTYPE2
 62
     1
100
AcDbLine
 10
1803.9344237705
 20
1557.2132573771
 30
0.0
 11
1803.9344237705
 21
1453.825218032784
 31
0.0
  0
LINE
  5
604
330
1F
100
AcDbEntity
  8
Ｓ_１_１
  6
EXLTYPE2
 62
     1
100
AcDbLine
 10
1203.9344631147
 20
1508.032934426255
 30
0.0
 11
1203.9344631147
 21
1453.606709836084
 31
0.0
  0
LINE
  5
605
330
1F
100
AcDbEntity
  8
Ｓ_１_１
  6
EXLTYPE2
 62
     1
100
AcDbLine
 10
1085.901646721299
 20
1262.131142623
 30
0.0
 11
1085.901646721299
 21
1158.743103278684
 31
0.0
  0
LINE
  5
606
330
1F
100
AcDbEntity
  8
Ｓ_１_１
  6
EXLTYPE2
 62
     1
100
AcDbLine
 10
1794.098058502799
 20
1262.131142623
 30
0.0
 11
1794.098058502799
 21
1158.743103278684
 31
0.0
  0
TEXT
  5
607
330
1F
100
AcDbEntity
  8
Ｓ_１_１
  6
CONTINUOUS
 62
     4
100
AcDbText
 10
1932.257374501
 20
1615.859374463559
 30
0.0
 40
48.48065526307409
  1
圧力計
 41
0.9992308297349456
  7
EXCADTTF1
 72
     5
 11
2121.257374501
 21
1615.859374463559
 31
0.0
100
AcDbText
  0
LEADER
  5
608
330
1F
100
AcDbEntity
  8
Ｓ_１_１
  6
CONTINUOUS
 62
     2
100
AcDbLeader
  3
ISO-25
 76
     3
 10
1750.095158459099
 20
1414.4263756489
 30
0.0
 10
1920.0
 20
1600.0
 30
0.0
 10
2121.257374501
 20
1600.0
 30
0.0
1001
ACAD
1000
DSTYLE
1002
{
1070
     5
1000
EX_NORM
1070
    41
1040
42.0
1070
   341
1005
79
1002
}
  0
TEXT
  5
609
330
1F
100
AcDbEntity
  8
Ｓ_１_１
  6
CONTINUOUS
 62
     4
100
AcDbText
 10
1925.497262801398
 20
1055.859374463558
 30
0.0
 40
48.48065526307409
  1
元圧計
 41
0.9992308297349456
  7
EXCADTTF1
 72
     5
 11
2114.497262801398
 21
1055.859374463558
 31
0.0
100
AcDbText
  0
LEADER
  5
60A
330
1F
100
AcDbEntity
  8
Ｓ_１_１
  6
CONTINUOUS
 62
     2
100
AcDbLeader
  3
ISO-25
 76
     3
 10
1639.479739628298
 20
1251.1460349546
 30
0.0
 10
1919.999999999998
 20
1040.0
 30
0.0
 10
2114.497262801398
 20
1040.0
 30
0.0
1001
ACAD
1000
DSTYLE
1002
{
1070
     5
1000
EX_NORM
1070
    41
1040
42.0
1070
   341
1005
79
1002
}
  0
DIMENSION
  5
60B
330
1F
100
AcDbEntity
  8
Ｓ_１_１
  6
CONTINUOUS
 62
     2
100
AcDbDimension
  2
*D25
 10
1917.6457795078
 20
320.0
 30
0.0
 11
1439.999918852535
 21
358.5
 31
0.0
 70
   160
  3
ISO-25
100
AcDbAlignedDimension
 13
962.3540581972699
 23
490.43309508124
 33
0.0
 14
1917.6457795078
 24
490.43305081949
 34
0.0
100
AcDbRotatedDimension
1001
ACAD
1000
DSTYLE
1002
{
1070
   270
1070
     2
1070
     6
1000
EX_NORM
1070
     7
1000
EX_NORM
1070
    41
1040
42.0
1070
    42
1040
21.0
1070
    44
1040
14.0
1070
    73
1070
     0
1070
    74
1070
     0
1070
    75
1070
     0
1070
    76
1070
     0
1070
    77
1070
     1
1070
    78
1070
     0
1070
   140
1040
48.48065526307409
1070
   147
1040
0.0
1070
   173
1070
     1
1070
   176
1070
     2
1070
   177
1070
     2
1070
   178
1070
     2
1070
   271
1070
     0
1070
   277
1070
     2
1070
   279
1070
     2
1070
   280
1070
     0
1070
   287
1070
     5
1070
   340
1005
557
1002
}
  0
LINE
  5
618
330
1F
100
AcDbEntity
  8
Ｓ_１_１
  6
CONTINUOUS
 62
     3
100
AcDbLine
 10
3088.799999999998
 20
3334.800000000001
 30
0.0
 11
3304.399999999999
 21
3334.800000000001
 31
0.0
  0
TEXT
  5
619
330
1F
100
AcDbEntity
  8
Ｓ_１_１
  6
CONTINUOUS
 62
     4
100
AcDbText
 10
3088.799999999998
 20
3343.659374463559
 30
0.0
 40
48.48065526307409
  1
A矢示図
 41
0.9992308297349457
  7
EXCADTTF1
 72
     5
 11
3309.299999999998
 21
3343.659374463559
 31
0.0
100
AcDbText
  0
LEADER
  5
61A
330
1F
100
AcDbEntity
  8
Ｓ_１_１
  6
CONTINUOUS
 62
     2
100
AcDbLeader
  3
ISO-25
 76
     2
 10
3919.999999999998
 20
1520.0
 30
0.0
 10
4069.999999999999
 20
1520.0
 30
0.0
1001
ACAD
1000
DSTYLE
1002
{
1070
     5
1000
EX_NORM
1070
    41
1040
42.0
1070
   341
1005
79
1002
}
  0
TEXT
  5
61B
330
1F
100
AcDbEntity
  8
Ｓ_１_１
  6
CONTINUOUS
 62
     4
100
AcDbText
 10
4014.399999999998
 20
1543.259374463559
 30
0.0
 40
48.48065526307409
  1
A
 41
0.9992308297349457
  7
EXCADTTF1
 72
     5
 11
4045.899999999998
 21
1543.259374463559
 31
0.0
100
AcDbText
  0
DIMENSION
  5
61C
330
1F
100
AcDbEntity
  8
Ｓ_１_１
  6
CONTINUOUS
 62
     2
100
AcDbDimension
  2
*D26
 10
4080.0
 20
1163.6066262295
 30
0.0
 11
4041.5
 21
1313.6065795082
 31
0.0
 70
   160
  3
ISO-25
100
AcDbAlignedDimension
 13
3552.9463418033
 23
1463.6065327869
 33
0.0
 14
3802.9463418033
 24
1163.6066262295
 34
0.0
 50
90.0
100
AcDbRotatedDimension
1001
ACAD
1000
DSTYLE
1002
{
1070
   270
1070
     2
1070
     6
1000
EX_NORM
1070
     7
1000
EX_NORM
1070
    41
1040
42.0
1070
    42
1040
21.0
1070
    44
1040
14.0
1070
    73
1070
     0
1070
    74
1070
     0
1070
    75
1070
     0
1070
    76
1070
     0
1070
    77
1070
     1
1070
    78
1070
     8
1070
   140
1040
48.48065526307409
1070
   147
1040
0.0
1070
   173
1070
     1
1070
   176
1070
     2
1070
   177
1070
     2
1070
   178
1070
     2
1070
   271
1070
     2
1070
   277
1070
     2
1070
   279
1070
     2
1070
   280
1070
     0
1070
   287
1070
     5
1070
   340
1005
557
1002
}
  0
DIMENSION
  5
629
330
1F
100
AcDbEntity
  8
Ｓ_１_１
  6
CONTINUOUS
 62
     2
100
AcDbDimension
  2
*D27
 10
4080.0
 20
563.60662622953
 30
0.0
 11
4041.5
 21
863.6066262295149
 31
0.0
 70
   160
  3
ISO-25
100
AcDbAlignedDimension
 13
3802.9463418033
 23
1163.6066262295
 33
0.0
 14
3752.946341803301
 24
563.60662622953
 34
0.0
 50
90.0
100
AcDbRotatedDimension
1001
ACAD
1000
DSTYLE
1002
{
1070
   270
1070
     2
1070
     6
1000
EX_NORM
1070
     7
1000
EX_NORM
1070
    41
1040
42.0
1070
    42
1040
21.0
1070
    44
1040
14.0
1070
    73
1070
     0
1070
    74
1070
     0
1070
    75
1070
     0
1070
    76
1070
     0
1070
    77
1070
     1
1070
    78
1070
     8
1070
   140
1040
48.48065526307409
1070
   147
1040
0.0
1070
   173
1070
     1
1070
   176
1070
     2
1070
   177
1070
     2
1070
   178
1070
     2
1070
   271
1070
     2
1070
   277
1070
     2
1070
   279
1070
     2
1070
   280
1070
     0
1070
   287
1070
     5
1070
   340
1005
557
1002
}
  0
DIMENSION
  5
636
330
1F
100
AcDbEntity
  8
Ｓ_１_１
  6
CONTINUOUS
 62
     2
100
AcDbDimension
  2
*D28
 10
4160.0
 20
480.00000000001
 30
0.0
 11
4121.5
 21
971.803266393455
 31
0.0
 70
   160
  3
ISO-25
100
AcDbAlignedDimension
 13
3552.9463418033
 23
1463.6065327869
 33
0.0
 14
4240.0
 24
480.0000000000099
 34
0.0
 50
90.0
100
AcDbRotatedDimension
1001
ACAD
1000
DSTYLE
1002
{
1070
   270
1070
     2
1070
     6
1000
EX_NORM
1070
     7
1000
EX_NORM
1070
    41
1040
42.0
1070
    42
1040
21.0
1070
    44
1040
14.0
1070
    73
1070
     0
1070
    74
1070
     0
1070
    75
1070
     0
1070
    76
1070
     1
1070
    77
1070
     1
1070
    78
1070
     0
1070
   140
1040
48.48065526307409
1070
   147
1040
0.0
1070
   173
1070
     1
1070
   176
1070
     2
1070
   177
1070
     2
1070
   178
1070
     2
1070
   271
1070
     0
1070
   277
1070
     2
1070
   279
1070
     2
1070
   280
1070
     0
1070
   287
1070
     5
1070
   340
1005
557
1002
}
  0
DIMENSION
  5
642
330
1F
100
AcDbEntity
  8
Ｓ_１_１
  6
CONTINUOUS
 62
     2
100
AcDbDimension
  2
*D29
 10
4240.0
 20
430.8196622950999
 30
0.0
 11
4201.5
 21
947.2130975409999
 31
0.0
 70
   160
  3
ISO-25
100
AcDbAlignedDimension
 13
3552.9463418033
 23
1463.6065327869
 33
0.0
 14
3454.5856811475
 24
430.8196622951
 34
0.0
 50
90.0
100
AcDbRotatedDimension
1001
ACAD
1000
DSTYLE
1002
{
1070
   270
1070
     2
1070
     6
1000
EX_NORM
1070
     7
1000
EX_NORM
1070
    41
1040
42.0
1070
    42
1040
21.0
1070
    44
1040
14.0
1070
    73
1070
     0
1070
    74
1070
     0
1070
    75
1070
     0
1070
    76
1070
     0
1070
    77
1070
     1
1070
    78
1070
     0
1070
   140
1040
48.48065526307409
1070
   147
1040
0.0
1070
   173
1070
     1
1070
   176
1070
     2
1070
   177
1070
     2
1070
   178
1070
     2
1070
   271
1070
     0
1070
   277
1070
     2
1070
   279
1070
     2
1070
   280
1070
     0
1070
   287
1070
     5
1070
   340
1005
557
1002
}
  0
DIMENSION
  5
64F
330
1F
100
AcDbEntity
  8
Ｓ_１_１
  6
CONTINUOUS
 62
     2
100
AcDbDimension
  2
*D30
 10
4160.0
 20
430.8196622951
 30
0.0
 11
4121.5
 21
357.319662295099
 31
0.0
 70
   160
  3
ISO-25
100
AcDbAlignedDimension
 13
3552.9463418033
 23
480.0000000000099
 33
0.0
 14
3454.5856811475
 24
430.8196622951
 34
0.0
 50
90.0
100
AcDbRotatedDimension
1001
ACAD
1000
DSTYLE
1002
{
1070
   270
1070
     2
1070
     6
1000
EX_NORM
1070
     7
1000
EX_NORM
1070
    41
1040
42.0
1070
    42
1040
21.0
1070
    44
1040
14.0
1070
    73
1070
     0
1070
    74
1070
     0
1070
    75
1070
     0
1070
    76
1070
     0
1070
    77
1070
     1
1070
    78
1070
     0
1070
   140
1040
48.48065526307409
1070
   147
1040
0.0
1070
   173
1070
     1
1070
   176
1070
     2
1070
   177
1070
     2
1070
   178
1070
     2
1070
   271
1070
     0
1070
   277
1070
     2
1070
   279
1070
     2
1070
   280
1070
     2
1070
   287
1070
     5
1070
   340
1005
557
1002
}
  0
LEADER
  5
65E
330
1F
100
AcDbEntity
  8
Ｓ_１_１
  6
CONTINUOUS
 62
     2
100
AcDbLeader
  3
ISO-25
 76
     3
 10
3455.0
 20
2743.606552459
 30
0.0
 10
3680.0
 20
2960.0
 30
0.0
 10
4081.0
 20
2960.0
 30
0.0
1001
ACAD
1000
DSTYLE
1002
{
1070
     5
1000
EX_NORM
1070
    41
1040
42.0
1070
   341
1005
79
1002
}
  0
TEXT
  5
65F
330
1F
100
AcDbEntity
  8
Ｓ_１_１
  6
CONTINUOUS
 62
     4
100
AcDbText
 10
3703.0
 20
3038.859370648861
 30
0.0
 40
48.48065526307409
  1
防塵・防水型
 41
0.9992308297349456
  7
EXCADTTF1
 72
     5
 11
4081.0
 21
3038.859370648861
 31
0.0
100
AcDbText
  0
TEXT
  5
660
330
1F
100
AcDbEntity
  8
Ｓ_１_１
  6
CONTINUOUS
 62
     4
100
AcDbText
 10
3703.0
 20
2975.859374463558
 30
0.0
 40
48.48065526307409
  1
インバーター
 41
0.9992308297349456
  7
EXCADTTF1
 72
     5
 11
4081.0
 21
2975.859374463558
 31
0.0
100
AcDbText
  0
ENDSEC
  0
SECTION
  2
OBJECTS
  0
DICTIONARY
  5
C
330
0
100
AcDbDictionary
  3
ACAD_GROUP
350
D
  3
ACAD_LAYOUT
350
1A
  3
ACAD_MATERIAL
350
43
  3
ACAD_MLEADERSTYLE
350
6B
  3
ACAD_MLINESTYLE
350
17
  3
ACAD_PLOTSETTINGS
350
19
  3
ACAD_SCALELIST
350
47
  3
ACAD_VISUALSTYLE
350
2A
  3
ACDBHEADERROUNDTRIPXREC
350
661
  3
ACDBVARIABLEDICTIONARY
350
682
  0
DICTIONARY
  5
68D
330
8
100
AcDbDictionary
280
     1
  3
ACAD_XREC_ROUNDTRIP
360
68E
  0
DICTIONARY
  5
D
102
{ACAD_REACTORS
330
C
102
}
330
C
100
AcDbDictionary
  0
DICTIONARY
  5
1A
102
{ACAD_REACTORS
330
C
102
}
330
C
100
AcDbDictionary
  0
DICTIONARY
  5
43
102
{ACAD_REACTORS
330
C
102
}
330
C
100
AcDbDictionary
  3
BYBLOCK
350
45
  3
BYLAYER
350
44
  3
GLOBAL
350
46
  0
DICTIONARY
  5
6B
102
{ACAD_REACTORS
330
C
102
}
330
C
100
AcDbDictionary
  3
STANDARD
350
6C
  0
DICTIONARY
  5
17
102
{ACAD_REACTORS
330
C
102
}
330
C
100
AcDbDictionary
  3
STANDARD
350
18
  0
DICTIONARY
  5
19
102
{ACAD_REACTORS
330
C
102
}
330
C
100
AcDbDictionary
  0
DICTIONARY
  5
47
102
{ACAD_REACTORS
330
C
102
}
330
C
100
AcDbDictionary
  3
A0
350
48
  3
A1
350
49
  3
A2
350
4A
  3
A3
350
4B
  3
A4
350
4C
  3
A5
350
4D
  3
A6
350
4E
  3
A7
350
4F
  3
A8
350
50
  3
A9
350
51
  3
B0
350
52
  3
B1
350
53
  3
B2
350
54
  3
B3
350
55
  3
B4
350
56
  3
B5
350
57
  3
B6
350
58
  3
B7
350
59
  3
B8
350
5A
  3
B9
350
5B
  3
C0
350
5C
  3
C1
350
5D
  3
C2
350
5E
  3
C3
350
5F
  3
C4
350
60
  3
C5
350
61
  3
C6
350
62
  3
C7
350
63
  3
C8
350
64
  3
C9
350
65
  3
D0
350
66
  3
D1
350
67
  3
D2
350
68
  0
DICTIONARY
  5
2A
102
{ACAD_REACTORS
330
C
102
}
330
C
100
AcDbDictionary
  3
2DWIREFRAME
350
2F
  3
BASIC
350
32
  3
BRIGHTEN
350
36
  3
COLORCHANGE
350
3A
  3
CONCEPTUAL
350
34
  3
DIM
350
35
  3
EDGECOLOROFF
350
3D
  3
FACEPATTERN
350
39
  3
FLAT
350
2B
  3
FLATWITHEDGES
350
2C
  3
GOURAUD
350
2D
  3
GOURAUDWITHEDGES
350
2E
  3
HIDDEN
350
31
  3
JITTEROFF
350
3B
  3
LINEPATTERN
350
38
  3
OVERHANGOFF
350
3C
  3
REALISTIC
350
33
  3
SHADED
350
42
  3
SHADED_WITH_EDGES
350
41
  3
SHADES_OF_GRAY
350
3E
  3
SKETCHY
350
3F
  3
THICKEN
350
37
  3
WIREFRAME
350
30
  3
X-RAY
350
40
  0
DICTIONARY
  5
661
102
{ACAD_REACTORS
330
C
102
}
330
C
100
AcDbDictionary
  3
CEPSNID
350
66B
  3
CEPSNTYPE
350
66A
  3
DIMSTYLEDATA
350
681
  3
FINGERPRINTGUID
350
66C
  3
HYPERLINKBASE
350
664
  3
INSUNITS
350
669
  3
LAYOUTDICT
350
666
  3
LWETCUNION
350
668
  3
PLOTSETDICT
350
667
  3
PSVPSCALE
350
66E
  3
PUCSBASE
350
671
  3
PUCSORGBACK
350
677
  3
PUCSORGBOTTOM
350
673
  3
PUCSORGFRONT
350
676
  3
PUCSORGLEFT
350
674
  3
PUCSORGRIGHT
350
675
  3
PUCSORGTOP
350
672
  3
PUCSORTHOREF
350
66F
  3
PUCSORTHOVIEW
350
670
  3
STYLESHEET
350
665
  3
TSTACKALIGN
350
662
  3
TSTACKSIZE
350
663
  3
UCSBASE
350
67A
  3
UCSORGBACK
350
680
  3
UCSORGBOTTOM
350
67C
  3
UCSORGFRONT
350
67F
  3
UCSORGLEFT
350
67D
  3
UCSORGRIGHT
350
67E
  3
UCSORGTOP
350
67B
  3
UCSORTHOREF
350
678
  3
UCSORTHOVIEW
350
679
  3
VERSIONGUID
350
66D
  0
DICTIONARY
  5
682
102
{ACAD_REACTORS
330
C
102
}
330
C
100
AcDbDictionary
  3
CANNOSCALE
350
68F
  3
CENTEREXE
350
689
  3
CENTERLTYPEFILE
350
68A
  3
CMLEADERSTYLE
350
684
  3
CTABLESTYLE
350
683
  3
DIMASSOC
350
68B
  3
HIDETEXT
350
68C
  3
MSLTSCALE
350
690
  3
PSOLHEIGHT
350
686
  3
PSOLWIDTH
350
685
  0
XRECORD
  5
68E
102
{ACAD_REACTORS
330
68D
102
}
330
68D
100
AcDbXrecord
102
VTR_0.000_0.000_1.000_1.000_VISUALSTYLE
340
2F
102
VTR_0.000_0.000_1.000_1.000_GRIDDISPLAY
 70
     3
102
VTR_0.000_0.000_1.000_1.000_GRIDMAJOR
 70
     5
102
VTR_0.000_0.000_1.000_1.000_DEFAULTLIGHTING
280
     1
102
VTR_0.000_0.000_1.000_1.000_DEFAULTLIGHTINGTYPE
 70
     1
102
VTR_0.000_0.000_1.000_1.000_BRIGHTNESS
141
0.0
102
VTR_0.000_0.000_1.000_1.000_CONTRAST
142
0.0
  0
MATERIAL
  5
45
102
{ACAD_REACTORS
330
43
102
}
102
{ACAD_XDICTIONARY
360
693
102
}
330
43
100
AcDbMaterial
  1
BYBLOCK
  0
MATERIAL
  5
44
102
{ACAD_REACTORS
330
43
102
}
102
{ACAD_XDICTIONARY
360
691
102
}
330
43
100
AcDbMaterial
  1
BYLAYER
  0
MATERIAL
  5
46
102
{ACAD_REACTORS
330
43
102
}
102
{ACAD_XDICTIONARY
360
695
102
}
330
43
100
AcDbMaterial
  1
GLOBAL
  0
ACAD_PROXY_OBJECT
  5
6C
102
{ACAD_REACTORS
330
6B
102
}
330
6B
100
AcDbProxyObject
 90
      499
 91
      505
 93
      610
310
40901902A4063FBFFFFFE0000000000000020400000000000020404214DD185B99185C990000000000000104090141901A00000000000004100000000000000041025764000000000000039000
340
14
340
0
340
11
340
0
 94
        0
1001
ACAD_MLEADERVER
1070
     2
  0
MLINESTYLE
  5
18
102
{ACAD_REACTORS
330
17
102
}
330
17
100
AcDbMlineStyle
  2
Standard
 70
     0
  3

 62
   256
 51
90.0
 52
90.0
 71
     2
 49
0.5
 62
   256
  6
BYLAYER
 49
-0.5
 62
   256
  6
BYLAYER
  0
ACAD_PROXY_OBJECT
  5
48
102
{ACAD_REACTORS
330
47
102
}
330
47
100
AcDbProxyObject
 90
      499
 91
      503
 93
       41
310
903313A31580
  0
ACAD_PROXY_OBJECT
  5
49
102
{ACAD_REACTORS
330
47
102
}
330
47
100
AcDbProxyObject
 90
      499
 91
      503
 93
      105
310
903313A324000000000000004000
  0
ACAD_PROXY_OBJECT
  5
4A
102
{ACAD_REACTORS
330
47
102
}
330
47
100
AcDbProxyObject
 90
      499
 91
      503
 93
      105
310
903313A344000000000000104000
  0
ACAD_PROXY_OBJECT
  5
4B
102
{ACAD_REACTORS
330
47
102
}
330
47
100
AcDbProxyObject
 90
      499
 91
      503
 93
      105
310
903313A354000000000000144000
  0
ACAD_PROXY_OBJECT
  5
4C
102
{ACAD_REACTORS
330
47
102
}
330
47
100
AcDbProxyObject
 90
      499
 91
      503
 93
      105
310
903313A384000000000000204000
  0
ACAD_PROXY_OBJECT
  5
4D
102
{ACAD_REACTORS
330
47
102
}
330
47
100
AcDbProxyObject
 90
      499
 91
      503
 93
      113
310
904313A31304000000000000244000
  0
ACAD_PROXY_OBJECT
  5
4E
102
{ACAD_REACTORS
330
47
102
}
330
47
100
AcDbProxyObject
 90
      499
 91
      503
 93
      113
310
904313A31364000000000000304000
  0
ACAD_PROXY_OBJECT
  5
4F
102
{ACAD_REACTORS
330
47
102
}
330
47
100
AcDbProxyObject
 90
      499
 91
      503
 93
      113
310
904313A32304000000000000344000
  0
ACAD_PROXY_OBJECT
  5
50
102
{ACAD_REACTORS
330
47
102
}
330
47
100
AcDbProxyObject
 90
      499
 91
      503
 93
      113
310
904313A333040000000000003E4000
  0
ACAD_PROXY_OBJECT
  5
51
102
{ACAD_REACTORS
330
47
102
}
330
47
100
AcDbProxyObject
 90
      499
 91
      503
 93
      113
310
904313A34304000000000000444000
  0
ACAD_PROXY_OBJECT
  5
52
102
{ACAD_REACTORS
330
47
102
}
330
47
100
AcDbProxyObject
 90
      499
 91
      503
 93
      113
310
904313A35304000000000000494000
  0
ACAD_PROXY_OBJECT
  5
53
102
{ACAD_REACTORS
330
47
102
}
330
47
100
AcDbProxyObject
 90
      499
 91
      503
 93
      121
310
905313A3130304000000000000594000
  0
ACAD_PROXY_OBJECT
  5
54
102
{ACAD_REACTORS
330
47
102
}
330
47
100
AcDbProxyObject
 90
      499
 91
      503
 93
      105
310
903323A310000000000000010100
  0
ACAD_PROXY_OBJECT
  5
55
102
{ACAD_REACTORS
330
47
102
}
330
47
100
AcDbProxyObject
 90
      499
 91
      503
 93
      105
310
903343A310000000000000410100
  0
ACAD_PROXY_OBJECT
  5
56
102
{ACAD_REACTORS
330
47
102
}
330
47
100
AcDbProxyObject
 90
      499
 91
      503
 93
      105
310
903383A310000000000000810100
  0
ACAD_PROXY_OBJECT
  5
57
102
{ACAD_REACTORS
330
47
102
}
330
47
100
AcDbProxyObject
 90
      499
 91
      503
 93
      113
310
90431303A310000000000000910100
  0
ACAD_PROXY_OBJECT
  5
58
102
{ACAD_REACTORS
330
47
102
}
330
47
100
AcDbProxyObject
 90
      499
 91
      503
 93
      121
310
9053130303A310000000000001650100
  0
ACAD_PROXY_OBJECT
  5
59
102
{ACAD_REACTORS
330
47
102
}
330
47
100
AcDbProxyObject
 90
      499
 91
      503
 93
      257
310
90E312F31323822203D2031272D3022000000000000200FC000000000000284000
  0
ACAD_PROXY_OBJECT
  5
5A
102
{ACAD_REACTORS
330
47
102
}
330
47
100
AcDbProxyObject
 90
      499
 91
      503
 93
      249
310
90D312F363422203D2031272D3022000000000000240FC000000000000284000
  0
ACAD_PROXY_OBJECT
  5
5B
102
{ACAD_REACTORS
330
47
102
}
330
47
100
AcDbProxyObject
 90
      499
 91
      503
 93
      249
310
90D312F333222203D2031272D3022000000000000280FC000000000000284000
  0
ACAD_PROXY_OBJECT
  5
5C
102
{ACAD_REACTORS
330
47
102
}
330
47
100
AcDbProxyObject
 90
      499
 91
      503
 93
      249
310
90D312F313622203D2031272D30220000000000002C0FC000000000000284000
  0
ACAD_PROXY_OBJECT
  5
5D
102
{ACAD_REACTORS
330
47
102
}
330
47
100
AcDbProxyObject
 90
      499
 91
      503
 93
      249
310
90D332F333222203D2031272D30220000000000002E0FC000000000000284000
  0
ACAD_PROXY_OBJECT
  5
5E
102
{ACAD_REACTORS
330
47
102
}
330
47
100
AcDbProxyObject
 90
      499
 91
      503
 93
      241
310
90C312F3822203D2031272D3022000000000000300FC000000000000284000
  0
ACAD_PROXY_OBJECT
  5
5F
102
{ACAD_REACTORS
330
47
102
}
330
47
100
AcDbProxyObject
 90
      499
 91
      503
 93
      249
310
90D332F313622203D2031272D3022000000000000320FC000000000000284000
  0
ACAD_PROXY_OBJECT
  5
60
102
{ACAD_REACTORS
330
47
102
}
330
47
100
AcDbProxyObject
 90
      499
 91
      503
 93
      241
310
90C312F3422203D2031272D3022000000000000340FC000000000000284000
  0
ACAD_PROXY_OBJECT
  5
61
102
{ACAD_REACTORS
330
47
102
}
330
47
100
AcDbProxyObject
 90
      499
 91
      503
 93
      241
310
90C332F3822203D2031272D3022000000000000360FC000000000000284000
  0
ACAD_PROXY_OBJECT
  5
62
102
{ACAD_REACTORS
330
47
102
}
330
47
100
AcDbProxyObject
 90
      499
 91
      503
 93
      241
310
90C312F3222203D2031272D3022000000000000380FC000000000000284000
  0
ACAD_PROXY_OBJECT
  5
63
102
{ACAD_REACTORS
330
47
102
}
330
47
100
AcDbProxyObject
 90
      499
 91
      503
 93
      241
310
90C332F3422203D2031272D30220000000000003A0FC000000000000284000
  0
ACAD_PROXY_OBJECT
  5
64
102
{ACAD_REACTORS
330
47
102
}
330
47
100
AcDbProxyObject
 90
      499
 91
      503
 93
      161
310
90A3122203D2031272D30224000000000000284000
  0
ACAD_PROXY_OBJECT
  5
65
102
{ACAD_REACTORS
330
47
102
}
330
47
100
AcDbProxyObject
 90
      499
 91
      503
 93
      257
310
90E312D312F3222203D2031272D30220000000000003E0FC000000000000284000
  0
ACAD_PROXY_OBJECT
  5
66
102
{ACAD_REACTORS
330
47
102
}
330
47
100
AcDbProxyObject
 90
      499
 91
      503
 93
      225
310
90A3322203D2031272D302200000000000002100000000000000284000
  0
ACAD_PROXY_OBJECT
  5
67
102
{ACAD_REACTORS
330
47
102
}
330
47
100
AcDbProxyObject
 90
      499
 91
      503
 93
      225
310
90A3622203D2031272D302200000000000006100000000000000284000
  0
ACAD_PROXY_OBJECT
  5
68
102
{ACAD_REACTORS
330
47
102
}
330
47
100
AcDbProxyObject
 90
      499
 91
      503
 93
      249
310
90D31272D3022203D2031272D30220000000000000A100000000000000284000
  0
ACAD_PROXY_OBJECT
  5
2F
102
{ACAD_REACTORS
330
2A
102
}
330
2A
100
AcDbProxyObject
 90
      499
 91
      501
 93
      436
310
42CC9915DA5C99599C985B595049028333333333333E33F0000000000000F90107901411070040501600405405064090741402480A0340
1001
ACAD
1000
AcDbSavedByObjectVersion
1070
     0
  0
ACAD_PROXY_OBJECT
  5
32
102
{ACAD_REACTORS
330
2A
102
}
330
2A
100
AcDbProxyObject
 90
      499
 91
      501
 93
      388
310
4150985CDA58D07406404333333333333E33F0000000000000F90107A41107004050150841D405064090741402480A0350
1001
ACAD
1000
AcDbSavedByObjectVersion
1070
     0
  0
ACAD_PROXY_OBJECT
  5
36
102
{ACAD_REACTORS
330
2A
102
}
330
2A
100
AcDbProxyObject
 90
      499
 91
      501
 93
      428
310
42109C9A59DA1D195B90C409028333333333333E33F0000000000000F9010790141107004050150841D405064090741402480A029950
1001
ACAD
1000
AcDbSavedByObjectVersion
1070
     0
  0
ACAD_PROXY_OBJECT
  5
3A
102
{ACAD_REACTORS
330
2A
102
}
330
2A
100
AcDbProxyObject
 90
      499
 91
      501
 93
      452
310
42D0DBDB1BDC90DA185B99D95104090240C333333333333E33F0000000000000F90108901411070040501508421405064090741402480A0350
1001
ACAD
1000
AcDbSavedByObjectVersion
1070
     0
  0
ACAD_PROXY_OBJECT
  5
34
102
{ACAD_REACTORS
330
2A
102
}
330
2A
100
AcDbProxyObject
 90
      499
 91
      501
 93
      500
310
4290DBDB98D95C1D1D585B10940D028333333333333E33F0000000000000F90107902409070040501000000000018199010841D405064090740C02480A0340
1001
ACAD
1000
AcDbSavedByObjectVersion
1070
     0
  0
ACAD_PROXY_OBJECT
  5
35
102
{ACAD_REACTORS
330
2A
102
}
330
2A
100
AcDbProxyObject
 90
      499
 91
      501
 93
      412
310
40D11A5B50B409028333333333333E33F0000000000000F9010790141107004050150841D405064090741402480A02677FFFFFD0
1001
ACAD
1000
AcDbSavedByObjectVersion
1070
     0
  0
ACAD_PROXY_OBJECT
  5
3D
102
{ACAD_REACTORS
330
2A
102
}
330
2A
100
AcDbProxyObject
 90
      499
 91
      501
 93
      452
310
43115919D950DBDB1BDC93D999916409028333333333333E33F0000000000000F9010790141107004050150841D405064090741402480A0350
1001
ACAD
1000
AcDbSavedByObjectVersion
1070
     0
  0
ACAD_PROXY_OBJECT
  5
39
102
{ACAD_REACTORS
330
2A
102
}
330
2A
100
AcDbProxyObject
 90
      499
 91
      501
 93
      444
310
42D19858D95C185D1D195C9B90F409028333333333333E33F0000000000000F9010790141107004050150841D405064090741402480A0350
1001
ACAD
1000
AcDbSavedByObjectVersion
1070
     0
  0
ACAD_PROXY_OBJECT
  5
2B
102
{ACAD_REACTORS
330
2A
102
}
330
2A
100
AcDbProxyObject
 90
      499
 91
      501
 93
      380
310
41119B185D240901404333333333333E33F0000000000000F9010740A907004050150841D405064090741402480A1B50
1001
ACAD
1000
AcDbSavedByObjectVersion
1070
     0
  0
ACAD_PROXY_OBJECT
  5
2C
102
{ACAD_REACTORS
330
2A
102
}
330
2A
100
AcDbProxyObject
 90
      499
 91
      501
 93
      468
310
43519B185D15DA5D1A115919D95CD0140901404333333333333E33F0000000000000F90107409019070040501600405405064090741402480A1B50
1001
ACAD
1000
AcDbSavedByObjectVersion
1070
     0
  0
ACAD_PROXY_OBJECT
  5
2D
102
{ACAD_REACTORS
330
2A
102
}
330
2A
100
AcDbProxyObject
 90
      499
 91
      501
 93
      404
310
41D1DBDD5C985D5910240902404333333333333E33F0000000000000F9010740A9070040501641D405064090741402480A1B50
1001
ACAD
1000
AcDbSavedByObjectVersion
1070
     0
  0
ACAD_PROXY_OBJECT
  5
2E
102
{ACAD_REACTORS
330
2A
102
}
330
2A
100
AcDbProxyObject
 90
      499
 91
      501
 93
      492
310
4411DBDD5C985D5915DA5D1A115919D95CD0340902404333333333333E33F0000000000000F90107409019070040501600405405064090741402480A1B50
1001
ACAD
1000
AcDbSavedByObjectVersion
1070
     0
  0
ACAD_PROXY_OBJECT
  5
31
102
{ACAD_REACTORS
330
2A
102
}
330
2A
100
AcDbProxyObject
 90
      499
 91
      501
 93
      476
310
41921A5919195B90640502408333333333333E33F0000000000000F901079024090700405020000000000001110200405405064090740C02480A0340
1001
ACAD
1000
AcDbSavedByObjectVersion
1070
     0
  0
ACAD_PROXY_OBJECT
  5
3B
102
{ACAD_REACTORS
330
2A
102
}
330
2A
100
AcDbProxyObject
 90
      499
 91
      501
 93
      428
310
42529A5D1D195C93D999914409028333333333333E33F0000000000000F9010790141107004050150A41D405064090741402480A0350
1001
ACAD
1000
AcDbSavedByObjectVersion
1070
     0
  0
ACAD_PROXY_OBJECT
  5
38
102
{ACAD_REACTORS
330
2A
102
}
330
2A
100
AcDbProxyObject
 90
      499
 91
      501
 93
      444
310
42D31A5B995C185D1D195C9B90E409028333333333333E33F0000000000000F9010790141107004050750841D405064090741402483A0350
1001
ACAD
1000
AcDbSavedByObjectVersion
1070
     0
  0
ACAD_PROXY_OBJECT
  5
3C
102
{ACAD_REACTORS
330
2A
102
}
330
2A
100
AcDbProxyObject
 90
      499
 91
      501
 93
      444
310
42D3DD995C9A185B99D3D999915409028333333333333E33F0000000000000F9010790141107004050150941D405064090741402480A0350
1001
ACAD
1000
AcDbSavedByObjectVersion
1070
     0
  0
ACAD_PROXY_OBJECT
  5
33
102
{ACAD_REACTORS
330
2A
102
}
330
2A
100
AcDbProxyObject
 90
      499
 91
      501
 93
      428
310
425499585B1A5CDD1A58D08409038333333333333E33F0000000000000F9010740A907004050150800405405064090740C02480A1B40
1001
ACAD
1000
AcDbSavedByObjectVersion
1070
     0
  0
ACAD_PROXY_OBJECT
  5
42
102
{ACAD_REACTORS
330
2A
102
}
330
2A
100
AcDbProxyObject
 90
      499
 91
      501
 93
      420
310
4194DA1859195911B40902404333333333333E33F0000000000000F9010740A41107004050150800405405064090840C02480A0B40
1001
ACAD
1000
AcDbSavedByObjectVersion
1070
     0
  0
ACAD_PROXY_OBJECT
  5
41
102
{ACAD_REACTORS
330
2A
102
}
330
2A
100
AcDbProxyObject
 90
      499
 91
      501
 93
      516
310
4454DA18591959081DDA5D1A08195919D95CD1A40902404333333333333E33F0000000000000F901074090142907004050250800405405064090740C02480A0B40
1001
ACAD
1000
AcDbSavedByObjectVersion
1070
     0
  0
ACAD_PROXY_OBJECT
  5
3E
102
{ACAD_REACTORS
330
2A
102
}
330
2A
100
AcDbProxyObject
 90
      499
 91
      501
 93
      532
310
4394DA1859195CC81BD98811DC985E5174090240C333333333333E33F0000000000000F901079024090741D01000000000000111010841D405064090740C02480A0340
1001
ACAD
1000
AcDbSavedByObjectVersion
1070
     0
  0
ACAD_PROXY_OBJECT
  5
3F
102
{ACAD_REACTORS
330
2A
102
}
330
2A
100
AcDbProxyObject
 90
      499
 91
      501
 93
      476
310
41D4DAD95D18DA1E51840502408333333333333E33F0000000000000F901079024090741D01000000000000111010B41D405064090741802480A0340
1001
ACAD
1000
AcDbSavedByObjectVersion
1070
     0
  0
ACAD_PROXY_OBJECT
  5
37
102
{ACAD_REACTORS
330
2A
102
}
330
2A
100
AcDbProxyObject
 90
      499
 91
      501
 93
      412
310
41D51A1A58DAD95B90D409028333333333333E33F0000000000000F9010790141107004050150C41D405064090741402480A0350
1001
ACAD
1000
AcDbSavedByObjectVersion
1070
     0
  0
ACAD_PROXY_OBJECT
  5
30
102
{ACAD_REACTORS
330
2A
102
}
330
2A
100
AcDbProxyObject
 90
      499
 91
      501
 93
      420
310
4255DA5C99599C985B595059028333333333333E33F0000000000000F90107901411070040501600405405064090740C02480A0340
1001
ACAD
1000
AcDbSavedByObjectVersion
1070
     0
  0
ACAD_PROXY_OBJECT
  5
40
102
{ACAD_REACTORS
330
2A
102
}
330
2A
100
AcDbProxyObject
 90
      499
 91
      501
 93
      404
310
41560B54985E51940902404000000000000E03F0000000000000F9010740501907004050150841D405064090740C02480A1B40
1001
ACAD
1000
AcDbSavedByObjectVersion
1070
     0
  0
XRECORD
  5
66B
102
{ACAD_REACTORS
330
661
102
}
330
661
100
AcDbXrecord
340
0
  0
XRECORD
  5
66A
102
{ACAD_REACTORS
330
661
102
}
330
661
100
AcDbXrecord
 90
        0
  0
XRECORD
  5
681
102
{ACAD_REACTORS
330
661
102
}
330
661
100
AcDbXrecord
1000
DSTYLE
1002
{
1070
   340
340
11
1002
}
  0
XRECORD
  5
66C
102
{ACAD_REACTORS
330
661
102
}
330
661
100
AcDbXrecord
  1
{5afda623-6445-4868-9558-2759cc7bafe7}
  0
XRECORD
  5
664
102
{ACAD_REACTORS
330
661
102
}
330
661
100
AcDbXrecord
  1

  0
XRECORD
  5
669
102
{ACAD_REACTORS
330
661
102
}
330
661
100
AcDbXrecord
 90
        4
  0
XRECORD
  5
666
102
{ACAD_REACTORS
330
661
102
}
330
661
100
AcDbXrecord
340
1A
  0
XRECORD
  5
668
102
{ACAD_REACTORS
330
661
102
}
330
661
100
AcDbXrecord
 90
    10781
  0
XRECORD
  5
667
102
{ACAD_REACTORS
330
661
102
}
330
661
100
AcDbXrecord
340
19
  0
XRECORD
  5
66E
102
{ACAD_REACTORS
330
661
102
}
330
661
100
AcDbXrecord
 40
0.0
  0
XRECORD
  5
671
102
{ACAD_REACTORS
330
661
102
}
330
661
100
AcDbXrecord
340
0
  0
XRECORD
  5
677
102
{ACAD_REACTORS
330
661
102
}
330
661
100
AcDbXrecord
 10
0.0
 20
0.0
 30
0.0
  0
XRECORD
  5
673
102
{ACAD_REACTORS
330
661
102
}
330
661
100
AcDbXrecord
 10
0.0
 20
0.0
 30
0.0
  0
XRECORD
  5
676
102
{ACAD_REACTORS
330
661
102
}
330
661
100
AcDbXrecord
 10
0.0
 20
0.0
 30
0.0
  0
XRECORD
  5
674
102
{ACAD_REACTORS
330
661
102
}
330
661
100
AcDbXrecord
 10
0.0
 20
0.0
 30
0.0
  0
XRECORD
  5
675
102
{ACAD_REACTORS
330
661
102
}
330
661
100
AcDbXrecord
 10
0.0
 20
0.0
 30
0.0
  0
XRECORD
  5
672
102
{ACAD_REACTORS
330
661
102
}
330
661
100
AcDbXrecord
 10
0.0
 20
0.0
 30
0.0
  0
XRECORD
  5
66F
102
{ACAD_REACTORS
330
661
102
}
330
661
100
AcDbXrecord
340
0
  0
XRECORD
  5
670
102
{ACAD_REACTORS
330
661
102
}
330
661
100
AcDbXrecord
 70
     0
  0
XRECORD
  5
665
102
{ACAD_REACTORS
330
661
102
}
330
661
100
AcDbXrecord
  1

  0
XRECORD
  5
662
102
{ACAD_REACTORS
330
661
102
}
330
661
100
AcDbXrecord
 90
        1
  0
XRECORD
  5
663
102
{ACAD_REACTORS
330
661
102
}
330
661
100
AcDbXrecord
 90
       70
  0
XRECORD
  5
67A
102
{ACAD_REACTORS
330
661
102
}
330
661
100
AcDbXrecord
340
0
  0
XRECORD
  5
680
102
{ACAD_REACTORS
330
661
102
}
330
661
100
AcDbXrecord
 10
0.0
 20
0.0
 30
0.0
  0
XRECORD
  5
67C
102
{ACAD_REACTORS
330
661
102
}
330
661
100
AcDbXrecord
 10
0.0
 20
0.0
 30
0.0
  0
XRECORD
  5
67F
102
{ACAD_REACTORS
330
661
102
}
330
661
100
AcDbXrecord
 10
0.0
 20
0.0
 30
0.0
  0
XRECORD
  5
67D
102
{ACAD_REACTORS
330
661
102
}
330
661
100
AcDbXrecord
 10
0.0
 20
0.0
 30
0.0
  0
XRECORD
  5
67E
102
{ACAD_REACTORS
330
661
102
}
330
661
100
AcDbXrecord
 10
0.0
 20
0.0
 30
0.0
  0
XRECORD
  5
67B
102
{ACAD_REACTORS
330
661
102
}
330
661
100
AcDbXrecord
 10
0.0
 20
0.0
 30
0.0
  0
XRECORD
  5
678
102
{ACAD_REACTORS
330
661
102
}
330
661
100
AcDbXrecord
340
0
  0
XRECORD
  5
679
102
{ACAD_REACTORS
330
661
102
}
330
661
100
AcDbXrecord
 70
     0
  0
XRECORD
  5
66D
102
{ACAD_REACTORS
330
661
102
}
330
661
100
AcDbXrecord
  1
{FAEB1C32-E019-11D5-929B-00C0DF256EC4}
  0
DICTIONARYVAR
  5
68F
102
{ACAD_REACTORS
330
682
102
}
330
682
100
DictionaryVariables
280
     0
  1
1:1
  0
DICTIONARYVAR
  5
689
102
{ACAD_REACTORS
330
682
102
}
330
682
100
DictionaryVariables
280
     0
  1
3.500000
  0
DICTIONARYVAR
  5
68A
102
{ACAD_REACTORS
330
682
102
}
330
682
100
DictionaryVariables
280
     0
  1
acadiso.lin
  0
DICTIONARYVAR
  5
684
102
{ACAD_REACTORS
330
682
102
}
330
682
100
DictionaryVariables
280
     0
  1
Standard
  0
DICTIONARYVAR
  5
683
102
{ACAD_REACTORS
330
682
102
}
330
682
100
DictionaryVariables
280
     0
  1
Standard
  0
DICTIONARYVAR
  5
68B
102
{ACAD_REACTORS
330
682
102
}
330
682
100
DictionaryVariables
280
     0
  1
2
  0
DICTIONARYVAR
  5
68C
102
{ACAD_REACTORS
330
682
102
}
330
682
100
DictionaryVariables
280
     0
  1
1
  0
DICTIONARYVAR
  5
690
102
{ACAD_REACTORS
330
682
102
}
330
682
100
DictionaryVariables
280
     0
  1
1
  0
DICTIONARYVAR
  5
686
102
{ACAD_REACTORS
330
682
102
}
330
682
100
DictionaryVariables
280
     0
  1
80.000000
  0
DICTIONARYVAR
  5
685
102
{ACAD_REACTORS
330
682
102
}
330
682
100
DictionaryVariables
280
     0
  1
5.000000
  0
DICTIONARY
  5
693
330
45
100
AcDbDictionary
280
     1
  3
ACAD_XREC_ROUNDTRIP
360
694
  0
DICTIONARY
  5
691
330
44
100
AcDbDictionary
280
     1
  3
ACAD_XREC_ROUNDTRIP
360
692
  0
DICTIONARY
  5
695
330
46
100
AcDbDictionary
280
     1
  3
ACAD_XREC_ROUNDTRIP
360
696
  0
XRECORD
  5
694
102
{ACAD_REACTORS
330
693
102
}
330
693
100
AcDbXrecord
102
MATERIAL
148
0.0
149
0.0
149
0.0
 93
        0
 94
      127
282
     0
 72
     1
 77
     1
171
     1
175
     1
179
     1
273
     0
  0
XRECORD
  5
692
102
{ACAD_REACTORS
330
691
102
}
330
691
100
AcDbXrecord
102
MATERIAL
148
0.0
149
0.0
149
0.0
 93
        0
 94
      127
282
     0
 72
     1
 77
     1
171
     1
175
     1
179
     1
273
     0
  0
XRECORD
  5
696
102
{ACAD_REACTORS
330
695
102
}
330
695
100
AcDbXrecord
102
MATERIAL
148
0.0
149
0.0
149
0.0
 93
        0
 94
      127
282
     0
 72
     1
 77
     1
171
     1
175
     1
179
     1
273
     0
  0
ENDSEC
  0
EOF
